osu file format v14

[General]
AudioFilename: audio.mp3
AudioLeadIn: 0
PreviewTime: 44071
Countdown: 0
SampleSet: Normal
StackLeniency: 0.7
Mode: 3
LetterboxInBreaks: 0
SpecialStyle: 0
WidescreenStoryboard: 0

[Editor]
DistanceSpacing: 0.9
BeatDivisor: 4
GridSize: 16
TimelineZoom: 2.2

[Metadata]
Title:Perfect Lie
TitleUnicode:Perfect Lie
Artist:Primary
ArtistUnicode:Primary
Creator:dkingo
Version:Lie
Source:
Tags:each yuiko ゆいこんぬ DustMoon Etsu
BeatmapID:1213708
BeatmapSetID:572856

[Difficulty]
HPDrainRate:8
CircleSize:4
OverallDifficulty:8
ApproachRate:5
SliderMultiplier:1.4
SliderTickRate:1

[Events]
//Background and Video events
0,0,"27649291_p0.jpg",0,0
//Break Periods
//Storyboard Layer 0 (Background)
//Storyboard Layer 1 (Fail)
//Storyboard Layer 2 (Pass)
//Storyboard Layer 3 (Foreground)
//Storyboard Sound Samples

[TimingPoints]
1405,333.333333333333,4,1,1,50,1,0
44071,-100,4,1,1,50,0,1
65404,-100,4,1,1,50,0,0

[HitObjects]
192,192,571,5,8,0:0:0:0:
320,192,655,1,8,0:0:0:0:
64,192,738,1,8,0:0:0:0:
448,192,738,1,0,0:0:0:0:
192,192,905,1,2,0:0:0:0:
448,192,905,1,0,0:0:0:0:
64,192,1071,1,2,0:0:0:0:
320,192,1071,1,0,0:0:0:0:
192,192,1238,1,2,0:0:0:0:
448,192,1238,1,0,0:0:0:0:
64,192,1405,1,2,0:0:0:0:
320,192,1405,1,4,0:0:0:0:
448,192,1405,1,0,0:0:0:70:SCG_F5s.wav
192,192,1571,1,0,0:0:0:0:
64,192,1738,1,2,0:0:0:0:
320,192,1738,1,0,0:0:0:0:
448,192,1904,1,0,0:0:0:70:SCG_E5s.wav
64,192,2071,1,8,0:0:0:0:
192,192,2071,1,0,0:0:0:0:
448,192,2071,1,0,0:0:0:0:
320,192,2238,1,0,0:0:0:0:
64,192,2404,1,0,0:0:0:70:SCG_C5s.wav
192,192,2571,1,2,0:0:0:0:
448,192,2571,1,0,0:0:0:0:
320,192,2738,1,0,0:0:0:0:
64,192,2904,1,2,0:0:0:0:
192,192,2904,1,0,0:0:0:70:SCG_F5s.wav
320,192,3071,1,2,0:0:0:0:
448,192,3071,1,0,0:0:0:0:
192,192,3238,1,0,0:0:0:0:
64,192,3404,1,8,0:0:0:0:
192,192,3404,1,0,0:0:0:0:
448,192,3404,1,0,0:0:0:70:SCG_E5s.wav
320,192,3571,1,0,0:0:0:0:
64,192,3738,1,0,0:0:0:70:SCG_C5s.wav
192,192,3904,1,0,0:0:0:0:
448,192,3988,1,0,0:0:0:0:
64,192,4071,1,2,0:0:0:0:
320,192,4071,1,0,0:0:0:70:SCG_F5s.wav
192,192,4238,1,0,0:0:0:0:
64,192,4404,1,2,0:0:0:0:
320,192,4404,1,0,0:0:0:0:
448,192,4571,1,0,0:0:0:70:SCG_E5s.wav
64,192,4738,1,8,0:0:0:0:
192,192,4738,1,0,0:0:0:0:
448,192,4738,1,0,0:0:0:0:
320,192,4904,1,0,0:0:0:0:
192,192,5071,1,0,0:0:0:70:SCG_C5s.wav
64,192,5238,1,2,0:0:0:0:
320,192,5238,1,0,0:0:0:0:
192,192,5404,1,0,0:0:0:0:
320,192,5571,1,2,0:0:0:0:
448,192,5571,1,0,0:0:0:70:SCG_F5s.wav
64,192,5738,1,2,0:0:0:0:
192,192,5738,1,0,0:0:0:0:
320,192,5904,1,0,0:0:0:0:
64,192,6071,1,8,0:0:0:0:
320,192,6071,1,0,0:0:0:0:
448,192,6071,1,0,0:0:0:70:SCG_E5s.wav
192,192,6238,1,0,0:0:0:0:
64,192,6404,1,0,0:0:0:70:SCG_C5s.wav
320,192,6571,1,0,0:0:0:0:
64,192,6738,1,2,0:0:0:0:
448,192,6738,1,0,0:0:0:70:SCG_C5s.wav
192,192,6904,1,0,0:0:0:0:
64,192,7071,1,2,0:0:0:0:
448,192,7071,1,0,0:0:0:70:SCG_A#4s.wav
320,192,7238,1,0,0:0:0:70:SCG_A#4s.wav
192,192,7404,1,8,0:0:0:0:
320,192,7404,1,0,0:0:0:0:
448,192,7404,1,0,0:0:0:0:
64,192,7571,1,0,0:0:0:0:
448,192,7738,1,0,0:0:0:70:SCG_C5s.wav
192,192,7904,1,2,0:0:0:0:
320,192,7904,1,0,0:0:0:0:
64,192,8071,1,0,0:0:0:0:
320,192,8238,1,2,0:0:0:0:
448,192,8238,1,0,0:0:0:70:SCG_F5s.wav
64,192,8404,1,2,0:0:0:0:
192,192,8404,1,0,0:0:0:0:
448,192,8571,1,0,0:0:0:0:
64,192,8738,1,8,0:0:0:0:
192,192,8738,1,0,0:0:0:0:
448,192,8738,1,0,0:0:0:0:
320,192,8904,1,0,0:0:0:0:
192,192,9071,1,0,0:0:0:0:
64,192,9238,1,0,0:0:0:0:
192,192,9321,1,0,0:0:0:0:
320,192,9404,1,0,0:0:0:70:SCG_C5s.wav
448,192,9404,1,2,0:0:0:0:
64,192,9571,1,0,0:0:0:0:
192,192,9738,1,2,0:0:0:0:
448,192,9738,1,0,0:0:0:70:SCG_A#4s.wav
320,192,9904,1,0,0:0:0:70:SCG_A#4s.wav
64,192,10071,1,8,0:0:0:0:
192,192,10071,1,0,0:0:0:0:
320,192,10071,1,0,0:0:0:0:
448,192,10238,1,0,0:0:0:0:
64,192,10404,1,0,0:0:0:70:SCG_C5s.wav
192,192,10571,1,2,0:0:0:0:
448,192,10571,1,0,0:0:0:0:
320,192,10738,1,0,0:0:0:0:
64,192,10904,1,8,0:0:0:0:
192,192,10904,1,0,0:0:0:70:SCG_G5s.wav
320,192,11071,1,2,0:0:0:0:
448,192,11071,1,0,0:0:0:0:
192,192,11238,1,0,0:0:0:0:
64,192,11404,1,8,0:0:0:0:
192,192,11404,1,0,0:0:0:0:
320,192,11404,1,0,0:0:0:0:
448,192,11571,1,0,0:0:0:0:
64,192,11738,1,8,0:0:0:0:
320,192,11738,1,0,0:0:0:0:
192,192,11904,1,2,0:0:0:0:
320,192,11904,1,0,0:0:0:0:
64,192,12071,1,2,0:0:0:0:
192,192,12071,1,4,0:0:0:0:
448,192,12071,128,0,14071:0:0:0:70:SCG_F5s.wav
320,192,12404,1,0,0:0:0:0:
64,192,12738,1,8,0:0:0:0:
192,192,12738,1,0,0:0:0:0:
192,192,13071,1,0,0:0:0:0:
64,192,13238,1,2,0:0:0:0:
320,192,13238,1,0,0:0:0:0:
192,192,13404,1,0,0:0:0:0:
64,192,13738,1,2,0:0:0:0:
320,192,13738,1,0,0:0:0:0:
64,192,14071,1,8,0:0:0:0:
192,192,14071,1,0,0:0:0:0:
320,192,14071,1,0,0:0:0:0:
320,192,14404,1,0,0:0:0:0:
64,192,14738,1,2,0:0:0:0:
192,192,14738,1,0,0:0:0:0:
320,192,15071,1,2,0:0:0:0:
448,192,15071,1,0,0:0:0:0:
64,192,15404,1,8,0:0:0:0:
192,192,15404,1,0,0:0:0:0:
448,192,15404,1,0,0:0:0:0:
192,192,15738,1,0,0:0:0:0:
64,192,15904,1,2,0:0:0:0:
320,192,15904,1,0,0:0:0:0:
448,192,16071,1,0,0:0:0:0:
64,192,16404,1,2,0:0:0:0:
320,192,16404,1,0,0:0:0:0:
64,192,16738,1,8,0:0:0:0:
192,192,16738,1,0,0:0:0:0:
448,192,16738,1,0,0:0:0:0:
320,192,17071,1,0,0:0:0:0:
64,192,17404,1,2,0:0:0:0:
448,192,17404,1,0,0:0:0:0:
192,192,17738,1,0,0:0:0:0:
64,192,18071,1,8,0:0:0:0:
320,192,18071,1,0,0:0:0:0:
448,192,18071,1,0,0:0:0:0:
192,192,18404,1,0,0:0:0:0:
64,192,18571,1,2,0:0:0:0:
448,192,18571,1,0,0:0:0:0:
320,192,18738,1,0,0:0:0:0:
64,192,19071,1,2,0:0:0:0:
448,192,19071,1,0,0:0:0:0:
192,192,19404,1,8,0:0:0:0:
320,192,19404,1,0,0:0:0:0:
448,192,19404,1,0,0:0:0:0:
64,192,19738,1,0,0:0:0:0:
448,192,19904,1,0,0:0:0:0:
192,192,19988,1,0,0:0:0:0:
64,192,20071,1,2,0:0:0:0:
320,192,20071,1,0,0:0:0:0:
192,192,20404,1,2,0:0:0:0:
448,192,20404,1,0,0:0:0:0:
64,192,20738,1,8,0:0:0:0:
320,192,20738,1,0,0:0:0:0:
448,192,20738,1,0,0:0:0:0:
192,192,21071,1,0,0:0:0:0:
64,192,21238,1,2,0:0:0:0:
448,192,21238,1,0,0:0:0:0:
320,192,21404,1,0,0:0:0:0:
64,192,21571,1,8,0:0:0:0:
192,192,21571,1,0,0:0:0:0:
448,192,21571,1,0,0:0:0:0:
192,192,21738,1,2,0:0:0:0:
320,192,21738,1,0,0:0:0:0:
64,192,22071,1,8,0:0:0:0:
192,192,22071,1,0,0:0:0:0:
448,192,22071,1,0,0:0:0:0:
320,192,22404,1,0,0:0:0:0:
192,192,22571,1,0,0:0:0:0:
64,192,22738,128,2,23404:0:0:0:0:
320,192,22738,1,4,0:0:0:0:
448,192,22738,1,0,0:0:0:0:
192,192,23071,1,0,0:0:0:0:
192,192,23404,1,8,0:0:0:0:
448,192,23404,1,0,0:0:0:0:
320,192,23738,1,0,0:0:0:0:
64,192,23904,1,2,0:0:0:0:
192,192,23904,1,0,0:0:0:0:
448,192,24071,1,0,0:0:0:0:
192,192,24404,1,2,0:0:0:0:
320,192,24404,1,0,0:0:0:0:
64,192,24738,1,8,0:0:0:0:
320,192,24738,1,0,0:0:0:0:
448,192,24738,1,0,0:0:0:0:
192,192,25071,1,0,0:0:0:0:
320,192,25404,1,2,0:0:0:0:
448,192,25404,1,0,0:0:0:0:
64,192,25738,1,2,0:0:0:0:
192,192,25738,1,0,0:0:0:0:
64,192,26071,1,8,0:0:0:0:
320,192,26071,1,0,0:0:0:0:
448,192,26071,1,0,0:0:0:0:
192,192,26404,1,0,0:0:0:0:
64,192,26571,1,2,0:0:0:0:
320,192,26571,1,0,0:0:0:0:
448,192,26738,1,0,0:0:0:0:
64,192,27071,1,2,0:0:0:0:
320,192,27071,1,0,0:0:0:0:
192,192,27404,1,8,0:0:0:0:
320,192,27404,1,0,0:0:0:0:
448,192,27404,1,0,0:0:0:0:
64,192,27738,1,0,0:0:0:0:
192,192,28071,1,2,0:0:0:0:
320,192,28071,1,0,0:0:0:0:
448,192,28404,1,0,0:0:0:0:
64,192,28738,1,8,0:0:0:0:
192,192,28738,1,0,0:0:0:0:
320,192,28738,1,0,0:0:0:0:
448,192,29071,1,0,0:0:0:0:
64,192,29238,1,2,0:0:0:0:
320,192,29238,1,0,0:0:0:0:
192,192,29404,1,0,0:0:0:0:
64,192,29738,1,2,0:0:0:0:
320,192,29738,1,0,0:0:0:0:
64,192,30071,1,8,0:0:0:0:
192,192,30071,1,0,0:0:0:0:
448,192,30071,1,0,0:0:0:0:
320,192,30404,1,0,0:0:0:0:
64,192,30571,1,0,0:0:0:0:
192,192,30654,1,0,0:0:0:0:
320,192,30738,1,2,0:0:0:0:
448,192,30738,1,0,0:0:0:0:
64,192,31071,1,2,0:0:0:0:
192,192,31071,1,0,0:0:0:0:
64,192,31404,1,8,0:0:0:0:
320,192,31404,1,0,0:0:0:0:
448,192,31404,1,0,0:0:0:0:
192,192,31738,1,0,0:0:0:0:
64,192,31904,1,2,0:0:0:0:
448,192,31904,1,0,0:0:0:0:
320,192,32071,1,0,0:0:0:0:
64,192,32238,1,8,0:0:0:0:
192,192,32238,1,0,0:0:0:0:
448,192,32238,1,0,0:0:0:0:
192,192,32404,1,2,0:0:0:0:
320,192,32404,1,0,0:0:0:0:
64,192,32738,1,8,0:0:0:0:
320,192,32738,1,0,0:0:0:0:
448,192,32738,1,0,0:0:0:0:
192,192,32904,1,2,0:0:0:0:
64,192,32904,1,8,0:0:0:0:
192,192,33071,1,8,0:0:0:0:
320,192,33071,1,2,0:0:0:0:
448,192,33238,1,8,0:0:0:0:
320,192,33238,1,2,0:0:0:0:
64,192,33404,128,2,34071:0:0:0:0:
192,192,33404,1,4,0:0:0:0:
448,192,33404,1,0,0:0:0:0:
320,192,33738,1,0,0:0:0:0:
192,192,33904,1,2,0:0:0:0:
320,192,34071,1,8,0:0:0:0:
448,192,34071,1,0,0:0:0:0:
64,192,34404,1,2,0:0:0:0:
192,192,34404,1,4,0:0:0:0:
320,192,34404,128,0,35404:0:0:0:0:
448,192,34904,1,8,0:0:0:0:
192,192,35071,1,2,0:0:0:0:
64,192,35404,1,8,0:0:0:0:
448,192,35404,1,0,0:0:0:0:
192,192,35738,128,2,36738:0:0:0:0:
320,192,35738,1,4,0:0:0:0:
448,192,35738,1,0,0:0:0:0:
64,192,36071,1,0,0:0:0:0:
320,192,36404,1,2,0:0:0:0:
64,192,36738,1,8,0:0:0:0:
448,192,36738,1,0,0:0:0:0:
320,192,37071,1,0,0:0:0:0:
192,192,37404,1,2,0:0:0:0:
448,192,37404,1,0,0:0:0:0:
64,192,37738,1,8,0:0:0:0:
192,192,37738,1,0,0:0:0:0:
320,192,37738,1,0,0:0:0:0:
64,192,38071,1,8,0:0:0:0:
320,192,38071,1,0,0:0:0:0:
448,192,38071,1,0,0:0:0:0:
192,192,38238,1,8,0:0:0:0:
448,192,38238,1,0,0:0:0:0:
64,192,38404,1,8,0:0:0:0:
192,192,38404,1,0,0:0:0:0:
320,192,38571,1,2,0:0:0:0:
448,192,38571,1,0,0:0:0:0:
64,192,38738,1,4,0:0:0:0:
192,192,38738,1,2,0:0:0:0:
320,192,38738,128,0,39404:0:0:0:0:
448,192,39071,1,0,0:0:0:0:
192,192,39238,1,2,0:0:0:0:
64,192,39404,1,8,0:0:0:0:
448,192,39404,1,0,0:0:0:0:
192,192,39738,128,2,40738:0:0:0:0:
320,192,39738,1,4,0:0:0:0:
448,192,39738,1,0,0:0:0:0:
64,192,40071,1,0,0:0:0:0:
448,192,40238,1,0,0:0:0:0:
64,192,40404,1,2,0:0:0:0:
320,192,40571,1,0,0:0:0:0:
64,192,40738,1,8,0:0:0:0:
448,192,40738,1,0,0:0:0:0:
64,192,41071,1,4,0:0:0:0:
320,192,41071,1,2,0:0:0:0:
448,192,41071,128,0,41738:0:0:0:0:
192,192,41404,1,0,0:0:0:0:
64,192,41571,1,0,0:0:0:0:
192,192,41654,1,0,0:0:0:0:
64,192,41738,1,4,0:0:0:0:
320,192,41738,1,8,0:0:0:0:
192,192,42071,1,8,0:0:0:0:
320,192,42071,1,0,0:0:0:0:
64,192,42238,1,8,0:0:0:0:
448,192,42238,1,0,0:0:0:0:
192,192,42404,1,8,0:0:0:0:
320,192,42571,1,2,0:0:0:0:
448,192,42571,1,0,0:0:0:0:
64,192,42738,1,4,0:0:0:0:
192,192,42738,1,8,0:0:0:0:
64,192,42904,1,8,0:0:0:0:
192,192,42904,1,0,0:0:0:0:
320,192,43071,1,2,0:0:0:0:
448,192,43071,1,0,0:0:0:0:
64,192,43238,1,8,0:0:0:0:
320,192,43321,1,8,0:0:0:0:
192,192,43404,1,8,0:0:0:0:
448,192,43404,1,0,0:0:0:0:
192,192,43571,1,8,0:0:0:0:
320,192,43571,1,0,0:0:0:0:
64,192,43738,1,8,0:0:0:0:
320,192,43738,1,0,0:0:0:0:
64,192,43904,1,8,0:0:0:0:
448,192,43904,1,0,0:0:0:0:
192,192,44071,1,4,0:0:0:0:
320,192,44071,1,2,0:0:0:0:
448,192,44071,128,0,44404:0:0:0:0:
64,192,44404,1,2,0:0:0:0:
192,192,44404,1,0,0:0:0:0:
192,192,44738,1,8,0:0:0:0:
320,192,44738,1,0,0:0:0:0:
448,192,44738,1,0,0:0:0:0:
64,192,45071,1,0,0:0:0:0:
320,192,45238,1,2,0:0:0:0:
448,192,45238,1,0,0:0:0:0:
192,192,45404,1,0,0:0:0:0:
320,192,45571,1,2,0:0:0:0:
448,192,45571,1,0,0:0:0:0:
64,192,45738,1,2,0:0:0:0:
192,192,45738,1,0,0:0:0:0:
64,192,46071,1,8,0:0:0:0:
320,192,46071,1,0,0:0:0:0:
448,192,46071,1,0,0:0:0:0:
192,192,46404,1,0,0:0:0:0:
64,192,46738,1,2,0:0:0:0:
320,192,46738,1,0,0:0:0:0:
192,192,47071,1,2,0:0:0:0:
448,192,47071,1,0,0:0:0:0:
64,192,47404,1,8,0:0:0:0:
320,192,47404,1,0,0:0:0:0:
448,192,47404,1,0,0:0:0:0:
192,192,47738,1,0,0:0:0:0:
64,192,47904,1,2,0:0:0:0:
448,192,47904,1,0,0:0:0:0:
320,192,48071,1,0,0:0:0:0:
192,192,48238,1,8,0:0:0:0:
448,192,48238,1,0,0:0:0:0:
64,192,48404,1,2,0:0:0:0:
320,192,48404,1,0,0:0:0:0:
64,192,48738,1,8,0:0:0:0:
192,192,48738,1,0,0:0:0:0:
448,192,48738,1,0,0:0:0:0:
320,192,49071,1,0,0:0:0:0:
64,192,49404,1,2,0:0:0:0:
192,192,49404,1,0,0:0:0:0:
320,192,49738,1,2,0:0:0:0:
448,192,49738,1,0,0:0:0:0:
64,192,50071,1,8,0:0:0:0:
192,192,50071,1,0,0:0:0:0:
448,192,50071,1,0,0:0:0:0:
320,192,50404,1,0,0:0:0:0:
192,192,50571,1,2,0:0:0:0:
448,192,50571,1,0,0:0:0:0:
64,192,50738,1,0,0:0:0:0:
320,192,50904,1,2,0:0:0:0:
448,192,50904,1,0,0:0:0:0:
64,192,51071,1,2,0:0:0:0:
192,192,51071,1,0,0:0:0:0:
64,192,51404,1,8,0:0:0:0:
320,192,51404,1,0,0:0:0:0:
448,192,51404,1,0,0:0:0:0:
192,192,51738,1,0,0:0:0:0:
64,192,52071,1,2,0:0:0:0:
448,192,52071,1,0,0:0:0:0:
192,192,52404,1,2,0:0:0:0:
320,192,52404,1,0,0:0:0:0:
64,192,52738,1,8,0:0:0:0:
192,192,52738,1,0,0:0:0:0:
448,192,52738,1,0,0:0:0:0:
320,192,53071,1,0,0:0:0:0:
64,192,53238,1,2,0:0:0:0:
192,192,53238,1,0,0:0:0:0:
320,192,53404,1,0,0:0:0:0:
64,192,53571,1,8,0:0:0:0:
448,192,53571,1,0,0:0:0:0:
192,192,53738,1,2,0:0:0:0:
320,192,53738,1,0,0:0:0:0:
64,192,54071,1,8,0:0:0:0:
320,192,54071,1,0,0:0:0:0:
448,192,54071,1,0,0:0:0:0:
64,192,54404,1,2,0:0:0:0:
448,192,54404,1,0,0:0:0:0:
192,192,54571,1,2,0:0:0:0:
320,192,54571,1,0,0:0:0:0:
64,192,54738,128,4,55071:0:0:0:0:
192,192,54738,1,2,0:0:0:0:
448,192,54738,1,0,0:0:0:0:
320,192,55071,1,2,0:0:0:0:
448,192,55071,1,0,0:0:0:0:
64,192,55404,1,8,0:0:0:0:
192,192,55404,1,0,0:0:0:0:
320,192,55404,1,0,0:0:0:0:
192,192,55738,1,0,0:0:0:0:
64,192,55904,1,2,0:0:0:0:
448,192,55904,1,0,0:0:0:0:
320,192,56071,1,0,0:0:0:0:
192,192,56238,1,2,0:0:0:0:
448,192,56238,1,0,0:0:0:0:
64,192,56404,1,2,0:0:0:0:
320,192,56404,1,0,0:0:0:0:
64,192,56738,1,8,0:0:0:0:
192,192,56738,1,0,0:0:0:0:
448,192,56738,1,0,0:0:0:0:
320,192,57071,1,0,0:0:0:0:
192,192,57404,1,2,0:0:0:0:
448,192,57404,1,0,0:0:0:0:
64,192,57738,1,2,0:0:0:0:
320,192,57738,1,0,0:0:0:0:
192,192,58071,1,8,0:0:0:0:
320,192,58071,1,0,0:0:0:0:
448,192,58071,1,0,0:0:0:0:
64,192,58404,1,0,0:0:0:0:
192,192,58571,1,2,0:0:0:0:
448,192,58571,1,0,0:0:0:0:
320,192,58738,1,0,0:0:0:0:
64,192,58904,1,8,0:0:0:0:
192,192,58904,1,0,0:0:0:0:
320,192,59071,1,2,0:0:0:0:
448,192,59071,1,0,0:0:0:0:
64,192,59404,1,8,0:0:0:0:
192,192,59404,1,0,0:0:0:0:
448,192,59404,1,0,0:0:0:0:
320,192,59738,1,0,0:0:0:0:
64,192,60071,1,2,0:0:0:0:
192,192,60071,1,0,0:0:0:0:
320,192,60404,1,2,0:0:0:0:
448,192,60404,1,0,0:0:0:0:
64,192,60738,1,8,0:0:0:0:
192,192,60738,1,0,0:0:0:0:
448,192,60738,1,0,0:0:0:0:
320,192,61071,1,0,0:0:0:0:
64,192,61238,1,2,0:0:0:0:
448,192,61238,1,0,0:0:0:0:
192,192,61404,1,0,0:0:0:0:
64,192,61571,1,2,0:0:0:0:
448,192,61571,1,0,0:0:0:0:
192,192,61738,1,2,0:0:0:0:
320,192,61738,1,0,0:0:0:0:
64,192,62071,1,8,0:0:0:0:
192,192,62071,1,0,0:0:0:0:
448,192,62071,1,0,0:0:0:0:
320,192,62404,1,0,0:0:0:0:
64,192,62738,1,2,0:0:0:0:
448,192,62738,1,0,0:0:0:0:
192,192,63071,1,2,0:0:0:0:
320,192,63071,1,0,0:0:0:0:
64,192,63404,1,8,0:0:0:0:
320,192,63404,1,0,0:0:0:0:
448,192,63404,1,0,0:0:0:0:
192,192,63738,1,0,0:0:0:0:
64,192,63904,1,2,0:0:0:0:
320,192,63904,1,0,0:0:0:0:
448,192,64071,1,0,0:0:0:0:
64,192,64238,1,8,0:0:0:0:
192,192,64238,1,0,0:0:0:0:
320,192,64404,1,2,0:0:0:0:
448,192,64404,1,0,0:0:0:0:
192,192,64571,1,8,0:0:0:0:
320,192,64654,1,8,0:0:0:0:
64,192,64738,1,8,0:0:0:0:
448,192,64738,1,0,0:0:0:0:
64,192,64904,1,8,0:0:0:0:
320,192,64904,1,0,0:0:0:0:
192,192,65071,1,8,0:0:0:0:
448,192,65071,1,0,0:0:0:0:
192,192,65238,1,2,0:0:0:0:
448,192,65238,1,0,0:0:0:0:
64,192,65404,1,2,0:0:0:0:
320,192,65404,1,4,0:0:0:0:
448,192,65404,1,0,0:0:0:70:SCG_F5s.wav
192,192,65571,1,0,0:0:0:0:
320,192,65738,1,2,0:0:0:0:
448,192,65738,1,0,0:0:0:0:
64,192,65904,1,0,0:0:0:70:SCG_E5s.wav
64,192,66071,1,8,0:0:0:0:
320,192,66071,1,0,0:0:0:0:
448,192,66071,1,0,0:0:0:0:
192,192,66238,1,0,0:0:0:0:
320,192,66404,1,0,0:0:0:70:SCG_C5s.wav
64,192,66571,1,2,0:0:0:0:
448,192,66571,1,0,0:0:0:0:
320,192,66738,1,0,0:0:0:0:
64,192,66904,1,2,0:0:0:0:
192,192,66904,1,0,0:0:0:70:SCG_F5s.wav
320,192,67071,1,2,0:0:0:0:
448,192,67071,1,0,0:0:0:0:
192,192,67238,1,0,0:0:0:0:
64,192,67404,1,8,0:0:0:0:
192,192,67404,1,0,0:0:0:0:
448,192,67404,1,0,0:0:0:70:SCG_E5s.wav
320,192,67571,1,0,0:0:0:0:
448,192,67738,1,0,0:0:0:70:SCG_C5s.wav
64,192,67904,1,0,0:0:0:0:
192,192,67988,1,0,0:0:0:0:
320,192,68071,1,2,0:0:0:0:
448,192,68071,1,0,0:0:0:70:SCG_F5s.wav
64,192,68238,1,0,0:0:0:0:
192,192,68404,1,2,0:0:0:0:
448,192,68404,1,0,0:0:0:0:
320,192,68571,1,0,0:0:0:70:SCG_E5s.wav
64,192,68738,1,8,0:0:0:0:
320,192,68738,1,0,0:0:0:0:
448,192,68738,1,0,0:0:0:0:
192,192,68904,1,0,0:0:0:0:
320,192,69071,1,0,0:0:0:70:SCG_C5s.wav
64,192,69238,1,2,0:0:0:0:
448,192,69238,1,0,0:0:0:0:
320,192,69404,1,0,0:0:0:0:
192,192,69571,1,8,0:0:0:0:
448,192,69571,1,0,0:0:0:70:SCG_F5s.wav
64,192,69738,1,2,0:0:0:0:
320,192,69738,1,0,0:0:0:0:
192,192,69904,1,0,0:0:0:0:
64,192,70071,1,8,0:0:0:0:
192,192,70071,1,0,0:0:0:0:
448,192,70071,1,0,0:0:0:70:SCG_E5s.wav
320,192,70238,1,0,0:0:0:0:
64,192,70404,1,0,0:0:0:70:SCG_C5s.wav
320,192,70571,1,0,0:0:0:0:
192,192,70738,1,2,0:0:0:0:
448,192,70738,1,0,0:0:0:70:SCG_C5s.wav
64,192,70904,1,0,0:0:0:0:
192,192,71071,1,2,0:0:0:0:
448,192,71071,1,0,0:0:0:70:SCG_A#4s.wav
320,192,71238,1,0,0:0:0:70:SCG_A#4s.wav
64,192,71404,1,8,0:0:0:0:
192,192,71404,1,0,0:0:0:0:
320,192,71404,1,0,0:0:0:0:
448,192,71571,1,0,0:0:0:0:
64,192,71738,1,0,0:0:0:70:SCG_C5s.wav
192,192,71904,1,2,0:0:0:0:
448,192,71904,1,0,0:0:0:0:
320,192,72071,1,0,0:0:0:0:
64,192,72238,1,2,0:0:0:0:
192,192,72238,1,0,0:0:0:70:SCG_F5s.wav
320,192,72404,1,2,0:0:0:0:
448,192,72404,1,0,0:0:0:0:
192,192,72571,1,0,0:0:0:0:
64,192,72738,1,8,0:0:0:0:
192,192,72738,1,0,0:0:0:0:
448,192,72738,1,0,0:0:0:0:
320,192,72904,1,0,0:0:0:0:
64,192,73071,1,0,0:0:0:0:
448,192,73238,1,0,0:0:0:0:
320,192,73321,1,0,0:0:0:0:
64,192,73404,1,2,0:0:0:0:
192,192,73404,1,0,0:0:0:70:SCG_C5s.wav
448,192,73571,1,0,0:0:0:0:
64,192,73738,1,2,0:0:0:0:
192,192,73738,1,0,0:0:0:70:SCG_A#4s.wav
320,192,73904,1,0,0:0:0:70:SCG_A#4s.wav
64,192,74071,1,8,0:0:0:0:
320,192,74071,1,0,0:0:0:0:
448,192,74071,1,0,0:0:0:0:
192,192,74238,1,0,0:0:0:0:
448,192,74404,1,0,0:0:0:70:SCG_C5s.wav
64,192,74571,1,2,0:0:0:0:
320,192,74571,1,0,0:0:0:0:
192,192,74738,1,0,0:0:0:0:
448,192,74904,1,8,0:0:0:0:
320,192,74904,1,0,0:0:0:70:SCG_G5s.wav
64,192,75071,1,2,0:0:0:0:
192,192,75071,1,0,0:0:0:0:
320,192,75238,1,0,0:0:0:0:
64,192,75404,1,8,0:0:0:0:
192,192,75404,1,0,0:0:0:0:
320,192,75404,1,0,0:0:0:0:
448,192,75571,1,0,0:0:0:0:
64,192,75738,1,8,0:0:0:0:
320,192,75738,1,0,0:0:0:0:
192,192,75904,1,2,0:0:0:0:
448,192,75904,1,0,0:0:0:0:
64,192,76071,128,4,77404:0:0:0:0:
320,192,76071,1,2,0:0:0:0:
448,192,76071,128,0,77404:0:0:0:70:SCG_F5s.wav
