osu file format v14

[General]
AudioFilename: audio.mp3
AudioLeadIn: 0
PreviewTime: 51935
Countdown: 0
SampleSet: Drum
StackLeniency: 0.7
Mode: 3
LetterboxInBreaks: 0
SpecialStyle: 0
WidescreenStoryboard: 0

[Editor]
DistanceSpacing: 1.3
BeatDivisor: 4
GridSize: 32
TimelineZoom: 2.4

[Metadata]
Title:Naked flyer
TitleUnicode:Naked flyer
Artist:Primary
ArtistUnicode:Primary
Creator:Klee_fs
Version:Insane
Source:
Tags:yuiko Yuikonnu ゆいこんぬ みゅ Miyuu shutter*girl meis clauson Japanese pop jpop big z11 Feerum LLENN-
BeatmapID:2324686
BeatmapSetID:1112728

[Difficulty]
HPDrainRate:8.5
CircleSize:4
OverallDifficulty:8
ApproachRate:5
SliderMultiplier:1.4
SliderTickRate:1

[Events]
//Background and Video events
0,0,"BG.jpg",0,0
//Break Periods
//Storyboard Layer 0 (Background)
//Storyboard Layer 1 (Fail)
//Storyboard Layer 2 (Pass)
//Storyboard Layer 3 (Foreground)
//Storyboard Layer 4 (Overlay)
//Storyboard Sound Samples

[TimingPoints]
530,324.324324324324,4,3,5,20,1,0
9773,-100,4,3,5,40,0,0
52421,-100,4,3,5,40,0,1
70584,-100,4,3,5,40,0,0
112097,-100,4,3,5,40,0,1
130259,-100,4,3,5,40,0,0
151016,-111.111111111111,4,3,5,20,0,0
160097,-100,4,3,5,40,0,0
161394,-100,4,3,5,40,0,1
187340,-100,4,3,5,40,0,0

[HitObjects]
64,192,530,5,0,0:0:0:0:
448,192,1016,1,0,0:0:0:0:
320,192,1340,1,0,0:0:0:0:
64,192,1827,1,0,0:0:0:0:
448,192,2313,1,0,0:0:0:0:
320,192,2638,1,0,0:0:0:0:
192,192,3124,1,0,0:0:0:0:
192,192,3611,1,0,0:0:0:0:
192,192,3935,1,0,0:0:0:0:
64,192,4259,1,0,0:0:0:0:
320,192,4584,1,0,0:0:0:0:
448,192,4908,1,0,0:0:0:0:
320,192,5232,1,0,0:0:0:0:
64,192,5394,1,0,0:0:0:0:
64,192,5719,1,0,0:0:0:0:
448,192,6205,1,0,0:0:0:0:
320,192,6529,1,0,0:0:0:0:
64,192,7016,1,0,0:0:0:0:
448,192,7502,1,0,0:0:0:0:
320,192,7827,1,0,0:0:0:0:
192,192,8313,1,0,0:0:0:0:
192,192,8800,1,0,0:0:0:0:
192,192,9124,1,0,0:0:0:0:
64,192,9448,1,0,0:0:0:0:
64,192,9773,1,8,0:0:0:0:
192,192,9773,1,0,0:0:0:0:
320,192,9854,1,8,0:0:0:0:
448,192,9854,1,0,0:0:0:0:
64,192,9935,1,0,0:0:0:70:tom01.wav
192,192,10016,1,0,0:0:0:70:tom02.wav
448,192,10097,1,0,0:0:0:70:tom03.wav
320,192,10178,1,2,0:0:0:0:
64,192,10259,1,8,0:0:0:0:
192,192,10259,1,0,0:0:0:0:
320,192,10340,1,8,0:0:0:0:
448,192,10340,1,0,0:0:0:0:
64,192,10421,1,0,0:0:0:70:tom02.wav
192,192,10502,1,0,0:0:0:70:tom03.wav
448,192,10584,1,0,0:0:0:70:tom04.wav
320,192,10665,1,2,0:0:0:0:
64,192,10746,1,8,0:0:0:0:
448,192,10746,1,0,0:0:0:0:
192,192,10746,1,0,0:0:0:0:
320,192,10908,1,4,0:0:0:0:
64,192,10908,1,2,0:0:0:0:
448,192,10908,1,0,0:0:0:0:
320,192,11232,1,2,0:0:0:0:
448,192,11232,1,0,0:0:0:0:
64,192,11394,1,8,0:0:0:0:
192,192,11394,1,0,0:0:0:0:
320,192,11394,1,0,0:0:0:0:
64,192,11719,1,2,0:0:0:0:
448,192,11719,1,0,0:0:0:0:
64,192,11881,1,2,0:0:0:0:
448,192,11881,1,0,0:0:0:0:
192,192,12043,1,8,0:0:0:0:
320,192,12043,1,0,0:0:0:0:
448,192,12043,1,0,0:0:0:0:
64,192,12205,1,2,0:0:0:0:
192,192,12205,1,0,0:0:0:0:
192,192,12529,1,2,0:0:0:0:
320,192,12529,1,0,0:0:0:0:
64,192,12692,1,8,0:0:0:0:
320,192,12692,1,0,0:0:0:0:
448,192,12692,1,0,0:0:0:0:
64,192,13016,1,2,0:0:0:0:
192,192,13016,1,0,0:0:0:0:
64,192,13178,1,2,0:0:0:0:
192,192,13178,1,0,0:0:0:0:
192,192,13340,1,8,0:0:0:0:
320,192,13340,1,0,0:0:0:0:
448,192,13340,1,0,0:0:0:0:
64,192,13502,1,2,0:0:0:0:
320,192,13502,1,4,0:0:0:0:
448,192,13502,1,0,0:0:0:0:
64,192,13827,1,2,0:0:0:0:
448,192,13827,1,0,0:0:0:0:
64,192,13989,1,2,0:0:0:0:
448,192,13989,1,0,0:0:0:0:
64,192,14313,1,2,0:0:0:0:
320,192,14313,1,0,0:0:0:0:
192,192,14638,1,8,0:0:0:0:
320,192,14638,1,0,0:0:0:0:
448,192,14638,1,0,0:0:0:0:
64,192,14962,1,2,0:0:0:0:
192,192,14962,1,0,0:0:0:0:
64,192,15286,1,8,0:0:0:0:
320,192,15286,1,0,0:0:0:0:
448,192,15286,1,0,0:0:0:0:
192,192,15611,1,2,0:0:0:0:
448,192,15611,1,0,0:0:0:0:
64,192,15773,1,8,0:0:0:0:
192,192,15773,1,0,0:0:0:0:
320,192,15773,1,0,0:0:0:0:
320,192,15935,1,8,0:0:0:0:
448,192,15935,1,0,0:0:0:0:
64,192,16097,1,2,0:0:0:0:
192,192,16097,1,4,0:0:0:0:
448,192,16097,1,0,0:0:0:0:
192,192,16421,1,2,0:0:0:0:
320,192,16421,1,0,0:0:0:0:
64,192,16584,1,8,0:0:0:0:
192,192,16584,1,0,0:0:0:0:
448,192,16584,1,0,0:0:0:0:
320,192,16908,1,2,0:0:0:0:
448,192,16908,1,0,0:0:0:0:
320,192,17070,1,2,0:0:0:0:
448,192,17070,1,0,0:0:0:0:
64,192,17232,1,8,0:0:0:0:
192,192,17232,1,0,0:0:0:0:
448,192,17232,1,0,0:0:0:0:
64,192,17394,1,2,0:0:0:0:
320,192,17394,1,0,0:0:0:0:
192,192,17719,1,2,0:0:0:0:
320,192,17719,1,0,0:0:0:0:
64,192,17881,1,8,0:0:0:0:
320,192,17881,1,0,0:0:0:0:
448,192,17881,1,0,0:0:0:0:
192,192,18205,1,2,0:0:0:0:
448,192,18205,1,0,0:0:0:0:
192,192,18367,1,2,0:0:0:0:
448,192,18367,1,0,0:0:0:0:
64,192,18529,1,8,0:0:0:0:
192,192,18529,1,0,0:0:0:0:
320,192,18529,1,0,0:0:0:0:
64,192,18692,1,2,0:0:0:0:
320,192,18692,1,4,0:0:0:0:
448,192,18692,1,0,0:0:0:0:
320,192,19016,1,2,0:0:0:0:
448,192,19016,1,0,0:0:0:0:
320,192,19178,1,2,0:0:0:0:
448,192,19178,1,0,0:0:0:0:
64,192,19502,1,2,0:0:0:0:
448,192,19502,1,0,0:0:0:0:
64,192,19827,1,8,0:0:0:0:
192,192,19827,1,0,0:0:0:0:
448,192,19827,1,0,0:0:0:0:
192,192,20151,1,2,0:0:0:0:
320,192,20151,1,0,0:0:0:0:
64,192,20475,1,8,0:0:0:0:
320,192,20475,1,0,0:0:0:0:
448,192,20475,1,0,0:0:0:0:
320,192,20638,1,2,0:0:0:0:
448,192,20638,1,0,0:0:0:0:
64,192,20800,1,8,0:0:0:0:
192,192,20800,1,0,0:0:0:0:
320,192,20881,1,8,0:0:0:0:
448,192,20881,1,0,0:0:0:0:
64,192,20962,1,0,0:0:0:70:tom02.wav
320,192,21124,1,8,0:0:0:0:
448,192,21124,1,0,0:0:0:0:
192,192,21205,1,8,0:0:0:0:
448,192,21286,1,0,0:0:0:0:
64,192,21286,1,2,0:0:0:0:
320,192,21286,1,4,0:0:0:0:
64,192,21773,1,8,0:0:0:0:
192,192,21773,1,0,0:0:0:0:
448,192,21773,1,0,0:0:0:0:
320,192,21935,1,0,0:0:0:0:
192,192,22097,1,0,0:0:0:0:
192,192,22421,1,8,0:0:0:0:
320,192,22421,1,0,0:0:0:0:
448,192,22421,1,0,0:0:0:0:
64,192,22584,1,0,0:0:0:0:
192,192,22746,1,0,0:0:0:0:
64,192,23070,1,8,0:0:0:0:
320,192,23070,1,0,0:0:0:0:
448,192,23070,1,0,0:0:0:0:
448,192,23394,1,0,0:0:0:0:
64,192,23557,1,2,0:0:0:0:
320,192,23557,1,0,0:0:0:0:
192,192,23881,1,2,0:0:0:0:
448,192,23881,1,0,0:0:0:0:
64,192,24367,1,8,0:0:0:0:
320,192,24367,1,0,0:0:0:0:
448,192,24367,1,0,0:0:0:0:
192,192,24692,1,0,0:0:0:0:
64,192,25016,1,8,0:0:0:0:
192,192,25016,1,0,0:0:0:0:
448,192,25016,1,0,0:0:0:0:
320,192,25178,1,2,0:0:0:0:
448,192,25178,1,0,0:0:0:0:
64,192,25665,1,8,0:0:0:0:
192,192,25665,1,0,0:0:0:0:
320,192,25665,1,0,0:0:0:0:
448,192,25989,1,0,0:0:0:0:
320,192,26151,1,0,0:0:0:0:
64,192,26313,1,8,0:0:0:0:
192,192,26313,1,0,0:0:0:0:
448,192,26313,1,0,0:0:0:0:
64,192,26475,1,2,0:0:0:0:
320,192,26475,1,4,0:0:0:0:
448,192,26475,1,0,0:0:0:0:
64,192,26962,1,8,0:0:0:0:
192,192,26962,1,0,0:0:0:0:
448,192,26962,1,0,0:0:0:0:
320,192,27124,1,0,0:0:0:0:
192,192,27286,1,0,0:0:0:0:
64,192,27611,1,8,0:0:0:0:
192,192,27611,1,0,0:0:0:0:
448,192,27611,1,0,0:0:0:0:
320,192,27773,1,0,0:0:0:0:
448,192,27935,1,0,0:0:0:0:
64,192,28259,1,8,0:0:0:0:
192,192,28259,1,0,0:0:0:0:
320,192,28259,1,0,0:0:0:0:
64,192,28584,1,0,0:0:0:0:
192,192,28746,1,2,0:0:0:0:
448,192,28746,1,0,0:0:0:0:
64,192,29070,1,2,0:0:0:0:
320,192,29070,1,0,0:0:0:0:
64,192,29557,1,8,0:0:0:0:
192,192,29557,1,0,0:0:0:0:
448,192,29557,1,0,0:0:0:0:
192,192,29881,1,0,0:0:0:0:
64,192,30205,1,8,0:0:0:0:
320,192,30205,1,0,0:0:0:0:
448,192,30205,1,0,0:0:0:0:
192,192,30367,1,2,0:0:0:0:
448,192,30367,1,0,0:0:0:0:
64,192,30854,1,8,0:0:0:0:
192,192,30854,1,0,0:0:0:0:
320,192,30854,1,0,0:0:0:0:
320,192,31178,1,8,0:0:0:0:
448,192,31178,1,0,0:0:0:0:
64,192,31259,1,8,0:0:0:0:
192,192,31259,1,0,0:0:0:0:
448,192,31340,1,2,0:0:0:0:
320,192,31421,1,2,0:0:0:0:
64,192,31502,1,8,0:0:0:0:
192,192,31502,1,0,0:0:0:0:
320,192,31584,1,8,0:0:0:0:
448,192,31665,1,0,0:0:0:0:
64,192,31665,1,2,0:0:0:0:
192,192,31665,1,4,0:0:0:0:
64,192,31989,1,2,0:0:0:0:
192,192,31989,1,0,0:0:0:0:
64,192,32151,1,8,0:0:0:0:
320,192,32151,1,0,0:0:0:0:
448,192,32151,1,0,0:0:0:0:
192,192,32313,1,0,0:0:0:0:
64,192,32475,1,2,0:0:0:0:
448,192,32475,1,0,0:0:0:0:
64,192,32638,1,2,0:0:0:0:
448,192,32638,1,0,0:0:0:0:
64,192,32800,1,8,0:0:0:0:
192,192,32800,1,0,0:0:0:0:
320,192,32800,1,0,0:0:0:0:
320,192,32962,1,2,0:0:0:0:
448,192,32962,1,0,0:0:0:0:
64,192,33124,1,0,0:0:0:0:
192,192,33286,1,2,0:0:0:0:
320,192,33286,1,0,0:0:0:0:
64,192,33448,1,8,0:0:0:0:
192,192,33448,1,0,0:0:0:0:
448,192,33448,1,0,0:0:0:0:
320,192,33611,1,0,0:0:0:0:
64,192,33773,1,2,0:0:0:0:
192,192,33773,1,0,0:0:0:0:
192,192,33935,1,2,0:0:0:0:
448,192,33935,1,0,0:0:0:0:
64,192,34097,1,8,0:0:0:0:
320,192,34097,1,0,0:0:0:0:
448,192,34097,1,0,0:0:0:0:
64,192,34259,1,2,0:0:0:0:
192,192,34259,1,0,0:0:0:0:
192,192,34584,1,2,0:0:0:0:
320,192,34584,1,0,0:0:0:0:
64,192,34746,1,8,0:0:0:0:
320,192,34746,1,0,0:0:0:0:
448,192,34746,1,0,0:0:0:0:
192,192,34908,1,0,0:0:0:0:
64,192,35070,1,2,0:0:0:0:
448,192,35070,1,0,0:0:0:0:
192,192,35232,1,2,0:0:0:0:
448,192,35232,1,0,0:0:0:0:
64,192,35394,1,8,0:0:0:0:
192,192,35394,1,0,0:0:0:0:
320,192,35394,1,0,0:0:0:0:
64,192,35557,1,2,0:0:0:0:
448,192,35557,1,0,0:0:0:0:
192,192,35719,1,0,0:0:0:0:
320,192,35881,1,2,0:0:0:0:
448,192,35881,1,0,0:0:0:0:
64,192,36043,1,8,0:0:0:0:
192,192,36043,1,0,0:0:0:0:
320,192,36043,1,0,0:0:0:0:
448,192,36205,1,0,0:0:0:0:
64,192,36367,1,2,0:0:0:0:
320,192,36367,1,0,0:0:0:0:
192,192,36529,1,2,0:0:0:0:
320,192,36529,1,0,0:0:0:0:
64,192,36692,1,8,0:0:0:0:
192,192,36692,1,0,0:0:0:0:
448,192,36692,1,0,0:0:0:0:
64,192,36854,1,2,0:0:0:0:
320,192,36854,1,4,0:0:0:0:
448,192,36854,1,0,0:0:0:0:
192,192,37178,1,2,0:0:0:0:
448,192,37178,1,0,0:0:0:0:
64,192,37340,1,8,0:0:0:0:
192,192,37340,1,0,0:0:0:0:
320,192,37340,1,0,0:0:0:0:
448,192,37502,1,0,0:0:0:0:
192,192,37665,1,2,0:0:0:0:
320,192,37665,1,0,0:0:0:0:
192,192,37827,1,2,0:0:0:0:
320,192,37827,1,0,0:0:0:0:
64,192,37989,1,8,0:0:0:0:
192,192,37989,1,0,0:0:0:0:
448,192,37989,1,0,0:0:0:0:
64,192,38151,1,2,0:0:0:0:
320,192,38151,1,0,0:0:0:0:
448,192,38313,1,0,0:0:0:0:
64,192,38475,1,2,0:0:0:0:
192,192,38475,1,0,0:0:0:0:
192,192,38638,1,8,0:0:0:0:
320,192,38638,1,0,0:0:0:0:
448,192,38638,1,0,0:0:0:0:
64,192,38800,1,0,0:0:0:0:
192,192,38962,1,2,0:0:0:0:
448,192,38962,1,0,0:0:0:0:
192,192,39124,1,2,0:0:0:0:
320,192,39124,1,0,0:0:0:0:
64,192,39286,1,8,0:0:0:0:
320,192,39286,1,0,0:0:0:0:
448,192,39286,1,0,0:0:0:0:
192,192,39448,1,2,0:0:0:0:
448,192,39448,1,0,0:0:0:0:
192,192,39773,1,2,0:0:0:0:
320,192,39773,1,0,0:0:0:0:
64,192,39935,1,8,0:0:0:0:
192,192,39935,1,0,0:0:0:0:
448,192,39935,1,0,0:0:0:0:
320,192,40097,1,0,0:0:0:0:
64,192,40259,1,2,0:0:0:0:
448,192,40259,1,0,0:0:0:0:
192,192,40421,1,2,0:0:0:0:
448,192,40421,1,0,0:0:0:0:
64,192,40584,1,8,0:0:0:0:
192,192,40584,1,0,0:0:0:0:
320,192,40584,1,0,0:0:0:0:
64,192,40746,1,2,0:0:0:0:
448,192,40746,1,0,0:0:0:0:
192,192,40908,1,0,0:0:0:0:
64,192,41070,1,2,0:0:0:0:
320,192,41070,1,0,0:0:0:0:
192,192,41232,1,8,0:0:0:0:
320,192,41232,1,0,0:0:0:0:
448,192,41232,1,0,0:0:0:0:
64,192,41394,1,0,0:0:0:70:tom01.wav
192,192,41475,1,0,0:0:0:70:tom01.wav
320,192,41557,1,2,0:0:0:0:
448,192,41557,1,0,0:0:0:0:
192,192,41719,1,2,0:0:0:0:
320,192,41719,1,0,0:0:0:0:
64,192,41881,1,2,0:0:0:0:
192,192,41881,1,0,0:0:0:0:
320,192,42043,1,2,0:0:0:0:
448,192,42043,1,4,0:0:0:0:
64,192,42043,1,0,0:0:0:0:
64,192,42367,1,2,0:0:0:0:
192,192,42367,1,0,0:0:0:0:
64,192,42529,1,2,0:0:0:0:
192,192,42529,1,0,0:0:0:0:
64,192,42854,1,8,0:0:0:0:
320,192,42854,1,0,0:0:0:0:
448,192,42854,1,0,0:0:0:0:
192,192,43178,1,0,0:0:0:0:
320,192,43340,1,2,0:0:0:0:
448,192,43340,1,0,0:0:0:0:
192,192,43502,1,0,0:0:0:0:
64,192,43665,1,2,0:0:0:0:
448,192,43665,1,0,0:0:0:0:
64,192,43827,1,2,0:0:0:0:
448,192,43827,1,0,0:0:0:0:
192,192,44151,1,8,0:0:0:0:
320,192,44151,1,0,0:0:0:0:
448,192,44151,1,0,0:0:0:0:
192,192,44313,1,8,0:0:0:0:
320,192,44313,1,0,0:0:0:0:
448,192,44313,1,0,0:0:0:0:
64,192,44475,1,0,0:0:0:0:
320,192,44638,1,2,0:0:0:0:
448,192,44638,1,0,0:0:0:0:
192,192,44800,1,0,0:0:0:0:
64,192,44962,1,2,0:0:0:0:
320,192,44962,1,0,0:0:0:0:
64,192,45124,1,2,0:0:0:0:
320,192,45124,1,0,0:0:0:0:
64,192,45448,1,8,0:0:0:0:
192,192,45448,1,0,0:0:0:0:
448,192,45448,1,0,0:0:0:0:
192,192,45773,1,0,0:0:0:0:
64,192,45935,1,2,0:0:0:0:
448,192,45935,1,0,0:0:0:0:
320,192,46097,1,0,0:0:0:0:
192,192,46259,1,2,0:0:0:0:
448,192,46259,1,0,0:0:0:0:
192,192,46421,1,2,0:0:0:0:
448,192,46421,1,0,0:0:0:0:
64,192,46746,1,8,0:0:0:0:
192,192,46746,1,0,0:0:0:0:
320,192,46786,1,8,0:0:0:0:
192,192,46908,1,2,0:0:0:0:
448,192,46908,1,0,0:0:0:0:
320,192,47070,1,8,0:0:0:0:
448,192,47070,1,0,0:0:0:0:
192,192,47111,1,8,0:0:0:0:
64,192,47232,1,2,0:0:0:0:
320,192,47232,1,4,0:0:0:0:
448,192,47232,1,0,0:0:0:0:
192,192,47557,1,2,0:0:0:0:
320,192,47557,1,0,0:0:0:0:
192,192,47719,1,2,0:0:0:0:
320,192,47719,1,0,0:0:0:0:
64,192,48043,1,8,0:0:0:0:
192,192,48043,1,0,0:0:0:0:
448,192,48043,1,0,0:0:0:0:
320,192,48367,1,0,0:0:0:0:
64,192,48529,1,2,0:0:0:0:
192,192,48529,1,0,0:0:0:0:
448,192,48692,1,0,0:0:0:0:
192,192,48854,1,2,0:0:0:0:
320,192,48854,1,0,0:0:0:0:
192,192,49016,1,2,0:0:0:0:
320,192,49016,1,0,0:0:0:0:
64,192,49340,1,8,0:0:0:0:
192,192,49340,1,0,0:0:0:0:
448,192,49340,1,0,0:0:0:0:
64,192,49502,1,8,0:0:0:0:
192,192,49502,1,0,0:0:0:0:
448,192,49502,1,0,0:0:0:0:
320,192,49665,1,0,0:0:0:0:
192,192,49827,1,2,0:0:0:0:
448,192,49827,1,4,0:0:0:0:
64,192,50151,1,2,0:0:0:0:
192,192,50151,1,0,0:0:0:0:
192,192,50313,1,8,0:0:0:0:
320,192,50313,1,0,0:0:0:0:
448,192,50313,1,0,0:0:0:0:
64,192,50475,1,0,0:0:0:0:
320,192,50638,1,2,0:0:0:0:
448,192,50638,1,0,0:0:0:0:
320,192,50800,1,2,0:0:0:0:
448,192,50800,1,0,0:0:0:0:
64,192,50962,1,8,0:0:0:0:
192,192,50962,1,0,0:0:0:0:
448,192,50962,1,0,0:0:0:0:
320,192,51124,1,0,0:0:0:0:
64,192,51286,1,8,0:0:0:0:
192,192,51286,1,0,0:0:0:0:
320,192,51367,1,8,0:0:0:0:
448,192,51367,1,0,0:0:0:0:
64,192,51448,1,0,0:0:0:70:tom01.wav
192,192,51529,1,0,0:0:0:70:tom02.wav
320,192,51611,1,0,0:0:0:70:tom03.wav
448,192,51692,1,2,0:0:0:0:
64,192,51773,1,8,0:0:0:0:
192,192,51773,1,0,0:0:0:0:
320,192,51854,1,8,0:0:0:0:
448,192,51854,1,0,0:0:0:0:
64,192,51935,1,0,0:0:0:70:tom02.wav
192,192,52016,1,0,0:0:0:70:tom03.wav
320,192,52097,1,0,0:0:0:70:tom04.wav
448,192,52178,1,2,0:0:0:0:
64,192,52259,1,8,0:0:0:0:
192,192,52259,1,0,0:0:0:0:
320,192,52340,1,8,0:0:0:0:
448,192,52421,1,0,0:0:0:0:
64,192,52421,1,2,0:0:0:0:
192,192,52421,128,4,52746:0:0:0:0:
320,192,52746,1,2,0:0:0:0:
448,192,52746,1,0,0:0:0:0:
64,192,52908,1,8,0:0:0:0:
192,192,52908,1,0,0:0:0:0:
320,192,52908,128,0,53232:0:0:0:0:
64,192,53232,1,2,0:0:0:0:
448,192,53232,1,0,0:0:0:0:
64,192,53394,1,2,0:0:0:0:
320,192,53394,1,0,0:0:0:0:
192,192,53557,1,8,0:0:0:0:
320,192,53557,1,0,0:0:0:0:
448,192,53557,1,0,0:0:0:0:
64,192,53719,128,2,54043:0:0:0:0:
192,192,53719,1,0,0:0:0:0:
320,192,54043,1,2,0:0:0:0:
448,192,54043,1,0,0:0:0:0:
64,192,54205,1,8,0:0:0:0:
192,192,54205,128,0,54529:0:0:0:0:
320,192,54205,1,0,0:0:0:0:
320,192,54529,1,2,0:0:0:0:
448,192,54529,1,0,0:0:0:0:
320,192,54692,1,2,0:0:0:0:
448,192,54692,1,0,0:0:0:0:
64,192,54854,1,8,0:0:0:0:
192,192,54854,1,0,0:0:0:0:
448,192,54854,1,0,0:0:0:0:
64,192,55016,1,2,0:0:0:0:
320,192,55016,128,0,55340:0:0:0:0:
192,192,55340,1,2,0:0:0:0:
448,192,55340,1,0,0:0:0:0:
64,192,55502,1,8,0:0:0:0:
320,192,55502,1,0,0:0:0:0:
448,192,55502,1,0,0:0:0:0:
192,192,55665,1,0,0:0:0:0:
64,192,55827,1,2,0:0:0:0:
448,192,55827,1,0,0:0:0:0:
64,192,55989,1,2,0:0:0:0:
448,192,55989,1,0,0:0:0:0:
192,192,56151,1,8,0:0:0:0:
320,192,56151,1,0,0:0:0:0:
448,192,56151,1,0,0:0:0:0:
64,192,56313,128,2,56638:0:0:0:0:
192,192,56313,1,0,0:0:0:0:
320,192,56638,1,2,0:0:0:0:
448,192,56638,1,0,0:0:0:0:
64,192,56800,1,8,0:0:0:0:
192,192,56800,1,0,0:0:0:0:
448,192,56800,1,0,0:0:0:0:
64,192,57124,1,2,0:0:0:0:
320,192,57124,1,0,0:0:0:0:
64,192,57286,1,2,0:0:0:0:
320,192,57286,1,0,0:0:0:0:
192,192,57448,1,8,0:0:0:0:
320,192,57448,1,0,0:0:0:0:
448,192,57448,1,0,0:0:0:0:
64,192,57611,1,2,0:0:0:0:
448,192,57611,128,4,57935:0:0:0:0:
192,192,57611,1,0,0:0:0:0:
192,192,57935,1,2,0:0:0:0:
320,192,57935,1,0,0:0:0:0:
64,192,58097,128,8,58421:0:0:0:0:
192,192,58097,1,0,0:0:0:0:
448,192,58097,1,0,0:0:0:0:
320,192,58421,1,2,0:0:0:0:
448,192,58421,1,0,0:0:0:0:
320,192,58584,1,2,0:0:0:0:
448,192,58584,1,0,0:0:0:0:
64,192,58746,1,8,0:0:0:0:
192,192,58746,1,0,0:0:0:0:
320,192,58746,1,0,0:0:0:0:
192,192,58908,1,2,0:0:0:0:
448,192,58908,128,0,59232:0:0:0:0:
64,192,59232,1,2,0:0:0:0:
192,192,59232,1,0,0:0:0:0:
64,192,59394,1,8,0:0:0:0:
320,192,59394,128,0,59719:0:0:0:0:
448,192,59394,1,0,0:0:0:0:
192,192,59719,1,2,0:0:0:0:
448,192,59719,1,0,0:0:0:0:
192,192,59881,1,2,0:0:0:0:
448,192,59881,1,0,0:0:0:0:
64,192,60043,1,8,0:0:0:0:
192,192,60043,1,0,0:0:0:0:
320,192,60043,1,0,0:0:0:0:
64,192,60205,128,2,60529:0:0:0:0:
448,192,60205,1,0,0:0:0:0:
192,192,60529,1,2,0:0:0:0:
320,192,60529,1,0,0:0:0:0:
64,192,60692,1,8,0:0:0:0:
320,192,60692,1,0,0:0:0:0:
448,192,60692,1,0,0:0:0:0:
192,192,60854,1,0,0:0:0:0:
320,192,61016,1,2,0:0:0:0:
448,192,61016,1,0,0:0:0:0:
320,192,61178,1,2,0:0:0:0:
448,192,61178,1,0,0:0:0:0:
64,192,61340,1,8,0:0:0:0:
192,192,61340,1,0,0:0:0:0:
448,192,61340,1,0,0:0:0:0:
192,192,61502,1,2,0:0:0:0:
320,192,61502,128,0,61827:0:0:0:0:
64,192,61827,1,2,0:0:0:0:
192,192,61827,1,0,0:0:0:0:
192,192,61989,1,8,0:0:0:0:
320,192,61989,1,0,0:0:0:0:
448,192,61989,1,0,0:0:0:0:
64,192,62151,1,2,0:0:0:0:
320,192,62151,1,0,0:0:0:0:
192,192,62313,1,8,0:0:0:0:
320,192,62313,1,0,0:0:0:0:
448,192,62313,1,0,0:0:0:0:
64,192,62475,1,2,0:0:0:0:
192,192,62557,1,2,0:0:0:0:
320,192,62638,1,8,0:0:0:0:
448,192,62638,1,0,0:0:0:0:
192,192,62719,1,8,0:0:0:0:
64,192,62800,1,0,0:0:0:0:
320,192,62800,128,2,63124:0:0:0:0:
448,192,62800,1,4,0:0:0:0:
64,192,63124,1,2,0:0:0:0:
192,192,63124,1,0,0:0:0:0:
64,192,63286,128,8,63611:0:0:0:0:
320,192,63286,1,0,0:0:0:0:
448,192,63286,1,0,0:0:0:0:
192,192,63611,1,2,0:0:0:0:
448,192,63611,1,0,0:0:0:0:
192,192,63773,1,2,0:0:0:0:
448,192,63773,1,0,0:0:0:0:
64,192,63935,1,8,0:0:0:0:
320,192,63935,1,0,0:0:0:0:
448,192,63935,1,0,0:0:0:0:
192,192,64097,128,2,64421:0:0:0:0:
64,192,64097,1,0,0:0:0:0:
320,192,64421,1,2,0:0:0:0:
448,192,64421,1,0,0:0:0:0:
64,192,64584,1,8,0:0:0:0:
320,192,64584,1,0,0:0:0:0:
448,192,64584,128,0,64908:0:0:0:0:
64,192,64908,1,2,0:0:0:0:
192,192,64908,1,0,0:0:0:0:
64,192,65070,1,2,0:0:0:0:
192,192,65070,1,0,0:0:0:0:
192,192,65232,1,8,0:0:0:0:
320,192,65232,1,0,0:0:0:0:
448,192,65232,1,0,0:0:0:0:
64,192,65394,128,2,65719:0:0:0:0:
448,192,65394,1,0,0:0:0:0:
320,192,65719,1,2,0:0:0:0:
448,192,65719,1,0,0:0:0:0:
64,192,65881,1,8,0:0:0:0:
192,192,65881,1,0,0:0:0:0:
448,192,65881,1,0,0:0:0:0:
320,192,66043,1,0,0:0:0:0:
64,192,66205,1,2,0:0:0:0:
448,192,66205,1,0,0:0:0:0:
64,192,66367,1,2,0:0:0:0:
448,192,66367,1,0,0:0:0:0:
64,192,66529,1,8,0:0:0:0:
192,192,66529,1,0,0:0:0:0:
320,192,66529,1,0,0:0:0:0:
320,192,66692,128,2,67016:0:0:0:0:
448,192,66692,1,0,0:0:0:0:
64,192,67016,1,2,0:0:0:0:
192,192,67016,1,0,0:0:0:0:
64,192,67178,1,8,0:0:0:0:
320,192,67178,1,0,0:0:0:0:
448,192,67178,1,0,0:0:0:0:
192,192,67502,1,2,0:0:0:0:
448,192,67502,1,0,0:0:0:0:
192,192,67665,1,2,0:0:0:0:
448,192,67665,1,0,0:0:0:0:
64,192,67827,1,8,0:0:0:0:
320,192,67827,1,0,0:0:0:0:
448,192,67827,1,0,0:0:0:0:
64,192,67989,1,2,0:0:0:0:
192,192,67989,128,4,68313:0:0:0:0:
320,192,67989,1,0,0:0:0:0:
320,192,68313,1,2,0:0:0:0:
448,192,68313,1,0,0:0:0:0:
64,192,68475,128,8,68800:0:0:0:0:
192,192,68475,1,0,0:0:0:0:
320,192,68475,1,0,0:0:0:0:
320,192,68800,1,2,0:0:0:0:
448,192,68800,1,0,0:0:0:0:
320,192,68962,1,2,0:0:0:0:
448,192,68962,1,0,0:0:0:0:
64,192,69124,1,8,0:0:0:0:
192,192,69124,1,0,0:0:0:0:
320,192,69124,1,0,0:0:0:0:
64,192,69286,1,2,0:0:0:0:
448,192,69286,128,0,69611:0:0:0:0:
64,192,69611,1,2,0:0:0:0:
192,192,69611,1,0,0:0:0:0:
192,192,69773,1,8,0:0:0:0:
320,192,69773,1,0,0:0:0:0:
448,192,69773,1,0,0:0:0:0:
64,192,69935,1,2,0:0:0:0:
192,192,70016,1,2,0:0:0:0:
448,192,70097,1,8,0:0:0:0:
320,192,70097,1,0,0:0:0:0:
192,192,70178,1,8,0:0:0:0:
64,192,70178,1,0,0:0:0:0:
448,192,70259,1,8,0:0:0:0:
320,192,70259,1,0,0:0:0:0:
192,192,70340,1,8,0:0:0:0:
64,192,70340,1,0,0:0:0:0:
448,192,70421,1,8,0:0:0:0:
320,192,70421,1,0,0:0:0:0:
192,192,70502,1,8,0:0:0:0:
64,192,70584,1,0,0:0:0:0:
448,192,70584,1,2,0:0:0:0:
320,192,70584,1,4,0:0:0:0:
192,192,70908,1,2,0:0:0:0:
64,192,70908,1,0,0:0:0:0:
448,192,71070,1,8,0:0:0:0:
320,192,71070,1,0,0:0:0:0:
192,192,71070,1,0,0:0:0:0:
448,192,71394,1,2,0:0:0:0:
64,192,71394,1,0,0:0:0:0:
448,192,71557,1,2,0:0:0:0:
64,192,71557,1,0,0:0:0:0:
320,192,71719,1,8,0:0:0:0:
192,192,71719,1,0,0:0:0:0:
64,192,71719,1,0,0:0:0:0:
448,192,71881,1,2,0:0:0:0:
320,192,71881,1,0,0:0:0:0:
448,192,72205,1,2,0:0:0:0:
64,192,72205,1,0,0:0:0:0:
320,192,72367,1,8,0:0:0:0:
192,192,72367,1,0,0:0:0:0:
64,192,72367,1,0,0:0:0:0:
448,192,72692,1,2,0:0:0:0:
320,192,72692,1,0,0:0:0:0:
448,192,72854,1,2,0:0:0:0:
320,192,72854,1,0,0:0:0:0:
448,192,73016,1,8,0:0:0:0:
192,192,73016,1,0,0:0:0:0:
64,192,73016,1,0,0:0:0:0:
320,192,73178,1,2,0:0:0:0:
64,192,73178,1,4,0:0:0:0:
192,192,73178,1,0,0:0:0:0:
448,192,73502,1,2,0:0:0:0:
192,192,73502,1,0,0:0:0:0:
448,192,73665,1,2,0:0:0:0:
192,192,73665,1,0,0:0:0:0:
448,192,73989,1,2,0:0:0:0:
320,192,73989,1,0,0:0:0:0:
320,192,74313,1,8,0:0:0:0:
192,192,74313,1,0,0:0:0:0:
64,192,74313,1,0,0:0:0:0:
448,192,74638,1,2,0:0:0:0:
64,192,74638,1,0,0:0:0:0:
448,192,74962,1,8,0:0:0:0:
320,192,74962,1,0,0:0:0:0:
192,192,74962,1,0,0:0:0:0:
192,192,75286,1,2,0:0:0:0:
64,192,75286,1,0,0:0:0:0:
448,192,75448,1,8,0:0:0:0:
320,192,75448,1,0,0:0:0:0:
64,192,75448,1,0,0:0:0:0:
320,192,75611,1,8,0:0:0:0:
192,192,75611,1,0,0:0:0:0:
448,192,75773,1,2,0:0:0:0:
192,192,75773,1,4,0:0:0:0:
64,192,75773,1,0,0:0:0:0:
192,192,76097,1,2,0:0:0:0:
64,192,76097,1,0,0:0:0:0:
448,192,76259,1,8,0:0:0:0:
320,192,76259,1,0,0:0:0:0:
64,192,76259,1,0,0:0:0:0:
192,192,76584,1,2,0:0:0:0:
64,192,76584,1,0,0:0:0:0:
192,192,76746,1,2,0:0:0:0:
64,192,76746,1,0,0:0:0:0:
448,192,76908,1,8,0:0:0:0:
320,192,76908,1,0,0:0:0:0:
192,192,76908,1,0,0:0:0:0:
320,192,77070,1,2,0:0:0:0:
64,192,77070,1,0,0:0:0:0:
448,192,77394,1,2,0:0:0:0:
64,192,77394,1,0,0:0:0:0:
448,192,77557,1,8,0:0:0:0:
320,192,77557,1,0,0:0:0:0:
192,192,77557,1,0,0:0:0:0:
320,192,77881,1,2,0:0:0:0:
64,192,77881,1,0,0:0:0:0:
320,192,78043,1,2,0:0:0:0:
64,192,78043,1,0,0:0:0:0:
448,192,78205,1,8,0:0:0:0:
192,192,78205,1,0,0:0:0:0:
64,192,78205,1,0,0:0:0:0:
448,192,78367,1,2,0:0:0:0:
320,192,78367,1,4,0:0:0:0:
192,192,78367,1,0,0:0:0:0:
192,192,78692,1,2,0:0:0:0:
64,192,78692,1,0,0:0:0:0:
192,192,78854,1,2,0:0:0:0:
64,192,78854,1,0,0:0:0:0:
448,192,79178,1,2,0:0:0:0:
64,192,79178,1,0,0:0:0:0:
448,192,79502,1,8,0:0:0:0:
320,192,79502,1,0,0:0:0:0:
64,192,79502,1,0,0:0:0:0:
448,192,79827,1,2,0:0:0:0:
192,192,79827,1,0,0:0:0:0:
320,192,80151,1,8,0:0:0:0:
192,192,80151,1,0,0:0:0:0:
64,192,80151,1,0,0:0:0:0:
192,192,80313,1,2,0:0:0:0:
64,192,80313,1,0,0:0:0:0:
448,192,80475,1,8,0:0:0:0:
320,192,80475,1,0,0:0:0:0:
192,192,80557,1,8,0:0:0:0:
64,192,80557,1,0,0:0:0:0:
448,192,80638,1,0,0:0:0:70:tom02.wav
192,192,80800,1,8,0:0:0:0:
64,192,80800,1,0,0:0:0:0:
320,192,80881,1,8,0:0:0:0:
448,192,80962,1,0,0:0:0:0:
192,192,80962,1,2,0:0:0:0:
64,192,80962,1,4,0:0:0:0:
448,192,81448,1,0,0:0:0:0:
320,192,81448,1,0,0:0:0:0:
64,192,81611,1,0,0:0:0:0:
448,192,81773,1,0,0:0:0:0:
320,192,82097,1,0,0:0:0:0:
64,192,82097,1,0,0:0:0:0:
192,192,82259,1,0,0:0:0:0:
320,192,82421,1,0,0:0:0:0:
448,192,82746,1,0,0:0:0:0:
64,192,82746,1,0,0:0:0:0:
320,192,83070,1,0,0:0:0:0:
448,192,83232,1,2,0:0:0:0:
64,192,83232,1,0,0:0:0:0:
320,192,83557,1,2,0:0:0:0:
192,192,83557,1,0,0:0:0:0:
192,192,84043,1,0,0:0:0:0:
64,192,84043,1,0,0:0:0:0:
448,192,84367,1,0,0:0:0:0:
320,192,84692,1,0,0:0:0:0:
64,192,84692,1,0,0:0:0:0:
192,192,84854,1,0,0:0:0:0:
448,192,85340,1,0,0:0:0:0:
320,192,85340,1,0,0:0:0:0:
64,192,85665,1,0,0:0:0:0:
320,192,85827,1,0,0:0:0:0:
448,192,85989,1,0,0:0:0:0:
192,192,85989,1,0,0:0:0:0:
320,192,86151,1,2,0:0:0:0:
192,192,86151,1,4,0:0:0:0:
64,192,86151,1,0,0:0:0:0:
448,192,86638,1,0,0:0:0:0:
192,192,86638,1,0,0:0:0:0:
320,192,86800,1,0,0:0:0:0:
192,192,86962,1,0,0:0:0:0:
320,192,87286,1,0,0:0:0:0:
64,192,87286,1,0,0:0:0:0:
448,192,87448,1,0,0:0:0:0:
192,192,87611,1,0,0:0:0:0:
448,192,87935,1,0,0:0:0:0:
64,192,87935,1,0,0:0:0:0:
192,192,88259,1,0,0:0:0:0:
448,192,88421,1,2,0:0:0:0:
320,192,88421,1,0,0:0:0:0:
192,192,88746,1,2,0:0:0:0:
64,192,88746,1,0,0:0:0:0:
448,192,89232,1,0,0:0:0:0:
320,192,89232,1,0,0:0:0:0:
192,192,89557,1,0,0:0:0:0:
320,192,89881,1,0,0:0:0:0:
64,192,89881,1,0,0:0:0:0:
448,192,90043,1,0,0:0:0:0:
320,192,90529,1,0,0:0:0:0:
64,192,90529,1,0,0:0:0:0:
192,192,90854,1,8,0:0:0:0:
64,192,90854,1,0,0:0:0:0:
448,192,90935,1,8,0:0:0:0:
320,192,90935,1,0,0:0:0:0:
64,192,91016,1,2,0:0:0:0:
192,192,91097,1,2,0:0:0:0:
448,192,91178,1,8,0:0:0:0:
320,192,91178,1,0,0:0:0:0:
192,192,91259,1,8,0:0:0:0:
64,192,91340,1,0,0:0:0:0:
448,192,91340,1,2,0:0:0:0:
320,192,91340,1,4,0:0:0:0:
192,192,91665,1,2,0:0:0:0:
64,192,91665,1,0,0:0:0:0:
448,192,91827,1,8,0:0:0:0:
320,192,91827,1,0,0:0:0:0:
192,192,91827,1,0,0:0:0:0:
64,192,91989,1,0,0:0:0:0:
448,192,92151,1,2,0:0:0:0:
192,192,92151,1,0,0:0:0:0:
448,192,92313,1,2,0:0:0:0:
192,192,92313,1,0,0:0:0:0:
320,192,92475,1,8,0:0:0:0:
192,192,92475,1,0,0:0:0:0:
64,192,92475,1,0,0:0:0:0:
448,192,92638,1,2,0:0:0:0:
320,192,92638,1,0,0:0:0:0:
192,192,92800,1,0,0:0:0:0:
64,192,92962,1,0,0:0:0:0:
448,192,92962,1,2,0:0:0:0:
448,192,93124,1,8,0:0:0:0:
192,192,93124,1,0,0:0:0:0:
64,192,93124,1,0,0:0:0:0:
320,192,93286,1,0,0:0:0:0:
64,192,93448,1,2,0:0:0:0:
192,192,93448,1,0,0:0:0:0:
448,192,93611,1,2,0:0:0:0:
64,192,93611,1,0,0:0:0:0:
320,192,93773,1,8,0:0:0:0:
192,192,93773,1,0,0:0:0:0:
448,192,93773,1,0,0:0:0:0:
320,192,93935,1,2,0:0:0:0:
64,192,93935,1,0,0:0:0:0:
448,192,94259,1,2,0:0:0:0:
320,192,94259,1,0,0:0:0:0:
320,192,94421,1,8,0:0:0:0:
192,192,94421,1,0,0:0:0:0:
64,192,94421,1,0,0:0:0:0:
448,192,94584,1,0,0:0:0:0:
320,192,94746,1,2,0:0:0:0:
64,192,94746,1,0,0:0:0:0:
448,192,94908,1,2,0:0:0:0:
64,192,94908,1,0,0:0:0:0:
448,192,95070,1,8,0:0:0:0:
320,192,95070,1,0,0:0:0:0:
192,192,95070,1,0,0:0:0:0:
320,192,95232,1,2,0:0:0:0:
64,192,95232,1,0,0:0:0:0:
192,192,95394,1,0,0:0:0:0:
64,192,95557,1,0,0:0:0:0:
320,192,95557,1,2,0:0:0:0:
448,192,95719,1,8,0:0:0:0:
192,192,95719,1,0,0:0:0:0:
64,192,95719,1,0,0:0:0:0:
320,192,95881,1,0,0:0:0:0:
64,192,96043,1,2,0:0:0:0:
192,192,96043,1,0,0:0:0:0:
320,192,96205,1,2,0:0:0:0:
448,192,96205,1,0,0:0:0:0:
448,192,96367,1,8,0:0:0:0:
192,192,96367,1,0,0:0:0:0:
64,192,96367,1,0,0:0:0:0:
320,192,96529,1,2,0:0:0:0:
192,192,96529,1,4,0:0:0:0:
64,192,96529,1,0,0:0:0:0:
448,192,96854,1,2,0:0:0:0:
192,192,96854,1,0,0:0:0:0:
320,192,97016,1,8,0:0:0:0:
192,192,97016,1,0,0:0:0:0:
64,192,97016,1,0,0:0:0:0:
448,192,97178,1,0,0:0:0:0:
192,192,97340,1,2,0:0:0:0:
64,192,97340,1,0,0:0:0:0:
192,192,97502,1,2,0:0:0:0:
64,192,97502,1,0,0:0:0:0:
448,192,97665,1,8,0:0:0:0:
320,192,97665,1,0,0:0:0:0:
64,192,97665,1,0,0:0:0:0:
448,192,97827,1,2,0:0:0:0:
192,192,97827,1,0,0:0:0:0:
64,192,97989,1,0,0:0:0:0:
448,192,98151,1,2,0:0:0:0:
320,192,98151,1,0,0:0:0:0:
320,192,98313,1,8,0:0:0:0:
192,192,98313,1,0,0:0:0:0:
64,192,98313,1,0,0:0:0:0:
448,192,98475,1,0,0:0:0:0:
320,192,98638,1,2,0:0:0:0:
192,192,98638,1,0,0:0:0:0:
320,192,98800,1,2,0:0:0:0:
64,192,98800,1,0,0:0:0:0:
448,192,98962,1,8,0:0:0:0:
192,192,98962,1,0,0:0:0:0:
64,192,98962,1,0,0:0:0:0:
448,192,99124,1,2,0:0:0:0:
320,192,99124,1,0,0:0:0:0:
192,192,99448,1,2,0:0:0:0:
64,192,99448,1,0,0:0:0:0:
448,192,99611,1,8,0:0:0:0:
320,192,99611,1,0,0:0:0:0:
64,192,99611,1,0,0:0:0:0:
192,192,99773,1,0,0:0:0:0:
448,192,99935,1,2,0:0:0:0:
320,192,99935,1,0,0:0:0:0:
320,192,100097,1,2,0:0:0:0:
192,192,100097,1,0,0:0:0:0:
448,192,100259,1,8,0:0:0:0:
192,192,100259,1,0,0:0:0:0:
64,192,100259,1,0,0:0:0:0:
320,192,100421,1,2,0:0:0:0:
64,192,100421,1,0,0:0:0:0:
448,192,100584,1,0,0:0:0:0:
192,192,100746,1,2,0:0:0:0:
64,192,100746,1,0,0:0:0:0:
448,192,100908,1,8,0:0:0:0:
320,192,100908,1,0,0:0:0:0:
192,192,100908,1,0,0:0:0:0:
64,192,101070,1,0,0:0:0:70:tom01.wav
192,192,101151,1,0,0:0:0:70:tom02.wav
448,192,101232,1,2,0:0:0:0:
320,192,101232,1,0,0:0:0:0:
320,192,101394,1,0,0:0:0:70:tom03.wav
192,192,101394,1,0,0:0:0:0:
192,192,101557,1,2,0:0:0:0:
64,192,101557,1,0,0:0:0:0:
448,192,101719,1,2,0:0:0:0:
320,192,101719,1,4,0:0:0:0:
64,192,101719,1,0,0:0:0:0:
192,192,102043,1,2,0:0:0:0:
64,192,102043,1,0,0:0:0:0:
192,192,102205,1,2,0:0:0:0:
64,192,102205,1,0,0:0:0:0:
448,192,102529,1,8,0:0:0:0:
320,192,102529,1,0,0:0:0:0:
192,192,102529,1,0,0:0:0:0:
64,192,102854,1,0,0:0:0:0:
448,192,103016,1,2,0:0:0:0:
192,192,103016,1,0,0:0:0:0:
320,192,103178,1,0,0:0:0:0:
448,192,103340,1,2,0:0:0:0:
64,192,103340,1,0,0:0:0:0:
448,192,103502,1,2,0:0:0:0:
64,192,103502,1,0,0:0:0:0:
320,192,103827,1,8,0:0:0:0:
192,192,103827,1,0,0:0:0:0:
64,192,103827,1,0,0:0:0:0:
320,192,103989,1,8,0:0:0:0:
192,192,103989,1,0,0:0:0:0:
64,192,103989,1,0,0:0:0:0:
448,192,104151,1,0,0:0:0:0:
192,192,104313,1,2,0:0:0:0:
64,192,104313,1,0,0:0:0:0:
320,192,104475,1,0,0:0:0:0:
448,192,104638,1,2,0:0:0:0:
192,192,104638,1,0,0:0:0:0:
448,192,104800,1,2,0:0:0:0:
192,192,104800,1,0,0:0:0:0:
320,192,105124,1,8,0:0:0:0:
192,192,105124,1,0,0:0:0:0:
64,192,105124,1,0,0:0:0:0:
448,192,105448,1,0,0:0:0:0:
192,192,105611,1,2,0:0:0:0:
64,192,105611,1,0,0:0:0:0:
320,192,105773,1,0,0:0:0:0:
448,192,105935,1,2,0:0:0:0:
64,192,105935,1,0,0:0:0:0:
448,192,106097,1,2,0:0:0:0:
64,192,106097,1,0,0:0:0:0:
448,192,106421,1,8,0:0:0:0:
320,192,106421,1,0,0:0:0:0:
64,192,106462,1,8,0:0:0:0:
320,192,106584,1,2,0:0:0:0:
192,192,106584,1,0,0:0:0:0:
192,192,106746,1,8,0:0:0:0:
64,192,106746,1,0,0:0:0:0:
448,192,106786,1,8,0:0:0:0:
192,192,106908,1,2,0:0:0:0:
64,192,106908,1,4,0:0:0:0:
320,192,106908,1,0,0:0:0:0:
448,192,107232,1,2,0:0:0:0:
320,192,107232,1,0,0:0:0:0:
448,192,107394,1,2,0:0:0:0:
320,192,107394,1,0,0:0:0:0:
448,192,107719,1,8,0:0:0:0:
320,192,107719,1,0,0:0:0:0:
64,192,107719,1,0,0:0:0:0:
192,192,108043,1,0,0:0:0:0:
448,192,108205,1,2,0:0:0:0:
64,192,108205,1,0,0:0:0:0:
320,192,108367,1,0,0:0:0:0:
192,192,108529,1,2,0:0:0:0:
64,192,108529,1,0,0:0:0:0:
192,192,108692,1,2,0:0:0:0:
64,192,108692,1,0,0:0:0:0:
448,192,109016,1,8,0:0:0:0:
320,192,109016,1,0,0:0:0:0:
64,192,109016,1,0,0:0:0:0:
448,192,109178,1,8,0:0:0:0:
320,192,109178,1,0,0:0:0:0:
64,192,109178,1,0,0:0:0:0:
192,192,109340,1,0,0:0:0:0:
320,192,109502,1,2,0:0:0:0:
64,192,109502,1,4,0:0:0:0:
448,192,109827,1,2,0:0:0:0:
320,192,109827,1,0,0:0:0:0:
320,192,109989,1,8,0:0:0:0:
192,192,109989,1,0,0:0:0:0:
64,192,109989,1,0,0:0:0:0:
448,192,110151,1,0,0:0:0:0:
192,192,110313,1,2,0:0:0:0:
64,192,110313,1,0,0:0:0:0:
192,192,110475,1,2,0:0:0:0:
64,192,110475,1,0,0:0:0:0:
448,192,110638,1,8,0:0:0:0:
320,192,110638,1,0,0:0:0:0:
192,192,110638,1,0,0:0:0:0:
64,192,110800,1,0,0:0:0:0:
448,192,110962,1,0,0:0:0:70:tom01.wav
320,192,110962,1,0,0:0:0:0:
192,192,111124,1,0,0:0:0:70:tom02.wav
64,192,111124,1,0,0:0:0:0:
448,192,111286,1,0,0:0:0:0:
192,192,111367,1,0,0:0:0:70:tom01.wav
64,192,111367,1,0,0:0:0:0:
448,192,111448,1,8,0:0:0:0:
320,192,111448,1,0,0:0:0:0:
192,192,111611,1,0,0:0:0:70:tom03.wav
64,192,111611,1,0,0:0:0:0:
192,192,111773,1,0,0:0:0:0:
448,192,111854,1,8,0:0:0:0:
320,192,111854,1,0,0:0:0:0:
192,192,111935,1,8,0:0:0:0:
64,192,111935,1,0,0:0:0:0:
448,192,112097,1,2,0:0:0:0:
320,192,112097,128,4,112421:0:0:0:0:
64,192,112097,1,0,0:0:0:0:
192,192,112421,1,2,0:0:0:0:
64,192,112421,1,0,0:0:0:0:
448,192,112584,1,8,0:0:0:0:
320,192,112584,1,0,0:0:0:0:
64,192,112584,128,0,112908:0:0:0:0:
320,192,112908,1,2,0:0:0:0:
192,192,112908,1,0,0:0:0:0:
320,192,113070,1,2,0:0:0:0:
192,192,113070,1,0,0:0:0:0:
448,192,113232,1,8,0:0:0:0:
192,192,113232,1,0,0:0:0:0:
64,192,113232,1,0,0:0:0:0:
448,192,113394,128,2,113719:0:0:0:0:
320,192,113394,1,0,0:0:0:0:
320,192,113719,1,2,0:0:0:0:
192,192,113719,1,0,0:0:0:0:
448,192,113881,1,8,0:0:0:0:
192,192,113881,128,0,114205:0:0:0:0:
64,192,113881,1,0,0:0:0:0:
448,192,114205,1,2,0:0:0:0:
320,192,114205,1,0,0:0:0:0:
448,192,114367,1,2,0:0:0:0:
320,192,114367,1,0,0:0:0:0:
320,192,114529,1,8,0:0:0:0:
192,192,114529,1,0,0:0:0:0:
64,192,114529,1,0,0:0:0:0:
448,192,114692,1,2,0:0:0:0:
64,192,114692,128,0,115016:0:0:0:0:
320,192,115016,1,2,0:0:0:0:
192,192,115016,1,0,0:0:0:0:
448,192,115178,1,8,0:0:0:0:
320,192,115178,1,0,0:0:0:0:
64,192,115178,1,0,0:0:0:0:
192,192,115340,1,0,0:0:0:0:
320,192,115502,1,2,0:0:0:0:
64,192,115502,1,0,0:0:0:0:
320,192,115665,1,2,0:0:0:0:
64,192,115665,1,0,0:0:0:0:
448,192,115827,1,8,0:0:0:0:
320,192,115827,1,0,0:0:0:0:
192,192,115827,1,0,0:0:0:0:
448,192,115989,128,2,116313:0:0:0:0:
64,192,115989,1,0,0:0:0:0:
320,192,116313,1,2,0:0:0:0:
64,192,116313,1,0,0:0:0:0:
448,192,116475,1,8,0:0:0:0:
192,192,116475,1,0,0:0:0:0:
64,192,116475,1,0,0:0:0:0:
448,192,116800,1,2,0:0:0:0:
320,192,116800,1,0,0:0:0:0:
448,192,116962,1,2,0:0:0:0:
320,192,116962,1,0,0:0:0:0:
320,192,117124,1,8,0:0:0:0:
192,192,117124,1,0,0:0:0:0:
64,192,117124,1,0,0:0:0:0:
448,192,117286,1,2,0:0:0:0:
192,192,117286,128,4,117611:0:0:0:0:
64,192,117286,1,0,0:0:0:0:
448,192,117611,1,2,0:0:0:0:
320,192,117611,1,0,0:0:0:0:
320,192,117773,1,8,0:0:0:0:
192,192,117773,1,0,0:0:0:0:
64,192,117773,128,0,118097:0:0:0:0:
448,192,118097,1,2,0:0:0:0:
192,192,118097,1,0,0:0:0:0:
448,192,118259,1,2,0:0:0:0:
192,192,118259,1,0,0:0:0:0:
448,192,118421,1,8,0:0:0:0:
320,192,118421,1,0,0:0:0:0:
64,192,118421,1,0,0:0:0:0:
320,192,118584,128,2,118908:0:0:0:0:
192,192,118584,1,0,0:0:0:0:
192,192,118908,1,2,0:0:0:0:
64,192,118908,1,0,0:0:0:0:
448,192,119070,128,8,119394:0:0:0:0:
320,192,119070,1,0,0:0:0:0:
64,192,119070,1,0,0:0:0:0:
320,192,119394,1,2,0:0:0:0:
192,192,119394,1,0,0:0:0:0:
320,192,119557,1,2,0:0:0:0:
192,192,119557,1,0,0:0:0:0:
448,192,119719,1,8,0:0:0:0:
192,192,119719,1,0,0:0:0:0:
64,192,119719,1,0,0:0:0:0:
448,192,119881,1,2,0:0:0:0:
320,192,119881,128,0,120205:0:0:0:0:
192,192,120205,1,2,0:0:0:0:
64,192,120205,1,0,0:0:0:0:
448,192,120367,1,8,0:0:0:0:
320,192,120367,1,0,0:0:0:0:
192,192,120367,1,0,0:0:0:0:
64,192,120529,1,0,0:0:0:0:
448,192,120692,1,2,0:0:0:0:
192,192,120692,1,0,0:0:0:0:
448,192,120854,1,2,0:0:0:0:
192,192,120854,1,0,0:0:0:0:
320,192,121016,1,8,0:0:0:0:
192,192,121016,1,0,0:0:0:0:
64,192,121016,1,0,0:0:0:0:
448,192,121178,1,2,0:0:0:0:
64,192,121178,128,0,121502:0:0:0:0:
320,192,121502,1,2,0:0:0:0:
192,192,121502,1,0,0:0:0:0:
448,192,121665,1,8,0:0:0:0:
320,192,121665,1,0,0:0:0:0:
64,192,121665,1,0,0:0:0:0:
448,192,121827,1,2,0:0:0:0:
192,192,121827,1,0,0:0:0:0:
320,192,121989,1,8,0:0:0:0:
192,192,121989,1,0,0:0:0:0:
64,192,121989,1,0,0:0:0:0:
448,192,122151,1,2,0:0:0:0:
320,192,122232,1,2,0:0:0:0:
192,192,122313,1,8,0:0:0:0:
64,192,122313,1,0,0:0:0:0:
320,192,122394,1,8,0:0:0:0:
448,192,122475,1,0,0:0:0:0:
192,192,122475,128,2,122800:0:0:0:0:
64,192,122475,1,4,0:0:0:0:
448,192,122800,1,2,0:0:0:0:
64,192,122800,1,0,0:0:0:0:
320,192,122962,128,8,123286:0:0:0:0:
192,192,122962,1,0,0:0:0:0:
64,192,122962,1,0,0:0:0:0:
448,192,123286,1,2,0:0:0:0:
64,192,123286,1,0,0:0:0:0:
448,192,123448,1,2,0:0:0:0:
64,192,123448,1,0,0:0:0:0:
320,192,123611,1,8,0:0:0:0:
192,192,123611,1,0,0:0:0:0:
64,192,123611,1,0,0:0:0:0:
448,192,123773,128,2,124097:0:0:0:0:
320,192,123773,1,0,0:0:0:0:
320,192,124097,1,2,0:0:0:0:
64,192,124097,1,0,0:0:0:0:
448,192,124259,1,8,0:0:0:0:
192,192,124259,128,0,124584:0:0:0:0:
64,192,124259,1,0,0:0:0:0:
448,192,124584,1,2,0:0:0:0:
320,192,124584,1,0,0:0:0:0:
448,192,124746,1,2,0:0:0:0:
320,192,124746,1,0,0:0:0:0:
448,192,124908,1,8,0:0:0:0:
192,192,124908,1,0,0:0:0:0:
64,192,124908,1,0,0:0:0:0:
320,192,125070,128,2,125394:0:0:0:0:
64,192,125070,1,0,0:0:0:0:
192,192,125394,1,2,0:0:0:0:
64,192,125394,1,0,0:0:0:0:
448,192,125557,1,8,0:0:0:0:
320,192,125557,1,0,0:0:0:0:
192,192,125557,1,0,0:0:0:0:
64,192,125719,1,0,0:0:0:0:
448,192,125881,1,2,0:0:0:0:
192,192,125881,1,0,0:0:0:0:
448,192,126043,1,2,0:0:0:0:
192,192,126043,1,0,0:0:0:0:
448,192,126205,1,8,0:0:0:0:
320,192,126205,1,0,0:0:0:0:
64,192,126205,1,0,0:0:0:0:
192,192,126367,1,2,0:0:0:0:
64,192,126367,128,0,126692:0:0:0:0:
448,192,126692,1,2,0:0:0:0:
320,192,126692,1,0,0:0:0:0:
320,192,126854,1,8,0:0:0:0:
192,192,126854,1,0,0:0:0:0:
64,192,126854,1,0,0:0:0:0:
448,192,127178,1,2,0:0:0:0:
64,192,127178,1,0,0:0:0:0:
448,192,127340,1,2,0:0:0:0:
64,192,127340,1,0,0:0:0:0:
448,192,127502,1,8,0:0:0:0:
320,192,127502,1,0,0:0:0:0:
192,192,127502,1,0,0:0:0:0:
320,192,127665,128,2,127989:0:0:0:0:
64,192,127665,1,4,0:0:0:0:
192,192,127665,1,0,0:0:0:0:
448,192,127989,1,2,0:0:0:0:
192,192,127989,1,0,0:0:0:0:
320,192,128151,1,8,0:0:0:0:
448,192,128151,1,0,0:0:0:0:
64,192,128151,128,0,128475:0:0:0:0:
320,192,128475,1,2,0:0:0:0:
192,192,128475,1,0,0:0:0:0:
320,192,128638,1,2,0:0:0:0:
192,192,128638,1,0,0:0:0:0:
448,192,128800,1,8,0:0:0:0:
320,192,128800,1,0,0:0:0:0:
64,192,128800,1,0,0:0:0:0:
448,192,128962,1,2,0:0:0:0:
192,192,128962,128,0,129286:0:0:0:0:
320,192,129286,1,2,0:0:0:0:
64,192,129286,1,0,0:0:0:0:
448,192,129448,1,8,0:0:0:0:
320,192,129448,1,0,0:0:0:0:
192,192,129448,1,0,0:0:0:0:
64,192,129611,1,2,0:0:0:0:
192,192,129692,1,2,0:0:0:0:
320,192,129773,1,8,0:0:0:0:
448,192,129773,1,0,0:0:0:0:
64,192,129854,1,8,0:0:0:0:
192,192,129854,1,0,0:0:0:0:
320,192,129935,1,8,0:0:0:0:
448,192,129935,1,0,0:0:0:0:
64,192,130016,1,8,0:0:0:0:
192,192,130016,1,0,0:0:0:0:
320,192,130097,1,8,0:0:0:0:
448,192,130097,1,0,0:0:0:0:
192,192,130178,1,8,0:0:0:0:
64,192,130259,1,0,0:0:0:0:
320,192,130259,1,2,0:0:0:0:
448,192,130259,128,4,130584:0:0:0:0:
64,192,130584,128,2,130746:0:0:0:0:
320,192,130746,128,8,130908:0:0:0:0:
448,192,130746,1,0,0:0:0:0:
64,192,130908,128,0,131070:0:0:0:0:
192,192,131070,128,2,131232:0:0:0:0:
320,192,131232,128,2,131394:0:0:0:0:
64,192,131394,1,8,0:0:0:0:
448,192,131394,128,0,131557:0:0:0:0:
192,192,131557,128,2,131881:0:0:0:0:
64,192,131881,128,2,132205:0:0:0:0:
320,192,132043,1,8,0:0:0:0:
448,192,132043,1,0,0:0:0:0:
192,192,132205,128,0,132529:0:0:0:0:
448,192,132367,1,2,0:0:0:0:
320,192,132529,128,2,132692:0:0:0:0:
192,192,132692,1,0,0:0:0:0:
64,192,132692,128,8,132854:0:0:0:0:
448,192,132854,128,2,133178:0:0:0:0:
320,192,132854,1,4,0:0:0:0:
192,192,133178,128,2,133340:0:0:0:0:
64,192,133340,128,8,133502:0:0:0:0:
448,192,133340,1,0,0:0:0:0:
320,192,133502,128,0,133827:0:0:0:0:
448,192,133665,1,2,0:0:0:0:
192,192,133827,128,2,133989:0:0:0:0:
64,192,133989,1,8,0:0:0:0:
320,192,133989,128,0,134151:0:0:0:0:
448,192,134151,128,2,134475:0:0:0:0:
320,192,134475,128,2,134638:0:0:0:0:
64,192,134638,1,8,0:0:0:0:
192,192,134638,128,0,134800:0:0:0:0:
320,192,134800,128,0,135124:0:0:0:0:
64,192,134962,1,2,0:0:0:0:
192,192,135124,128,2,135448:0:0:0:0:
320,192,135286,1,8,0:0:0:0:
448,192,135286,1,0,0:0:0:0:
64,192,135448,128,2,136259:0:0:0:0:
448,192,135448,1,4,0:0:0:0:
448,192,135773,1,2,0:0:0:0:
192,192,135935,1,8,0:0:0:0:
320,192,135935,1,0,0:0:0:0:
448,192,136259,1,2,0:0:0:0:
192,192,136421,128,2,136584:0:0:0:0:
64,192,136584,1,8,0:0:0:0:
320,192,136584,128,0,136746:0:0:0:0:
448,192,136746,128,2,137070:0:0:0:0:
320,192,137070,128,2,137232:0:0:0:0:
192,192,137232,128,8,137394:0:0:0:0:
448,192,137232,1,0,0:0:0:0:
64,192,137394,128,0,138043:0:0:0:0:
448,192,137557,1,2,0:0:0:0:
448,192,137719,1,2,0:0:0:0:
192,192,137881,1,8,0:0:0:0:
320,192,137881,1,0,0:0:0:0:
192,192,138043,1,2,0:0:0:0:
448,192,138043,128,4,138529:0:0:0:0:
320,192,138367,1,2,0:0:0:0:
64,192,138529,128,8,138692:0:0:0:0:
192,192,138529,1,0,0:0:0:0:
320,192,138692,128,0,138854:0:0:0:0:
192,192,138854,1,2,0:0:0:0:
448,192,138854,128,0,139016:0:0:0:0:
64,192,139016,128,0,139178:0:0:0:0:
448,192,139178,1,8,0:0:0:0:
320,192,139178,128,0,139340:0:0:0:0:
192,192,139340,128,2,139665:0:0:0:0:
448,192,139665,128,0,139827:0:0:0:0:
64,192,139827,1,8,0:0:0:0:
320,192,139827,128,0,139989:0:0:0:0:
192,192,139989,128,2,140151:0:0:0:0:
320,192,140151,1,8,0:0:0:0:
448,192,140151,1,0,0:0:0:0:
64,192,140232,1,8,0:0:0:0:
192,192,140232,1,0,0:0:0:0:
448,192,140313,1,0,0:0:0:70:tom03.wav
64,192,140475,1,8,0:0:0:0:
192,192,140475,1,0,0:0:0:0:
320,192,140557,1,8,0:0:0:0:
64,192,140638,1,0,0:0:0:0:
192,192,140638,1,2,0:0:0:0:
448,192,140638,1,4,0:0:0:0:
64,192,140962,1,2,0:0:0:0:
192,192,140962,1,0,0:0:0:0:
64,192,141124,1,2,0:0:0:0:
192,192,141124,1,0,0:0:0:0:
64,192,141448,1,8,0:0:0:0:
448,192,141448,1,0,0:0:0:0:
320,192,141448,1,0,0:0:0:0:
192,192,141773,1,0,0:0:0:0:
320,192,141935,1,2,0:0:0:0:
448,192,141935,1,0,0:0:0:0:
64,192,142097,1,0,0:0:0:0:
192,192,142259,1,2,0:0:0:0:
448,192,142259,1,0,0:0:0:0:
192,192,142421,1,2,0:0:0:0:
448,192,142421,1,0,0:0:0:0:
64,192,142746,1,8,0:0:0:0:
192,192,142746,1,0,0:0:0:0:
320,192,142746,1,0,0:0:0:0:
64,192,142908,1,8,0:0:0:0:
192,192,142908,1,0,0:0:0:0:
320,192,142908,1,0,0:0:0:0:
448,192,143070,1,0,0:0:0:0:
64,192,143232,1,2,0:0:0:0:
320,192,143232,1,0,0:0:0:0:
192,192,143394,1,0,0:0:0:0:
64,192,143557,1,2,0:0:0:0:
448,192,143557,1,0,0:0:0:0:
64,192,143719,1,2,0:0:0:0:
448,192,143719,1,0,0:0:0:0:
64,192,144043,1,8,0:0:0:0:
320,192,144043,1,0,0:0:0:0:
448,192,144043,1,0,0:0:0:0:
192,192,144367,1,0,0:0:0:0:
320,192,144529,1,2,0:0:0:0:
448,192,144529,1,0,0:0:0:0:
64,192,144692,1,0,0:0:0:0:
192,192,144854,1,2,0:0:0:0:
320,192,144854,1,0,0:0:0:0:
192,192,145016,1,2,0:0:0:0:
320,192,145016,1,0,0:0:0:0:
320,192,145340,1,8,0:0:0:0:
448,192,145340,1,0,0:0:0:0:
64,192,145381,1,8,0:0:0:0:
192,192,145502,1,2,0:0:0:0:
320,192,145502,1,0,0:0:0:0:
64,192,145665,1,8,0:0:0:0:
192,192,145665,1,0,0:0:0:0:
448,192,145705,1,8,0:0:0:0:
192,192,145827,1,2,0:0:0:0:
320,192,145827,1,4,0:0:0:0:
448,192,145827,1,0,0:0:0:0:
64,192,146151,1,2,0:0:0:0:
448,192,146151,1,0,0:0:0:0:
64,192,146313,1,2,0:0:0:0:
448,192,146313,1,0,0:0:0:0:
192,192,146638,1,8,0:0:0:0:
320,192,146638,1,0,0:0:0:0:
448,192,146638,1,0,0:0:0:0:
320,192,146962,1,0,0:0:0:0:
64,192,147124,1,2,0:0:0:0:
448,192,147124,1,0,0:0:0:0:
192,192,147286,1,0,0:0:0:0:
320,192,147448,1,2,0:0:0:0:
448,192,147448,1,0,0:0:0:0:
320,192,147611,1,2,0:0:0:0:
448,192,147611,1,0,0:0:0:0:
64,192,147935,1,8,0:0:0:0:
192,192,147935,1,0,0:0:0:0:
448,192,147935,1,0,0:0:0:0:
64,192,148097,1,8,0:0:0:0:
192,192,148097,1,0,0:0:0:0:
448,192,148097,1,0,0:0:0:0:
320,192,148259,1,0,0:0:0:0:
192,192,148421,1,2,0:0:0:0:
448,192,148421,1,4,0:0:0:0:
64,192,148746,1,2,0:0:0:0:
192,192,148746,1,0,0:0:0:0:
192,192,148908,1,8,0:0:0:0:
320,192,148908,1,0,0:0:0:0:
448,192,148908,1,0,0:0:0:0:
64,192,149070,1,0,0:0:0:0:
320,192,149232,1,2,0:0:0:0:
448,192,149232,1,0,0:0:0:0:
320,192,149394,1,2,0:0:0:0:
448,192,149394,1,0,0:0:0:0:
64,192,149557,1,8,0:0:0:0:
192,192,149557,1,0,0:0:0:0:
448,192,149557,1,0,0:0:0:0:
320,192,149719,1,0,0:0:0:0:
64,192,149881,1,8,0:0:0:0:
192,192,149881,1,0,0:0:0:0:
320,192,149962,1,8,0:0:0:0:
448,192,149962,1,0,0:0:0:0:
192,192,150043,1,0,0:0:0:70:tom02.wav
64,192,150124,1,0,0:0:0:70:tom03.wav
320,192,150205,1,8,0:0:0:0:
448,192,150205,1,0,0:0:0:0:
64,192,150286,1,8,0:0:0:0:
192,192,150286,1,0,0:0:0:0:
320,192,150367,1,0,0:0:0:70:tom03.wav
448,192,150448,1,0,0:0:0:70:tom04.wav
64,192,150529,1,2,0:0:0:0:
192,192,150611,1,0,0:0:0:40:tom01.wav
320,192,150692,1,0,0:0:0:40:tom01.wav
448,192,150773,1,0,0:0:0:40:tom01.wav
320,192,150854,1,2,0:0:0:0:
192,192,150935,1,8,0:0:0:0:
64,192,151016,128,2,151340:0:0:0:0:
448,192,151016,128,4,152313:0:0:0:0:
320,192,151016,1,0,0:0:0:0:
192,192,151340,128,0,151502:0:0:0:0:
320,192,151502,128,0,151827:0:0:0:0:
64,192,151989,128,0,152151:0:0:0:0:
320,192,152151,128,0,152313:0:0:0:0:
64,192,152313,128,0,153611:0:0:0:0:
192,192,152313,128,0,152638:0:0:0:0:
448,192,152638,128,0,152800:0:0:0:0:
320,192,152800,128,0,153124:0:0:0:0:
448,192,153448,128,0,153611:0:0:0:0:
192,192,153611,128,0,153935:0:0:0:0:
320,192,153611,128,0,154908:0:0:0:0:
64,192,153935,128,0,154097:0:0:0:0:
448,192,154097,128,0,154259:0:0:0:0:
192,192,154259,128,0,154584:0:0:0:0:
64,192,154584,128,0,154908:0:0:0:0:
192,192,154908,128,0,156205:0:0:0:0:
448,192,154908,128,0,155313:0:0:0:0:
320,192,155881,128,0,156043:0:0:0:0:
64,192,156043,128,0,156205:0:0:0:0:
320,192,156205,128,0,156529:0:0:0:0:
448,192,156205,128,0,157502:0:0:0:0:
64,192,156529,128,0,156692:0:0:0:0:
192,192,156692,128,0,157016:0:0:0:0:
64,192,157178,128,0,157340:0:0:0:0:
320,192,157340,128,0,157502:0:0:0:0:
64,192,157502,128,0,158800:0:0:0:0:
192,192,157502,128,0,157827:0:0:0:0:
320,192,157827,128,0,157989:0:0:0:0:
448,192,157989,128,0,158313:0:0:0:0:
192,192,158638,128,0,158800:0:0:0:0:
320,192,158800,128,0,160097:0:0:0:0:
448,192,158800,128,0,159124:0:0:0:0:
64,192,159124,128,0,159286:0:0:0:0:
448,192,159286,128,0,159448:0:0:0:0:
192,192,159448,128,0,159773:0:0:0:0:
64,192,159773,128,0,160097:0:0:0:0:
448,192,160097,1,4,0:0:0:0:
192,192,160097,128,2,160421:0:0:0:0:
448,192,160421,1,0,0:0:0:70:tom01.wav
320,192,160502,1,0,0:0:0:70:tom02.wav
192,192,160584,1,0,0:0:0:70:tom03.wav
64,192,160665,1,0,0:0:0:70:tom03.wav
448,192,160746,1,2,0:0:0:0:
320,192,160827,1,2,0:0:0:0:
64,192,160908,1,8,0:0:0:0:
192,192,160908,1,0,0:0:0:0:
448,192,160948,1,8,0:0:0:0:
64,192,161070,1,2,0:0:0:0:
192,192,161070,1,0,0:0:0:0:
320,192,161232,1,8,0:0:0:0:
448,192,161232,1,0,0:0:0:0:
64,192,161273,1,8,0:0:0:0:
320,192,161394,128,2,161719:0:0:0:0:
448,192,161394,1,4,0:0:0:0:
192,192,161394,1,0,0:0:0:0:
64,192,161719,1,2,0:0:0:0:
448,192,161719,1,0,0:0:0:0:
64,192,161881,1,8,0:0:0:0:
192,192,161881,128,0,162205:0:0:0:0:
320,192,161881,1,0,0:0:0:0:
320,192,162205,1,2,0:0:0:0:
448,192,162205,1,0,0:0:0:0:
320,192,162367,1,2,0:0:0:0:
448,192,162367,1,0,0:0:0:0:
64,192,162529,1,8,0:0:0:0:
192,192,162529,1,0,0:0:0:0:
320,192,162529,1,0,0:0:0:0:
64,192,162692,1,2,0:0:0:0:
448,192,162692,128,0,163016:0:0:0:0:
192,192,163016,1,2,0:0:0:0:
320,192,163016,1,0,0:0:0:0:
64,192,163178,128,8,163502:0:0:0:0:
320,192,163178,1,0,0:0:0:0:
448,192,163178,1,0,0:0:0:0:
192,192,163502,1,2,0:0:0:0:
448,192,163502,1,0,0:0:0:0:
192,192,163665,1,2,0:0:0:0:
448,192,163665,1,0,0:0:0:0:
64,192,163827,1,8,0:0:0:0:
320,192,163827,1,0,0:0:0:0:
448,192,163827,1,0,0:0:0:0:
64,192,163989,1,2,0:0:0:0:
192,192,163989,128,0,164313:0:0:0:0:
64,192,164313,1,2,0:0:0:0:
448,192,164313,1,0,0:0:0:0:
192,192,164475,1,8,0:0:0:0:
320,192,164475,1,0,0:0:0:0:
448,192,164475,1,0,0:0:0:0:
64,192,164638,1,0,0:0:0:0:
320,192,164800,1,2,0:0:0:0:
448,192,164800,1,0,0:0:0:0:
320,192,164962,1,2,0:0:0:0:
448,192,164962,1,0,0:0:0:0:
64,192,165124,1,8,0:0:0:0:
192,192,165124,1,0,0:0:0:0:
320,192,165124,1,0,0:0:0:0:
192,192,165286,1,2,0:0:0:0:
448,192,165286,128,0,165611:0:0:0:0:
64,192,165611,1,2,0:0:0:0:
192,192,165611,1,0,0:0:0:0:
64,192,165773,1,8,0:0:0:0:
320,192,165773,1,0,0:0:0:0:
448,192,165773,1,0,0:0:0:0:
192,192,166097,1,2,0:0:0:0:
320,192,166097,1,0,0:0:0:0:
192,192,166259,1,2,0:0:0:0:
320,192,166259,1,0,0:0:0:0:
64,192,166421,1,8,0:0:0:0:
192,192,166421,1,0,0:0:0:0:
448,192,166421,1,0,0:0:0:0:
320,192,166584,128,2,166908:0:0:0:0:
448,192,166584,1,4,0:0:0:0:
64,192,166584,1,0,0:0:0:0:
192,192,166908,1,2,0:0:0:0:
448,192,166908,1,0,0:0:0:0:
64,192,167070,128,8,167394:0:0:0:0:
320,192,167070,1,0,0:0:0:0:
448,192,167070,1,0,0:0:0:0:
192,192,167394,1,2,0:0:0:0:
448,192,167394,1,0,0:0:0:0:
192,192,167557,1,2,0:0:0:0:
448,192,167557,1,0,0:0:0:0:
64,192,167719,1,8,0:0:0:0:
320,192,167719,1,0,0:0:0:0:
448,192,167719,1,0,0:0:0:0:
192,192,167881,128,2,168205:0:0:0:0:
64,192,167881,1,0,0:0:0:0:
64,192,168205,1,2,0:0:0:0:
320,192,168205,1,0,0:0:0:0:
192,192,168367,1,8,0:0:0:0:
320,192,168367,1,0,0:0:0:0:
448,192,168367,1,0,0:0:0:0:
64,192,168529,1,2,0:0:0:0:
448,192,168611,1,2,0:0:0:0:
64,192,168692,1,8,0:0:0:0:
192,192,168692,1,0,0:0:0:0:
320,192,168773,1,8,0:0:0:0:
448,192,168773,1,0,0:0:0:0:
64,192,168854,1,8,0:0:0:0:
192,192,168854,1,0,0:0:0:0:
320,192,168935,1,8,0:0:0:0:
448,192,168935,1,0,0:0:0:0:
64,192,169016,1,8,0:0:0:0:
192,192,169016,1,0,0:0:0:0:
320,192,169097,1,8,0:0:0:0:
448,192,169178,1,0,0:0:0:0:
64,192,169178,128,2,169502:0:0:0:0:
192,192,169178,1,4,0:0:0:0:
320,192,169502,1,2,0:0:0:0:
192,192,169502,1,0,0:0:0:0:
64,192,169665,1,8,0:0:0:0:
320,192,169665,1,0,0:0:0:0:
448,192,169665,128,0,169989:0:0:0:0:
64,192,169989,1,2,0:0:0:0:
192,192,169989,1,0,0:0:0:0:
64,192,170151,1,2,0:0:0:0:
192,192,170151,1,0,0:0:0:0:
192,192,170313,1,8,0:0:0:0:
320,192,170313,1,0,0:0:0:0:
448,192,170313,1,0,0:0:0:0:
64,192,170475,1,2,0:0:0:0:
320,192,170475,128,0,170800:0:0:0:0:
192,192,170800,1,2,0:0:0:0:
448,192,170800,1,0,0:0:0:0:
64,192,170962,1,8,0:0:0:0:
192,192,170962,128,0,171286:0:0:0:0:
448,192,170962,1,0,0:0:0:0:
320,192,171286,1,2,0:0:0:0:
448,192,171286,1,0,0:0:0:0:
320,192,171448,1,2,0:0:0:0:
448,192,171448,1,0,0:0:0:0:
64,192,171611,1,8,0:0:0:0:
192,192,171611,1,0,0:0:0:0:
320,192,171611,1,0,0:0:0:0:
64,192,171773,128,2,172097:0:0:0:0:
448,192,171773,1,0,0:0:0:0:
192,192,172097,1,2,0:0:0:0:
320,192,172097,1,0,0:0:0:0:
64,192,172259,1,8,0:0:0:0:
192,192,172259,1,0,0:0:0:0:
448,192,172259,1,0,0:0:0:0:
320,192,172421,1,0,0:0:0:0:
192,192,172584,1,2,0:0:0:0:
448,192,172584,1,0,0:0:0:0:
192,192,172746,1,2,0:0:0:0:
448,192,172746,1,0,0:0:0:0:
64,192,172908,1,8,0:0:0:0:
320,192,172908,1,0,0:0:0:0:
448,192,172908,1,0,0:0:0:0:
192,192,173070,1,2,0:0:0:0:
320,192,173070,128,0,173394:0:0:0:0:
64,192,173394,1,2,0:0:0:0:
192,192,173394,1,0,0:0:0:0:
64,192,173557,1,8,0:0:0:0:
320,192,173557,1,0,0:0:0:0:
448,192,173557,1,0,0:0:0:0:
192,192,173881,1,2,0:0:0:0:
320,192,173881,1,0,0:0:0:0:
192,192,174043,1,2,0:0:0:0:
320,192,174043,1,0,0:0:0:0:
64,192,174205,1,8,0:0:0:0:
192,192,174205,1,0,0:0:0:0:
448,192,174205,1,0,0:0:0:0:
320,192,174367,128,2,174692:0:0:0:0:
448,192,174367,1,4,0:0:0:0:
64,192,174367,1,0,0:0:0:0:
64,192,174692,1,2,0:0:0:0:
448,192,174692,1,0,0:0:0:0:
64,192,174854,1,8,0:0:0:0:
192,192,174854,128,0,175178:0:0:0:0:
320,192,174854,1,0,0:0:0:0:
320,192,175178,1,2,0:0:0:0:
448,192,175178,1,0,0:0:0:0:
320,192,175340,1,2,0:0:0:0:
448,192,175340,1,0,0:0:0:0:
64,192,175502,1,8,0:0:0:0:
192,192,175502,1,0,0:0:0:0:
320,192,175502,1,0,0:0:0:0:
64,192,175665,1,2,0:0:0:0:
448,192,175665,128,0,175989:0:0:0:0:
192,192,175989,1,2,0:0:0:0:
320,192,175989,1,0,0:0:0:0:
64,192,176151,128,8,176475:0:0:0:0:
320,192,176151,1,0,0:0:0:0:
448,192,176151,1,0,0:0:0:0:
192,192,176475,1,2,0:0:0:0:
448,192,176475,1,0,0:0:0:0:
192,192,176638,1,2,0:0:0:0:
448,192,176638,1,0,0:0:0:0:
64,192,176800,1,8,0:0:0:0:
320,192,176800,1,0,0:0:0:0:
448,192,176800,1,0,0:0:0:0:
64,192,176962,1,2,0:0:0:0:
192,192,176962,128,0,177286:0:0:0:0:
320,192,177286,1,2,0:0:0:0:
448,192,177286,1,0,0:0:0:0:
64,192,177448,1,8,0:0:0:0:
192,192,177448,1,0,0:0:0:0:
448,192,177448,1,0,0:0:0:0:
320,192,177611,1,0,0:0:0:0:
64,192,177773,1,2,0:0:0:0:
192,192,177773,1,0,0:0:0:0:
64,192,177935,1,2,0:0:0:0:
192,192,177935,1,0,0:0:0:0:
192,192,178097,1,8,0:0:0:0:
320,192,178097,1,0,0:0:0:0:
448,192,178097,1,0,0:0:0:0:
64,192,178259,1,2,0:0:0:0:
320,192,178259,128,0,178584:0:0:0:0:
64,192,178584,1,2,0:0:0:0:
192,192,178584,1,0,0:0:0:0:
192,192,178746,1,8,0:0:0:0:
320,192,178746,1,0,0:0:0:0:
448,192,178746,1,0,0:0:0:0:
64,192,178908,1,2,0:0:0:0:
448,192,178908,1,0,0:0:0:0:
192,192,179070,1,8,0:0:0:0:
320,192,179070,1,0,0:0:0:0:
448,192,179070,1,0,0:0:0:0:
64,192,179232,1,2,0:0:0:0:
192,192,179313,1,2,0:0:0:0:
320,192,179394,1,8,0:0:0:0:
448,192,179394,1,0,0:0:0:0:
192,192,179475,1,8,0:0:0:0:
64,192,179557,1,0,0:0:0:0:
320,192,179557,1,2,0:0:0:0:
448,192,179557,128,4,179881:0:0:0:0:
64,192,179881,1,2,0:0:0:0:
320,192,179881,1,0,0:0:0:0:
192,192,180043,128,8,180367:0:0:0:0:
320,192,180043,1,0,0:0:0:0:
448,192,180043,1,0,0:0:0:0:
64,192,180367,1,2,0:0:0:0:
448,192,180367,1,0,0:0:0:0:
64,192,180529,1,2,0:0:0:0:
448,192,180529,1,0,0:0:0:0:
192,192,180692,1,8,0:0:0:0:
320,192,180692,1,0,0:0:0:0:
448,192,180692,1,0,0:0:0:0:
64,192,180854,128,2,181178:0:0:0:0:
192,192,180854,1,0,0:0:0:0:
320,192,181178,1,2,0:0:0:0:
448,192,181178,1,0,0:0:0:0:
64,192,181340,1,8,0:0:0:0:
192,192,181340,1,0,0:0:0:0:
320,192,181340,128,0,181665:0:0:0:0:
192,192,181665,1,2,0:0:0:0:
448,192,181665,1,0,0:0:0:0:
192,192,181827,1,2,0:0:0:0:
448,192,181827,1,0,0:0:0:0:
64,192,181989,1,8,0:0:0:0:
192,192,181989,1,0,0:0:0:0:
320,192,181989,1,0,0:0:0:0:
320,192,182151,1,2,0:0:0:0:
448,192,182151,128,0,182475:0:0:0:0:
192,192,182475,1,2,0:0:0:0:
64,192,182475,1,0,0:0:0:0:
64,192,182638,1,8,0:0:0:0:
320,192,182638,1,0,0:0:0:0:
448,192,182638,1,0,0:0:0:0:
192,192,182800,1,0,0:0:0:0:
64,192,182962,1,2,0:0:0:0:
320,192,182962,1,0,0:0:0:0:
64,192,183124,1,2,0:0:0:0:
320,192,183124,1,0,0:0:0:0:
192,192,183286,1,8,0:0:0:0:
320,192,183286,1,0,0:0:0:0:
448,192,183286,1,0,0:0:0:0:
64,192,183448,128,2,183773:0:0:0:0:
448,192,183448,1,0,0:0:0:0:
320,192,183773,1,2,0:0:0:0:
448,192,183773,1,0,0:0:0:0:
64,192,183935,1,8,0:0:0:0:
192,192,183935,1,0,0:0:0:0:
320,192,183935,1,0,0:0:0:0:
192,192,184259,1,2,0:0:0:0:
448,192,184259,1,0,0:0:0:0:
192,192,184421,1,2,0:0:0:0:
448,192,184421,1,0,0:0:0:0:
64,192,184584,1,8,0:0:0:0:
320,192,184584,1,0,0:0:0:0:
448,192,184584,1,0,0:0:0:0:
64,192,184746,1,2,0:0:0:0:
192,192,184746,128,4,185070:0:0:0:0:
320,192,184746,1,0,0:0:0:0:
320,192,185070,1,2,0:0:0:0:
448,192,185070,1,0,0:0:0:0:
64,192,185232,1,8,0:0:0:0:
320,192,185232,128,0,185557:0:0:0:0:
448,192,185232,1,0,0:0:0:0:
64,192,185557,1,2,0:0:0:0:
192,192,185557,1,0,0:0:0:0:
64,192,185719,1,2,0:0:0:0:
192,192,185719,1,0,0:0:0:0:
192,192,185881,1,8,0:0:0:0:
320,192,185881,1,0,0:0:0:0:
448,192,185881,1,0,0:0:0:0:
64,192,186043,128,2,186367:0:0:0:0:
320,192,186043,1,0,0:0:0:0:
320,192,186367,1,2,0:0:0:0:
448,192,186367,1,0,0:0:0:0:
64,192,186529,1,8,0:0:0:0:
192,192,186529,1,0,0:0:0:0:
320,192,186529,1,0,0:0:0:0:
448,192,186692,1,2,0:0:0:0:
64,192,186773,1,2,0:0:0:0:
320,192,186854,1,8,0:0:0:0:
448,192,186854,1,0,0:0:0:0:
64,192,186935,1,8,0:0:0:0:
192,192,186935,1,0,0:0:0:0:
320,192,187016,1,8,0:0:0:0:
448,192,187016,1,0,0:0:0:0:
64,192,187097,1,8,0:0:0:0:
192,192,187097,1,0,0:0:0:0:
320,192,187178,1,8,0:0:0:0:
448,192,187178,1,0,0:0:0:0:
192,192,187259,1,8,0:0:0:0:
64,192,187340,1,0,0:0:0:0:
320,192,187340,1,2,0:0:0:0:
448,192,187340,1,4,0:0:0:0:
64,192,187665,1,2,0:0:0:0:
192,192,187665,1,0,0:0:0:0:
192,192,187827,1,8,0:0:0:0:
320,192,187827,1,0,0:0:0:0:
448,192,187827,1,0,0:0:0:0:
64,192,188151,1,2,0:0:0:0:
448,192,188151,1,0,0:0:0:0:
64,192,188313,1,2,0:0:0:0:
448,192,188313,1,0,0:0:0:0:
192,192,188475,1,8,0:0:0:0:
320,192,188475,1,0,0:0:0:0:
448,192,188475,1,0,0:0:0:0:
64,192,188638,1,2,0:0:0:0:
192,192,188638,1,0,0:0:0:0:
320,192,188962,1,2,0:0:0:0:
448,192,188962,1,0,0:0:0:0:
64,192,189124,1,8,0:0:0:0:
192,192,189124,1,0,0:0:0:0:
320,192,189124,1,0,0:0:0:0:
192,192,189448,1,2,0:0:0:0:
448,192,189448,1,0,0:0:0:0:
192,192,189611,1,2,0:0:0:0:
448,192,189611,1,0,0:0:0:0:
64,192,189773,1,8,0:0:0:0:
320,192,189773,1,0,0:0:0:0:
448,192,189773,1,0,0:0:0:0:
192,192,189935,1,2,0:0:0:0:
320,192,189935,1,4,0:0:0:0:
64,192,189935,1,0,0:0:0:0:
64,192,190259,1,2,0:0:0:0:
448,192,190259,1,0,0:0:0:0:
64,192,190421,1,2,0:0:0:0:
448,192,190421,1,0,0:0:0:0:
64,192,190746,1,2,0:0:0:0:
192,192,190746,1,0,0:0:0:0:
192,192,191070,1,8,0:0:0:0:
320,192,191070,1,0,0:0:0:0:
448,192,191070,1,0,0:0:0:0:
64,192,191394,1,2,0:0:0:0:
448,192,191394,1,0,0:0:0:0:
64,192,191719,1,8,0:0:0:0:
192,192,191719,1,0,0:0:0:0:
320,192,191719,1,0,0:0:0:0:
320,192,192043,1,2,0:0:0:0:
448,192,192043,1,0,0:0:0:0:
64,192,192205,1,8,0:0:0:0:
192,192,192205,1,0,0:0:0:0:
448,192,192205,1,0,0:0:0:0:
192,192,192367,1,8,0:0:0:0:
320,192,192367,1,0,0:0:0:0:
64,192,192529,1,2,0:0:0:0:
320,192,192529,1,4,0:0:0:0:
448,192,192529,1,0,0:0:0:0:
192,192,192854,1,2,0:0:0:0:
448,192,192854,1,0,0:0:0:0:
64,192,193016,1,8,0:0:0:0:
320,192,193016,1,0,0:0:0:0:
448,192,193016,1,0,0:0:0:0:
64,192,193340,1,2,0:0:0:0:
192,192,193340,1,0,0:0:0:0:
64,192,193502,1,2,0:0:0:0:
192,192,193502,1,0,0:0:0:0:
192,192,193665,1,8,0:0:0:0:
320,192,193665,1,0,0:0:0:0:
448,192,193665,1,0,0:0:0:0:
64,192,193827,1,2,0:0:0:0:
448,192,193827,1,0,0:0:0:0:
192,192,194151,1,2,0:0:0:0:
320,192,194151,1,0,0:0:0:0:
64,192,194313,1,8,0:0:0:0:
192,192,194313,1,0,0:0:0:0:
448,192,194313,1,0,0:0:0:0:
320,192,194638,1,2,0:0:0:0:
448,192,194638,1,0,0:0:0:0:
320,192,194800,1,2,0:0:0:0:
448,192,194800,1,0,0:0:0:0:
64,192,194962,1,8,0:0:0:0:
192,192,194962,1,0,0:0:0:0:
448,192,194962,1,0,0:0:0:0:
64,192,195124,1,2,0:0:0:0:
320,192,195124,1,4,0:0:0:0:
192,192,195124,1,0,0:0:0:0:
192,192,195448,1,2,0:0:0:0:
448,192,195448,1,0,0:0:0:0:
192,192,195611,1,2,0:0:0:0:
448,192,195611,1,0,0:0:0:0:
64,192,195935,1,2,0:0:0:0:
320,192,195935,1,0,0:0:0:0:
192,192,196259,1,8,0:0:0:0:
320,192,196259,1,0,0:0:0:0:
448,192,196259,1,0,0:0:0:0:
64,192,196584,1,2,0:0:0:0:
192,192,196584,1,0,0:0:0:0:
64,192,196908,1,8,0:0:0:0:
320,192,196908,1,0,0:0:0:0:
448,192,196908,1,0,0:0:0:0:
320,192,197070,1,2,0:0:0:0:
448,192,197070,1,0,0:0:0:0:
64,192,197232,1,8,0:0:0:0:
192,192,197232,1,0,0:0:0:0:
320,192,197313,1,8,0:0:0:0:
448,192,197313,1,0,0:0:0:0:
64,192,197394,1,0,0:0:0:70:tom02.wav
320,192,197557,1,8,0:0:0:0:
448,192,197557,1,0,0:0:0:0:
192,192,197638,1,8,0:0:0:0:
448,192,197719,128,4,204205:0:0:0:0:
64,192,197719,1,0,0:0:0:0:
320,192,197719,128,2,204205:0:0:0:0:
