osu file format v14

[General]
AudioFilename: audio.mp3
AudioLeadIn: 0
PreviewTime: 51935
Countdown: 0
SampleSet: Drum
StackLeniency: 0.7
Mode: 3
LetterboxInBreaks: 0
SpecialStyle: 0
WidescreenStoryboard: 1

[Editor]
DistanceSpacing: 1.3
BeatDivisor: 4
GridSize: 32
TimelineZoom: 1.6

[Metadata]
Title:Naked flyer
TitleUnicode:Naked flyer
Artist:Primary
ArtistUnicode:Primary
Creator:Klee_fs
Version:Feru's Easy
Source:
Tags:yuiko Yuikonnu ゆいこんぬ みゅ Miyuu shutter*girl meis clauson Japanese pop jpop big z11 Feerum LLENN-
BeatmapID:2390848
BeatmapSetID:1112728

[Difficulty]
HPDrainRate:7
CircleSize:4
OverallDifficulty:7
ApproachRate:5
SliderMultiplier:1.4
SliderTickRate:1

[Events]
//Background and Video events
0,0,"BG.jpg",0,0
//Break Periods
//Storyboard Layer 0 (Background)
//Storyboard Layer 1 (Fail)
//Storyboard Layer 2 (Pass)
//Storyboard Layer 3 (Foreground)
//Storyboard Layer 4 (Overlay)
//Storyboard Sound Samples

[TimingPoints]
530,324.324324324324,4,3,5,50,1,0
9773,-100,4,3,5,70,0,0
52421,-100,4,3,5,70,0,1
70584,-100,4,3,5,70,0,0
112097,-100,4,3,5,70,0,1
130259,-100,4,3,5,70,0,0
161394,-100,4,3,5,70,0,1
187340,-100,4,3,5,70,0,0

[HitObjects]
64,192,530,128,0,1016:0:0:0:0:
448,192,1016,1,0,0:0:0:0:
192,192,1340,1,0,0:0:0:0:
448,192,1827,128,0,2313:0:0:0:0:
320,192,2313,1,0,0:0:0:0:
64,192,2638,1,0,0:0:0:0:
192,192,3124,128,0,3611:0:0:0:0:
448,192,3611,1,0,0:0:0:0:
320,192,3935,1,0,0:0:0:0:
64,192,4259,1,0,0:0:0:0:
192,192,4584,1,0,0:0:0:0:
320,192,4908,1,0,0:0:0:0:
448,192,5232,1,0,0:0:0:0:
192,192,5394,1,0,0:0:0:0:
64,192,5719,128,0,6205:0:0:0:0:
448,192,6205,1,0,0:0:0:0:
192,192,6529,1,0,0:0:0:0:
448,192,7016,128,0,7502:0:0:0:0:
320,192,7502,1,0,0:0:0:0:
64,192,7827,1,0,0:0:0:0:
192,192,8313,128,0,8800:0:0:0:0:
448,192,8800,1,0,0:0:0:0:
320,192,9124,1,0,0:0:0:0:
64,192,9448,1,0,0:0:0:0:
192,192,9773,1,8,0:0:0:0:
448,192,9935,1,2,0:0:0:0:
320,192,10259,1,8,0:0:0:0:
64,192,10421,1,2,0:0:0:0:
192,192,10746,1,8,0:0:0:0:
448,192,10908,1,4,0:0:0:0:
320,192,10908,1,2,0:0:0:0:
64,192,11232,1,2,0:0:0:0:
448,192,11394,1,8,0:0:0:0:
320,192,11719,1,2,0:0:0:0:
64,192,11881,1,2,0:0:0:0:
448,192,12043,1,8,0:0:0:0:
192,192,12205,1,2,0:0:0:0:
320,192,12529,1,2,0:0:0:0:
64,192,12692,1,8,0:0:0:0:
192,192,13016,1,2,0:0:0:0:
320,192,13178,1,2,0:0:0:0:
448,192,13340,1,8,0:0:0:0:
64,192,13502,1,2,0:0:0:0:
192,192,13502,1,4,0:0:0:0:
192,192,13827,1,2,0:0:0:0:
320,192,13989,1,8,0:0:0:0:
320,192,14313,1,2,0:0:0:0:
64,192,14638,1,8,0:0:0:0:
320,192,14962,1,2,0:0:0:0:
448,192,15286,1,8,0:0:0:0:
320,192,15611,1,2,0:0:0:0:
192,192,15773,1,8,0:0:0:0:
64,192,15935,1,8,0:0:0:0:
448,192,16097,1,4,0:0:0:0:
320,192,16097,1,2,0:0:0:0:
64,192,16421,1,2,0:0:0:0:
320,192,16584,1,8,0:0:0:0:
448,192,16908,1,2,0:0:0:0:
192,192,17070,1,2,0:0:0:0:
320,192,17232,1,8,0:0:0:0:
64,192,17394,1,2,0:0:0:0:
192,192,17719,1,2,0:0:0:0:
448,192,17881,1,8,0:0:0:0:
192,192,18205,1,2,0:0:0:0:
320,192,18367,1,2,0:0:0:0:
448,192,18529,1,8,0:0:0:0:
64,192,18692,1,2,0:0:0:0:
192,192,18692,1,4,0:0:0:0:
192,192,19016,1,2,0:0:0:0:
320,192,19178,1,8,0:0:0:0:
320,192,19502,1,2,0:0:0:0:
192,192,19827,1,8,0:0:0:0:
320,192,20151,1,2,0:0:0:0:
448,192,20475,1,8,0:0:0:0:
64,192,20800,1,8,0:0:0:0:
192,192,20962,1,2,0:0:0:0:
448,192,21124,1,8,0:0:0:0:
320,192,21286,1,2,0:0:0:0:
192,192,21286,1,4,0:0:0:0:
192,192,21773,1,8,0:0:0:0:
192,192,22421,1,8,0:0:0:0:
192,192,23070,1,8,0:0:0:0:
64,192,23557,1,2,0:0:0:0:
320,192,23881,1,2,0:0:0:0:
320,192,24367,1,8,0:0:0:0:
320,192,25016,1,8,0:0:0:0:
192,192,25178,1,2,0:0:0:0:
320,192,25665,1,8,0:0:0:0:
320,192,26313,1,8,0:0:0:0:
64,192,26475,1,2,0:0:0:0:
448,192,26475,1,4,0:0:0:0:
448,192,26962,1,8,0:0:0:0:
448,192,27611,1,8,0:0:0:0:
448,192,28259,1,8,0:0:0:0:
320,192,28746,1,2,0:0:0:0:
64,192,29070,1,2,0:0:0:0:
64,192,29557,1,8,0:0:0:0:
64,192,30205,1,8,0:0:0:0:
320,192,30367,1,2,0:0:0:0:
64,192,30854,1,8,0:0:0:0:
320,192,31178,1,8,0:0:0:0:
192,192,31340,1,2,0:0:0:0:
64,192,31502,1,8,0:0:0:0:
448,192,31665,1,4,0:0:0:0:
320,192,31665,1,2,0:0:0:0:
192,192,31989,1,2,0:0:0:0:
448,192,32151,1,8,0:0:0:0:
320,192,32475,1,2,0:0:0:0:
64,192,32638,1,2,0:0:0:0:
448,192,32800,1,8,0:0:0:0:
192,192,32962,1,2,0:0:0:0:
320,192,33286,1,2,0:0:0:0:
192,192,33448,1,8,0:0:0:0:
448,192,33773,1,2,0:0:0:0:
320,192,33935,1,2,0:0:0:0:
64,192,34097,1,8,0:0:0:0:
192,192,34259,1,2,0:0:0:0:
448,192,34584,1,2,0:0:0:0:
64,192,34746,1,8,0:0:0:0:
320,192,35070,1,2,0:0:0:0:
448,192,35232,1,2,0:0:0:0:
64,192,35394,1,8,0:0:0:0:
192,192,35557,1,2,0:0:0:0:
320,192,35881,1,2,0:0:0:0:
64,192,36043,1,8,0:0:0:0:
192,192,36367,1,2,0:0:0:0:
320,192,36529,1,2,0:0:0:0:
448,192,36692,1,8,0:0:0:0:
64,192,36854,1,4,0:0:0:0:
192,192,36854,1,2,0:0:0:0:
448,192,37178,1,2,0:0:0:0:
64,192,37340,1,8,0:0:0:0:
192,192,37665,1,2,0:0:0:0:
320,192,37827,1,2,0:0:0:0:
448,192,37989,1,8,0:0:0:0:
64,192,38151,1,2,0:0:0:0:
320,192,38475,1,2,0:0:0:0:
192,192,38638,1,8,0:0:0:0:
448,192,38962,1,2,0:0:0:0:
320,192,39124,1,2,0:0:0:0:
192,192,39286,1,8,0:0:0:0:
448,192,39448,1,2,0:0:0:0:
64,192,39773,1,2,0:0:0:0:
320,192,39935,1,8,0:0:0:0:
192,192,40259,1,2,0:0:0:0:
320,192,40421,1,2,0:0:0:0:
64,192,40584,1,8,0:0:0:0:
192,192,40746,1,2,0:0:0:0:
448,192,41070,1,2,0:0:0:0:
192,192,41232,1,8,0:0:0:0:
320,192,41557,1,2,0:0:0:0:
192,192,41719,1,2,0:0:0:0:
64,192,41881,1,2,0:0:0:0:
320,192,42043,1,2,0:0:0:0:
448,192,42043,1,4,0:0:0:0:
320,192,42854,1,8,0:0:0:0:
64,192,43340,1,2,0:0:0:0:
448,192,44151,1,8,0:0:0:0:
192,192,44313,1,8,0:0:0:0:
64,192,44638,1,2,0:0:0:0:
320,192,45448,1,8,0:0:0:0:
192,192,45935,1,2,0:0:0:0:
320,192,46746,1,8,0:0:0:0:
64,192,46908,1,2,0:0:0:0:
192,192,47070,1,8,0:0:0:0:
448,192,47232,1,4,0:0:0:0:
320,192,47232,1,2,0:0:0:0:
192,192,48043,1,8,0:0:0:0:
320,192,48529,1,2,0:0:0:0:
64,192,49340,1,8,0:0:0:0:
320,192,49502,1,8,0:0:0:0:
64,192,49827,1,2,0:0:0:0:
192,192,49827,1,4,0:0:0:0:
448,192,50313,1,8,0:0:0:0:
320,192,50638,1,2,0:0:0:0:
192,192,50962,1,8,0:0:0:0:
448,192,51286,1,8,0:0:0:0:
320,192,51448,1,2,0:0:0:0:
64,192,51773,1,8,0:0:0:0:
192,192,51935,1,2,0:0:0:0:
448,192,52259,1,8,0:0:0:0:
320,192,52421,1,2,0:0:0:0:
192,192,52421,1,4,0:0:0:0:
64,192,52746,1,2,0:0:0:0:
448,192,52908,1,8,0:0:0:0:
320,192,53232,1,2,0:0:0:0:
192,192,53394,1,2,0:0:0:0:
448,192,53557,1,8,0:0:0:0:
64,192,53719,1,2,0:0:0:0:
192,192,54043,1,2,0:0:0:0:
448,192,54205,1,8,0:0:0:0:
192,192,54529,1,2,0:0:0:0:
64,192,54692,1,2,0:0:0:0:
448,192,54854,1,8,0:0:0:0:
192,192,55016,1,2,0:0:0:0:
320,192,55340,1,2,0:0:0:0:
448,192,55502,1,8,0:0:0:0:
320,192,55827,1,2,0:0:0:0:
64,192,55989,1,2,0:0:0:0:
448,192,56151,1,8,0:0:0:0:
320,192,56313,1,2,0:0:0:0:
192,192,56638,1,2,0:0:0:0:
448,192,56800,1,8,0:0:0:0:
192,192,57124,1,2,0:0:0:0:
320,192,57286,1,2,0:0:0:0:
448,192,57448,1,8,0:0:0:0:
64,192,57611,1,2,0:0:0:0:
192,192,57611,1,4,0:0:0:0:
320,192,57935,1,2,0:0:0:0:
64,192,58097,1,8,0:0:0:0:
192,192,58421,1,2,0:0:0:0:
448,192,58584,1,2,0:0:0:0:
64,192,58746,1,8,0:0:0:0:
320,192,58908,1,2,0:0:0:0:
448,192,59232,1,2,0:0:0:0:
64,192,59394,1,8,0:0:0:0:
192,192,59719,1,2,0:0:0:0:
320,192,59881,1,2,0:0:0:0:
64,192,60043,1,8,0:0:0:0:
320,192,60205,1,2,0:0:0:0:
448,192,60529,1,2,0:0:0:0:
64,192,60692,1,8,0:0:0:0:
320,192,61016,1,2,0:0:0:0:
448,192,61178,1,2,0:0:0:0:
64,192,61340,1,8,0:0:0:0:
192,192,61502,1,2,0:0:0:0:
320,192,61827,1,2,0:0:0:0:
64,192,61989,1,8,0:0:0:0:
448,192,62151,1,2,0:0:0:0:
64,192,62313,1,8,0:0:0:0:
320,192,62475,128,2,62800:0:0:0:0:
192,192,62800,1,4,0:0:0:0:
64,192,62800,1,2,0:0:0:0:
448,192,63124,1,2,0:0:0:0:
192,192,63286,1,8,0:0:0:0:
320,192,63611,1,2,0:0:0:0:
64,192,63773,1,2,0:0:0:0:
192,192,63935,1,8,0:0:0:0:
448,192,64097,1,2,0:0:0:0:
320,192,64421,1,2,0:0:0:0:
192,192,64584,1,8,0:0:0:0:
64,192,64908,1,2,0:0:0:0:
448,192,65070,1,2,0:0:0:0:
192,192,65232,1,8,0:0:0:0:
320,192,65394,1,2,0:0:0:0:
64,192,65719,1,2,0:0:0:0:
192,192,65881,1,8,0:0:0:0:
448,192,66205,1,2,0:0:0:0:
320,192,66367,1,2,0:0:0:0:
192,192,66529,1,8,0:0:0:0:
448,192,66692,1,2,0:0:0:0:
64,192,67016,1,2,0:0:0:0:
192,192,67178,1,8,0:0:0:0:
448,192,67502,1,2,0:0:0:0:
320,192,67665,1,2,0:0:0:0:
192,192,67827,1,8,0:0:0:0:
448,192,67989,1,4,0:0:0:0:
320,192,67989,1,2,0:0:0:0:
64,192,68313,1,2,0:0:0:0:
320,192,68475,1,8,0:0:0:0:
192,192,68800,1,2,0:0:0:0:
64,192,68962,1,2,0:0:0:0:
320,192,69124,1,8,0:0:0:0:
192,192,69286,1,2,0:0:0:0:
448,192,69611,1,2,0:0:0:0:
320,192,69773,1,8,0:0:0:0:
64,192,69935,1,2,0:0:0:0:
192,192,70097,128,8,70584:0:0:0:0:
448,192,70584,1,4,0:0:0:0:
320,192,70584,1,2,0:0:0:0:
448,192,70908,1,2,0:0:0:0:
64,192,71070,1,8,0:0:0:0:
192,192,71394,1,2,0:0:0:0:
448,192,71557,1,2,0:0:0:0:
64,192,71719,1,8,0:0:0:0:
320,192,71881,1,2,0:0:0:0:
192,192,72205,1,2,0:0:0:0:
448,192,72367,1,8,0:0:0:0:
320,192,72692,1,2,0:0:0:0:
192,192,72854,1,2,0:0:0:0:
64,192,73016,1,8,0:0:0:0:
448,192,73178,1,2,0:0:0:0:
320,192,73178,1,4,0:0:0:0:
320,192,73502,1,2,0:0:0:0:
192,192,73665,1,8,0:0:0:0:
192,192,73989,1,2,0:0:0:0:
448,192,74313,1,8,0:0:0:0:
192,192,74638,1,2,0:0:0:0:
64,192,74962,1,8,0:0:0:0:
192,192,75286,1,2,0:0:0:0:
448,192,75448,1,8,0:0:0:0:
320,192,75611,1,8,0:0:0:0:
64,192,75773,1,4,0:0:0:0:
192,192,75773,1,2,0:0:0:0:
448,192,76097,1,2,0:0:0:0:
192,192,76259,1,8,0:0:0:0:
64,192,76584,1,2,0:0:0:0:
320,192,76746,1,2,0:0:0:0:
192,192,76908,1,8,0:0:0:0:
448,192,77070,1,2,0:0:0:0:
320,192,77394,1,2,0:0:0:0:
64,192,77557,1,8,0:0:0:0:
192,192,77881,1,2,0:0:0:0:
448,192,78043,1,2,0:0:0:0:
320,192,78205,1,8,0:0:0:0:
192,192,78367,5,2,0:0:0:0:
64,192,78367,1,4,0:0:0:0:
192,192,78692,1,2,0:0:0:0:
320,192,78854,1,8,0:0:0:0:
320,192,79178,1,2,0:0:0:0:
192,192,79502,1,8,0:0:0:0:
320,192,79827,1,2,0:0:0:0:
64,192,80151,1,8,0:0:0:0:
192,192,80475,1,8,0:0:0:0:
320,192,80638,1,2,0:0:0:0:
448,192,80800,1,8,0:0:0:0:
64,192,80962,1,2,0:0:0:0:
192,192,80962,1,4,0:0:0:0:
320,192,81448,1,0,0:0:0:0:
320,192,82097,1,0,0:0:0:0:
320,192,82746,1,0,0:0:0:0:
192,192,83232,1,2,0:0:0:0:
448,192,83557,1,2,0:0:0:0:
192,192,84043,1,0,0:0:0:0:
192,192,84692,1,0,0:0:0:0:
192,192,85340,1,0,0:0:0:0:
192,192,85989,1,0,0:0:0:0:
448,192,86151,1,4,0:0:0:0:
320,192,86151,1,2,0:0:0:0:
64,192,86638,1,0,0:0:0:0:
64,192,87286,1,0,0:0:0:0:
64,192,87935,1,0,0:0:0:0:
192,192,88421,1,2,0:0:0:0:
320,192,88746,1,2,0:0:0:0:
448,192,89232,1,0,0:0:0:0:
448,192,89881,1,0,0:0:0:0:
448,192,90529,1,0,0:0:0:0:
320,192,90854,1,8,0:0:0:0:
192,192,91016,1,2,0:0:0:0:
64,192,91178,1,8,0:0:0:0:
320,192,91340,1,2,0:0:0:0:
448,192,91340,1,4,0:0:0:0:
64,192,91665,1,2,0:0:0:0:
448,192,91827,1,8,0:0:0:0:
320,192,92151,1,2,0:0:0:0:
192,192,92313,1,2,0:0:0:0:
448,192,92475,1,8,0:0:0:0:
320,192,92638,1,2,0:0:0:0:
64,192,92962,1,2,0:0:0:0:
448,192,93124,1,8,0:0:0:0:
192,192,93448,1,2,0:0:0:0:
320,192,93611,1,2,0:0:0:0:
64,192,93773,1,8,0:0:0:0:
192,192,93935,1,2,0:0:0:0:
320,192,94259,1,2,0:0:0:0:
64,192,94421,1,8,0:0:0:0:
448,192,94746,1,2,0:0:0:0:
192,192,94908,1,2,0:0:0:0:
64,192,95070,1,8,0:0:0:0:
448,192,95232,1,2,0:0:0:0:
192,192,95557,1,2,0:0:0:0:
448,192,95719,1,8,0:0:0:0:
192,192,96043,1,2,0:0:0:0:
320,192,96205,1,2,0:0:0:0:
448,192,96367,1,8,0:0:0:0:
64,192,96529,1,2,0:0:0:0:
192,192,96529,1,4,0:0:0:0:
320,192,96854,1,2,0:0:0:0:
64,192,97016,1,8,0:0:0:0:
192,192,97340,1,2,0:0:0:0:
320,192,97502,1,2,0:0:0:0:
64,192,97665,1,8,0:0:0:0:
448,192,97827,1,2,0:0:0:0:
192,192,98151,1,2,0:0:0:0:
320,192,98313,1,8,0:0:0:0:
192,192,98638,1,2,0:0:0:0:
64,192,98800,1,2,0:0:0:0:
448,192,98962,1,8,0:0:0:0:
192,192,99124,1,2,0:0:0:0:
320,192,99448,1,2,0:0:0:0:
64,192,99611,1,8,0:0:0:0:
192,192,99935,1,2,0:0:0:0:
448,192,100097,1,2,0:0:0:0:
64,192,100259,1,8,0:0:0:0:
320,192,100421,1,2,0:0:0:0:
192,192,100746,1,2,0:0:0:0:
64,192,100908,1,8,0:0:0:0:
320,192,101232,1,2,0:0:0:0:
192,192,101394,1,2,0:0:0:0:
64,192,101557,1,2,0:0:0:0:
448,192,101719,1,2,0:0:0:0:
320,192,101719,1,4,0:0:0:0:
448,192,102529,1,8,0:0:0:0:
64,192,103016,1,2,0:0:0:0:
448,192,103827,1,8,0:0:0:0:
192,192,103989,1,8,0:0:0:0:
64,192,104313,1,2,0:0:0:0:
320,192,105124,1,8,0:0:0:0:
192,192,105611,1,2,0:0:0:0:
320,192,106421,1,8,0:0:0:0:
192,192,106584,1,2,0:0:0:0:
64,192,106746,1,8,0:0:0:0:
320,192,106908,1,4,0:0:0:0:
448,192,106908,1,2,0:0:0:0:
192,192,107719,1,8,0:0:0:0:
448,192,108205,1,2,0:0:0:0:
64,192,109016,1,8,0:0:0:0:
320,192,109178,1,8,0:0:0:0:
448,192,109502,1,2,0:0:0:0:
320,192,109502,1,4,0:0:0:0:
64,192,109989,1,8,0:0:0:0:
192,192,110313,1,2,0:0:0:0:
320,192,110638,1,8,0:0:0:0:
192,192,110962,1,8,0:0:0:0:
448,192,111124,1,2,0:0:0:0:
320,192,111448,1,8,0:0:0:0:
64,192,111611,1,2,0:0:0:0:
448,192,111935,1,8,0:0:0:0:
320,192,112097,1,4,0:0:0:0:
192,192,112097,1,2,0:0:0:0:
448,192,112421,1,2,0:0:0:0:
192,192,112584,1,8,0:0:0:0:
64,192,112908,1,2,0:0:0:0:
448,192,113070,1,2,0:0:0:0:
192,192,113232,1,8,0:0:0:0:
320,192,113394,1,2,0:0:0:0:
64,192,113719,1,2,0:0:0:0:
192,192,113881,1,8,0:0:0:0:
320,192,114205,1,2,0:0:0:0:
64,192,114367,1,2,0:0:0:0:
192,192,114529,1,8,0:0:0:0:
448,192,114692,1,2,0:0:0:0:
320,192,115016,1,2,0:0:0:0:
192,192,115178,1,8,0:0:0:0:
448,192,115502,1,2,0:0:0:0:
320,192,115665,1,2,0:0:0:0:
192,192,115827,1,8,0:0:0:0:
448,192,115989,1,2,0:0:0:0:
64,192,116313,1,2,0:0:0:0:
192,192,116475,1,8,0:0:0:0:
448,192,116800,1,2,0:0:0:0:
320,192,116962,1,2,0:0:0:0:
192,192,117124,1,8,0:0:0:0:
448,192,117286,1,4,0:0:0:0:
320,192,117286,1,2,0:0:0:0:
64,192,117611,1,2,0:0:0:0:
320,192,117773,1,8,0:0:0:0:
192,192,118097,1,2,0:0:0:0:
64,192,118259,1,2,0:0:0:0:
320,192,118421,1,8,0:0:0:0:
192,192,118584,1,2,0:0:0:0:
448,192,118908,1,2,0:0:0:0:
320,192,119070,1,8,0:0:0:0:
64,192,119394,1,2,0:0:0:0:
192,192,119557,1,2,0:0:0:0:
320,192,119719,1,8,0:0:0:0:
64,192,119881,1,2,0:0:0:0:
448,192,120205,1,2,0:0:0:0:
320,192,120367,1,8,0:0:0:0:
192,192,120692,1,2,0:0:0:0:
64,192,120854,1,2,0:0:0:0:
320,192,121016,1,8,0:0:0:0:
448,192,121178,1,2,0:0:0:0:
64,192,121502,1,2,0:0:0:0:
320,192,121665,1,8,0:0:0:0:
192,192,121827,1,2,0:0:0:0:
320,192,121989,1,8,0:0:0:0:
448,192,122151,128,2,122475:0:0:0:0:
192,192,122475,1,4,0:0:0:0:
64,192,122475,1,2,0:0:0:0:
192,192,122800,1,2,0:0:0:0:
448,192,122962,1,8,0:0:0:0:
320,192,123286,1,2,0:0:0:0:
64,192,123448,1,2,0:0:0:0:
448,192,123611,1,8,0:0:0:0:
192,192,123773,1,2,0:0:0:0:
64,192,124097,1,2,0:0:0:0:
448,192,124259,1,8,0:0:0:0:
192,192,124584,1,2,0:0:0:0:
320,192,124746,1,2,0:0:0:0:
448,192,124908,1,8,0:0:0:0:
64,192,125070,1,2,0:0:0:0:
192,192,125394,1,2,0:0:0:0:
448,192,125557,1,8,0:0:0:0:
320,192,125881,1,2,0:0:0:0:
192,192,126043,1,2,0:0:0:0:
448,192,126205,1,8,0:0:0:0:
64,192,126367,1,2,0:0:0:0:
192,192,126692,1,2,0:0:0:0:
448,192,126854,1,8,0:0:0:0:
192,192,127178,1,2,0:0:0:0:
320,192,127340,1,2,0:0:0:0:
448,192,127502,1,8,0:0:0:0:
64,192,127665,1,4,0:0:0:0:
192,192,127665,1,2,0:0:0:0:
448,192,127989,1,2,0:0:0:0:
64,192,128151,1,8,0:0:0:0:
320,192,128475,1,2,0:0:0:0:
448,192,128638,1,2,0:0:0:0:
64,192,128800,1,8,0:0:0:0:
192,192,128962,1,2,0:0:0:0:
320,192,129286,1,2,0:0:0:0:
64,192,129448,1,8,0:0:0:0:
448,192,129611,1,2,0:0:0:0:
64,192,129773,128,8,130259:0:0:0:0:
448,192,130259,1,4,0:0:0:0:
320,192,130259,128,2,130584:0:0:0:0:
192,192,130584,1,2,0:0:0:0:
64,192,130746,128,8,131070:0:0:0:0:
448,192,131070,1,2,0:0:0:0:
320,192,131232,1,2,0:0:0:0:
64,192,131394,1,8,0:0:0:0:
192,192,131557,128,2,131881:0:0:0:0:
448,192,131881,128,2,132205:0:0:0:0:
64,192,132205,128,0,132529:0:0:0:0:
320,192,132529,128,2,132854:0:0:0:0:
192,192,132854,128,4,133178:0:0:0:0:
448,192,133178,1,2,0:0:0:0:
64,192,133340,1,8,0:0:0:0:
320,192,133502,128,0,133827:0:0:0:0:
192,192,133827,1,2,0:0:0:0:
64,192,133989,1,8,0:0:0:0:
448,192,134151,128,2,134475:0:0:0:0:
320,192,134475,1,2,0:0:0:0:
192,192,134638,1,8,0:0:0:0:
64,192,134800,128,0,135124:0:0:0:0:
320,192,135124,128,2,135448:0:0:0:0:
192,192,135448,128,4,136097:0:0:0:0:
448,192,136421,1,2,0:0:0:0:
64,192,136584,1,8,0:0:0:0:
320,192,136746,128,2,137070:0:0:0:0:
192,192,137070,1,2,0:0:0:0:
448,192,137232,1,8,0:0:0:0:
64,192,137394,128,0,137719:0:0:0:0:
320,192,138043,128,4,138529:0:0:0:0:
192,192,138529,1,8,0:0:0:0:
448,192,138692,128,0,139016:0:0:0:0:
192,192,139016,1,2,0:0:0:0:
64,192,139178,1,8,0:0:0:0:
192,192,139340,128,2,139665:0:0:0:0:
448,192,139665,1,2,0:0:0:0:
320,192,139827,1,8,0:0:0:0:
64,192,139989,128,2,140638:0:0:0:0:
448,192,140638,1,4,0:0:0:0:
320,192,140638,1,2,0:0:0:0:
192,192,141448,1,8,0:0:0:0:
320,192,141935,1,2,0:0:0:0:
64,192,142746,1,8,0:0:0:0:
320,192,142908,1,8,0:0:0:0:
448,192,143232,1,2,0:0:0:0:
192,192,144043,1,8,0:0:0:0:
320,192,144529,1,2,0:0:0:0:
64,192,145340,1,8,0:0:0:0:
448,192,145502,1,2,0:0:0:0:
320,192,145665,1,8,0:0:0:0:
64,192,145827,1,2,0:0:0:0:
192,192,145827,1,4,0:0:0:0:
448,192,146638,1,8,0:0:0:0:
192,192,147124,1,2,0:0:0:0:
448,192,147935,1,8,0:0:0:0:
64,192,148097,1,8,0:0:0:0:
320,192,148421,1,4,0:0:0:0:
192,192,148421,1,2,0:0:0:0:
448,192,148908,1,8,0:0:0:0:
320,192,149232,1,2,0:0:0:0:
192,192,149557,1,8,0:0:0:0:
64,192,149881,1,8,0:0:0:0:
448,192,150043,1,2,0:0:0:0:
192,192,150205,1,8,0:0:0:0:
320,192,150529,1,2,0:0:0:0:
192,192,150692,1,2,0:0:0:0:
64,192,150854,1,2,0:0:0:0:
320,192,151016,1,2,0:0:0:0:
448,192,151016,128,4,152313:0:0:0:0:
64,192,152313,128,0,153611:0:0:0:0:
320,192,153611,128,0,154908:0:0:0:0:
192,192,154908,128,0,156205:0:0:0:0:
320,192,156205,128,0,157502:0:0:0:0:
64,192,157502,128,0,158800:0:0:0:0:
448,192,158800,128,0,160097:0:0:0:0:
64,192,160097,1,8,0:0:0:0:
192,192,160097,1,4,0:0:0:0:
320,192,160421,1,2,0:0:0:0:
448,192,160746,1,2,0:0:0:0:
320,192,160908,1,8,0:0:0:0:
64,192,161070,1,2,0:0:0:0:
192,192,161232,1,8,0:0:0:0:
320,192,161394,1,2,0:0:0:0:
448,192,161394,1,4,0:0:0:0:
320,192,161719,1,2,0:0:0:0:
64,192,161881,1,8,0:0:0:0:
192,192,162205,1,2,0:0:0:0:
448,192,162367,1,2,0:0:0:0:
64,192,162529,1,8,0:0:0:0:
320,192,162692,1,2,0:0:0:0:
448,192,163016,1,2,0:0:0:0:
64,192,163178,1,8,0:0:0:0:
320,192,163502,1,2,0:0:0:0:
192,192,163665,1,2,0:0:0:0:
64,192,163827,1,8,0:0:0:0:
448,192,163989,1,2,0:0:0:0:
320,192,164313,1,2,0:0:0:0:
64,192,164475,1,8,0:0:0:0:
320,192,164800,1,2,0:0:0:0:
448,192,164962,1,2,0:0:0:0:
64,192,165124,1,8,0:0:0:0:
192,192,165286,1,2,0:0:0:0:
448,192,165611,1,2,0:0:0:0:
64,192,165773,1,8,0:0:0:0:
320,192,166097,1,2,0:0:0:0:
192,192,166259,1,2,0:0:0:0:
64,192,166421,1,8,0:0:0:0:
320,192,166584,1,2,0:0:0:0:
448,192,166584,1,4,0:0:0:0:
64,192,166908,1,2,0:0:0:0:
448,192,167070,1,8,0:0:0:0:
192,192,167394,1,2,0:0:0:0:
320,192,167557,1,2,0:0:0:0:
448,192,167719,1,8,0:0:0:0:
64,192,167881,1,2,0:0:0:0:
320,192,168205,1,2,0:0:0:0:
448,192,168367,1,8,0:0:0:0:
192,192,168529,1,2,0:0:0:0:
448,192,168692,1,8,0:0:0:0:
64,192,168854,128,2,169178:0:0:0:0:
448,192,169178,1,4,0:0:0:0:
320,192,169178,1,2,0:0:0:0:
192,192,169502,1,2,0:0:0:0:
320,192,169665,1,8,0:0:0:0:
192,192,169989,1,2,0:0:0:0:
64,192,170151,1,2,0:0:0:0:
320,192,170313,1,8,0:0:0:0:
192,192,170475,1,2,0:0:0:0:
448,192,170800,1,2,0:0:0:0:
320,192,170962,1,8,0:0:0:0:
64,192,171286,1,2,0:0:0:0:
192,192,171448,1,2,0:0:0:0:
320,192,171611,1,8,0:0:0:0:
64,192,171773,1,2,0:0:0:0:
192,192,172097,1,2,0:0:0:0:
320,192,172259,1,8,0:0:0:0:
192,192,172584,1,2,0:0:0:0:
448,192,172746,1,2,0:0:0:0:
320,192,172908,1,8,0:0:0:0:
64,192,173070,1,2,0:0:0:0:
448,192,173394,1,2,0:0:0:0:
320,192,173557,1,8,0:0:0:0:
64,192,173881,1,2,0:0:0:0:
192,192,174043,1,2,0:0:0:0:
320,192,174205,1,8,0:0:0:0:
192,192,174367,1,2,0:0:0:0:
64,192,174367,1,4,0:0:0:0:
448,192,174692,1,2,0:0:0:0:
192,192,174854,1,8,0:0:0:0:
320,192,175178,1,2,0:0:0:0:
64,192,175340,1,2,0:0:0:0:
192,192,175502,1,8,0:0:0:0:
448,192,175665,1,2,0:0:0:0:
320,192,175989,1,2,0:0:0:0:
192,192,176151,1,8,0:0:0:0:
448,192,176475,1,2,0:0:0:0:
64,192,176638,1,2,0:0:0:0:
192,192,176800,1,8,0:0:0:0:
320,192,176962,1,2,0:0:0:0:
64,192,177286,1,2,0:0:0:0:
192,192,177448,1,8,0:0:0:0:
64,192,177773,1,2,0:0:0:0:
320,192,177935,1,2,0:0:0:0:
192,192,178097,1,8,0:0:0:0:
448,192,178259,1,2,0:0:0:0:
320,192,178584,1,2,0:0:0:0:
192,192,178746,1,8,0:0:0:0:
448,192,178908,1,2,0:0:0:0:
192,192,179070,1,8,0:0:0:0:
320,192,179232,128,2,179557:0:0:0:0:
192,192,179557,1,4,0:0:0:0:
64,192,179557,1,2,0:0:0:0:
448,192,179881,1,2,0:0:0:0:
64,192,180043,1,8,0:0:0:0:
192,192,180367,1,2,0:0:0:0:
320,192,180529,1,2,0:0:0:0:
64,192,180692,1,8,0:0:0:0:
448,192,180854,1,2,0:0:0:0:
320,192,181178,1,2,0:0:0:0:
64,192,181340,1,8,0:0:0:0:
448,192,181665,1,2,0:0:0:0:
320,192,181827,1,2,0:0:0:0:
64,192,181989,1,8,0:0:0:0:
192,192,182151,1,2,0:0:0:0:
448,192,182475,1,2,0:0:0:0:
64,192,182638,1,8,0:0:0:0:
320,192,182962,1,2,0:0:0:0:
448,192,183124,1,2,0:0:0:0:
64,192,183286,1,8,0:0:0:0:
192,192,183448,1,2,0:0:0:0:
448,192,183773,1,2,0:0:0:0:
64,192,183935,1,8,0:0:0:0:
320,192,184259,1,2,0:0:0:0:
192,192,184421,1,2,0:0:0:0:
64,192,184584,1,8,0:0:0:0:
320,192,184746,1,2,0:0:0:0:
448,192,184746,1,4,0:0:0:0:
192,192,185070,1,2,0:0:0:0:
448,192,185232,1,8,0:0:0:0:
64,192,185557,1,2,0:0:0:0:
192,192,185719,1,2,0:0:0:0:
448,192,185881,1,8,0:0:0:0:
320,192,186043,1,2,0:0:0:0:
64,192,186367,1,2,0:0:0:0:
448,192,186529,1,8,0:0:0:0:
192,192,186692,1,2,0:0:0:0:
448,192,186854,1,8,0:0:0:0:
64,192,187016,128,2,187340:0:0:0:0:
448,192,187340,1,4,0:0:0:0:
320,192,187340,1,2,0:0:0:0:
64,192,187665,1,2,0:0:0:0:
448,192,187827,1,8,0:0:0:0:
320,192,188151,1,2,0:0:0:0:
64,192,188313,1,2,0:0:0:0:
448,192,188475,1,8,0:0:0:0:
192,192,188638,1,2,0:0:0:0:
320,192,188962,1,2,0:0:0:0:
64,192,189124,1,8,0:0:0:0:
192,192,189448,1,2,0:0:0:0:
320,192,189611,1,2,0:0:0:0:
448,192,189773,1,8,0:0:0:0:
64,192,189935,5,2,0:0:0:0:
192,192,189935,1,4,0:0:0:0:
192,192,190259,1,2,0:0:0:0:
320,192,190421,1,8,0:0:0:0:
320,192,190746,1,2,0:0:0:0:
64,192,191070,1,8,0:0:0:0:
320,192,191394,1,2,0:0:0:0:
448,192,191719,1,8,0:0:0:0:
320,192,192043,1,2,0:0:0:0:
64,192,192205,1,8,0:0:0:0:
192,192,192367,1,8,0:0:0:0:
448,192,192529,1,4,0:0:0:0:
320,192,192529,1,2,0:0:0:0:
64,192,192854,1,2,0:0:0:0:
320,192,193016,1,8,0:0:0:0:
448,192,193340,1,2,0:0:0:0:
192,192,193502,1,2,0:0:0:0:
320,192,193665,1,8,0:0:0:0:
64,192,193827,1,2,0:0:0:0:
192,192,194151,1,2,0:0:0:0:
448,192,194313,1,8,0:0:0:0:
192,192,194638,1,2,0:0:0:0:
320,192,194800,1,2,0:0:0:0:
448,192,194962,1,8,0:0:0:0:
64,192,195124,1,2,0:0:0:0:
192,192,195124,1,4,0:0:0:0:
192,192,195448,1,2,0:0:0:0:
320,192,195611,1,8,0:0:0:0:
320,192,195935,1,2,0:0:0:0:
192,192,196259,1,8,0:0:0:0:
320,192,196584,1,2,0:0:0:0:
448,192,196908,1,8,0:0:0:0:
320,192,197232,1,8,0:0:0:0:
192,192,197394,1,2,0:0:0:0:
64,192,197557,1,8,0:0:0:0:
320,192,197719,1,2,0:0:0:0:
448,192,197719,1,4,0:0:0:0:
