osu file format v14

[General]
AudioFilename: Kokoro no Yakusoku.mp3
AudioLeadIn: 0
PreviewTime: 65130
Countdown: 0
SampleSet: Soft
StackLeniency: 0.7
Mode: 0
LetterboxInBreaks: 0
WidescreenStoryboard: 1

[Editor]
DistanceSpacing: 1.2
BeatDivisor: 4
GridSize: 32
TimelineZoom: 1.1

[Metadata]
Title:Kokoro no Yakusoku
TitleUnicode:心ノ約束
Artist:Primary
ArtistUnicode:Primary
Creator:Lasse
Version:Insane
Source:
Tags:yuiko ゆいこんぬ yuikonnu meis clauson japanese pop female vocals Rotate
BeatmapID:1955075
BeatmapSetID:933709

[Difficulty]
HPDrainRate:6
CircleSize:4
OverallDifficulty:7
ApproachRate:8
SliderMultiplier:3.59999990463257
SliderTickRate:2

[Events]
//Background and Video events
0,0,"b.jpg",0,0
//Break Periods
2,95030,97280
2,200630,202880
2,258230,260480
//Storyboard Layer 0 (Background)
//Storyboard Layer 1 (Fail)
//Storyboard Layer 2 (Pass)
//Storyboard Layer 3 (Foreground)
//Storyboard Sound Samples

[TimingPoints]
30,800,4,2,1,22,1,0
30,-200,4,2,1,22,0,0
2030,-200,4,2,1,18,0,0
3230,-200,4,2,1,22,0,0
6430,-166.666666666667,4,2,1,26,0,0
8030,-166.666666666667,4,2,1,28,0,0
8430,-166.666666666667,4,2,1,24,0,0
9630,-166.666666666667,4,2,1,30,0,0
10030,-166.666666666667,4,2,1,25,0,0
10830,-166.666666666667,4,2,1,30,0,0
11630,-166.666666666667,4,2,1,25,0,0
11730,-166.666666666667,4,2,1,30,0,0
12030,-166.666666666667,4,2,1,26,0,0
12430,-166.666666666667,4,2,1,22,0,0
12830,-166.666666666667,4,2,1,18,0,0
13230,-166.666666666667,4,2,1,14,0,0
13630,-166.666666666667,4,2,1,10,0,0
14030,-166.666666666667,4,2,99,10,0,0
14830,800,4,2,1,40,1,0
14830,-125,4,2,1,40,0,0
40430,-111.111111111111,4,2,1,45,0,0
62830,-142.857142857143,4,2,1,50,0,0
63030,-142.857142857143,4,2,1,25,0,0
63230,-142.857142857143,4,2,1,30,0,0
63630,-142.857142857143,4,2,1,35,0,0
64030,-142.857142857143,4,2,1,40,0,0
64430,-142.857142857143,4,2,1,45,0,0
64830,-142.857142857143,4,2,1,40,0,0
65230,-142.857142857143,4,2,1,52,0,0
65430,-142.857142857143,4,2,1,54,0,0
65630,-142.857142857143,4,2,1,56,0,0
65830,-142.857142857143,4,2,1,58,0,0
66030,-100,4,2,1,60,0,1
91630,-200,4,2,1,50,0,0
91730,-200,4,2,1,26,0,0
94430,-200,4,2,1,20,0,0
94830,-200,4,2,1,26,0,0
98030,-166.666666666667,4,2,1,28,0,0
99630,-166.666666666667,4,2,1,30,0,0
100030,-166.666666666667,4,2,1,26,0,0
101230,-166.666666666667,4,2,1,32,0,0
101630,-166.666666666667,4,2,1,27,0,0
102430,-166.666666666667,4,2,1,32,0,0
103230,-166.666666666667,4,2,1,27,0,0
103430,-142.857142857143,4,2,1,32,0,0
103830,-142.857142857143,4,2,1,34,0,0
104030,-142.857142857143,4,2,1,36,0,0
104430,-125,4,2,1,40,0,0
130030,-111.111111111111,4,2,1,45,0,0
152030,-125,4,2,1,45,0,0
152230,-125,4,2,1,30,0,0
152430,-142.857142857143,4,2,1,50,0,0
152830,-142.857142857143,4,2,1,20,0,0
153230,-142.857142857143,4,2,1,25,0,0
153630,-142.857142857143,4,2,1,30,0,0
154030,-142.857142857143,4,2,1,50,0,0
154630,-142.857142857143,4,2,1,51,0,0
155030,-142.857142857143,4,2,1,52,0,0
155230,-142.857142857143,4,2,1,54,0,0
155430,-142.857142857143,4,2,1,56,0,0
155630,-95.2380952380952,4,2,1,60,0,1
181230,-111.111111111111,4,2,1,50,0,0
200430,-111.111111111111,4,2,1,40,0,0
203630,-90.9090909090909,4,2,1,60,0,1
229130,-90.9090909090909,4,2,1,60,0,0
229230,-83.3333333333333,4,2,1,60,0,1
254830,-200,4,2,1,40,0,0
255030,-200,4,2,1,28,0,0
257630,-200,4,2,1,20,0,0
258030,-200,4,2,1,26,0,0
261230,-200,4,2,1,24,0,0
263230,-200,4,2,1,20,0,0
264430,-200,4,2,1,22,0,0
264830,-200,4,2,1,18,0,0
265630,-250,4,2,1,20,0,0
265830,-250,4,2,99,5,0,0
266830,-250,4,2,99,14,0,0

[Colours]
Combo1 : 250,190,230
Combo2 : 130,200,230
Combo3 : 255,230,140
Combo4 : 170,245,170

[HitObjects]
0,124,30,6,0,P|47:125|98:133,1,89.9999976158143,2|0,0:2|0:2,0:0:0:0:
178,121,830,2,0,P|213:137|264:153,1,89.9999976158143,2|0,0:2|0:2,0:0:0:0:
350,136,1630,2,0,P|393:114|438:104,3,89.9999976158143,2|2|2|2,0:2|0:2|0:2|0:2,0:0:0:0:
512,171,3230,6,0,P|507:215|491:268,1,89.9999976158143,2|0,0:2|0:2,0:0:0:0:
422,312,4030,2,0,P|384:300|322:293,1,89.9999976158143,2|0,0:2|0:2,0:0:0:0:
205,332,5030,5,0,0:2:0:0:
205,332,5230,2,0,P|230:315|245:304,2,44.9999988079071,0|0|0,0:2|0:2|0:2,0:0:0:0:
136,299,5830,2,0,P|115:283|96:271,2,44.9999988079071,0|0|0,0:2|0:2|0:2,0:0:0:0:
196,246,6430,6,0,P|218:208|243:137,1,107.999993843079,2|0,0:2|0:2,0:0:0:0:
187,52,7230,2,0,P|138:48|58:29,1,107.999993843079,2|0,0:2|0:2,0:0:0:0:
11,119,8030,2,0,P|13:175|26:227,3,107.999993843079,2|2|2|2,0:2|0:2|0:2|0:2,0:0:0:0:
129,255,9630,6,0,P|191:243|246:239,2,107.999993843079,2|2|2,0:2|0:2|0:2,0:0:0:0:
69,345,10830,2,0,P|147:338|286:348,1,215.999987686158,2|2,0:2|0:2,0:0:0:0:
256,192,11730,12,0,14030,0:2:0:0:
39,189,14830,6,0,P|116:198|184:215,1,143.999996185303,12|0,0:1|0:2,0:0:0:0:
235,271,15430,2,0,P|244:306|260:351,1,71.9999980926514,8|8,0:1|0:2,0:0:0:0:
409,376,16030,1,2,0:2:0:0:
432,300,16230,2,0,P|447:255|464:221,2,71.9999980926514,8|0|0,0:1|0:2|0:2,0:0:0:0:
364,245,16830,2,0,P|348:167|324:100,2,143.999996185303,8|8|0,0:1|0:2|0:2,0:0:0:0:
258,364,18030,6,0,P|186:353|100:345,1,143.999996185303,10|0,0:1|0:2,0:0:0:0:
36,331,18630,2,0,P|6:306|-17:278,1,71.9999980926514,8|8,0:1|0:2,0:0:0:0:
8,124,19230,1,2,0:2:0:0:
76,163,19430,2,0,P|131:177|231:168,1,143.999996185303,8|0,0:1|0:2,0:0:0:0:
278,106,20030,2,0,P|208:91|137:98,2,143.999996185303,8|8|0,0:1|0:2|0:2,0:0:0:0:
374,232,21230,6,0,P|411:337|430:372,1,143.999996185303,10|0,0:1|0:2,0:0:0:0:
505,357,21830,2,0,P|506:318|511:270,1,71.9999980926514,8|8,0:1|0:2,0:0:0:0:
487,127,22430,1,2,0:2:0:0:
430,71,22630,2,0,P|398:56|335:32,2,71.9999980926514,8|0|0,0:1|0:2|0:2,0:0:0:0:
361,122,23230,2,0,P|266:146|198:132,1,143.999996185303,8|8,0:1|0:2,0:0:0:0:
80,68,24030,1,2,0:2:0:0:
0,204,24430,6,0,P|9:268|28:352,1,143.999996185303,10|0,0:1|0:2,0:0:0:0:
100,374,25030,1,10,0:1:0:0:
142,306,25230,2,0,P|187:291|241:282,1,71.9999980926514,8|2,0:2|0:1,0:0:0:0:
235,210,25630,2,0,P|330:229|394:238,1,143.999996185303,8|0,0:1|0:2,0:0:0:0:
402,161,26230,2,0,P|442:133|477:119,1,71.9999980926514,8|8,0:2|0:1,0:0:0:0:
462,124,26830,5,8,0:2:0:0:
512,269,27230,1,8,0:3:0:0:
497,346,27430,1,8,0:3:0:0:
419,329,27630,6,0,P|352:312|277:304,1,143.999996185303,12|0,0:1|0:2,0:0:0:0:
205,336,28230,2,0,P|180:347|127:361,1,71.9999980926514,8|8,0:1|0:2,0:0:0:0:
1,277,28830,1,2,0:2:0:0:
57,221,29030,2,0,P|77:181|89:142,2,71.9999980926514,8|0|0,0:1|0:2|0:2,0:0:0:0:
145,223,29630,2,0,P|217:197|301:178,2,143.999996185303,8|8|0,0:1|0:2|0:2,0:0:0:0:
248,343,30830,6,0,P|319:353|390:360,1,143.999996185303,10|0,0:1|0:2,0:0:0:0:
465,334,31430,2,0,P|485:302|506:273,1,71.9999980926514,8|8,0:1|0:2,0:0:0:0:
492,115,32030,1,2,0:2:0:0:
412,119,32230,2,0,P|346:99|275:71,1,143.999996185303,8|0,0:1|0:2,0:0:0:0:
202,101,32830,2,0,P|131:83|37:68,1,143.999996185303,8|8,0:1|0:2,0:0:0:0:
10,221,33630,1,2,0:2:0:0:
117,337,34030,6,0,P|129:266|147:196,1,143.999996185303,10|0,0:1|0:2,0:0:0:0:
193,131,34630,1,8,0:1:0:0:
270,113,34830,2,0,P|358:92|383:81,1,71.9999980926514,8|0,0:2|0:1,0:0:0:0:
465,1,35430,1,8,0:1:0:0:
419,65,35630,2,0,P|432:126|460:225,1,143.999996185303,2|8,0:2|0:1,0:0:0:0:
496,271,36230,2,0,P|489:311|463:377,1,71.9999980926514,2|8,0:2|0:2,0:0:0:0:
326,381,36830,1,2,0:2:0:0:
250,242,37230,6,0,P|259:147|275:65,1,143.999996185303,10|0,0:1|0:2,0:0:0:0:
217,38,37830,2,0,P|179:23|132:9,1,71.9999980926514,8|8,0:1|0:2,0:0:0:0:
74,40,38230,1,2,0:2:0:0:
33,107,38430,2,0,P|23:183|17:287,1,143.999996185303,8|0,0:1|0:2,0:0:0:0:
29,328,39030,2,0,P|74:310|111:298,1,71.9999980926514,8|8,0:2|0:1,0:0:0:0:
258,384,39630,5,8,0:2:0:0:
221,274,39830,1,8,0:2:0:0:
311,232,40030,1,8,0:3:0:0:
325,321,40230,1,8,0:3:0:0:
420,351,40430,6,0,P|455:278|502:212,1,161.999990764618,12|0,0:1|0:2,0:0:0:0:
502,212,41030,1,8,0:1:0:0:
475,129,41230,2,0,P|400:82|327:53,1,161.999990764618,10|0,0:2|0:2,0:0:0:0:
249,91,41830,1,8,0:1:0:0:
326,136,42030,2,0,P|296:155|248:176,1,80.9999953823091,2|8,0:2|0:1,0:0:0:0:
175,132,42430,2,0,P|89:85|9:64,2,161.999990764618,8|8|0,0:1|0:2|0:2,0:0:0:0:
271,282,43630,6,0,P|357:329|437:350,1,161.999990764618,10|0,0:1|0:2,0:0:0:0:
418,346,44230,1,8,0:1:0:0:
486,289,44430,2,0,P|474:187|477:106,1,161.999990764618,10|0,0:2|0:2,0:0:0:0:
480,38,45030,1,8,0:1:0:0:
389,131,45230,2,0,P|372:81|355:45,1,80.9999953823091,2|8,0:2|0:2,0:0:0:0:
286,5,45630,2,0,P|281:36|267:92,1,80.9999953823091,10|0,0:1|0:2,0:0:0:0:
162,168,46030,5,8,0:2:0:0:
41,121,46230,1,8,0:2:0:0:
3,235,46430,1,8,0:3:0:0:
79,194,46630,1,8,0:3:0:0:
158,259,46830,6,0,P|223:320|310:374,1,161.999990764618,12|0,0:1|0:2,0:0:0:0:
283,360,47430,1,8,0:1:0:0:
368,335,47630,2,0,P|403:262|446:193,1,161.999990764618,10|0,0:2|0:2,0:0:0:0:
508,129,48230,1,8,0:1:0:0:
469,54,48430,1,2,0:2:0:0:
469,54,48630,2,0,P|432:30|386:9,1,80.9999953823091,2|8,0:2|0:1,0:0:0:0:
390,103,49030,2,0,P|359:110|296:117,1,80.9999953823091,2|8,0:2|0:2,0:0:0:0:
155,27,49630,1,2,0:2:0:0:
23,146,50030,6,0,P|8:225|1:306,1,161.999990764618,10|0,0:1|0:2,0:0:0:0:
1,306,50630,1,8,0:1:0:0:
72,358,50830,2,0,P|165:337|249:335,1,161.999990764618,10|0,0:2|0:2,0:0:0:0:
318,354,51430,1,8,0:1:0:0:
295,267,51630,2,0,P|285:209|282:168,1,80.9999953823091,2|8,0:2|0:2,0:0:0:0:
340,118,52030,2,0,P|357:81|372:43,1,80.9999953823091,10|0,0:1|1:2,0:0:0:0:
372,43,52330,1,0,1:2:0:0:
372,43,52430,5,8,0:2:0:0:
507,97,52630,1,8,0:2:0:0:
403,174,52830,1,8,0:3:0:0:
446,265,53030,1,8,0:3:0:0:
367,335,53230,6,0,P|263:320|183:312,1,161.999990764618,12|0,0:1|0:2,0:0:0:0:
206,314,53830,1,8,0:1:0:0:
133,378,54030,2,0,P|118:282|121:188,1,161.999990764618,10|0,0:2|0:2,0:0:0:0:
142,131,54630,1,8,0:1:0:0:
96,54,54830,2,0,P|61:40|-5:19,1,80.9999953823091,2|8,0:2|0:1,0:0:0:0:
142,131,55230,2,0,P|216:160|296:184,1,161.999990764618,8|8,0:1|0:2,0:0:0:0:
473,187,56030,1,2,0:2:0:0:
416,18,56430,6,0,P|397:123|371:224,1,161.999990764618,10|0,0:1|0:2,0:0:0:0:
384,176,57030,1,8,0:1:0:0:
330,246,57230,2,0,P|190:268|132:290,1,161.999990764618,10|0,0:2|0:2,0:0:0:0:
105,333,57830,1,8,0:1:0:0:
23,297,58030,2,0,P|11:255|7:215,1,80.9999953823091,2|8,0:1|0:2,0:0:0:0:
95,229,58430,2,0,P|107:187|111:147,1,80.9999953823091,10|0,0:1|0:2,0:0:0:0:
2,50,58830,5,8,0:2:0:0:
119,0,59030,1,8,0:2:0:0:
76,77,59230,1,8,0:3:0:0:
110,149,59430,1,8,0:3:0:0:
217,187,59630,6,0,P|314:166|438:149,1,161.999990764618,12|0,0:1|0:2,0:0:0:0:
434,87,60230,2,0,P|475:101|519:109,1,80.9999953823091,8|8,0:1|0:2,0:0:0:0:
340,0,60830,5,2,0:2:0:0:
256,119,61230,1,2,0:2:0:0:
333,242,61630,1,10,0:1:0:0:
256,365,62030,1,10,0:2:0:0:
179,242,62430,1,2,0:2:0:0:
256,119,62830,5,12,0:1:0:0:
256,192,62930,12,2,64830,0:0:0:0:
106,60,65230,5,8,0:2:0:0:
177,161,65430,1,8,0:2:0:0:
74,235,65630,1,8,0:2:0:0:
3,132,65830,1,8,0:2:0:0:
22,36,66030,6,0,P|58:54|109:60,1,89.9999976158143,12|0,2:1|0:0,0:0:0:0:
191,91,66430,2,0,P|232:74|277:69,1,89.9999976158143,8|0,0:1|0:2,0:0:0:0:
213,179,66830,2,0,P|301:215|412:222,1,179.999995231629,8|2,0:2|0:2,0:0:0:0:
496,132,67430,1,2,0:2:0:0:
512,277,67630,5,2,2:1:0:0:
426,303,67830,1,8,0:2:0:0:
385,224,68030,2,0,P|398:124|392:21,2,179.999995231629,8|8|2,0:1|0:2|0:2,0:0:0:0:
295,336,69030,1,0,0:2:0:0:
218,289,69230,6,0,P|223:243|235:188,1,89.9999976158143,10|0,0:1|0:0,0:0:0:0:
261,114,69630,2,0,P|296:104|374:92,1,89.9999976158143,8|0,0:1|0:1,0:0:0:0:
194,50,70030,2,0,P|149:42|106:30,1,89.9999976158143,8|0,0:2|0:2,0:0:0:0:
19,5,70430,1,2,0:2:0:0:
40,92,70630,1,2,0:2:0:0:
8,176,70830,5,10,0:1:0:0:
94,291,71030,1,8,0:2:0:0:
199,192,71230,1,10,0:1:0:0:
286,168,71430,2,0,P|330:165|399:171,1,89.9999976158143,2|8,2:1|0:2,0:0:0:0:
375,167,72030,1,2,0:2:0:0:
512,248,72230,1,8,0:2:0:0:
506,90,72430,6,0,P|492:132|472:172,1,89.9999976158143,12|0,0:1|0:0,0:0:0:0:
379,171,72830,2,0,P|343:143|292:118,1,89.9999976158143,8|0,0:1|0:2,0:0:0:0:
341,251,73230,2,0,P|292:257|139:312,1,179.999995231629,8|2,0:2|0:2,0:0:0:0:
50,381,73830,1,2,0:2:0:0:
37,237,74030,5,2,0:2:0:0:
123,217,74230,1,8,0:2:0:0:
168,296,74430,2,0,P|271:318|379:330,1,179.999995231629,10|8,0:1|0:2,0:0:0:0:
487,301,75030,1,2,0:2:0:0:
452,161,75230,1,2,0:2:0:0:
313,198,75430,1,2,0:2:0:0:
225,175,75630,6,0,P|217:133|199:81,1,89.9999976158143,10|0,0:1|0:0,0:0:0:0:
116,116,76030,2,0,P|75:97|36:74,1,89.9999976158143,8|0,0:1|0:2,0:0:0:0:
202,88,76430,2,0,P|234:64|380:23,1,179.999995231629,10|0,0:2|0:2,0:0:0:0:
455,33,77030,1,2,0:2:0:0:
506,107,77230,5,10,0:1:0:0:
437,233,77430,1,8,0:2:0:0:
318,150,77630,2,0,P|282:138|119:139,1,179.999995231629,10|10,0:1|0:2,0:0:0:0:
141,133,78430,1,10,0:2:0:0:
0,193,78630,1,10,0:2:0:0:
43,48,78830,6,0,P|51:103|68:153,1,89.9999976158143,12|0,0:1|0:0,0:0:0:0:
107,212,79230,2,0,P|136:241|176:296,1,89.9999976158143,8|0,0:1|0:2,0:0:0:0:
145,137,79630,2,0,P|187:88|309:40,1,179.999995231629,10|2,0:2|0:2,0:0:0:0:
234,160,80230,2,0,P|278:173|324:173,1,89.9999976158143,2|0,0:2|0:2,0:0:0:0:
410,157,80630,5,10,0:2:0:0:
291,42,80830,2,0,P|381:48|465:86,2,179.999995231629,10|8|2,0:1|0:2|0:2,0:0:0:0:
163,108,81830,1,2,0:2:0:0:
227,171,82030,6,0,P|262:197|305:240,1,89.9999976158143,10|0,0:1|0:0,0:0:0:0:
356,295,82430,2,0,P|399:292|469:273,1,89.9999976158143,8|0,0:1|0:2,0:0:0:0:
295,229,82830,2,0,P|248:234|121:273,1,179.999995231629,10|2,0:2|0:2,0:0:0:0:
124,182,83430,2,0,P|85:179|34:163,1,89.9999976158143,2|8,0:2|0:1,0:0:0:0:
0,22,83830,5,10,0:2:0:0:
143,14,84030,2,0,P|294:42|377:72,2,179.999995231629,2|8|2,0:2|0:2|0:2,0:0:0:0:
396,249,85230,6,0,P|444:223|498:215,1,89.9999976158143,12|0,0:1|0:0,0:0:0:0:
491,126,85630,2,0,P|455:109|404:73,1,89.9999976158143,10|0,0:1|0:2,0:0:0:0:
336,165,86030,2,0,P|282:148|141:134,1,179.999995231629,10|2,0:2|0:2,0:0:0:0:
220,233,86630,2,0,P|192:247|128:265,1,89.9999976158143,10|0,0:1|0:2,0:0:0:0:
46,251,87030,5,10,0:2:0:0:
159,345,87230,2,0,P|245:338|336:321,2,179.999995231629,10|10|2,0:1|0:2|0:2,0:0:0:0:
159,345,88230,1,2,0:2:0:0:
74,377,88430,6,0,P|65:334|48:283,1,89.9999976158143,10|0,0:1|0:0,0:0:0:0:
9,210,88830,2,0,P|15:168|35:116,1,89.9999976158143,8|0,0:1|0:2,0:0:0:0:
0,9,89230,2,0,P|76:55|164:73,1,179.999995231629,12|2,0:2|0:2,0:0:0:0:
249,46,89830,1,2,0:2:0:0:
315,107,90030,5,10,0:1:0:0:
233,204,90230,1,8,0:2:0:0:
329,287,90430,1,10,0:1:0:0:
413,189,90630,1,8,0:2:0:0:
499,215,90830,5,14,0:2:0:0:
415,97,91030,1,8,0:2:0:0:
282,35,91230,1,8,0:2:0:0:
135,47,91430,1,8,0:2:0:0:
0,190,91630,5,4,0:2:0:0:
256,192,91730,12,2,94830,0:0:0:0:
0,299,98030,6,0,P|56:294|115:277,1,107.999993843079,2|0,0:2|0:2,0:0:0:0:
205,321,98830,2,0,P|254:325|334:344,1,107.999993843079,2|0,0:2|0:2,0:0:0:0:
417,314,99630,2,0,P|431:263|439:208,3,107.999993843079,2|2|2|2,0:2|0:2|0:2|0:2,0:0:0:0:
403,103,101230,6,0,P|383:46|370:-9,2,107.999993843079,2|2|2,0:2|0:2|0:2,0:0:0:0:
501,146,102430,2,0,P|446:131|287:95,1,215.999987686158,2|0,0:2|0:2,0:0:0:0:
187,158,103430,5,8,0:2:0:0:
187,158,103530,1,8,0:2:0:0:
187,158,103630,2,0,P|191:123|198:90,1,62.9999964084627,8|8,0:2|0:2,0:0:0:0:
113,0,104030,1,8,0:3:0:0:
32,59,104230,1,8,0:3:0:0:
51,141,104430,6,0,P|33:196|-1:277,1,143.999996185303,12|0,0:1|0:2,0:0:0:0:
42,342,105030,2,0,P|87:324|141:308,1,71.9999980926514,8|8,0:1|0:2,0:0:0:0:
259,368,105630,1,2,0:2:0:0:
311,308,105830,2,0,P|326:264|337:229,2,71.9999980926514,8|0|0,0:1|0:2|0:2,0:0:0:0:
233,290,106430,2,0,P|209:221|195:151,2,143.999996185303,8|8|0,0:1|0:2|0:2,0:0:0:0:
397,332,107630,6,0,P|437:272|468:207,1,143.999996185303,10|0,0:1|0:2,0:0:0:0:
479,129,108230,2,0,P|465:96|452:58,1,71.9999980926514,8|8,0:1|0:2,0:0:0:0:
305,2,108830,1,2,0:2:0:0:
281,77,109030,2,0,P|265:131|227:226,1,143.999996185303,8|0,0:1|0:2,0:0:0:0:
159,242,109630,2,0,P|101:230|-10:215,2,143.999996185303,8|8|0,0:1|0:2|0:2,0:0:0:0:
283,341,110830,6,0,P|341:353|452:368,1,143.999996185303,10|0,0:1|0:2,0:0:0:0:
489,318,111430,2,0,P|485:274|482:228,1,71.9999980926514,8|8,0:1|0:2,0:0:0:0:
429,97,112030,1,2,0:2:0:0:
394,168,112230,2,0,P|380:197|352:242,2,71.9999980926514,8|0|0,0:1|0:2|0:2,0:0:0:0:
347,103,112830,2,0,P|254:77|193:67,1,143.999996185303,8|8,0:1|0:2,0:0:0:0:
49,75,113630,1,2,0:2:0:0:
1,226,114030,6,0,P|67:199|143:177,1,143.999996185303,10|0,0:1|0:2,0:0:0:0:
215,188,114630,2,0,P|252:206|281:217,1,71.9999980926514,8|8,0:1|0:2,0:0:0:0:
356,240,115030,1,2,0:1:0:0:
420,193,115230,2,0,P|400:104|390:37,1,143.999996185303,8|0,0:1|0:2,0:0:0:0:
457,3,115830,2,0,P|466:41|473:87,1,71.9999980926514,8|8,0:2|0:1,0:0:0:0:
471,73,116430,5,8,0:2:0:0:
319,14,116830,1,8,0:3:0:0:
259,67,117030,1,8,0:3:0:0:
184,47,117230,6,0,P|116:32|42:22,1,143.999996185303,12|0,0:1|0:2,0:0:0:0:
59,101,117830,2,0,P|35:119|-9:149,1,71.9999980926514,8|8,0:1|0:2,0:0:0:0:
60,289,118430,1,2,0:2:0:0:
117,234,118630,2,0,P|145:207|181:180,2,71.9999980926514,8|0|0,0:1|0:2|0:2,0:0:0:0:
198,266,119230,2,0,P|275:285|354:311,2,143.999996185303,8|8|0,0:1|0:2|0:2,0:0:0:0:
43,299,120430,6,0,P|35:236|31:141,1,143.999996185303,10|0,0:1|0:2,0:0:0:0:
61,82,121030,2,0,P|73:44|87:-12,1,71.9999980926514,8|8,0:1|0:2,0:0:0:0:
159,150,121630,1,2,0:2:0:0:
222,102,121830,2,0,P|322:77|390:66,1,143.999996185303,8|0,0:1|0:2,0:0:0:0:
431,109,122430,2,0,P|441:170|474:270,1,143.999996185303,8|8,0:1|0:2,0:0:0:0:
367,373,123230,1,2,0:2:0:0:
268,248,123630,6,0,P|285:175|294:104,1,143.999996185303,10|0,0:1|0:2,0:0:0:0:
246,43,124230,1,8,0:1:0:0:
168,57,124430,2,0,P|131:51|68:38,1,71.9999980926514,8|0,0:2|0:1,0:0:0:0:
0,179,125030,1,8,0:1:0:0:
77,160,125230,2,0,P|161:141|242:131,1,143.999996185303,2|8,0:2|0:1,0:0:0:0:
293,106,125830,2,0,P|328:117|376:125,1,71.9999980926514,2|8,0:2|0:2,0:0:0:0:
499,43,126430,1,2,0:2:0:0:
494,220,126830,6,0,P|465:146|422:71,1,143.999996185303,10|0,0:1|0:2,0:0:0:0:
370,42,127430,2,0,P|335:35|291:24,1,71.9999980926514,8|8,0:1|0:2,0:0:0:0:
223,4,127830,1,2,0:2:0:0:
186,74,128030,2,0,P|162:128|116:216,1,143.999996185303,8|0,0:1|0:2,0:0:0:0:
68,260,128630,2,0,P|35:268|-9:283,1,71.9999980926514,8|8,0:2|0:1,0:0:0:0:
79,110,129230,5,8,0:2:0:0:
167,225,129430,1,8,0:2:0:0:
177,111,129630,1,8,0:3:0:0:
245,44,129830,1,8,0:3:0:0:
342,86,130030,6,0,P|431:116|519:138,1,161.999990764618,12|0,0:1|0:2,0:0:0:0:
496,133,130630,1,8,0:1:0:0:
498,226,130830,2,0,P|409:256|321:278,1,161.999990764618,10|0,0:2|0:2,0:0:0:0:
254,273,131430,1,8,0:1:0:0:
228,187,131630,2,0,P|231:148|229:81,1,80.9999953823091,2|8,0:2|0:1,0:0:0:0:
159,51,132030,2,0,P|88:46|-30:23,2,161.999990764618,8|8|0,0:1|0:2|0:2,0:0:0:0:
284,177,133230,6,0,P|360:150|439:131,1,161.999990764618,10|0,0:1|0:2,0:0:0:0:
439,131,133830,1,8,0:1:0:0:
395,57,134030,2,0,P|318:30|239:11,1,161.999990764618,10|0,0:2|0:2,0:0:0:0:
158,51,134630,1,8,0:1:0:0:
229,104,134830,2,0,P|239:139|252:197,1,80.9999953823091,2|8,0:2|0:2,0:0:0:0:
215,265,135230,2,0,P|181:279|137:308,1,80.9999953823091,10|0,0:1|0:2,0:0:0:0:
28,383,135630,5,8,0:2:0:0:
48,259,135830,1,8,0:2:0:0:
143,302,136030,1,8,0:3:0:0:
45,280,136230,1,8,0:3:0:0:
1,191,136430,6,0,P|27:88|54:15,1,161.999990764618,12|0,0:1|0:2,0:0:0:0:
45,35,137030,1,8,0:1:0:0:
133,21,137230,2,0,P|217:42|323:58,1,161.999990764618,10|0,0:2|0:2,0:0:0:0:
377,28,137830,1,8,0:1:0:0:
457,65,138030,1,2,0:2:0:0:
457,65,138230,2,0,P|466:101|477:169,1,80.9999953823091,2|8,0:2|0:1,0:0:0:0:
402,198,138630,2,0,P|371:191|308:184,1,80.9999953823091,2|8,0:2|0:2,0:0:0:0:
173,284,139230,1,2,0:2:0:0:
349,375,139630,6,0,P|442:369|538:344,1,161.999990764618,10|0,0:1|0:2,0:0:0:0:
508,353,140230,1,8,0:1:0:0:
456,280,140430,2,0,P|387:260|277:243,1,161.999990764618,10|0,0:2|0:2,0:0:0:0:
210,257,141030,1,8,0:1:0:0:
166,334,141230,2,0,P|129:346|67:353,1,80.9999953823091,2|8,0:2|0:2,0:0:0:0:
19,294,141630,2,0,P|29:256|38:205,1,80.9999953823091,10|0,0:1|1:2,0:0:0:0:
36,215,141930,1,0,1:2:0:0:
36,215,142030,5,8,0:2:0:0:
0,88,142230,1,8,0:2:0:0:
117,34,142430,1,8,0:3:0:0:
160,127,142630,1,8,0:3:0:0:
217,46,142830,6,0,P|317:29|401:23,1,161.999990764618,12|0,0:1|0:2,0:0:0:0:
377,23,143430,1,8,0:1:0:0:
448,76,143630,2,0,P|433:172|436:266,1,161.999990764618,10|0,0:2|0:2,0:0:0:0:
455,322,144230,1,8,0:1:0:0:
378,367,144430,2,0,P|341:356|277:332,1,80.9999953823091,2|8,0:2|0:1,0:0:0:0:
251,267,144830,2,0,P|279:192|304:102,1,161.999990764618,8|8,0:1|0:0,0:0:0:0:
163,0,145630,1,2,0:2:0:0:
22,109,146030,6,0,P|18:157|28:292,1,161.999990764618,10|0,0:1|0:2,0:0:0:0:
24,270,146630,1,8,0:1:0:0:
100,326,146830,2,0,P|226:261|286:245,1,161.999990764618,10|0,0:2|0:2,0:0:0:0:
329,285,147430,1,8,0:1:0:0:
390,349,147630,2,0,P|430:346|479:335,1,80.9999953823091,2|8,0:1|0:2,0:0:0:0:
482,249,148030,2,0,P|433:221|403:196,1,80.9999953823091,10|0,0:1|0:2,0:0:0:0:
368,29,148430,5,8,0:2:0:0:
451,127,148630,1,8,0:2:0:0:
341,169,148830,1,8,0:3:0:0:
323,254,149030,1,8,0:3:0:0:
226,292,149230,6,0,P|219:211|209:117,1,161.999990764618,12|0,0:1|0:2,0:0:0:0:
161,56,149830,2,0,P|119:47|74:29,1,80.9999953823091,8|8,0:1|0:2,0:0:0:0:
304,0,150430,5,2,0:2:0:0:
341,157,150830,1,2,0:2:0:0:
492,213,151230,1,10,0:1:0:0:
475,374,151630,1,10,0:2:0:0:
324,318,152030,1,2,0:2:0:0:
177,365,152430,6,0,B|125:326|120:250|175:164|199:215|240:202|268:56|177:26,1,377.999978450776,12|2,0:1|0:0,0:0:0:0:
32,1,154030,5,8,0:3:0:0:
32,1,154230,2,0,L|11:176,1,125.999992816925,8|4,0:3|0:3,0:0:0:0:
0,359,155030,5,8,0:2:0:0:
58,240,155230,1,8,0:2:0:0:
140,343,155430,1,8,0:2:0:0:
231,367,155630,6,0,P|277:353|346:342,1,94.499994612694,12|0,2:1|0:0,0:0:0:0:
417,351,156030,2,0,P|426:293|439:244,1,94.499994612694,8|0,0:1|0:2,0:0:0:0:
340,245,156430,2,0,P|329:146|313:56,1,188.999989225388,8|2,0:2|0:2,0:0:0:0:
173,2,157030,1,2,0:2:0:0:
64,107,157230,5,2,2:1:0:0:
156,85,157430,1,8,0:2:0:0:
229,143,157630,2,0,P|238:227|255:330,2,188.999989225388,10|8|2,0:1|0:2|0:2,0:0:0:0:
326,28,158630,1,2,0:2:0:0:
395,92,158830,6,0,P|441:106|520:120,1,94.499994612694,10|0,0:1|0:0,0:0:0:0:
417,230,159230,2,0,P|462:217|509:207,1,94.499994612694,8|0,0:1|0:1,0:0:0:0:
452,346,159630,2,0,P|409:325|364:309,1,94.499994612694,8|0,0:2|0:2,0:0:0:0:
270,305,160030,1,2,0:2:0:0:
199,367,160230,1,2,0:2:0:0:
115,323,160430,5,10,0:1:0:0:
232,224,160630,1,8,0:2:0:0:
180,81,160830,1,10,0:1:0:0:
91,114,161030,1,0,1:1:0:0:
91,114,161130,1,0,1:1:0:0:
91,114,161230,2,0,P|31:100|-11:78,1,94.499994612694,8|0,0:2|0:2,0:0:0:0:
101,26,161630,1,2,0:2:0:0:
162,168,161830,1,8,0:2:0:0:
259,54,162030,6,0,P|302:35|348:25,1,94.499994612694,12|0,0:1|0:0,0:0:0:0:
432,69,162430,2,0,P|463:104|501:131,1,94.499994612694,8|0,0:1|0:2,0:0:0:0:
354,112,162830,2,0,P|266:75|175:54,1,188.999989225388,8|2,0:2|0:2,0:0:0:0:
28,90,163430,1,2,0:2:0:0:
0,238,163630,6,0,P|52:219|97:211,1,94.499994612694,2|8,0:2|0:2,0:0:0:0:
181,237,164030,1,10,0:1:0:0:
265,194,164230,1,2,1:2:0:0:
265,194,164330,1,0,1:2:0:0:
265,194,164430,2,0,P|277:148|304:90,1,94.499994612694,8|0,0:2|0:0,0:0:0:0:
417,14,164830,1,2,0:2:0:0:
511,132,165030,1,2,0:2:0:0:
467,215,165230,6,0,P|454:257|447:328,1,94.499994612694,10|0,0:1|0:0,0:0:0:0:
377,370,165630,2,0,P|363:324|357:278,1,94.499994612694,8|0,0:1|0:2,0:0:0:0:
287,368,166030,2,0,P|255:344|111:307,1,188.999989225388,10|0,3:2|3:0,0:0:0:0:
22,332,166630,1,0,3:2:0:0:
29,181,166830,5,10,0:1:0:0:
113,306,167030,1,8,0:2:0:0:
235,217,167230,2,0,P|315:169|408:155,1,188.999989225388,10|10,0:1|0:2,0:0:0:0:
408,155,168030,1,10,0:2:0:0:
338,24,168230,1,10,0:2:0:0:
512,43,168430,6,0,P|469:59|410:67,1,94.499994612694,12|0,0:1|0:0,0:0:0:0:
338,24,168830,2,0,P|293:7|247:0,1,94.499994612694,8|0,0:1|0:2,0:0:0:0:
300,103,169230,2,0,P|227:108|111:150,1,188.999989225388,10|2,0:2|0:2,0:0:0:0:
301,191,169830,2,0,P|276:219|227:254,1,94.499994612694,2|0,0:2|0:2,0:0:0:0:
136,270,170230,5,10,0:2:0:0:
301,191,170430,2,0,P|406:170|495:162,2,188.999989225388,10|8|2,0:1|0:2|0:2,0:0:0:0:
213,329,171430,1,2,0:2:0:0:
136,270,171630,6,0,P|121:226|103:166,1,94.499994612694,10|0,0:1|0:0,0:0:0:0:
140,91,172030,2,0,P|155:47|173:-13,1,94.499994612694,8|0,0:1|0:2,0:0:0:0:
200,157,172430,2,0,P|279:118|397:91,1,188.999989225388,10|2,0:2|0:2,0:0:0:0:
279,206,173030,2,0,P|310:238|355:266,1,94.499994612694,2|8,0:2|0:1,0:0:0:0:
499,299,173430,5,10,0:2:0:0:
360,360,173630,2,0,P|268:343|169:314,2,188.999989225388,2|8|2,0:2|0:2|0:2,0:0:0:0:
360,360,174630,1,2,0:2:0:0:
490,282,174830,6,0,P|493:236|506:181,1,94.499994612694,12|0,0:1|0:0,0:0:0:0:
441,117,175230,2,0,P|438:71|425:16,1,94.499994612694,10|0,0:1|0:2,0:0:0:0:
358,148,175630,2,0,P|279:115|166:103,1,188.999989225388,10|2,0:2|0:2,0:0:0:0:
249,199,176230,2,0,P|209:212|150:220,1,94.499994612694,10|0,0:1|0:2,0:0:0:0:
64,200,176630,5,10,0:2:0:0:
177,103,176830,2,0,P|265:68|359:58,2,188.999989225388,10|10|2,0:1|0:2|0:2,0:0:0:0:
177,103,177830,1,2,0:2:0:0:
82,89,178030,6,0,P|64:49|29:-3,1,94.499994612694,10|0,0:1|0:0,0:0:0:0:
0,138,178430,2,0,P|17:177|52:230,1,94.499994612694,8|0,0:1|0:2,0:0:0:0:
0,331,178830,2,0,P|75:258|164:270,1,188.999989225388,12|2,0:2|0:2,0:0:0:0:
236,308,179430,1,2,0:2:0:0:
306,244,179630,5,10,0:1:0:0:
202,134,179830,1,8,0:2:0:0:
312,29,180030,1,10,0:1:0:0:
415,139,180230,1,8,0:2:0:0:
512,155,180430,5,14,0:2:0:0:
423,21,180630,1,8,0:2:0:0:
317,142,180830,1,8,0:2:0:0:
406,276,181030,1,8,0:2:0:0:
317,358,181230,6,0,P|240:345|156:339,1,161.999990764618,12|0,0:1|0:2,0:0:0:0:
21,211,182030,1,8,0:2:0:0:
93,264,182230,2,0,P|173:258|253:245,1,161.999990764618,2|8,0:2|0:1,0:0:0:0:
336,210,182830,2,0,P|392:181|436:163,1,80.9999953823091,2|8,0:1|0:1,0:0:0:0:
408,173,183230,1,8,0:1:0:0:
369,92,183430,2,0,P|313:63|269:45,1,80.9999953823091,2|8,0:2|0:2,0:0:0:0:
283,64,184030,2,0,P|242:65|183:58,1,80.9999953823091,2|0,0:2|0:2,0:0:0:0:
78,11,184430,6,0,P|98:47|115:84,1,80.9999953823091,10|0,0:1|0:0,0:0:0:0:
94,171,184830,2,0,P|74:206|57:243,1,80.9999953823091,2|8,0:2|0:1,0:0:0:0:
97,360,185230,1,8,0:2:0:0:
180,328,185430,2,0,P|255:299|335:291,1,161.999990764618,2|8,0:2|0:1,0:0:0:0:
423,306,186030,1,2,0:2:0:0:
347,211,186230,1,8,0:2:0:0:
407,145,186430,2,0,P|422:116|432:56,1,80.9999953823091,8|0,0:1|0:2,0:0:0:0:
330,2,186830,5,8,0:2:0:0:
328,135,187030,1,8,0:2:0:0:
264,53,187230,1,8,0:3:0:0:
183,30,187430,1,8,0:3:0:0:
90,83,187630,6,0,P|68:170|25:263,1,161.999990764618,12|0,0:1|0:2,0:0:0:0:
160,380,188430,1,8,0:2:0:0:
127,296,188630,2,0,P|144:216|173:141,1,161.999990764618,2|8,0:2|0:1,0:0:0:0:
237,78,189230,2,0,P|283:50|325:12,1,80.9999953823091,2|0,0:2|0:2,0:0:0:0:
303,33,189630,1,8,0:1:0:0:
322,119,189830,2,0,P|358:155|395:183,1,80.9999953823091,2|8,0:2|0:2,0:0:0:0:
396,181,190430,2,0,P|434:169|474:163,1,80.9999953823091,2|0,0:2|0:2,0:0:0:0:
322,119,190830,6,0,P|280:98|220:88,1,80.9999953823091,10|0,0:1|0:0,0:0:0:0:
182,28,191230,2,0,P|135:30|78:52,1,80.9999953823091,2|8,0:2|0:1,0:0:0:0:
0,111,191630,1,8,0:2:0:0:
88,123,191830,2,0,P|129:141|208:239,1,161.999990764618,2|8,0:2|0:1,0:0:0:0:
215,316,192430,1,2,0:2:0:0:
287,208,192630,1,8,0:2:0:0:
376,205,192830,2,0,P|422:191|451:177,1,80.9999953823091,8|0,0:1|1:2,0:0:0:0:
451,176,193130,1,0,1:2:0:0:
451,176,193230,5,8,0:2:0:0:
512,43,193430,1,8,0:2:0:0:
405,106,193630,1,8,0:3:0:0:
321,54,193830,1,8,0:3:0:0:
257,128,194030,6,0,P|248:159|240:245,1,80.9999953823091,12|0,0:1|0:0,0:0:0:0:
281,286,194430,2,0,P|291:325|297:365,1,80.9999953823091,2|8,0:2|0:1,0:0:0:0:
348,227,194830,2,0,P|401:196|499:180,1,161.999990764618,10|0,0:2|0:2,0:0:0:0:
499,180,195430,1,8,0:1:0:0:
402,116,195630,2,0,P|371:88|345:57,1,80.9999953823091,2|0,0:2|0:2,0:0:0:0:
256,69,196030,2,0,P|218:50|180:36,1,80.9999953823091,10|0,0:1|0:2,0:0:0:0:
56,75,196430,1,10,0:2:0:0:
218,230,196830,1,2,0:2:0:0:
0,306,197230,6,0,P|86:288|107:290,1,80.9999953823091,10|0,0:1|0:0,0:0:0:0:
168,308,197630,2,0,P|203:327|233:354,1,80.9999953823091,2|8,0:2|0:1,0:0:0:0:
140,223,198030,2,0,P|150:142|170:62,1,161.999990764618,8|2,0:2|0:2,0:0:0:0:
169,63,198630,1,8,0:1:0:0:
342,177,198830,5,2,3:2:0:0:
425,231,199030,1,8,3:2:0:0:
479,148,199230,1,0,3:2:0:0:
396,93,199430,1,0,3:2:0:0:
346,262,199630,5,8,0:2:0:0:
476,63,199830,1,8,0:2:0:0:
509,227,200030,1,8,0:3:0:0:
310,98,200230,1,8,0:3:0:0:
256,192,200430,5,2,0:2:0:0:
0,291,203630,6,0,P|45:291|98:280,1,99.0000003986359,12|0,2:1|0:0,0:0:0:0:
164,206,204030,2,0,P|173:158|191:112,1,99.0000003986359,8|0,0:1|0:2,0:0:0:0:
263,215,204430,2,0,P|357:184|462:175,1,198.000000797272,8|2,0:2|0:2,0:0:0:0:
506,324,205030,1,0,0:2:0:0:
351,290,205230,5,2,2:1:0:0:
277,356,205430,1,8,0:2:0:0:
183,325,205630,1,10,0:1:0:0:
162,228,205830,1,2,1:2:0:0:
178,209,205930,1,0,1:1:0:0:
197,194,206030,2,0,P|233:103|233:4,1,198.000000797272,8|2,0:2|0:2,0:0:0:0:
124,135,206630,1,0,0:2:0:0:
33,98,206830,6,0,P|20:50|17:0,1,99.0000003986359,10|0,0:1|0:0,0:0:0:0:
140,37,207230,2,0,P|137:86|124:134,1,99.0000003986359,8|0,0:1|0:1,0:0:0:0:
50,199,207630,5,8,3:2:0:0:
91,331,207830,1,0,3:2:0:0:
229,328,208030,1,2,3:2:0:0:
188,196,208230,1,0,3:2:0:0:
255,123,208430,5,10,0:1:0:0:
297,260,208630,1,8,0:2:0:0:
409,224,208830,1,10,0:1:0:0:
398,120,209030,1,0,1:1:0:0:
379,104,209130,1,0,1:1:0:0:
360,89,209230,2,0,P|268:75|148:50,1,198.000000797272,8|2,0:2|0:2,0:0:0:0:
7,6,209830,1,8,0:2:0:0:
32,169,210030,6,0,P|51:114|72:74,1,99.0000003986359,12|0,0:1|0:0,0:0:0:0:
165,54,210430,2,0,P|198:94|241:130,1,99.0000003986359,8|0,0:1|0:2,0:0:0:0:
261,27,210830,2,0,P|370:6|479:2,1,198.000000797272,8|2,0:2|0:2,0:0:0:0:
503,153,211430,1,0,0:2:0:0:
376,248,211630,6,0,P|324:229|271:218,1,99.0000003986359,2|8,0:2|0:2,0:0:0:0:
183,235,212030,1,10,0:1:0:0:
104,174,212230,1,2,1:2:0:0:
96,150,212330,1,0,1:2:0:0:
95,125,212430,2,0,P|107:83|131:29,1,99.0000003986359,8|0,0:2|0:2,0:0:0:0:
285,4,212830,1,2,0:2:0:0:
417,90,213030,1,2,0:2:0:0:
384,183,213230,6,0,P|386:232|395:281,1,99.0000003986359,10|0,0:1|0:0,0:0:0:0:
477,337,213630,2,0,P|486:288|488:238,1,99.0000003986359,8|0,0:1|0:2,0:0:0:0:
395,281,214030,1,10,3:2:0:0:
312,222,214230,1,0,3:0:0:0:
321,120,214430,1,0,3:0:0:0:
413,76,214630,1,0,3:2:0:0:
497,133,214830,5,10,0:1:0:0:
420,0,215030,1,8,0:2:0:0:
321,120,215230,2,0,P|227:107|122:66,1,198.000000797272,10|10,0:1|0:2,0:0:0:0:
130,70,216030,1,10,0:2:0:0:
0,193,216230,1,10,0:2:0:0:
11,39,216430,6,0,P|36:79|60:137,1,99.0000003986359,12|0,0:1|0:0,0:0:0:0:
86,221,216830,2,0,P|74:269|55:314,1,99.0000003986359,8|0,0:1|0:2,0:0:0:0:
182,205,217230,2,0,P|256:139|343:92,1,198.000000797272,10|2,0:2|0:2,0:0:0:0:
321,206,217830,2,0,P|370:227|428:244,1,99.0000003986359,2|0,0:2|0:2,0:0:0:0:
512,247,218230,5,10,0:2:0:0:
439,106,218430,2,0,P|337:66|241:42,2,198.000000797272,10|8|2,0:1|0:2|0:2,0:0:0:0:
512,247,219430,1,2,0:2:0:0:
426,197,219630,6,0,P|382:177|315:157,1,99.0000003986359,10|0,0:1|0:0,0:0:0:0:
351,258,220030,2,0,P|307:278|240:298,1,99.0000003986359,8|0,0:1|0:2,0:0:0:0:
333,161,220430,2,0,P|240:144|128:149,1,198.000000797272,10|2,0:2|0:2,0:0:0:0:
60,211,221030,2,0,P|43:256|-3:334,1,99.0000003986359,2|8,0:2|0:1,0:0:0:0:
49,111,221430,5,10,0:2:0:0:
154,244,221630,2,0,P|247:261|359:256,2,198.000000797272,2|8|0,0:2|0:2|0:2,0:0:0:0:
154,244,222630,1,2,0:2:0:0:
49,111,222830,6,0,P|43:62|47:7,1,99.0000003986359,12|0,0:1|0:0,0:0:0:0:
133,90,223230,2,0,P|152:44|183:-1,1,99.0000003986359,10|0,0:1|0:2,0:0:0:0:
209,128,223630,2,0,P|289:92|406:74,1,198.000000797272,10|2,0:2|0:2,0:0:0:0:
334,167,224230,2,0,P|368:198|421:235,1,99.0000003986359,10|0,0:1|0:2,0:0:0:0:
504,263,224630,5,10,0:2:0:0:
334,167,224830,2,0,P|244:135|130:121,2,198.000000797272,10|10|2,0:1|0:2|0:2,0:0:0:0:
334,167,225830,1,2,0:2:0:0:
424,126,226030,6,0,P|436:79|459:35,1,99.0000003986359,10|0,0:1|0:0,0:0:0:0:
481,207,226430,2,0,P|468:254|446:299,1,99.0000003986359,8|0,0:2|0:2,0:0:0:0:
279,384,226830,5,12,0:0:0:0:
295,244,227030,1,8,0:3:0:0:
205,136,227230,1,8,0:1:0:0:
188,276,227430,1,8,0:0:0:0:
0,136,227630,5,10,0:1:0:0:
144,200,227830,1,8,0:2:0:0:
128,42,228030,1,10,0:1:0:0:
0,136,228230,1,0,1:2:0:0:
6,159,228330,1,0,1:0:0:0:
13,182,228430,5,12,0:2:0:0:
153,297,228630,1,8,0:2:0:0:
268,157,228830,1,8,0:2:0:0:
128,42,229030,1,8,0:2:0:0:
17,86,229230,6,0,P|-6:191|0:299,1,215.999987686158,12|8,2:1|0:1,0:0:0:0:
0,299,229830,1,2,0:2:0:0:
92,354,230030,2,0,P|215:316|314:324,1,215.999987686158,8|2,0:2|0:2,0:0:0:0:
402,359,230630,1,2,0:2:0:0:
491,297,230830,5,2,2:1:0:0:
499,144,231030,1,8,0:2:0:0:
369,62,231230,1,10,0:1:0:0:
233,133,231430,1,2,1:2:0:0:
222,151,231530,1,0,1:1:0:0:
207,166,231630,2,0,P|105:175|-9:118,1,215.999987686158,8|2,0:2|0:2,0:0:0:0:
26,23,232230,1,2,0:2:0:0:
124,66,232430,6,0,P|184:62|237:34,1,107.999993843079,10|0,0:1|0:0,0:0:0:0:
312,105,232830,2,0,P|366:107|415:129,1,107.999993843079,8|0,0:1|0:1,0:0:0:0:
296,211,233230,2,0,P|351:298|453:359,1,215.999987686158,8|0,0:2|0:2,0:0:0:0:
445,356,233830,1,2,0:2:0:0:
500,263,234030,5,10,0:1:0:0:
338,325,234230,1,8,0:2:0:0:
289,181,234430,1,10,0:1:0:0:
414,164,234630,1,0,1:1:0:0:
431,151,234730,1,0,1:1:0:0:
447,137,234830,2,0,P|453:86|429:17,1,107.999993843079,8|0,0:2|0:2,0:0:0:0:
333,3,235230,1,2,0:2:0:0:
218,132,235430,1,8,0:2:0:0:
139,62,235630,6,0,P|91:45|-1:36,1,107.999993843079,12|0,0:1|0:0,0:0:0:0:
114,166,236030,2,0,P|60:157|9:140,1,107.999993843079,10|0,0:1|0:2,0:0:0:0:
218,132,236430,2,0,P|282:103|437:107,1,215.999987686158,8|0,0:2|0:2,0:0:0:0:
507,174,237030,1,2,0:2:0:0:
486,279,237230,5,2,0:2:0:0:
372,178,237430,1,8,0:2:0:0:
219,187,237630,1,10,0:1:0:0:
117,301,237830,1,2,1:2:0:0:
108,320,237930,1,0,1:2:0:0:
98,339,238030,2,0,B|14:349|-34:256|10:188,1,215.999987686158,8|2,0:2|0:2,0:0:0:0:
8,191,238630,1,2,0:2:0:0:
98,132,238830,6,0,P|160:116|222:79,1,107.999993843079,10|0,0:1|0:0,0:0:0:0:
271,175,239230,2,0,P|333:191|395:228,1,107.999993843079,8|0,0:1|0:2,0:0:0:0:
429,302,239630,1,10,3:2:0:0:
464,200,239830,1,0,3:2:0:0:
417,104,240030,1,0,3:2:0:0:
315,69,240230,1,0,3:2:0:0:
218,116,240430,5,10,0:1:0:0:
84,6,240630,1,8,0:2:0:0:
0,136,240830,1,10,0:1:0:0:
89,229,241030,1,2,1:2:0:0:
109,223,241130,1,0,1:0:0:0:
130,220,241230,2,0,P|187:228|245:246,1,107.999993843079,10|0,0:2|0:2,0:0:0:0:
359,363,241630,1,10,0:2:0:0:
504,269,241830,1,10,0:2:0:0:
376,152,242030,6,0,P|359:96|351:32,1,107.999993843079,12|0,0:1|0:0,0:0:0:0:
449,1,242430,2,0,P|466:57|474:121,1,107.999993843079,8|0,0:1|0:2,0:0:0:0:
372,175,242830,2,0,P|326:149|162:107,1,215.999987686158,10|2,0:2|0:2,0:0:0:0:
261,219,243430,2,0,P|237:228|145:243,1,107.999993843079,2|0,0:2|0:2,0:0:0:0:
48,227,243830,5,10,0:2:0:0:
167,351,244030,2,0,P|255:336|367:257,1,215.999987686158,10|8,0:1|0:2,0:0:0:0:
512,123,244830,2,0,P|474:112|402:75,1,107.999993843079,2|0,0:2|0:2,0:0:0:0:
317,117,245230,6,0,P|326:63|327:10,1,107.999993843079,10|0,0:1|0:0,0:0:0:0:
233,116,245630,2,0,P|209:67|175:25,1,107.999993843079,8|0,0:1|0:2,0:0:0:0:
168,166,246030,2,0,P|121:137|69:121,1,107.999993843079,10|0,0:2|0:0,0:0:0:0:
70,121,246430,1,2,0:2:0:0:
233,116,246630,2,0,P|279:88|330:71,1,107.999993843079,2|8,0:2|0:1,0:0:0:0:
438,76,247030,5,10,0:2:0:0:
506,223,247230,1,2,0:2:0:0:
402,348,247430,1,0,1:2:0:0:
380,343,247530,1,0,1:2:0:0:
362,331,247630,2,0,P|336:279|322:219,1,107.999993843079,8|0,0:2|0:2,0:0:0:0:
414,180,248030,2,0,P|431:128|437:75,1,107.999993843079,2|0,0:2|0:2,0:0:0:0:
299,137,248430,6,0,P|263:96|219:64,1,107.999993843079,12|0,0:1|0:0,0:0:0:0:
113,41,248830,2,0,P|60:36|3:23,1,107.999993843079,10|0,0:1|0:2,0:0:0:0:
219,64,249230,2,0,P|271:52|325:47,1,107.999993843079,10|0,0:2|0:0,0:0:0:0:
325,47,249630,1,2,0:2:0:0:
147,125,249830,2,0,P|93:123|39:115,1,107.999993843079,10|0,0:1|0:2,0:0:0:0:
219,64,250230,5,10,0:2:0:0:
286,148,250430,1,10,0:1:0:0:
273,254,250630,1,8,0:1:0:0:
188,319,250830,2,0,P|113:297|-34:277,1,215.999987686158,10|2,0:2|0:2,0:0:0:0:
221,80,251630,6,0,P|295:54|348:47,1,107.999993843079,10|0,0:1|0:0,0:0:0:0:
407,99,252030,2,0,P|464:122|535:129,1,107.999993843079,8|0,0:1|0:2,0:0:0:0:
324,49,252430,2,0,P|237:34|85:26,1,215.999987686158,12|2,0:2|0:2,0:0:0:0:
3,48,253030,1,2,0:2:0:0:
78,125,253230,5,10,0:1:0:0:
224,32,253430,1,8,0:2:0:0:
315,178,253630,1,10,0:1:0:0:
169,269,253830,1,8,0:2:0:0:
234,354,254030,5,14,0:2:0:0:
315,178,254230,1,8,0:2:0:0:
151,72,254430,1,8,0:2:0:0:
70,248,254630,1,8,0:2:0:0:
156,302,254830,5,6,0:2:0:0:
256,192,254930,12,2,258030,0:0:0:0:
51,384,261230,6,0,P|57:338|71:283,1,89.9999976158143,2|0,0:2|0:2,0:0:0:0:
147,254,262030,2,0,P|195:266|263:268,1,89.9999976158143,2|0,0:2|0:2,0:0:0:0:
319,236,262830,2,0,P|367:224|435:222,3,89.9999976158143,2|2|2|2,0:2|0:2|0:2|0:2,0:0:0:0:
479,166,264430,6,0,P|489:99|483:68,2,89.9999976158143,2|2|2,0:2|0:2|0:2,0:0:0:0:
407,220,265630,2,0,P|354:202|182:182,1,215.999994277954,2|0,0:2|0:2,0:0:0:0:
