osu file format v14

[General]
AudioFilename: 06 koizora.mp3
AudioLeadIn: 0
PreviewTime: 58177
Countdown: 0
SampleSet: Soft
StackLeniency: 0.7
Mode: 0
LetterboxInBreaks: 0
WidescreenStoryboard: 0

[Editor]
DistanceSpacing: 1.7
BeatDivisor: 8
GridSize: 8
TimelineZoom: 1.8

[Metadata]
Title:Koizora
TitleUnicode:恋空
Artist:Primary
ArtistUnicode:Primary
Creator:Frostmourne
Version:Insane
Source:あおぞらストライプ
Tags:aozora stripe ErunamoJAZZ FrostxE ritsu-tanaika point. Meis Clauson yuikonnu ゆいこんぬ
BeatmapID:1057972
BeatmapSetID:496995

[Difficulty]
HPDrainRate:6
CircleSize:4
OverallDifficulty:7
ApproachRate:8.8
SliderMultiplier:3.2
SliderTickRate:1

[Events]
//Background and Video events
0,0,"bg.jpg",0,0
//Break Periods
2,84118,91179
2,182941,202077
//Storyboard Layer 0 (Background)
//Storyboard Layer 1 (Fail)
//Storyboard Layer 2 (Pass)
//Storyboard Layer 3 (Foreground)
//Storyboard Sound Samples

[TimingPoints]
2236,705.882352941176,4,2,1,40,1,0
2236,-133.333333333333,4,2,1,40,0,0
13530,-133.333333333333,4,2,2,40,0,0
24824,-100,4,2,1,60,0,0
58706,-100,4,2,1,80,0,1
81294,-100,4,2,1,60,0,0
137765,-100,4,2,1,80,0,1
160353,-100,4,2,1,70,0,0
180118,-100,4,2,2,40,0,0
180206,-100,4,2,1,60,0,0
206235,-100,4,2,1,40,0,1
206324,-100,4,2,1,60,0,0
208353,-100,4,2,1,80,0,1
228118,-100,4,2,1,60,0,0
240118,-100,4,2,1,40,0,0
240824,-100,4,2,1,20,0,0
241530,-100,4,2,1,20,0,0
242147,-100,4,2,2,5,0,0

[Colours]
Combo1 : 136,136,255
Combo2 : 255,128,255
Combo3 : 209,133,250

[HitObjects]
400,92,2059,6,0,P|416:80|456:68,2,40,0|0|0,0:0|0:0|0:0,0:0:0:0:
360,316,2941,2,0,P|308:336|248:316,1,120.000004577637
200,264,3471,2,0,L|76:320,1,120.000004577637
91,313,4000,1,0,0:0:0:0:
36,64,4530,6,0,P|45:39|73:18,2,60.0000022888184
88,114,5059,2,0,B|168:88|168:156|264:128,1,180.000006866455
320,174,5765,2,0,P|336:124|304:68,1,120.000004577637
243,31,6294,1,0,0:0:0:0:
387,19,6647,1,0,0:0:0:0:
387,19,6824,1,0,0:0:0:0:
478,214,7353,6,0,P|475:245|459:270,2,60.0000022888184
461,268,7883,2,0,P|373:275|308:217,1,180.000006866455
308,217,8588,2,0,L|319:347,1,120.000004577637
246,344,9118,2,0,L|116:355,1,120.000004577637
52,268,9647,2,0,P|140:275|204:217,1,180.000006866455
219,146,10353,5,0,0:0:0:0:
151,168,10530,2,0,L|80:159,1,60.0000022888184
272,197,10883,2,0,B|360:217|352:155|453:178,2,180.000006866455
272,197,12118,1,0,0:0:0:0:
401,257,12294,1,0,0:0:0:0:
305,116,12471,1,0,0:0:0:0:
305,116,13000,2,0,L|313:44,2,60.0000022888184
222,129,13530,6,0,L|100:57,1,120.000004577637,2|0,0:0|0:0,0:0:0:0:
37,86,14059,2,0,P|33:54|43:15,2,60.0000022888184,0|2|0,0:0|0:0|0:0,0:0:0:0:
37,86,14588,1,0,0:0:0:0:
32,170,14765,2,0,P|27:224|40:292,1,120.000004577637,2|0,0:0|0:0,0:0:0:0:
89,357,15294,2,0,L|232:332,1,120.000004577637,2|0,0:0|0:0,0:0:0:0:
286,303,15824,2,0,L|237:247,2,60.0000022888184
350,358,16353,6,0,P|412:366|476:337,1,120.000004577637,2|0,0:0|0:0,0:0:0:0:
483,264,16883,1,0,0:0:0:0:
483,264,17059,2,0,P|491:206|467:133,1,120.000004577637,2|0,0:0|0:0,0:0:0:0:
394,167,17588,2,0,L|402:45,1,120.000004577637,2|0,0:0|0:0,0:0:0:0:
486,61,18118,1,2,0:0:0:0:
264,104,18647,6,0,L|253:39,2,60.0000022888184
280,188,19177,2,0,P|268:245|227:300,1,120.000004577637,2|0,0:0|0:0,0:0:0:0:
168,242,19706,1,0,0:0:0:0:
234,295,19883,2,0,P|290:277|359:284,1,120.000004577637,2|0,0:0|0:0,0:0:0:0:
280,188,20412,2,0,P|237:148|209:85,1,120.000004577637,2|0,0:0|0:0,0:0:0:0:
211,93,20941,2,0,P|209:151|178:213,1,120.000004577637,2|0,0:0|0:0,0:0:0:0:
121,263,21471,5,0,0:0:0:0:
42,236,21647,1,0,0:0:0:0:
107,181,21823,1,0,0:0:0:0:
121,263,22000,2,0,L|106:336,1,60.0000022888184,2|0,0:0|0:0,0:0:0:0:
24,156,22353,2,0,L|39:83,1,60.0000022888184
107,51,22706,6,0,P|169:43|238:60,1,120.000004577637,2|0,0:0|0:0,0:0:0:0:
282,127,23235,2,0,P|220:135|151:118,1,120.000004577637,2|0,0:0|0:0,0:0:0:0:
208,228,23765,2,0,P|270:220|339:237,1,120.000004577637,2|0,0:0|0:0,0:0:0:0:
326,231,24294,1,0,0:0:0:0:
368,312,24471,1,0,0:0:0:0:
368,312,24647,1,0,0:0:0:0:
452,316,24824,6,0,B|434:157,1,160,6|0,0:0|0:0,0:0:0:0:
363,119,25353,1,0,0:0:0:0:
363,119,25530,2,0,B|323:91|268:115,1,80,8|0,0:0|0:0,0:0:0:0:
316,191,25883,1,0,0:0:0:0:
316,191,26059,2,0,B|257:343,1,160
183,384,26588,2,0,B|159:343|178:303|178:303,1,80,2|0,0:0|0:0,0:0:0:0:
366,296,26941,2,0,L|330:390,1,80,8|0,0:0|0:0,0:0:0:0:
259,340,27294,1,0,0:0:0:0:
340,128,27647,6,0,B|412:68|496:108|496:108,1,160,2|0,0:0|0:0,0:0:0:0:
376,200,28177,2,0,P|335:208|295:195,2,80,0|8|0,0:0|0:0|0:0,0:0:0:0:
376,200,28706,1,0,0:0:0:0:
452,176,28883,2,0,B|504:252|452:332|452:332,1,160
384,292,29412,2,0,L|292:292,1,80,2|0,0:0|0:0,0:0:0:0:
227,249,29765,2,0,P|255:219|291:204,1,80,8|0,0:0|0:0,0:0:0:0:
362,151,30118,1,0,0:0:0:0:
64,256,30471,6,0,B|144:299|222:230|222:230,1,160,2|0,0:0|0:0,0:0:0:0:
245,162,31000,2,0,P|198:158|165:174,2,80,0|8|0,0:0|0:0|0:0,0:0:0:0:
245,162,31530,1,0,0:0:0:0:
185,81,31706,2,0,P|147:91|114:113,1,80
271,75,32059,1,0,0:0:0:0:
271,75,32235,2,0,L|434:101,2,160,2|8|0,0:0|0:0|0:0,0:0:0:0:
168,171,33118,6,0,L|203:255,1,80,0|2,0:0|0:0,0:0:0:0:
246,319,33471,1,0,0:0:0:0:
166,356,33647,2,0,P|96:367|21:318,2,160,0|8|0,0:0|0:0|0:0,0:0:0:0:
317,263,34530,5,0,0:0:0:0:
317,263,34706,2,0,L|303:176,1,80
244,119,35059,1,2,0:0:0:0:
218,203,35235,1,0,0:0:0:0:
285,39,35412,5,8,0:0:0:0:
218,203,35588,1,8,0:0:0:0:
395,178,35765,1,2,0:0:0:0:
285,39,35941,1,2,0:0:0:0:
124,156,36118,6,0,B|103:248|181:306|181:306,1,160,6|0,0:0|0:0,0:0:0:0:
244,338,36647,1,2,0:0:0:0:
244,338,36824,2,0,L|282:265,1,80,8|0,0:0|0:0,0:0:0:0:
371,106,37177,1,6,0:0:0:0:
371,106,37883,6,0,B|284:96,1,80,2|0,0:0|0:0,0:0:0:0:
227,149,38235,2,0,P|190:134|169:102,1,80,8|0,0:0|0:0,0:0:0:0:
88,137,38588,2,0,B|32:208|72:296|72:296,2,160,6|0|2,0:0|0:0|0:0,0:0:0:0:
169,102,39471,1,0,0:0:0:0:
169,102,39647,2,0,P|207:88|254:96,1,80,8|0,0:0|0:0,0:0:0:0:
372,168,40000,1,0,0:0:0:0:
317,46,40177,1,0,0:0:0:0:
372,168,40353,6,0,P|388:131|387:92,1,80,2|0,0:0|0:0,0:0:0:0:
386,251,40706,2,0,P|423:266|462:265,1,80,2|0,0:0|0:0,0:0:0:0:
303,268,41059,2,0,P|288:304|289:343,1,80,8|0,0:0|0:0,0:0:0:0:
288,184,41412,2,0,P|252:168|213:169,1,80
64,260,41765,6,0,B|136:236|137:282|224:248,1,160,6|0,0:0|0:0,0:0:0:0:
100,165,42294,2,0,P|59:169|21:181,2,80,0|8|0,0:0|0:0|0:0,0:0:0:0:
100,332,42824,2,0,P|181:343|264:323,1,160,0|2,0:0|0:0,0:0:0:0:
316,271,43353,1,0,0:0:0:0:
316,271,43530,2,0,B|466:351|466:351,1,160,2|8,0:0|0:0,0:0:0:0:
493,274,44059,1,0,0:0:0:0:
493,274,44235,2,0,B|493:186,1,80
484,116,44588,2,0,P|432:56|352:32,2,160,2|0|8,0:0|0:0|0:0,0:0:0:0:
304,296,45647,6,0,L|201:289,1,80
107,147,46000,2,0,P|148:90|232:58,1,160,2|2,0:0|0:0,0:0:0:0:
230,59,46530,1,0,0:0:0:0:
246,210,46706,1,8,0:0:0:0:
107,147,46883,1,8,0:0:0:0:
230,59,47059,1,2,0:0:0:0:
472,280,47412,6,0,B|400:256|399:302|312:268,1,160,6|0,0:0|0:0,0:0:0:0:
365,196,47941,2,0,B|350:98|350:98,2,80,2|8|0,0:0|0:0|0:0,0:0:0:0:
432,356,48471,1,6,0:0:0:0:
28,360,49177,6,0,L|16:272,1,80,2|0,0:0|0:0,0:0:0:0:
56,200,49530,2,0,P|95:189|141:200,1,80,8|0,0:0|0:0,0:0:0:0:
164,280,49883,2,0,B|233:339|314:313,2,160,6|0|2,0:0|0:0|0:0,0:0:0:0:
276,128,50765,1,0,0:0:0:0:
276,128,50941,2,0,L|202:160,1,80,8|0,0:0|0:0,0:0:0:0:
236,256,51294,2,0,L|310:224,1,80
140,216,51647,6,0,P|125:252|126:291,1,80,2|0,0:0|0:0,0:0:0:0:
126,133,52000,2,0,P|90:117|51:118,1,80,2|0,0:0|0:0,0:0:0:0:
209,116,52353,2,0,P|225:79|224:40,1,80,8|0,0:0|0:0,0:0:0:0:
224,200,52706,2,0,P|261:215|300:214,1,80
460,96,53059,6,0,B|396:24|308:56|308:56,1,160,6|0,0:0|0:0,0:0:0:0:
224,200,53588,2,0,L|145:172,1,80,0|8,0:0|0:0,0:0:0:0:
344,292,53941,1,0,0:0:0:0:
344,292,54118,2,0,L|381:370,1,80
252,128,54471,6,0,P|288:116|336:124,1,80,2|0,0:0|0:0,0:0:0:0:
376,192,54824,2,0,P|340:204|292:196,1,80,2|0,0:0|0:0,0:0:0:0:
445,148,55177,2,0,P|457:184|449:232,1,80,8|0,0:0|0:0,0:0:0:0:
181,172,55530,2,0,P|169:136|177:88,1,80
90,71,55883,5,2,0:0:0:0:
39,133,56235,5,2,0:0:0:0:
23,211,56588,5,2,0:0:0:0:
52,285,56941,5,2,0:0:0:0:
101,347,57294,6,0,B|186:375|257:328|257:328,1,160,8|0,0:0|0:0,0:0:0:0:
326,288,57824,1,8,0:0:0:0:
326,288,57912,1,8,0:0:0:0:
326,288,58000,1,8,0:0:0:0:
277,110,58177,1,8,0:0:0:0:
148,240,58353,1,2,0:0:0:0:
326,288,58530,1,0,0:0:0:0:
277,110,58706,5,6,0:0:0:0:
216,244,58883,1,0,0:0:0:0:
129,126,59059,2,0,P|122:86|132:48,1,80
277,110,59412,2,0,L|319:33,1,80,8|0,0:0|0:0,0:0:0:0:
216,244,59765,1,0,0:0:0:0:
277,110,59941,2,0,B|265:187|319:169|311:263,1,160,8|0,0:0|0:0,0:0:0:0:
296,348,60470,5,2,0:0:0:0:
296,348,60647,2,0,P|335:349|381:315,1,80,0|8,0:0|0:0,0:0:0:0:
409,249,61001,1,0,0:0:0:0:
476,305,61177,2,0,P|496:271|487:214,1,80
504,144,61530,6,0,P|344:74|344:74,1,160,2|0,0:0|0:0,0:0:0:0:
357,80,62059,1,0,0:0:0:0:
298,17,62235,2,0,P|278:51|279:112,1,80,8|0,0:0|0:0,0:0:0:0:
209,150,62588,6,0,P|190:116|188:74,1,80,0|8,0:0|0:0,0:0:0:0:
263,217,62941,2,0,P|244:250|209:272,1,80,0|2,0:0|0:0,0:0:0:0:
295,137,63294,2,0,P|334:137|371:156,1,80,2|0,0:0|0:0,0:0:0:0:
263,217,63647,1,8,0:0:0:0:
209,150,63824,1,2,0:0:0:0:
369,155,64000,2,0,P|378:193|372:234,1,80
246,343,64353,5,2,0:0:0:0:
206,259,64530,1,0,0:0:0:0:
166,347,64706,2,0,L|281:341,1,80
336,216,65059,2,0,B|271:259|321:287|245:344,1,160,8|0,0:0|0:0,0:0:0:0:
56,284,65588,2,0,P|120:252|208:260,1,160,8|0,0:0|0:0,0:0:0:0:
112,353,66118,1,2,0:0:0:0:
56,284,66294,2,0,L|73:194,1,80,0|8,0:0|0:0,0:0:0:0:
84,118,66647,1,0,0:0:0:0:
207,259,66824,2,0,L|224:169,1,80
312,144,67177,6,0,P|261:99|169:94,1,160,2|0,0:0|0:0,0:0:0:0:
232,324,67706,1,0,0:0:0:0:
232,324,67883,2,0,L|406:347,1,160,8|0,0:0|0:0,0:0:0:0:
479,356,68412,1,8,0:0:0:0:
445,274,68588,1,2,0:0:0:0:
391,345,68765,1,2,0:0:0:0:
479,356,68941,2,0,L|453:195,1,160,2|8,0:0|0:0,0:0:0:0:
312,96,69471,5,8,0:0:0:0:
235,263,69647,1,8,0:0:0:0:
312,96,69824,1,2,0:0:0:0:
235,263,70000,1,6,0:0:0:0:
125,73,70177,1,0,0:0:0:0:
125,73,70353,2,0,P|85:82|49:119,1,80
193,182,70706,6,0,P|153:187|106:166,1,80,8|0,0:0|0:0,0:0:0:0:
29,186,71059,1,0,0:0:0:0:
58,343,71235,1,8,0:0:0:0:
29,186,71412,2,0,L|60:349,1,160,0|2,0:0|0:0,0:0:0:0:
161,362,71941,2,0,L|143:271,1,80,0|8,0:0|0:0,0:0:0:0:
128,197,72294,1,0,0:0:0:0:
204,96,72471,2,0,L|235:259,2,160,0|2|0,0:0|0:0|0:0,0:0:0:0:
432,352,73530,6,0,P|484:293|503:204,1,160,8|0,0:0|0:0,0:0:0:0:
480,130,74059,1,8,0:0:0:0:
480,130,74235,2,0,L|429:55,1,80,0|2,0:0|0:0,0:0:0:0:
400,176,74588,2,0,P|390:216|401:259,1,80,2|0,0:0|0:0,0:0:0:0:
462,314,74941,1,8,0:0:0:0:
483,228,75118,1,2,0:0:0:0:
399,253,75294,2,0,L|303:291,1,80
275,355,75647,2,0,P|239:300|268:213,1,160,2|0,0:0|0:0,0:0:0:0:
97,77,76353,6,0,P|61:93|29:136,1,80,8|0,0:0|0:0,0:0:0:0:
60,208,76706,2,0,B|72:294|145:339|145:339,1,160
452,176,77412,2,0,B|441:89|368:44|368:44,2,160,2|8|0,0:0|0:0|0:0,0:0:0:0:
380,364,78294,5,8,0:0:0:0:
272,196,78471,2,0,L|358:186,1,80,6|0,0:0|0:0,0:0:0:0:
216,344,78824,5,8,0:0:0:0:
192,152,79000,2,0,L|182:66,1,80,6|0,0:0|0:0,0:0:0:0:
288,100,79353,5,8,0:0:0:0:
189,236,79530,2,0,L|135:304,1,80,6|8,0:0|0:0,0:0:0:0:
139,298,79794,1,8,0:0:0:0:
139,298,79883,1,8,0:0:0:0:
100,192,80059,5,8,0:0:0:0:
216,344,80235,1,2,0:0:0:0:
282,169,80412,5,2,0:0:0:0:
229,239,80588,1,8,0:0:0:0:
316,252,80765,1,0,0:0:0:0:
282,169,80941,5,8,0:0:0:0:
216,344,81118,1,8,0:0:0:0:
400,313,81294,1,6,0:0:0:0:
256,192,81383,12,8,83412,0:0:0:0:
212,252,91883,6,0,L|176:340,2,80,8|8|8,0:0|0:0|0:0,0:0:0:0:
261,178,92412,1,0,0:0:0:0:
328,234,92588,6,0,P|348:186|278:90,1,160,6|0,0:0|0:0,0:0:0:0:
211,104,93118,1,0,0:0:0:0:
261,178,93294,2,0,P|229:219|111:206,1,160,8|0,0:0|0:0,0:0:0:0:
60,163,93824,2,0,L|75:73,1,80,0|2,0:0|0:0,0:0:0:0:
150,39,94177,1,0,0:0:0:0:
211,104,94353,2,0,L|381:72,1,160,0|8,0:0|0:0,0:0:0:0:
360,340,95412,6,0,P|436:357|499:312,1,160,2|0,0:0|0:0,0:0:0:0:
417,264,95941,1,0,0:0:0:0:
474,190,96118,2,0,P|399:172|336:217,1,160,8|0,0:0|0:0,0:0:0:0:
269,277,96647,2,0,P|249:268|233:252,2,40,8|8|2,0:0|0:0|0:0,0:0:0:0:
184,340,97000,1,8,0:0:0:0:
184,340,97177,2,0,P|109:357|46:312,1,160,0|8,0:0|0:0,0:0:0:0:
344,40,98235,6,0,L|376:204,1,160,2|0,0:0|0:0,0:0:0:0:
464,204,98765,2,0,L|444:108,2,80,0|8|0,0:0|0:0|0:0,0:0:0:0:
464,204,99294,1,0,0:0:0:0:
416,280,99471,2,0,P|376:292|328:272,1,80,0|2,0:0|0:0,0:0:0:0:
256,252,99824,1,0,0:0:0:0:
231,169,100000,2,0,P|312:156|384:208,2,160,0|8|0,0:0|0:0|0:0,0:0:0:0:
150,133,100883,6,0,P|144:173|158:219,1,80,0|2,0:0|0:0,0:0:0:0:
206,281,101235,1,0,0:0:0:0:
206,281,101412,2,0,P|129:291|70:241,1,160,0|8,0:0|0:0,0:0:0:0:
284,44,102118,1,0,0:0:0:0:
370,59,102294,2,0,L|374:103,2,40,8|8|2,0:0|0:0|0:0,0:0:0:0:
455,37,102647,2,0,L|464:129,1,80,8|0,0:0|0:0,0:0:0:0:
492,324,103000,5,8,0:0:0:0:
492,324,103088,1,8,0:0:0:0:
492,324,103177,1,8,0:0:0:0:
426,266,103353,1,8,0:0:0:0:
411,352,103530,1,2,0:0:0:0:
492,324,103706,1,2,0:0:0:0:
426,266,103883,6,0,P|344:255|270:291,1,160,6|0,0:0|0:0,0:0:0:0:
205,233,104412,2,0,L|187:150,2,80,0|8|0,0:0|0:0|0:0,0:0:0:0:
108,228,104941,1,0,0:0:0:0:
108,228,105118,2,0,P|132:283|223:339,1,160,8|0,0:0|0:0,0:0:0:0:
301,342,105647,1,2,0:0:0:0:
108,228,106000,5,8,0:0:0:0:
194,206,106177,1,0,0:0:0:0:
133,143,106353,1,0,0:0:0:0:
108,228,106530,1,0,0:0:0:0:
194,206,106706,2,0,P|219:149|172:65,1,160,2|0,0:0|0:0,0:0:0:0:
133,143,107235,1,0,0:0:0:0:
89,219,107412,2,0,P|47:153|71:80,1,160,8|0,0:0|0:0,0:0:0:0:
133,143,107941,2,0,L|266:238,1,160,8|0,0:0|0:0,0:0:0:0:
227,317,108471,1,2,0:0:0:0:
468,364,108824,6,0,P|489:332|488:283,2,80,8|0|2,0:0|0:0|0:0,0:0:0:0:
382,343,109353,1,0,0:0:0:0:
313,287,109530,2,0,B|376:241|326:214|399:155,1,160,2|0,0:0|0:0,0:0:0:0:
450,83,110059,1,0,0:0:0:0:
450,83,110235,2,0,P|380:58|296:81,1,160,8|0,0:0|0:0,0:0:0:0:
67,47,110765,2,0,P|137:22|221:45,1,160,8|0,0:0|0:0,0:0:0:0:
257,122,111294,2,0,L|212:288,2,160,2|8|0,0:0|0:0|0:0,0:0:0:0:
217,42,112177,6,0,P|181:34|140:43,1,80,0|2,0:0|0:0,0:0:0:0:
56,72,112530,1,0,0:0:0:0:
86,214,112706,2,0,P|59:186|58:65,2,160,0|8|0,0:0|0:0|0:0,0:0:0:0:
123,293,113588,1,8,0:0:0:0:
52,344,113765,2,0,L|226:315,1,160,2|2,0:0|0:0,0:0:0:0:
370,206,114294,5,0,0:0:0:0:
209,317,114471,1,8,0:0:0:0:
193,122,114647,1,2,0:0:0:0:
370,206,114824,1,8,0:0:0:0:
209,317,115000,1,8,0:0:0:0:
193,122,115177,2,0,P|263:100|355:105,1,160,6|0,0:0|0:0,0:0:0:0:
448,217,115706,6,0,P|410:206|353:209,1,80,2|8,0:0|0:0,0:0:0:0:
285,232,116059,1,0,0:0:0:0:
484,360,116236,1,6,0:0:0:0:
103,353,116941,6,0,P|86:318|82:278,1,80,2|0,0:0|0:0,0:0:0:0:
16,216,117294,2,0,P|28:179|68:152,1,80,8|0,0:0|0:0,0:0:0:0:
140,188,117647,2,0,P|214:206|304:192,1,160,6|0,0:0|0:0,0:0:0:0:
480,32,118353,2,0,L|459:123,1,80,2|0,0:0|0:0,0:0:0:0:
373,107,118706,2,0,L|406:209,1,80,8|0,0:0|0:0,0:0:0:0:
429,265,119059,5,0,0:0:0:0:
264,224,119235,1,0,0:0:0:0:
429,265,119412,2,0,P|387:269|341:252,1,80,2|0,0:0|0:0,0:0:0:0:
264,224,119765,2,0,P|222:220|176:237,1,80,2|0,0:0|0:0,0:0:0:0:
98,219,120118,2,0,P|65:192|44:147,1,80,8|0,0:0|0:0,0:0:0:0:
109,95,120471,2,0,P|141:121|162:166,1,80
152,348,120824,6,0,P|230:343|294:286,1,160,6|0,0:0|0:0,0:0:0:0:
352,229,121353,2,0,L|380:135,2,80,0|8|0,0:0|0:0|0:0,0:0:0:0:
268,198,121883,2,0,L|318:33,2,160,0|2|2,0:0|0:0|0:0,0:0:0:0:
213,64,122765,1,0,0:0:0:0:
213,64,122941,2,0,L|137:37,1,80,8|0,0:0|0:0,0:0:0:0:
352,192,123294,2,0,L|428:215,1,80
184,308,123647,2,0,L|30:356,1,160,2|0,0:0|0:0,0:0:0:0:
252,156,124353,6,0,L|278:73,1,80,8|0,0:0|0:0,0:0:0:0:
272,280,124706,2,0,L|298:363,1,80
406,272,125059,2,0,L|380:189,1,80,2|0,0:0|0:0,0:0:0:0:
314,138,125412,1,2,0:0:0:0:
151,336,125588,5,0,0:0:0:0:
102,167,125765,1,8,0:0:0:0:
272,209,125941,1,8,0:0:0:0:
151,336,126118,1,8,0:0:0:0:
151,336,126471,6,0,B|190:180,1,160,6|0,0:0|0:0,0:0:0:0:
272,209,127000,2,0,L|293:131,1,80,2|8,0:0|0:0,0:0:0:0:
308,315,127353,1,0,0:0:0:0:
436,184,127530,2,0,P|369:137|289:131,1,160,6|0,0:0|0:0,0:0:0:0:
32,32,128235,6,0,P|57:106|113:163,1,160,2|8,0:0|0:0,0:0:0:0:
174,226,128765,1,0,0:0:0:0:
174,226,128941,2,0,B|248:208|248:152|328:168,1,160,6|0,0:0|0:0,0:0:0:0:
32,376,129647,2,0,P|-2:305|3:226,2,160,2|8|0,0:0|0:0|0:0,0:0:0:0:
116,352,130530,1,0,0:0:0:0:
187,301,130706,6,0,P|221:282|260:277,1,80,2|0,0:0|0:0,0:0:0:0:
344,248,131059,2,0,P|379:268|402:300,1,80,2|0,0:0|0:0,0:0:0:0:
472,224,131412,2,0,P|437:204|414:172,1,80,8|0,0:0|0:0,0:0:0:0:
367,97,131765,2,0,P|403:85|444:92,1,80
264,256,132118,6,0,P|188:234|135:175,1,160,6|0,0:0|0:0,0:0:0:0:
67,118,132647,2,0,L|96:31,1,80,0|8,0:0|0:0,0:0:0:0:
48,216,133000,1,0,0:0:0:0:
168,96,133177,2,0,P|205:78|260:80,1,80
480,184,133530,6,0,L|501:274,1,80,2|0,0:0|0:0,0:0:0:0:
409,262,133883,2,0,L|396:353,1,80,2|0,0:0|0:0,0:0:0:0:
324,293,134235,2,0,L|247:374,1,80,8|0,0:0|0:0,0:0:0:0:
181,341,134588,2,0,P|173:292|182:257,1,80
379,102,134941,5,2,0:0:0:0:
445,148,135293,5,2,0:0:0:0:
482,219,135646,5,2,0:0:0:0:
474,298,136000,6,0,B|456:336|408:340,1,80,2|0,0:0|0:0,0:0:0:0:
215,249,136353,1,8,0:0:0:0:
320,148,136530,1,8,0:0:0:0:
288,344,136706,1,0,0:0:0:0:
204,140,136882,5,8,0:0:0:0:
204,140,136970,1,8,0:0:0:0:
204,140,137058,1,2,0:0:0:0:
288,344,137235,1,8,0:0:0:0:
320,148,137411,1,8,0:0:0:0:
172,324,137588,1,8,0:0:0:0:
384,252,137765,5,6,0:0:0:0:
167,160,137941,1,0,0:0:0:0:
167,160,138118,2,0,P|245:134|325:150,2,160,0|8|0,0:0|0:0|0:0,0:0:0:0:
113,233,139000,2,0,P|81:183|113:85,1,160,8|0,0:0|0:0,0:0:0:0:
167,160,139530,5,2,0:0:0:0:
246,196,139706,2,0,P|253:155|239:112,1,80,0|8,0:0|0:0,0:0:0:0:
214,34,140059,1,0,0:0:0:0:
167,160,140235,2,0,L|143:244,1,80
296,344,140588,2,0,P|375:326|430:269,1,160,2|0,0:0|0:0,0:0:0:0:
426,166,141118,1,0,0:0:0:0:
426,166,141294,2,0,P|393:172|348:211,1,80,8|0,0:0|0:0,0:0:0:0:
152,308,141647,6,0,L|163:208,1,80,0|8,0:0|0:0,0:0:0:0:
263,137,142000,2,0,L|251:236,1,80,0|2,0:0|0:0,0:0:0:0:
173,141,142353,2,0,L|184:41,1,80,2|0,0:0|0:0,0:0:0:0:
263,137,142706,1,8,0:0:0:0:
92,88,142882,1,2,0:0:0:0:
263,137,143059,2,0,P|296:112|322:66,1,80
81,267,143412,5,2,0:0:0:0:
147,209,143588,1,0,0:0:0:0:
170,295,143765,2,0,P|154:330|120:351,1,80
189,139,144118,2,0,P|220:164|232:201,1,80,8|0,0:0|0:0,0:0:0:0:
170,295,144471,5,0,0:0:0:0:
328,196,144647,2,0,L|488:247,1,160,8|0,0:0|0:0,0:0:0:0:
466,333,145177,1,2,0:0:0:0:
466,333,145353,2,0,L|363:299,1,80,0|8,0:0|0:0,0:0:0:0:
311,268,145706,1,0,0:0:0:0:
233,310,145883,2,0,P|206:223|217:150,1,160,0|2,0:0|0:0,0:0:0:0:
244,44,146412,5,0,0:0:0:0:
244,44,146588,2,0,P|211:27|146:39,1,80
14,217,146941,2,0,B|33:125|122:103|122:103,1,160,8|0,0:0|0:0,0:0:0:0:
215,157,147471,1,8,0:0:0:0:
300,136,147647,1,0,0:0:0:0:
244,68,147824,1,2,0:0:0:0:
123,138,148000,2,0,P|145:223|225:256,1,160,2|8,0:0|0:0,0:0:0:0:
215,157,148529,5,8,0:0:0:0:
269,349,148706,1,10,0:0:0:0:
215,157,148883,1,2,0:0:0:0:
269,349,149059,1,6,0:0:0:0:
300,178,149235,5,0,0:0:0:0:
189,307,149412,2,0,P|165:274|162:229,1,80
357,114,149765,2,0,P|381:147|384:192,1,80,8|0,0:0|0:0,0:0:0:0:
269,349,150118,1,0,0:0:0:0:
247,239,150294,2,0,P|323:252|384:325,1,160,8|0,0:0|0:0,0:0:0:0:
456,351,150824,5,2,0:0:0:0:
496,272,151000,2,0,L|507:184,1,80,0|8,0:0|0:0,0:0:0:0:
316,88,151353,1,0,0:0:0:0:
316,88,151530,2,0,L|332:190,1,80
77,147,151883,6,0,P|102:80|184:51,1,160,2|0,0:0|0:0,0:0:0:0:
394,85,152412,1,0,0:0:0:0:
394,85,152588,2,0,P|355:79|311:91,1,80,8|0,0:0|0:0,0:0:0:0:
192,256,152941,6,0,L|124:186,1,80,0|8,0:0|0:0,0:0:0:0:
297,260,153294,2,0,L|364:329,1,80,0|2,0:0|0:0,0:0:0:0:
92,283,153647,2,0,L|24:213,1,80,2|0,0:0|0:0,0:0:0:0:
89,58,154000,2,0,L|156:127,1,80,8|2,0:0|0:0,0:0:0:0:
331,51,154353,2,0,P|282:49|242:63,1,80
120,291,154706,6,0,P|188:311|280:295,1,160,2|0,0:0|0:0,0:0:0:0:
354,258,155235,1,0,0:0:0:0:
422,314,155412,2,0,P|440:275|433:228,1,80,8|0,0:0|0:0,0:0:0:0:
215,141,155765,2,0,P|197:180|204:227,1,80,0|8,0:0|0:0,0:0:0:0:
248,360,156118,5,0,0:0:0:0:
354,258,156294,1,0,0:0:0:0:
248,360,156471,2,0,P|163:342|104:279,1,160,2|8,0:0|0:0,0:0:0:0:
215,141,157000,1,0,0:0:0:0:
312,192,157177,5,6,0:0:0:0:
248,360,157353,1,8,0:0:0:0:
248,360,157441,1,8,0:0:0:0:
248,360,157530,2,0,P|229:327|220:284,1,80,6|0,0:0|0:0,0:0:0:0:
192,80,157883,5,8,0:0:0:0:
66,283,158059,2,0,P|45:247|47:204,1,80,6|0,0:0|0:0,0:0:0:0:
298,135,158412,5,8,0:0:0:0:
131,224,158588,2,0,P|163:203|206:192,1,80,6|8,0:0|0:0,0:0:0:0:
203,192,158853,1,8,0:0:0:0:
203,192,158941,1,8,0:0:0:0:
368,320,159118,5,8,0:0:0:0:
200,296,159294,1,2,0:0:0:0:
368,228,159471,1,2,0:0:0:0:
256,368,159647,5,8,0:0:0:0:
75,213,159824,1,2,0:0:0:0:
298,135,160000,1,2,0:0:0:0:
256,368,160177,1,2,0:0:0:0:
75,213,160353,2,0,P|127:151|200:128,1,160,6|0,0:0|0:0,0:0:0:0:
472,344,160883,5,2,0:0:0:0:
385,339,161059,2,0,P|349:317|330:275,1,80,8|0,0:0|0:0,0:0:0:0:
252,209,161412,2,0,P|293:206|330:176,1,80,2|0,0:0|0:0,0:0:0:0:
261,119,161765,2,0,L|224:44,1,80
425,146,162118,1,2,0:0:0:0:
425,146,162294,2,0,L|398:238,2,80,0|8|0,0:0|0:0|0:0,0:0:0:0:
491,86,162824,1,0,0:0:0:0:
491,86,163000,2,0,P|475:49|443:25,1,80,0|2,0:0|0:0,0:0:0:0:
64,340,163530,6,0,L|136:292,1,80,0|2,0:0|0:0,0:0:0:0:
210,255,163883,2,0,P|284:239|372:264,1,160,8|2,0:0|0:0,0:0:0:0:
349,346,164412,1,0,0:0:0:0:
436,329,164588,2,0,P|452:255|427:167,2,160,0|2|8,0:0|0:0|0:0,0:0:0:0:
349,346,165471,1,0,0:0:0:0:
272,303,165647,2,0,B|193:302|218:353|124:358,1,160,0|2,0:0|0:0,0:0:0:0:
63,163,166353,5,0,0:0:0:0:
43,77,166530,1,2,0:0:0:0:
63,163,166706,1,8,0:0:0:0:
288,58,167059,2,0,L|255:148,1,80,2|0,0:0|0:0,0:0:0:0:
338,176,167412,2,0,L|394:26,1,160,0|2,0:0|0:0,0:0:0:0:
448,138,167941,1,0,0:0:0:0:
448,138,168118,2,0,L|470:229,1,80,8|0,0:0|0:0,0:0:0:0:
328,350,168471,5,0,0:0:0:0:
250,309,168647,2,0,P|238:265|251:217,2,80,0|2|0,0:0|0:0|0:0,0:0:0:0:
328,350,169177,1,0,0:0:0:0:
329,261,169353,1,2,0:0:0:0:
180,352,169530,1,8,0:0:0:0:
180,352,169883,6,0,P|158:294|194:203,1,160,2|0,0:0|0:0,0:0:0:0:
252,142,170412,1,8,0:0:0:0:
355,300,170588,2,0,L|277:286,1,80,2|0,0:0|0:0,0:0:0:0:
68,318,170941,5,8,0:0:0:0:
176,158,171118,1,8,0:0:0:0:
256,374,171294,1,2,0:0:0:0:
104,234,171471,1,2,0:0:0:0:
104,234,171647,2,0,P|76:158|100:82,1,160,6|0,0:0|0:0,0:0:0:0:
176,158,172177,5,2,0:0:0:0:
252,201,172353,2,0,L|295:110,1,80,8|0,0:0|0:0,0:0:0:0:
376,122,172706,2,0,P|368:87|325:43,1,80,2|0,0:0|0:0,0:0:0:0:
177,100,173059,2,0,B|142:170|199:170|162:257,1,160,0|2,0:0|0:0,0:0:0:0:
85,203,173588,1,0,0:0:0:0:
248,287,173765,2,0,P|261:253|264:195,1,80,8|0,0:0|0:0,0:0:0:0:
263,122,174118,1,0,0:0:0:0:
361,236,174294,2,0,P|386:271|421:306,2,80,0|2|0,0:0|0:0|0:0,0:0:0:0:
429,168,174824,6,0,P|394:143|346:138,1,80,0|2,0:0|0:0,0:0:0:0:
136,141,175177,2,0,P|170:165|218:170,1,80,8|0,0:0|0:0,0:0:0:0:
361,236,175530,2,0,P|353:277|322:314,1,80,2|0,0:0|0:0,0:0:0:0:
148,345,175883,5,0,0:0:0:0:
208,171,176059,1,8,0:0:0:0:
409,348,176235,2,0,P|445:288|443:197,2,160,2|8|0,0:0|0:0|0:0,0:0:0:0:
331,307,177118,1,8,0:0:0:0:
181,77,177294,1,6,0:0:0:0:
256,192,177383,12,2,180118,0:0:0:0:
176,88,202706,6,0,P|240:62|332:85,2,160,6|2|2,0:0|0:0|0:0,0:0:0:0:
256,192,203765,1,2,0:0:0:0:
336,296,204118,2,0,P|272:322|180:299,2,160,2|2|2,0:0|0:0|0:0,0:0:0:0:
256,192,205177,1,2,0:0:0:0:
439,279,205530,5,0,0:0:0:0:
420,193,205706,1,0,0:0:0:0:
355,252,205883,1,2,0:0:0:0:
333,161,206059,1,8,0:0:0:0:
333,161,206147,1,8,0:0:0:0:
333,161,206235,2,0,P|304:165|272:181,2,53.3333333333333,8|8|8,0:0|0:0|0:0,0:0:0:0:
420,193,206588,2,0,P|440:170|470:152,2,53.3333333333333,8|8|8,0:0|0:0|0:0,0:0:0:0:
372,344,206941,1,12,0:0:0:0:
372,344,207294,5,2,0:0:0:0:
272,132,207471,1,12,0:0:0:0:
272,132,207824,5,2,0:0:0:0:
131,315,208000,1,8,0:0:0:0:
272,132,208177,1,8,0:0:0:0:
272,132,208353,2,0,P|277:212|333:263,1,160,6|0,0:0|0:0,0:0:0:0:
420,279,208883,1,0,0:0:0:0:
480,342,209059,2,0,P|444:362|397:364,1,80,8|0,0:0|0:0,0:0:0:0:
212,263,209412,6,0,P|178:282|136:284,1,80,0|8,0:0|0:0,0:0:0:0:
279,209,209765,2,0,P|312:228|334:263,1,80,0|2,0:0|0:0,0:0:0:0:
199,177,210118,2,0,P|199:138|218:101,1,80,2|0,0:0|0:0,0:0:0:0:
283,43,210471,1,8,0:0:0:0:
279,209,210647,1,2,0:0:0:0:
119,146,210824,2,0,P|143:115|180:97,1,80
48,256,211176,5,2,0:0:0:0:
119,146,211353,1,0,0:0:0:0:
155,296,211530,2,0,L|175:384,1,80
376,152,211883,2,0,L|356:64,1,80,8|0,0:0|0:0,0:0:0:0:
279,209,212235,1,0,0:0:0:0:
279,209,212412,2,0,L|239:45,1,160,8|0,0:0|0:0,0:0:0:0:
192,312,212941,5,2,0:0:0:0:
111,126,213118,2,0,P|68:138|38:167,1,80,0|8,0:0|0:0,0:0:0:0:
167,194,213471,1,0,0:0:0:0:
90,237,213647,2,0,P|68:275|68:317,1,80
395,348,214000,6,0,P|344:290|250:264,1,160,2|0,0:0|0:0,0:0:0:0:
192,312,214530,1,0,0:0:0:0:
192,312,214706,2,0,L|158:156,1,160,8|0,0:0|0:0,0:0:0:0:
359,252,215235,1,8,0:0:0:0:
303,85,215412,2,0,L|334:175,1,80,0|2,0:0|0:0,0:0:0:0:
192,312,215765,2,0,L|240:241,1,80,2|0,0:0|0:0,0:0:0:0:
359,252,216118,5,8,0:0:0:0:
224,137,216294,1,8,0:0:0:0:
192,312,216471,1,2,0:0:0:0:
359,252,216647,1,2,0:0:0:0:
224,137,216824,5,6,0:0:0:0:
284,336,217000,1,0,0:0:0:0:
414,194,217177,2,0,L|359:252,1,80
196,364,217530,2,8,P|118:366|36:324,1,160,8|0,0:0|0:0,0:0:0:0:
228,48,218059,1,8,0:0:0:0:
228,48,218235,2,0,P|305:45|388:88,1,160,0|2,0:0|0:0,0:0:0:0:
133,303,218765,6,0,L|192:237,1,80,0|8,0:0|0:0,0:0:0:0:
264,152,219118,1,0,0:0:0:0:
350,326,219294,2,0,P|308:324|269:302,1,80
264,152,219647,2,0,B|343:151|318:202|412:207,1,160,2|0,0:0|0:0,0:0:0:0:
398,118,220177,1,0,0:0:0:0:
272,240,220353,2,0,P|232:235|194:205,1,80,8|0,0:0|0:0,0:0:0:0:
277,79,220706,6,0,P|311:60|353:58,1,80,0|8,0:0|0:0,0:0:0:0:
290,165,221059,2,0,P|290:204|271:241,1,80,0|2,0:0|0:0,0:0:0:0:
210,133,221412,2,0,P|177:114|155:79,1,80,2|0,0:0|0:0,0:0:0:0:
277,79,221765,1,8,0:0:0:0:
290,165,221941,1,2,0:0:0:0:
210,133,222118,2,0,P|130:125|54:156,1,160,0|2,0:0|0:0,0:0:0:0:
29,237,222647,5,0,0:0:0:0:
29,326,222824,2,0,L|105:359,1,80
156,212,223177,2,0,L|182:291,1,80,8|0,0:0|0:0,0:0:0:0:
320,376,223530,2,0,L|339:281,1,80,0|8,0:0|0:0,0:0:0:0:
440,296,223883,2,0,L|406:217,1,80
196,247,224235,6,0,L|286:255,1,80,2|0,0:0|0:0,0:0:0:0:
412,104,224588,2,0,L|322:96,1,80,8|0,0:0|0:0,0:0:0:0:
80,124,224941,2,0,P|92:84|125:48,1,80,4|0,0:0|0:0,0:0:0:0:
328,208,225294,2,0,P|316:248|283:284,1,80,6|0,0:0|0:0,0:0:0:0:
225,49,225647,5,8,0:0:0:0:
196,247,225824,2,0,P|223:215|236:168,1,80,6|0,0:0|0:0,0:0:0:0:
225,49,226177,1,8,0:0:0:0:
105,218,226353,2,0,P|135:246|181:261,1,80,6|8,0:0|0:0,0:0:0:0:
196,247,226618,1,8,0:0:0:0:
196,247,226706,1,8,0:0:0:0:
225,49,226883,5,8,0:0:0:0:
378,199,227059,1,2,0:0:0:0:
171,260,227235,1,2,0:0:0:0:
225,49,227412,1,8,0:0:0:0:
334,294,227588,5,0,0:0:0:0:
171,260,227765,1,2,0:0:0:0:
281,136,227941,1,2,0:0:0:0:
334,294,228118,2,0,P|284:344|188:348,1,160,6|0,0:0|0:0,0:0:0:0:
112,370,228647,5,0,0:0:0:0:
112,370,228824,2,0,L|70:207,1,160,8|0,0:0|0:0,0:0:0:0:
228,88,229353,2,0,L|270:251,1,160,8|0,0:0|0:0,0:0:0:0:
293,327,229883,1,2,0:0:0:0:
353,263,230059,1,0,0:0:0:0:
267,242,230235,1,8,0:0:0:0:
496,200,230588,6,0,P|513:236|508:274,1,80
482,362,230941,2,0,L|323:298,1,160,2|0,0:0|0:0,0:0:0:0:
250,269,231471,1,0,0:0:0:0:
250,269,231647,2,0,B|171:268|196:319|102:324,1,160,8|0,0:0|0:0,0:0:0:0:
19,295,232177,2,0,P|34:264|77:234,1,80,8|0,0:0|0:0,0:0:0:0:
150,200,232530,5,2,0:0:0:0:
248,368,232706,2,0,L|283:286,1,80,2|0,0:0|0:0,0:0:0:0:
384,48,233059,5,8,0:0:0:0:
321,215,233235,1,2,0:0:0:0:
208,75,233412,2,0,P|250:85|286:107,1,80
372,340,233765,6,0,L|192:358,1,160,2|0,0:0|0:0,0:0:0:0:
157,288,234294,2,0,P|133:321|129:372,2,80,0|8|0,0:0|0:0|0:0,0:0:0:0:
235,245,234824,1,0,0:0:0:0:
235,245,235000,2,0,L|293:95,1,160,8|0,0:0|0:0,0:0:0:0:
375,126,235530,2,0,L|317:276,1,160,2|8,0:0|0:0,0:0:0:0:
292,359,236059,5,0,0:0:0:0:
231,295,236235,1,0,0:0:0:0:
317,275,236412,2,0,P|352:291|376:335,1,80,0|2,0:0|0:0,0:0:0:0:
231,295,236765,2,0,L|192:211,2,80
448,368,237294,2,0,P|472:286|452:210,1,160,8|0,0:0|0:0,0:0:0:0:
312,192,237824,5,8,0:0:0:0:
195,122,238000,1,0,0:0:0:0:
314,56,238177,1,2,0:0:0:0:
312,192,238353,2,0,P|376:183|446:120,1,160,2|8,0:0|0:0,0:0:0:0:
314,56,238883,1,8,0:0:0:0:
224,232,239059,2,0,P|160:223|90:160,1,160,2|6,0:0|0:0,0:0:0:0:
256,192,239500,12,2,242147,0:0:0:0:
