osu file format v14

[General]
AudioFilename: audio.mp3
AudioLeadIn: 0
PreviewTime: 165976
Countdown: 0
SampleSet: Soft
StackLeniency: 0.7
Mode: 0
LetterboxInBreaks: 0
WidescreenStoryboard: 0

[Editor]
DistanceSpacing: 0.9
BeatDivisor: 2
GridSize: 8
TimelineZoom: 0.9999997

[Metadata]
Title:Kimi ga Nozomu Sekai
TitleUnicode:君が望む世界
Artist:Primary
ArtistUnicode:Primary
Creator:Lasse
Version:Easy
Source:
Tags:yuiko ゆいこんぬ yuikonnu -1 meis clauson xChippy
BeatmapID:1146167
BeatmapSetID:485087

[Difficulty]
HPDrainRate:2.5
CircleSize:3.2
OverallDifficulty:2.5
ApproachRate:3.5
SliderMultiplier:0.85
SliderTickRate:1

[Events]
//Background and Video events
0,0,"bg.jpg",0,0
//Break Periods
2,80863,89950
2,158197,164617
//Storyboard Layer 0 (Background)
//Storyboard Layer 1 (Fail)
//Storyboard Layer 2 (Pass)
//Storyboard Layer 3 (Foreground)
//Storyboard Sound Samples

[TimingPoints]
-503,333.333333333333,4,1,1,65,1,0
664,-100,4,1,1,65,0,0
913,-100,4,2,99,5,0,0
997,-100,4,1,1,65,0,0
1163,-100,4,2,1,30,0,0
1497,-100,4,2,1,65,0,0
1580,-100,4,2,99,5,0,0
1663,-100,4,2,1,65,0,0
1747,-100,4,2,99,5,0,0
1830,-100,4,2,77,65,0,0
1913,-100,4,2,99,5,0,0
1997,-100,4,1,1,65,0,0
2247,-100,4,2,99,5,0,0
2330,-100,4,1,1,65,0,0
2497,-100,4,2,1,30,0,0
2830,-100,4,2,1,65,0,0
2913,-100,4,2,99,5,0,0
2997,-100,4,2,1,65,0,0
3080,-100,4,2,99,5,0,0
3163,-100,4,2,77,65,0,0
3247,-100,4,2,99,5,0,0
3330,-100,4,1,1,65,0,0
3580,-100,4,2,99,5,0,0
3663,-100,4,1,1,65,0,0
3997,-100,4,2,99,27,0,0
4163,-100,4,1,1,65,0,0
4330,-100,4,2,99,27,0,0
4497,-100,4,1,1,65,0,0
4663,-100,4,2,99,27,0,0
4830,-100,4,1,1,65,0,0
4997,-100,4,2,99,27,0,0
5163,-100,4,1,1,65,0,0
5330,-100,4,2,99,27,0,0
5497,-100,4,1,1,65,0,0
5580,-100,4,2,99,5,0,0
5663,-100,4,1,1,65,0,0
5747,-100,4,2,99,5,0,0
5830,-100,4,1,1,65,0,0
5913,-100,4,2,99,5,0,0
5997,-100,4,1,1,65,0,0
6247,-100,4,2,99,5,0,0
6330,-100,4,1,1,65,0,0
6663,-100,4,2,1,30,0,0
6830,-100,4,2,1,65,0,0
6913,-100,4,2,99,5,0,0
6997,-100,4,2,1,65,0,0
7080,-100,4,2,99,5,0,0
7163,-100,4,2,77,65,0,0
7247,-100,4,2,99,5,0,0
7330,-100,4,1,1,65,0,0
7580,-100,4,2,99,5,0,0
7663,-100,4,1,1,65,0,0
7997,-100,4,2,1,30,0,0
8163,-100,4,2,1,65,0,0
8247,-100,4,2,99,5,0,0
8330,-100,4,2,1,65,0,0
8413,-100,4,2,99,5,0,0
8497,-100,4,2,77,65,0,0
8580,-100,4,2,99,5,0,0
8663,-100,4,1,1,65,0,0
8913,-100,4,2,99,5,0,0
8997,-100,4,1,1,65,0,0
9330,-100,4,2,99,27,0,0
9497,-100,4,1,1,65,0,0
9663,-100,4,2,99,27,0,0
9830,-100,4,1,1,65,0,0
9997,-100,4,2,99,27,0,0
10163,-100,4,1,1,65,0,0
10330,-100,4,2,99,27,0,0
10497,-100,4,1,1,65,0,0
10663,-100,4,2,99,27,0,0
10830,-100,4,1,1,71,0,0
10913,-100,4,2,99,5,0,0
10997,-100,4,1,1,71,0,0
11163,-100,4,2,1,34,0,0
11330,-100,4,1,1,75,0,0
21663,-100,4,1,78,75,0,0
21830,-100,4,1,1,75,0,0
21997,-100,4,2,1,50,0,0
22080,-100,4,2,99,30,0,0
23830,-100,4,2,62,55,0,0
24163,-100,4,2,1,55,0,0
24663,-100,4,2,1,60,0,0
35330,-100,4,1,1,66,0,0
45997,-100,4,2,1,72,0,0
50747,-100,4,2,99,5,0,0
50830,-100,4,2,15,72,0,0
51163,-100,4,2,2,72,0,0
51330,-100,4,1,15,74,0,0
52663,-100,4,1,15,76,0,0
53997,-100,4,1,1,78,0,0
54997,-100,4,1,1,82,0,0
55163,-100,4,1,1,86,0,0
55330,-100,4,1,1,76,0,0
55580,-100,4,2,99,5,0,0
55663,-100,4,2,1,78,0,0
56663,-100,4,1,2,85,0,1
60913,-100,4,2,99,5,0,1
60997,-100,4,1,97,85,0,1
61997,-100,4,1,2,85,0,1
63997,-100,4,1,77,85,0,1
64163,-100,4,1,2,85,0,1
66497,-100,4,1,2,40,0,1
66663,-100,4,1,2,85,0,1
66913,-100,4,2,99,5,0,1
66996,-100,4,1,2,85,0,0
67247,-100,4,2,99,5,0,0
67330,-100,4,1,2,85,0,1
71580,-100,4,2,99,5,0,1
71663,-100,4,1,97,85,0,1
72663,-100,4,1,2,85,0,1
75830,-100,4,1,97,85,0,1
76330,-100,4,1,1,85,0,1
76830,-100,4,1,1,85,0,1
76997,-100,4,1,2,85,0,1
77247,-100,4,2,99,5,0,1
77330,-100,4,1,2,87,0,1
77580,-100,4,2,99,5,0,1
77663,-100,4,1,2,89,0,1
77913,-100,4,2,99,5,0,1
77996,-100,4,1,2,91,0,0
78080,-100,4,1,1,40,0,0
80497,-100,4,1,1,50,0,0
80663,-100,4,1,1,70,0,0
91163,-100,4,2,1,70,0,0
91330,-100,4,1,1,62,0,0
94663,-100,4,2,1,24,0,0
94830,-100,4,1,1,62,0,0
94997,-100,4,2,1,24,0,0
95163,-100,4,1,1,62,0,0
95330,-100,4,2,1,24,0,0
95497,-100,4,1,1,62,0,0
95663,-100,4,2,1,24,0,0
95830,-100,4,1,1,62,0,0
95997,-100,4,2,1,24,0,0
96163,-100,4,1,1,62,0,0
99997,-100,4,2,1,24,0,0
100163,-100,4,1,1,62,0,0
100330,-100,4,2,1,24,0,0
100497,-100,4,1,1,62,0,0
100663,-100,4,2,1,24,0,0
100830,-100,4,1,1,62,0,0
100997,-100,4,2,1,24,0,0
101163,-100,4,1,1,62,0,0
101330,-100,4,2,1,24,0,0
101497,-100,4,1,1,62,0,0
101997,-100,4,1,1,66,0,0
112663,-100,4,2,1,72,0,0
117413,-100,4,2,99,5,0,0
117497,-100,4,2,15,72,0,0
117829,-100,4,2,2,72,0,0
117997,-100,4,1,15,72,0,0
119330,-100,4,1,15,74,0,0
120663,-100,4,1,1,76,0,0
121164,-100,4,1,1,82,0,0
121497,-100,4,1,1,84,0,0
121829,-100,4,1,2,86,0,0
121997,-100,4,1,1,78,0,0
122247,-100,4,2,99,5,0,0
122330,-100,4,1,1,78,0,0
123330,-100,4,1,2,85,0,1
127580,-100,4,2,99,5,0,1
127663,-100,4,1,97,85,0,1
128663,-100,4,1,2,85,0,1
133163,-100,4,1,2,40,0,1
133330,-100,4,1,2,85,0,1
133580,-100,4,2,99,5,0,1
133663,-100,4,1,2,85,0,0
133913,-100,4,2,99,5,0,0
133996,-100,4,1,2,85,0,1
138247,-100,4,2,99,5,0,1
138330,-100,4,1,97,85,0,1
139330,-100,4,1,2,85,0,1
142330,-100,4,1,97,85,0,1
142997,-100,4,1,1,85,0,1
143497,-100,4,1,2,85,0,1
143913,-100,4,2,99,5,0,1
143997,-100,4,1,2,85,0,1
144247,-100,4,2,99,5,0,1
144330,-100,4,1,2,85,0,1
144497,-100,4,1,1,85,0,1
144663,-100,4,1,2,80,0,0
144747,-100,4,2,1,20,0,0
146497,-100,4,2,1,50,0,0
146663,-100,4,1,1,80,0,0
148663,-100,4,1,2,80,0,0
149997,-100,4,1,1,80,0,0
150247,-100,4,2,99,5,0,0
150330,-100,4,2,1,80,0,0
150413,-100,4,2,1,40,0,0
150497,-100,4,2,1,80,0,0
150580,-100,4,2,1,40,0,0
150663,-100,4,2,1,80,0,0
150747,-100,4,2,1,40,0,0
150830,-100,4,2,1,80,0,0
150913,-100,4,2,1,40,0,0
150997,-100,4,2,1,80,0,0
151080,-100,4,2,1,40,0,0
151163,-100,4,2,1,80,0,0
151247,-100,4,2,1,40,0,0
151330,-100,4,1,1,80,0,0
153330,-100,4,1,1,80,0,0
153997,-100,4,1,1,80,0,0
155330,-100,4,2,1,65,0,0
156247,-100,4,2,99,5,0,0
156330,-100,4,2,1,65,0,0
156413,-100,4,2,99,5,0,0
156497,-100,4,2,77,65,0,0
156580,-100,4,2,99,5,0,0
156663,-100,4,2,1,65,0,0
156913,-100,4,2,99,5,0,0
156997,-100,4,2,1,65,0,0
157330,-100,4,2,99,5,0,0
157413,-100,4,2,1,65,0,0
157580,-100,4,2,99,5,0,0
157663,-100,4,2,1,65,0,0
157747,-100,4,2,99,5,0,0
157830,-100,4,2,77,65,0,0
157913,-100,4,2,99,5,0,0
157997,-100,4,2,1,65,0,0
165997,-111.111111111111,4,2,99,25,0,0
166997,-111.111111111111,4,2,99,5,0,0
167330,-111.111111111111,4,2,99,25,0,0
168330,-111.111111111111,4,2,99,5,0,0
168663,-111.111111111111,4,2,99,30,0,0
169663,-111.111111111111,4,2,99,5,0,0
169997,-111.111111111111,4,2,99,30,0,0
170997,-111.111111111111,4,2,99,5,0,0
171330,-111.111111111111,4,2,99,35,0,0
172330,-200,4,2,99,20,0,0
172663,-111.111111111111,4,2,99,40,0,0
173663,-200,4,2,99,24,0,0
173997,-105.263157894737,4,1,1,60,0,0
174330,-105.263157894737,4,1,1,65,0,0
174497,-105.263157894737,4,1,15,65,0,0
174663,-105.263157894737,4,1,1,70,0,0
174830,-105.263157894737,4,1,15,70,0,0
174997,-105.263157894737,4,1,1,75,0,0
175163,-105.263157894737,4,1,15,75,0,0
175330,-105.263157894737,4,1,1,80,0,0
175497,-105.263157894737,4,1,1,80,0,0
175663,-105.263157894737,4,2,1,35,0,0
175747,-105.263157894737,4,2,1,10,0,0
176497,-105.263157894737,4,1,99,90,0,0
176663,-100,4,1,2,85,0,1
180913,-100,4,2,99,5,0,1
180997,-100,4,1,97,85,0,1
181997,-100,4,1,2,85,0,1
185663,-100,4,1,1,85,0,1
185830,-100,4,1,2,85,0,1
185997,-100,4,1,1,85,0,1
186663,-100,4,1,2,85,0,1
186830,-100,4,2,1,85,0,0
187163,-100,4,2,2,85,0,0
187330,-100,4,1,2,85,0,1
191580,-100,4,2,99,5,0,1
191663,-100,4,1,97,85,0,1
192663,-100,4,1,2,85,0,1
196997,-100,4,1,2,85,0,1
197247,-100,4,2,99,5,0,1
197330,-100,4,1,2,85,0,1
197580,-100,4,2,99,5,0,1
197663,-100,4,2,1,85,0,0
197705,-100,4,2,99,85,0,0
197996,-100,4,1,2,85,0,1
202247,-100,4,2,99,5,0,1
202330,-100,4,1,97,85,0,1
203330,-100,4,1,2,85,0,1
206330,-100,4,1,97,85,0,1
206997,-100,4,1,1,85,0,1
207497,-100,4,1,2,85,0,1
207913,-100,4,2,99,5,0,1
207997,-100,4,1,2,85,0,1
208247,-100,4,2,99,5,0,1
208330,-100,4,1,2,85,0,1
208497,-100,4,1,1,85,0,1
208663,-100,4,2,1,77,0,0
211163,-100,4,1,1,50,0,0
211330,-100,4,1,1,70,0,0
217997,-100,4,1,1,70,0,0
218163,-105.263157894737,4,1,1,70,0,0
219330,-111.111111111111,4,2,99,75,0,0
219413,-111.111111111111,4,2,98,40,0,0
220830,-200,4,2,99,30,0,0
223496,-200,4,2,98,20,0,0
224705,-111.111111111111,4,2,66,70,0,0
224830,-111.111111111111,4,2,67,60,0,0
224913,-111.111111111111,4,2,66,40,0,0
224955,-111.111111111111,4,2,67,20,0,0
224997,-111.111111111111,4,2,99,5,0,0

[Colours]
Combo1 : 122,155,194
Combo2 : 24,156,220
Combo3 : 168,213,196
Combo4 : 83,206,191

[HitObjects]
58,121,664,6,0,P|148:81|215:154,1,212.5,4|10,0:0|0:1,0:0:0:0:
233,281,1997,2,0,P|299:354|390:313,1,212.5,4|10,0:0|0:1,0:0:0:0:
440,195,3330,6,0,B|448:147|430:118|430:118|434:92|434:92|425:26|373:7,1,212.5,4|0,0:0|0:0,0:0:0:0:
292,23,4497,2,0,B|257:20|257:20|234:25|234:25|196:29,2,85,0|0|0,0:0|0:0|0:0,0:0:0:0:
348,88,5497,1,8,0:0:0:0:
309,210,5997,6,0,B|285:216|259:207|259:207|241:191|212:191|212:191|194:182|179:163|179:163|138:158|118:181,1,212.5,4|10,0:0|0:1,0:0:0:0:
145,306,7330,2,0,B|168:309|189:299|189:299|213:309|231:306|231:306|245:315|245:315|270:307|270:307|302:331|347:320,1,212.5,4|10,0:0|0:1,0:0:0:0:
430,223,8663,6,0,P|409:127|306:112,1,212.5,4|0,0:0|0:0,0:0:0:0:
226,134,9830,2,0,L|135:129,2,85,0|0|0,0:0|0:0|0:0,0:0:0:0:
286,193,10830,1,2,0:0:0:0:
215,299,11330,6,0,B|148:334|148:334|83:335|15:292,1,212.5,6|2,0:0|0:0,0:0:0:0:
89,188,12663,2,0,B|156:153|156:153|221:152|289:195,1,212.5,2|2,0:0|0:0,0:0:0:0:
362,294,13997,6,0,P|423:313|482:282,1,127.5,2|10,0:0|0:0,0:0:0:0:
499,205,14830,2,0,B|501:158|501:158|495:125|495:125|499:77,2,127.5,2|2|10,0:0|0:0|0:0,0:0:0:0:
417,226,16163,1,2,0:0:0:0:
351,116,16663,6,0,P|310:52|185:70,1,212.5,6|2,0:0|0:0,0:0:0:0:
192,194,17997,2,0,B|196:220|187:242|187:242|188:263|188:263|182:280|182:280|191:309|191:309|151:347|105:330,1,212.5,2|2,0:0|0:0,0:0:0:0:
20,235,19330,6,0,P|7:157|29:102,1,127.5,2|10,0:0|0:0,0:0:0:0:
87,57,20163,2,0,L|189:53,1,85,2|8,0:0|0:0,0:0:0:0:
238,106,20830,2,0,B|298:123|356:78|356:78|409:72|437:99,1,212.5,6|10,0:0|2:1,0:0:0:0:
461,180,21997,5,6,0:1:0:0:
465,179,24663,6,0,B|468:265|468:265|445:308,1,127.5,6|8,1:2|0:0,0:0:0:0:
239,338,25997,2,0,L|97:329,1,127.5,2|8,0:0|0:0,0:0:0:0:
33,132,27330,6,0,B|26:85|60:55|60:55|120:71,1,127.5,2|8,1:2|0:0,0:0:0:0:
144,138,28163,2,0,B|188:151|228:132|228:132|265:136|265:136|330:107|396:146,1,255,0|8,0:0|0:0,0:0:0:0:
451,203,29497,1,0,0:0:0:0:
481,79,29997,6,0,B|458:46|458:46|428:24|375:21,1,127.5,6|8,1:2|0:0,0:0:0:0:
168,69,31330,2,0,B|118:75|83:61|83:61|61:66|30:87,1,127.5,2|8,0:0|0:0,0:0:0:0:
45,289,32663,6,0,B|60:300|82:305|82:305|117:291|167:297,1,127.5,2|8,1:2|0:0,0:0:0:0:
250,317,33497,2,0,P|367:294|302:197,1,255,0|8,0:0|0:0,0:0:0:0:
120,188,35330,6,0,P|102:128|131:66,1,127.5,4|8,0:0|0:0,0:0:0:0:
200,27,36163,1,0,0:0:0:0:
291,116,36663,2,0,B|338:131|388:106|388:106|452:96|494:130,1,212.5,0|0,0:0|0:0,0:0:0:0:
496,257,37997,6,0,P|439:282|372:274,1,127.5,0|8,0:0|0:0,0:0:0:0:
312,219,38830,2,0,B|175:185|196:272|63:233,1,255,0|8,0:0|0:0,0:0:0:0:
14,164,40163,1,0,0:0:0:0:
79,54,40663,6,0,P|141:43|199:66,1,127.5,4|8,0:0|0:0,0:0:0:0:
239,142,41497,1,0,0:0:0:0:
361,174,41997,2,0,P|446:129|402:44,1,212.5,0|0,0:0|0:0,0:0:0:0:
274,46,43330,6,0,L|136:33,1,127.5,0|8,0:0|0:0,0:0:0:0:
72,75,44163,2,0,B|53:115|53:115|60:136|46:163|46:163|54:193|54:193|44:217|44:217|25:270|57:323,1,255,0|4,0:0|0:0,0:0:0:0:
123,365,45497,1,10,0:0:0:0:
228,292,45997,6,0,B|279:201|222:89|222:89|286:51|341:95,1,340,4|4,0:0|0:0,0:0:0:0:
442,362,48663,2,0,B|351:311|239:368|239:368|201:304|245:248,1,340,4|4,0:0|0:0,0:0:0:0:
486,93,51330,6,0,P|419:65|332:116,1,170,6|2,0:2|2:0,0:0:0:0:
291,178,52330,1,2,0:2:0:0:
244,248,52663,2,0,P|183:265|124:245,1,127.5,6|10,0:2|0:2,0:0:0:0:
64,184,53497,1,0,0:0:0:0:
132,77,53997,6,0,P|250:66|291:178,1,255,6|8,0:0|2:0,0:0:0:0:
242,248,55330,2,0,P|224:314|258:376,1,127.5,6|8,0:0|0:3,0:0:0:0:
459,370,56663,6,0,B|503:318|464:251|464:251|471:209,1,170,4|0,0:0|2:2,0:0:0:0:
498,129,57663,1,0,0:0:0:0:
441,66,57997,2,0,B|386:44|337:50|337:50|301:68|301:68|268:50|224:63,1,212.5,0|2,0:0|0:3,0:0:0:0:
200,181,59330,6,0,B|196:227|196:227|182:257|182:257|189:292|189:292|192:320|178:345,1,170,2|0,0:2|2:0,0:0:0:0:
99,376,60330,1,0,0:0:0:0:
19,345,60663,2,0,B|-2:309|15:260|15:260|46:234,1,127.5,6|14,0:0|0:0,0:0:0:0:
118,191,61497,1,6,0:0:0:0:
228,255,61997,6,0,P|336:222|289:120,1,255,4|0,0:0|0:0,0:0:0:0:
201,115,63330,2,0,B|144:128|144:128|125:120|125:120|70:140|70:140|20:101|42:36,1,255,2|0,0:2|0:0,0:0:0:0:
127,26,64663,6,0,B|170:33|170:33|204:29|204:29|260:38,1,127.5,0|10,0:0|0:3,0:0:0:0:
396,129,65830,2,0,B|390:200|390:200|363:255|363:255|357:334,1,212.5,10|6,0:3|0:0,0:0:0:0:
191,370,67330,6,0,B|186:312|186:312|164:269|164:269|160:205,1,170,4|0,0:0|2:2,0:0:0:0:
201,131,68330,1,0,0:0:0:0:
275,170,68663,2,0,P|367:164|441:60,1,212.5,0|2,0:0|0:3,0:0:0:0:
313,48,69997,6,0,B|266:44|266:44|216:29|216:29|144:39,1,170,2|0,0:2|2:0,0:0:0:0:
79,91,70997,1,0,0:0:0:0:
107,171,71330,2,0,B|115:215|115:215|108:252|108:252|112:296,1,127.5,6|14,0:0|0:0,0:0:0:0:
322,351,72663,6,0,B|405:336|405:336|459:341|459:341|491:278|438:237,1,255,4|0,0:0|0:0,0:0:0:0:
353,228,73997,2,0,B|270:212|270:212|216:217|216:217|184:154|236:113,1,255,6|0,0:2|0:0,0:0:0:0:
307,65,75330,6,0,B|350:72|350:72|384:68|384:68|440:77,1,127.5,6|14,0:0|0:0,0:0:0:0:
351,228,76497,2,0,B|311:254|269:237|269:237|229:248|229:248|202:231|202:231|174:263|114:268|78:230,1,297.5,6|10,2:3|0:0,0:0:0:0:
141,170,77997,5,14,1:0:0:0:
256,192,78163,12,2,80663,0:0:0:0:
96,328,91330,6,0,B|86:289|86:289|89:273|89:273|74:248|86:197,1,127.5,0|8,0:0|0:0,0:0:0:0:
247,67,92663,2,0,L|400:71,1,127.5,0|8,0:0|0:0,0:0:0:0:
474,257,93997,6,0,P|408:217|352:221,1,127.5,0|0,0:0|0:0,0:0:0:0:
297,275,94830,2,0,P|255:285|214:270,1,85,0|0,0:0|0:0,0:0:0:0:
154,213,95497,2,0,P|83:176|24:230,1,170,0|4,0:0|0:3,0:0:0:0:
47,356,96663,6,0,B|87:364|87:364|183:356,1,127.5,0|8,0:0|0:0,0:0:0:0:
343,229,97997,2,0,B|346:186|346:186|337:153|337:153|339:102,1,127.5,0|8,0:0|0:0,0:0:0:0:
137,36,99330,6,0,B|116:34|93:42|93:42|54:19|13:35,1,127.5,0|0,0:0|0:0,0:0:0:0:
48,112,100163,2,0,B|53:167|53:167|45:214|45:214|57:299,1,170,0|0,0:0|0:0,0:0:0:0:
121,332,101163,1,0,0:0:0:0:
293,207,101997,6,0,B|296:164|296:164|287:131|287:131|289:80,1,127.5,4|8,0:0|0:0,0:0:0:0:
357,30,102830,1,0,0:0:0:0:
440,126,103330,2,0,B|473:189|473:189|478:274|422:314,1,212.5,0|0,0:0|0:0,0:0:0:0:
299,346,104663,6,0,P|242:321|175:329,1,127.5,0|8,0:0|0:0,0:0:0:0:
102,366,105497,2,0,B|82:310|117:271|117:271|99:237|99:237|130:184|99:125,1,255,0|8,0:0|0:0,0:0:0:0:
43,61,106830,1,0,0:0:0:0:
166,29,107330,6,0,B|205:31|205:31|244:50|244:50|300:54,1,127.5,4|8,0:0|0:0,0:0:0:0:
365,89,108163,1,0,0:0:0:0:
284,189,108663,2,0,B|249:202|200:186|200:186|165:252|201:305,1,212.5,0|0,0:0|0:0,0:0:0:0:
320,352,109997,6,0,L|458:339,1,127.5,0|8,0:0|0:0,0:0:0:0:
500,275,110830,2,0,B|509:234|509:234|502:213|516:186|516:186|522:147|499:106|443:92|408:130,1,255,0|8,0:0|0:0,0:0:0:0:
361,200,112163,1,10,0:0:0:0:
248,260,112663,6,0,B|209:262|182:249|182:249|148:257|148:257|120:240|120:240|86:236|45:253|45:253|4:218|11:166|48:145,1,340,4|4,0:0|0:0,0:0:0:0:
291,24,115330,2,0,B|330:22|357:35|357:35|391:27|391:27|419:44|419:44|453:48|494:31|494:31|535:66|528:118|491:139,1,340,4|4,0:0|0:0,0:0:0:0:
208,128,117997,6,0,P|126:118|79:184,1,170,6|2,0:2|2:0,0:0:0:0:
64,266,118997,1,2,0:2:0:0:
129,320,119330,2,0,L|287:331,1,127.5,6|10,0:2|0:2,0:0:0:0:
338,306,120163,1,0,0:0:0:0:
290,187,120663,6,0,B|307:38|307:38|365:16|408:46,1,255,6|10,0:0|0:3,0:0:0:0:
451,120,121997,2,0,B|459:151|456:167|456:167|460:184|460:184|445:216|454:244,1,127.5,6|8,0:0|0:3,0:0:0:0:
476,327,122830,1,4,0:3:0:0:
355,368,123330,6,0,B|291:360|291:360|242:362|242:362|185:355,1,170,4|0,0:0|2:2,0:0:0:0:
105,327,124330,1,0,0:0:0:0:
106,241,124663,2,0,B|129:128|129:128|181:107|222:133,1,212.5,0|2,0:0|0:3,0:0:0:0:
301,233,125997,6,0,B|325:241|348:228|348:228|408:254|463:217,1,170,2|0,0:2|2:0,0:0:0:0:
504,142,126997,1,0,0:0:0:0:
463,67,127330,2,0,P|403:45|342:57,1,127.5,6|14,0:0|0:0,0:0:0:0:
287,123,128163,1,6,0:0:0:0:
181,51,128663,6,0,B|121:20|59:60|59:60|63:84|58:95|58:95|67:119|67:119|52:147|60:200,1,255,4|0,0:0|0:0,0:0:0:0:
137,214,129997,2,0,B|235:200|235:200|291:218|291:218|387:208,1,255,2|0,0:2|0:0,0:0:0:0:
465,243,131330,6,0,B|485:304|485:304|457:361,1,127.5,2|10,0:0|0:3,0:0:0:0:
287,367,132497,2,0,B|216:361|216:361|161:334|161:334|82:328,1,212.5,10|6,0:3|0:0,0:0:0:0:
21,168,133997,6,0,B|60:130|60:130|193:140,1,170,4|0,0:0|2:2,0:0:0:0:
244,187,134997,1,0,0:0:0:0:
313,236,135330,2,0,B|452:247|452:247|507:189,1,212.5,0|2,0:0|0:3,0:0:0:0:
481,68,136663,6,0,B|459:55|437:56|437:56|426:51|426:51|404:64|404:64|355:44|312:59,1,170,2|0,0:2|2:0,0:0:0:0:
253,111,137663,1,0,0:0:0:0:
245,196,137997,2,0,B|237:240|237:240|244:277|244:277|240:321,1,127.5,6|14,0:0|0:0,0:0:0:0:
33,372,139330,6,0,B|10:330|30:287|30:287|29:262|29:262|41:237|41:237|10:180|48:130,1,255,4|0,0:0|0:0,0:0:0:0:
110,188,140663,2,0,B|146:206|194:194|194:194|218:208|218:208|248:200|248:200|277:191|277:191|323:214|362:195,1,255,6|0,0:2|0:0,0:0:0:0:
427,154,141997,6,0,B|429:131|420:111|420:111|424:77|424:77|424:49|417:28,1,127.5,6|14,0:0|0:0,0:0:0:0:
255,81,143163,2,0,B|214:96|172:79|172:79|130:92|130:92|110:67|80:59|80:59|29:93|37:150,1,297.5,6|10,2:3|0:0,0:0:0:0:
67,231,144663,5,14,1:0:0:0:
256,192,144830,12,2,147330,0:1:0:0:
85,123,148663,6,0,B|105:131|148:124|148:124|166:132|166:132|212:115|212:115|232:127|232:127|262:121|299:142,1,212.5,6|10,0:1|0:0,0:0:0:0:
372,231,149997,6,0,P|309:223|256:255,1,127.5,6|10,0:0|0:2,0:0:0:0:
205,323,150830,2,0,P|151:355|89:347,1,127.5,2|2,1:1|0:1,0:0:0:0:
44,274,151663,2,0,L|35:178,1,85,2|2,0:2|2:1,0:0:0:0:
128,46,152663,6,0,B|178:56|178:56|224:40|224:40|305:65,1,170,2|2,0:1|2:1,0:0:0:0:
370,91,153663,1,2,0:2:0:0:
365,175,153997,2,0,B|363:214|355:233|355:233|357:239|357:239|359:245|359:245|362:253|362:253|376:292|351:347,1,170,2|10,2:1|2:1,0:0:0:0:
183,345,155330,5,6,1:0:0:0:
256,192,155497,12,4,157997,0:1:0:0:
105,317,165997,6,0,B|124:278|114:226|114:226|122:213|122:213|102:174|87:117|171:39|171:39|212:83|282:78,1,420.749987159729,4|0,3:2|0:0,0:0:0:0:
441,34,168663,6,0,B|475:103|434:154|434:154|333:139|260:201|260:201|299:249|282:301,1,420.749987159729,0|0,3:2|0:0,0:0:0:0:
116,343,171330,6,0,B|54:281|75:192|75:192|145:163,1,229.499992996216,0|0,3:2|0:0,0:0:0:0:
217,185,172663,2,0,P|296:199|377:84,1,229.499992996216,0|0,3:2|0:0,0:0:0:0:
312,30,173997,6,0,L|178:24,1,121.124996765614,4|8,0:0|0:1,0:0:0:0:
102,34,174830,1,8,0:1:0:0:
49,105,175163,2,0,P|40:133|48:193,1,80.7499978437424,8|4,0:1|0:1,0:0:0:0:
298,340,176663,6,0,B|352:371|420:332|420:332|437:288,1,170,4|0,0:0|2:2,0:0:0:0:
449,209,177663,1,0,0:0:0:0:
373,168,177997,2,0,B|331:158|292:168|292:168|265:160|265:160|229:169|229:169|191:171|156:152,1,212.5,0|2,0:0|0:3,0:0:0:0:
116,39,179330,6,0,B|151:24|192:35|192:35|216:50|216:50|250:39|279:46,1,170,2|0,0:2|2:0,0:0:0:0:
355,85,180330,1,0,0:0:0:0:
373,168,180663,2,0,B|384:211|369:245|369:245|391:288,1,127.5,6|14,0:0|0:0,0:0:0:0:
428,364,181497,1,6,0:0:0:0:
304,337,181997,6,0,B|247:310|211:322|211:322|188:334|188:334|169:330|169:330|109:353|61:314,1,255,4|0,0:0|0:0,0:0:0:0:
22,240,183330,2,0,B|32:104|32:104|83:67|149:96,1,255,6|0,0:2|0:0,0:0:0:0:
174,173,184663,6,0,B|204:196|204:196|308:205,1,127.5,4|10,0:0|0:3,0:0:0:0:
456,155,185830,2,0,P|457:91|325:59,1,212.5,12|8,0:2|2:0,0:0:0:0:
173,106,187330,6,0,B|126:113|87:89|87:89|38:105|32:144,1,170,4|0,0:0|2:2,0:0:0:0:
36,227,188330,1,0,0:0:0:0:
117,249,188663,2,0,B|199:260|199:260|246:245|246:245|325:253,1,212.5,0|2,0:0|0:3,0:0:0:0:
441,308,189997,6,0,B|463:250|444:207|444:207|455:194|455:194|462:183|460:145,1,170,2|0,0:2|2:0,0:0:0:0:
419,70,190997,1,0,0:0:0:0:
347,115,191330,2,0,B|319:149|319:149|304:189|315:231,1,127.5,6|14,0:0|0:0,0:0:0:0:
340,312,192163,1,6,0:0:0:0:
217,348,192663,6,0,B|160:336|160:336|123:349|82:345|82:345|44:295|80:235,1,255,4|0,0:0|0:0,0:0:0:0:
154,193,193997,2,0,B|185:185|224:200|224:200|252:179|252:179|285:190|285:190|311:183|311:183|351:201|396:188,1,255,6|0,0:2|0:0,0:0:0:0:
460,134,195330,6,0,P|473:72|453:12,1,127.5,6|10,0:0|0:3,0:0:0:0:
301,87,196497,2,0,B|230:81|230:81|175:54|175:54|96:48,1,212.5,10|12,0:3|0:0,0:0:0:0:
2,188,197997,6,0,B|14:222|46:233|46:233|16:279|32:334,1,170,4|0,0:0|2:2,0:0:0:0:
112,361,198997,1,0,0:0:0:0:
164,294,199330,2,0,B|278:274|259:342|369:325,1,212.5,0|2,0:0|0:3,0:0:0:0:
464,240,200663,6,0,B|475:219|476:196|476:196|481:185|481:185|468:163|468:163|489:130|475:79,1,170,2|0,0:2|0:0,0:0:0:0:
394,50,201663,1,0,0:0:0:0:
337,113,201997,2,0,B|329:157|329:157|336:194|336:194|332:238,1,127.5,6|14,0:0|0:0,0:0:0:0:
136,323,203330,6,0,B|105:267|123:202|123:202|94:182|94:182|70:146|85:88,1,255,4|0,0:0|0:0,0:0:0:0:
154,41,204663,2,0,B|182:33|206:39|206:39|229:46|229:46|276:29|276:29|298:46|298:46|351:31|396:53,1,255,6|0,0:2|0:0,0:0:0:0:
431,131,205997,6,0,B|435:159|426:181|426:181|430:193|430:193|416:222|420:255,1,127.5,6|14,0:0|0:0,0:0:0:0:
274,318,207163,2,0,B|223:331|188:315|188:315|161:319|161:319|143:306|143:306|105:346|71:344|71:344|45:312|50:272,1,297.5,6|10,2:3|0:0,0:0:0:0:
83,194,208663,5,14,1:0:0:0:
256,192,208830,12,2,211330,0:0:0:0:
125,331,212663,6,0,B|171:324|171:324|205:327|205:327|251:322,1,127.5,6|10,0:0|0:0,0:0:0:0:
316,267,213497,1,2,0:0:0:0:
206,203,213997,6,0,B|164:196|164:196|131:205|131:205|61:170|86:92,1,212.5,6|2,0:0|0:0,0:0:0:0:
209,61,215330,2,0,B|292:72|292:72|340:57|340:57|417:65,1,212.5,2|2,0:0|0:0,0:0:0:0:
474,179,216663,6,0,B|488:244|488:244|468:311,1,127.5,2|10,0:0|0:0,0:0:0:0:
391,334,217497,2,0,L|289:330,1,85,2|8,0:0|0:0,0:0:0:0:
226,298,218163,2,0,B|237:263|269:251|269:251|277:196|266:164|235:150|208:154,1,201.874994609356,6|10,0:0|2:1,0:0:0:0:
136,91,219330,6,0,B|104:40|48:48|48:48|32:96|48:144|48:144|40:168|24:184|24:184|32:232|72:256|72:256|56:328|104:376|104:376|168:368|226:297|226:297|256:304|286:297|286:297|344:368|408:376|408:376|456:328|440:256|440:256|480:232|488:184|488:184|472:168|464:144|464:144|480:96|464:48|464:48|408:40|373:93,1,1300.49996031189,6|0,0:1|0:0,0:0:0:0:
