osu file format v14

[General]
AudioFilename: audio.mp3
AudioLeadIn: 0
PreviewTime: 137814
Countdown: 1
SampleSet: None
StackLeniency: 0.7
Mode: 0
LetterboxInBreaks: 0
WidescreenStoryboard: 1

[Editor]
Bookmarks: 32584
DistanceSpacing: 2
BeatDivisor: 4
GridSize: 8
TimelineZoom: 1.6

[Metadata]
Title:Innocence
TitleUnicode:イノセンス
Artist:Primary
ArtistUnicode:Primary
Creator:aleckho
Version:hitsounds
Source:
Tags:Primary Yuiko Yuikonnu Innocence Depressing Meis Clauson
BeatmapID:3145550
BeatmapSetID:752807

[Difficulty]
HPDrainRate:6
CircleSize:4
OverallDifficulty:7.5
ApproachRate:9
SliderMultiplier:1.80000000596047
SliderTickRate:1

[Events]
//Background and Video events
0,0,"innocence.jpg",0,0
//Break Periods
//Storyboard Layer 0 (Background)
//Storyboard Layer 1 (Fail)
//Storyboard Layer 2 (Pass)
//Storyboard Layer 3 (Foreground)
//Storyboard Layer 4 (Overlay)
//Storyboard Sound Samples

[TimingPoints]
584,307.692307692308,4,2,1,60,1,0
584,-100,4,2,1,60,0,0
737,-100,4,2,1,75,0,0
1045,-100,4,2,3,75,0,0
1199,-100,4,2,1,75,0,0
1507,-100,4,2,3,75,0,0
1660,-100,4,2,1,75,0,0
1968,-100,4,2,3,75,0,0
2122,-100,4,2,1,75,0,0
2430,-100,4,2,3,75,0,0
2584,-100,4,2,1,75,0,0
2737,-100,4,2,3,75,0,0
2891,-100,4,2,1,75,0,0
3045,-100,4,2,3,75,0,0
3199,-100,4,2,1,75,0,0
3507,-100,4,2,3,75,0,0
3660,-100,4,2,1,75,0,0
3968,-100,4,2,3,75,0,0
4122,-100,4,2,1,75,0,0
4430,-100,4,2,3,75,0,0
4737,-100,4,2,1,75,0,0
5507,-100,4,2,3,75,0,0
5814,-100,4,2,1,75,0,0
5968,-100,4,2,3,75,0,0
6122,-100,4,2,1,75,0,0
6430,-100,4,2,3,75,0,0
6584,-100,4,2,1,75,0,0
6891,-100,4,2,3,75,0,0
7199,-100,4,2,1,75,0,0
7353,-100,4,2,3,75,0,0
7507,-100,4,2,1,75,0,0
7660,-100,4,2,3,75,0,0
7814,-100,4,2,1,75,0,0
7968,-100,4,2,3,75,0,0
8276,-100,4,2,1,75,0,0
8430,-100,4,2,3,75,0,0
8584,-100,4,2,1,75,0,0
8891,-100,4,2,3,75,0,0
9045,-100,4,2,1,75,0,0
9353,-100,4,2,3,75,0,0
9507,-100,4,2,1,75,0,0
10430,-117.647058823529,4,2,2,75,0,0
10584,-117.647058823529,4,2,1,60,0,0
15045,-117.647058823529,4,2,3,60,0,0
15353,-111.111111111111,4,2,2,75,0,0
15507,-111.111111111111,4,2,1,75,0,0
17814,-111.111111111111,4,2,2,75,0,0
17968,-111.111111111111,4,2,1,75,0,0
20276,-117.647058823529,4,2,2,60,0,0
20430,-117.647058823529,4,2,1,60,0,0
24891,-117.647058823529,4,2,3,60,0,0
25199,-111.111111111111,4,2,2,75,0,0
25353,-111.111111111111,4,2,1,75,0,0
27660,-111.111111111111,4,2,2,75,0,0
27814,-111.111111111111,4,2,1,75,0,0
30122,-111.111111111111,4,2,2,60,0,0
30423,-117.647058823529,4,2,1,60,0,0
35045,-117.647058823529,4,2,2,60,0,0
35353,-117.647058823529,4,2,1,60,0,0
37199,-117.647058823529,4,2,3,60,0,0
37507,-111.111111111111,4,2,1,60,0,0
37584,-111.111111111111,4,2,1,45,0,0
37814,-111.111111111111,4,2,1,65,0,0
37891,-111.111111111111,4,2,1,50,0,0
38122,-111.111111111111,4,2,1,70,0,0
38199,-111.111111111111,4,2,1,55,0,0
38430,-76.9230769230769,4,2,1,75,0,0
38584,-111.111111111111,4,2,1,80,0,0
39353,-111.111111111111,4,2,1,40,0,0
39968,-83.3333333333333,4,2,2,80,0,1
40122,-83.3333333333333,4,2,1,80,0,1
47353,-83.3333333333333,4,2,3,80,0,1
47507,-83.3333333333333,4,2,1,80,0,1
47814,-83.3333333333333,4,2,3,80,0,1
47968,-83.3333333333333,4,2,1,80,0,1
48276,-83.3333333333333,4,2,3,80,0,1
48430,-83.3333333333333,4,2,1,80,0,1
48737,-83.3333333333333,4,2,3,80,0,1
48891,-83.3333333333333,4,2,1,80,0,1
49814,-83.3333333333333,4,2,2,80,0,1
49968,-83.3333333333333,4,2,1,80,0,1
59045,-125,4,2,1,80,0,0
59660,-125,4,2,2,70,0,0
59814,-125,4,2,1,70,0,0
62122,-125,4,2,2,70,0,0
62276,-125,4,2,1,70,0,0
63971,-100,4,2,1,70,0,0
64584,-100,4,2,3,75,0,0
64737,-100,4,2,1,75,0,0
65045,-100,4,2,3,75,0,0
65199,-100,4,2,1,75,0,0
65507,-100,4,2,3,75,0,0
65660,-100,4,2,1,75,0,0
65968,-100,4,2,3,75,0,0
66122,-100,4,2,1,75,0,0
66430,-100,4,2,3,75,0,0
66584,-100,4,2,1,75,0,0
66737,-100,4,2,3,75,0,0
66891,-100,4,2,1,75,0,0
67045,-100,4,2,3,75,0,0
67199,-100,4,2,1,75,0,0
67507,-100,4,2,3,75,0,0
67660,-100,4,2,1,75,0,0
67968,-100,4,2,3,75,0,0
68122,-100,4,2,1,75,0,0
68430,-100,4,2,3,75,0,0
68584,-100,4,2,1,75,0,0
69507,-100,4,2,3,75,0,0
69660,-100,4,2,1,75,0,0
69968,-100,4,2,3,75,0,0
70122,-100,4,2,1,75,0,0
70430,-100,4,2,3,75,0,0
70584,-100,4,2,1,75,0,0
70891,-100,4,2,3,75,0,0
71045,-100,4,2,1,75,0,0
71353,-100,4,2,3,75,0,0
71507,-100,4,2,1,75,0,0
71660,-100,4,2,3,75,0,0
71814,-100,4,2,1,75,0,0
71968,-100,4,2,3,75,0,0
72122,-100,4,2,1,75,0,0
72430,-100,4,2,3,75,0,0
72584,-100,4,2,1,75,0,0
72891,-100,4,2,3,75,0,0
73045,-100,4,2,1,75,0,0
73353,-100,4,2,3,75,0,0
73507,-100,4,2,1,75,0,0
74430,-117.647058823529,4,2,2,60,0,0
74584,-117.647058823529,4,2,1,60,0,0
79045,-117.647058823529,4,2,3,60,0,0
79353,-111.111111111111,4,2,2,75,0,0
79507,-111.111111111111,4,2,1,75,0,0
81814,-111.111111111111,4,2,2,75,0,0
81968,-111.111111111111,4,2,1,75,0,0
84276,-117.647058823529,4,2,2,60,0,0
84430,-117.647058823529,4,2,1,60,0,0
88891,-117.647058823529,4,2,3,60,0,0
89199,-111.111111111111,4,2,2,75,0,0
89353,-111.111111111111,4,2,1,75,0,0
91660,-111.111111111111,4,2,2,75,0,0
91814,-111.111111111111,4,2,1,75,0,0
94122,-111.111111111111,4,2,2,60,0,0
94430,-117.647058823529,4,2,1,60,0,0
99045,-117.647058823529,4,2,2,60,0,0
99199,-117.647058823529,4,2,1,60,0,0
101199,-117.647058823529,4,2,3,60,0,0
101507,-117.647058823529,4,2,1,60,0,0
101584,-117.647058823529,4,2,1,45,0,0
101814,-117.647058823529,4,2,1,65,0,0
101891,-117.647058823529,4,2,1,50,0,0
102122,-117.647058823529,4,2,1,70,0,0
102199,-117.647058823529,4,2,1,55,0,0
102430,-76.9230769230769,4,2,1,75,0,0
102584,-117.647058823529,4,2,1,80,0,0
103353,-117.647058823529,4,2,1,40,0,0
103968,-83.3333333333333,4,2,2,80,0,1
104122,-83.3333333333333,4,2,1,80,0,1
111353,-83.3333333333333,4,2,3,80,0,1
111507,-83.3333333333333,4,2,1,80,0,1
111814,-83.3333333333333,4,2,3,80,0,1
111968,-83.3333333333333,4,2,1,80,0,1
112276,-83.3333333333333,4,2,3,80,0,1
112430,-83.3333333333333,4,2,1,80,0,1
112737,-83.3333333333333,4,2,3,80,0,1
112891,-83.3333333333333,4,2,1,80,0,1
113814,-83.3333333333333,4,2,2,80,0,1
113968,-83.3333333333333,4,2,1,80,0,1
123045,-125,4,2,1,80,0,0
123660,-125,4,2,2,70,0,0
123814,-125,4,2,1,70,0,0
126122,-125,4,2,2,70,0,0
126276,-125,4,2,1,70,0,0
128584,-166.666666666667,4,2,2,50,0,0
128737,-125,4,2,2,90,0,0
129199,-125,4,2,2,70,0,0
129814,-125,4,2,2,50,0,0
130430,-125,4,2,2,40,0,0
131045,-125,4,2,2,30,0,0
131660,-125,4,2,2,15,0,0
132276,-125,4,2,2,5,0,0
133507,-125,4,2,1,50,0,0
138430,-125,4,2,2,60,0,0
138584,-125,4,2,1,60,0,0
148276,-125,4,2,2,60,0,0
148430,-125,4,2,1,60,0,0
158122,-125,4,2,2,60,0,0
160584,-125,4,2,2,75,0,0
162430,-83.3333333333333,4,2,1,60,0,0
162507,-83.3333333333333,4,2,1,30,0,0
162737,-83.3333333333333,4,2,1,70,0,0
162814,-83.3333333333333,4,2,1,40,0,0
163045,-83.3333333333333,4,2,2,80,0,1
163199,-83.3333333333333,4,2,1,80,0,1
170430,-83.3333333333333,4,2,3,80,0,1
170584,-83.3333333333333,4,2,1,80,0,1
170891,-83.3333333333333,4,2,3,80,0,1
171045,-83.3333333333333,4,2,1,80,0,1
171353,-83.3333333333333,4,2,3,80,0,1
171507,-83.3333333333333,4,2,1,80,0,1
171814,-83.3333333333333,4,2,3,80,0,1
171968,-83.3333333333333,4,2,1,80,0,1
172891,-83.3333333333333,4,2,2,80,0,1
173045,-83.3333333333333,4,2,1,80,0,1
182122,-83.3333333333333,4,2,1,60,0,0
182430,-125,4,2,1,80,0,0
182737,-125,4,2,2,70,0,0
182891,-125,4,2,1,70,0,0
185199,-125,4,2,2,70,0,0
185353,-125,4,2,1,70,0,0
187199,-100,4,2,1,70,0,0
187660,-99.9999999999999,4,2,3,80,0,0
187814,-99.9999999999999,4,2,1,80,0,0
188122,-99.9999999999999,4,2,3,80,0,0
188276,-99.9999999999999,4,2,1,80,0,0
188584,-99.9999999999999,4,2,3,80,0,0
188737,-99.9999999999999,4,2,1,80,0,0
189045,-99.9999999999999,4,2,3,80,0,0
189199,-99.9999999999999,4,2,1,80,0,0
189507,-99.9999999999999,4,2,3,80,0,0
189660,-99.9999999999999,4,2,1,80,0,0
189814,-99.9999999999999,4,2,3,80,0,0
189968,-99.9999999999999,4,2,1,80,0,0
190122,-99.9999999999999,4,2,3,80,0,0
190276,-99.9999999999999,4,2,1,80,0,0
190584,-99.9999999999999,4,2,3,80,0,0
190737,-99.9999999999999,4,2,1,80,0,0
191045,-99.9999999999999,4,2,3,80,0,0
191199,-99.9999999999999,4,2,1,80,0,0
191507,-99.9999999999999,4,2,3,80,0,0
191660,-99.9999999999999,4,2,1,80,0,0
192584,-99.9999999999999,4,2,3,80,0,0
192737,-99.9999999999999,4,2,1,80,0,0
193045,-99.9999999999999,4,2,3,80,0,0
193199,-99.9999999999999,4,2,1,80,0,0
193507,-99.9999999999999,4,2,3,80,0,0
193660,-99.9999999999999,4,2,1,80,0,0
193968,-99.9999999999999,4,2,3,80,0,0
194122,-99.9999999999999,4,2,1,80,0,0
194430,-99.9999999999999,4,2,3,80,0,0
194584,-99.9999999999999,4,2,1,80,0,0
194737,-99.9999999999999,4,2,3,80,0,0
194891,-99.9999999999999,4,2,1,80,0,0
195045,-99.9999999999999,4,2,3,80,0,0
195199,-99.9999999999999,4,2,1,80,0,0
195507,-99.9999999999999,4,2,3,80,0,0
195660,-99.9999999999999,4,2,1,80,0,0
195968,-99.9999999999999,4,2,3,80,0,0
196122,-99.9999999999999,4,2,1,80,0,0
196430,-99.9999999999999,4,2,3,80,0,0
196584,-99.9999999999999,4,2,1,80,0,0
198122,-178.571428571429,4,2,2,80,0,0
198276,-100,4,2,1,80,0,0
199660,-100,4,2,1,60,0,0
200891,-100,4,2,1,40,0,0
202122,-100,4,2,1,20,0,0
203353,-100,4,2,1,20,0,0
203660,-100,4,2,1,5,0,0
204584,-100,4,2,1,5,0,0

[Colours]
Combo1 : 240,240,240
Combo2 : 168,150,119
Combo3 : 83,169,255
Combo4 : 255,156,57

[HitObjects]
236,52,584,5,14,0:0:0:0:
345,245,737,1,0,0:0:0:0:
345,245,891,1,4,0:0:0:0:
93,189,1045,5,14,0:0:0:0:
310,144,1198,1,4,0:0:0:0:
310,144,1352,1,4,0:0:0:0:
89,283,1507,5,14,0:0:0:0:
42,66,1660,1,4,0:0:0:0:
42,66,1814,1,4,0:0:0:0:
225,249,1968,5,14,0:0:0:0:
6,282,2121,1,0,0:0:0:0:
6,282,2275,1,4,0:0:0:0:
208,131,2430,6,0,L|330:141,1,90.0000002980235,14|4,0:0|0:0,0:0:0:0:
22,262,2737,6,0,L|142:253,1,90.0000002980235,14|4,0:0|0:0,0:0:0:0:
260,49,3045,6,0,L|168:35,1,90.0000002980235,14|0,0:0|0:0,0:0:0:0:
0,62,3353,1,4,0:0:0:0:
234,143,3507,6,0,L|326:132,1,90.0000002980235,14|4,0:0|0:0,0:0:0:0:
493,158,3815,1,4,0:0:0:0:
261,237,3968,6,0,L|170:223,1,90.0000002980235,14|4,0:0|0:0,0:0:0:0:
2,253,4276,1,4,0:0:0:0:
235,330,4430,6,0,L|328:318,1,90.0000002980235,14|0,0:0|0:0,0:0:0:0:
494,347,4738,1,4,0:0:0:0:
306,301,4891,6,0,L|290:242,1,45.0000001490117,10|8,0:0|0:0,0:0:0:0:
153,146,5045,2,0,L|169:203,1,45.0000001490117,10|8,0:0|0:0,0:0:0:0:
323,307,5199,6,0,L|307:249,1,45.0000001490117,10|8,0:3|0:3,0:0:0:0:
137,140,5353,2,0,L|153:200,1,45.0000001490117,6|4,0:3|0:3,0:0:0:0:
195,353,5507,5,14,0:0:0:0:
304,160,5660,1,0,0:0:0:0:
304,160,5814,1,4,0:0:0:0:
53,227,5968,5,14,0:0:0:0:
270,272,6121,1,4,0:0:0:0:
270,272,6275,1,4,0:0:0:0:
61,115,6430,5,14,0:0:0:0:
14,331,6583,1,4,0:0:0:0:
14,331,6737,1,4,0:0:0:0:
226,182,6891,5,14,0:0:0:0:
9,227,7044,1,0,0:0:0:0:
9,227,7198,1,4,0:0:0:0:
249,170,7353,6,0,L|263:76,1,90.0000002980235,14|4,0:0|0:0,0:0:0:0:
108,338,7660,6,0,L|93:241,1,90.0000002980235,14|4,0:0|0:0,0:0:0:0:
273,72,7968,6,0,L|257:162,1,90.0000002980235,14|0,0:0|0:0,0:0:0:0:
94,104,8276,1,4,0:0:0:0:
339,161,8430,6,0,L|351:253,1,90.0000002980235,14|4,0:0|0:0,0:0:0:0:
512,190,8738,1,4,0:0:0:0:
271,242,8891,6,0,L|256:334,1,90.0000002980235,14|4,0:0|0:0,0:0:0:0:
75,173,9199,5,4,0:0:0:0:
80,137,9276,1,0,0:0:0:0:
94,104,9353,1,14,0:0:0:0:
116,75,9430,1,0,0:0:0:0:
147,57,9507,2,4,B|173:46|173:46|212:49,3,45.0000001490117,0|0|4|0,0:0|0:0|0:0|0:0,0:0:0:0:
293,52,9814,6,0,L|346:58,1,40.4999988981487,14|0,0:0|0:0,0:0:0:0:
481,127,9968,2,0,L|411:135,1,45.0000001490117,8|8,0:0|0:0,0:0:0:0:
295,205,10122,2,0,L|353:211,1,45.0000001490117,14|8,0:0|0:0,0:0:0:0:
482,280,10276,2,0,L|418:288,1,45.0000001490117,8|8,0:0|0:0,0:0:0:0:
213,353,10430,6,0,P|287:349|340:296,1,153.000003424883,14|4,0:0|0:0,0:0:0:0:
212,212,10891,2,0,L|227:109,1,76.5000017124417,0|4,0:0|0:0,0:0:0:0:
70,283,11199,2,0,L|59:200,1,76.5000017124417,2|4,0:0|0:0,0:0:0:0:
0,55,11507,6,0,P|37:49|74:38,1,76.5000017124417,2|4,0:0|0:0,0:0:0:0:
217,61,11814,2,0,L|224:149,1,76.5000017124417,0|4,0:0|0:0,0:0:0:0:
151,324,12122,2,0,P|225:298|305:323,1,153.000003424883,0|0,0:0|0:0,0:0:0:0:
436,215,12584,1,6,0:0:0:0:
436,215,12737,1,0,0:0:0:0:
276,95,12891,6,0,L|284:185,1,76.5000017124417,6|0,0:0|0:0,0:0:0:0:
292,270,13199,1,4,0:0:0:0:
171,199,13353,2,0,P|128:203|91:219,1,76.5000017124417,0|4,0:0|0:0,0:0:0:0:
267,255,13660,2,0,L|368:254,1,76.5000017124417,2|4,0:0|0:0,0:0:0:0:
498,177,13968,6,0,L|491:268,1,76.5000017124417,2|6,0:0|0:0,0:0:0:0:
425,375,14276,2,0,P|369:363|328:365,1,76.5000017124417,0|6,0:0|0:0,0:0:0:0:
184,357,14584,2,0,L|169:264,1,76.5000017124417,0|6,0:0|0:0,0:0:0:0:
168,267,14814,1,0,0:0:0:0:
167,250,14891,2,0,L|173:176,1,38.2500008562209,4|4,0:0|0:0,0:0:0:0:
242,1,15045,1,14,0:0:0:0:
365,73,15353,6,0,P|305:1|225:10,1,161.999995592595,14|8,0:0|0:0,0:0:0:0:
339,178,15814,1,0,0:0:0:0:
339,178,15891,1,0,0:0:0:0:
339,178,15968,1,4,0:0:0:0:
446,34,16122,1,4,0:0:0:0:
277,75,16276,1,0,0:0:0:0:
463,185,16430,6,0,L|472:275,1,80.9999977962974,8|0,0:0|0:0,0:0:0:0:
273,268,16737,1,0,0:0:0:0:
168,123,16891,1,8,0:0:0:0:
172,301,17045,1,0,0:0:0:0:
275,155,17199,1,4,0:0:0:0:
106,214,17353,1,4,0:0:0:0:
307,145,17507,2,0,P|298:97|270:71,1,80.9999977962974,8|0,0:0|0:0,0:0:0:0:
416,237,17814,6,0,P|350:281|261:259,1,161.999995592595,14|8,0:0|0:0,0:0:0:0:
165,85,18276,1,0,0:0:0:0:
175,66,18352,1,0,0:0:0:0:
184,49,18429,1,4,0:0:0:0:
416,237,18584,2,0,P|366:238|319:229,1,80.9999977962974,4|0,0:0|0:0,0:0:0:0:
157,107,18891,6,0,P|197:105|237:110,1,80.9999977962974,8|0,0:0|0:0,0:0:0:0:
405,227,19199,2,0,P|355:228|308:219,1,80.9999977962974,4|8,0:0|0:0,0:0:0:0:
169,119,19507,2,0,P|209:117|249:122,1,80.9999977962974,0|4,0:0|0:0,0:0:0:0:
390,218,19814,1,8,0:0:0:0:
323,30,19968,1,8,0:0:0:0:
286,15,20044,1,8,0:0:0:0:
247,8,20121,1,8,0:3:0:0:
207,8,20198,1,4,0:3:0:0:
172,25,20276,6,0,L|166:201,1,153.000003424883,14|6,0:0|0:0,0:0:0:0:
365,207,20737,2,0,P|372:158|370:106,1,76.5000017124417,0|6,0:0|0:0,0:0:0:0:
243,316,21045,2,0,P|236:267|238:215,1,76.5000017124417,0|6,0:0|0:0,0:0:0:0:
251,73,21353,6,0,L|352:77,1,76.5000017124417,0|6,0:0|0:0,0:0:0:0:
488,219,21660,2,0,P|456:244|420:258,1,76.5000017124417,0|6,0:0|0:0,0:0:0:0:
262,178,21968,2,0,P|230:153|194:139,1,76.5000017124417,0|6,0:0|0:0,0:0:0:0:
86,112,22276,1,0,0:0:0:0:
217,40,22430,1,6,0:0:0:0:
217,40,22584,1,0,0:0:0:0:
340,166,22737,6,0,L|324:261,1,76.5000017124417,6|0,0:0|0:0,0:0:0:0:
276,339,23045,1,6,0:0:0:0:
432,300,23199,2,0,P|422:243|434:202,1,76.5000017124417,0|6,0:0|0:0,0:0:0:0:
506,134,23507,2,0,P|515:77|503:36,1,76.5000017124417,0|6,0:0|0:0,0:0:0:0:
348,9,23814,6,0,L|254:15,1,76.5000017124417,0|6,0:0|0:0,0:0:0:0:
95,92,24122,2,0,L|189:98,1,76.5000017124417,0|6,0:0|0:0,0:0:0:0:
360,110,24430,2,0,P|366:147|363:185,1,76.5000017124417,0|10,0:0|0:0,0:0:0:0:
362,201,24660,1,0,0:0:0:0:
361,216,24737,2,0,L|301:210,1,38.2500008562209,4|4,0:0|0:0,0:0:0:0:
105,193,24891,1,14,0:0:0:0:
91,52,25199,6,0,P|68:142|122:202,1,161.999995592595,14|8,0:0|0:0,0:0:0:0:
249,258,25660,1,0,0:0:0:0:
249,258,25737,1,0,0:0:0:0:
249,258,25814,1,4,0:0:0:0:
139,117,25968,1,4,0:0:0:0:
39,278,26122,1,0,0:0:0:0:
214,168,26276,6,0,P|260:167|309:175,1,80.9999977962974,8|0,0:0|0:0,0:0:0:0:
394,231,26583,1,0,0:0:0:0:
343,75,26737,1,8,0:0:0:0:
486,164,26891,1,0,0:0:0:0:
382,149,27045,1,4,0:0:0:0:
501,69,27199,1,4,0:0:0:0:
457,277,27353,2,0,P|416:239|381:229,1,80.9999977962974,8|0,0:0|0:0,0:0:0:0:
206,326,27660,6,0,P|128:343|53:290,1,161.999995592595,14|8,0:0|0:0,0:0:0:0:
109,75,28122,1,0,0:0:0:0:
127,71,28199,1,0,0:0:0:0:
148,67,28275,1,4,0:0:0:0:
187,234,28430,2,0,P|119:223|84:223,1,80.9999977962974,4|0,0:0|0:0,0:0:0:0:
325,206,28737,6,0,P|264:172|231:160,1,80.9999977962974,8|0,0:0|0:0,0:0:0:0:
471,200,29045,2,0,P|425:147|399:125,1,80.9999977962974,4|8,0:0|0:0,0:0:0:0:
319,326,29353,1,8,0:0:0:0:
277,319,29429,1,8,0:0:0:0:
236,312,29506,1,8,0:3:0:0:
100,167,29660,1,8,0:3:0:0:
314,87,29814,1,8,0:3:0:0:
101,133,29968,1,4,0:3:0:0:
357,229,30122,5,12,0:0:0:0:
28,236,30430,2,0,P|60:186|63:85,1,153.000003424883,4|8,0:0|0:0,0:0:0:0:
175,20,30891,1,0,0:0:0:0:
264,96,31045,1,4,0:0:0:0:
143,204,31199,6,0,P|137:259|143:313,1,76.5000017124417,4|0,0:0|0:0,0:0:0:0:
338,218,31507,2,0,L|247:197,1,76.5000017124417,8|0,0:0|0:0,0:0:0:0:
437,198,31814,2,0,P|443:253|437:307,1,76.5000017124417,4|8,0:0|0:0,0:0:0:0:
339,107,32122,2,0,L|433:116,1,76.5000017124417,0|4,0:0|0:0,0:0:0:0:
345,323,32430,1,0,0:0:0:0:
345,323,32507,1,0,0:0:0:0:
345,323,32584,6,0,P|270:306|182:325,1,153.000003424883,6|4,0:0|0:0,0:0:0:0:
50,375,33045,2,0,L|38:289,1,76.5000017124417,0|8,0:0|0:0,0:0:0:0:
136,179,33353,2,0,P|164:214|177:258,1,76.5000017124417,0|4,0:0|0:0,0:0:0:0:
298,137,33660,6,0,L|221:124,1,76.5000017124417,4|0,0:0|0:0,0:0:0:0:
83,113,33968,2,0,P|55:148|42:192,1,76.5000017124417,8|0,0:0|0:0,0:0:0:0:
193,354,34276,2,0,P|165:319|152:275,1,76.5000017124417,4|8,0:0|0:0,0:0:0:0:
243,130,34584,1,4,0:0:0:0:
115,210,34737,1,8,0:0:0:0:
267,266,34891,1,0,0:0:0:0:
178,35,35045,5,14,0:0:0:0:
341,163,35353,1,4,0:0:0:0:
341,163,35507,1,0,0:0:0:0:
464,34,35660,2,0,P|473:79|477:124,1,76.5000017124417,8|0,0:0|0:0,0:0:0:0:
423,227,35968,2,0,P|413:272|409:317,1,76.5000017124417,4|4,0:0|0:0,0:0:0:0:
501,193,36276,5,0,0:0:0:0:
338,240,36430,2,0,L|254:243,1,76.5000017124417,8|0,0:0|0:0,0:0:0:0:
111,84,36737,2,0,L|197:98,1,76.5000017124417,4|8,0:0|0:0,0:0:0:0:
369,128,37045,1,0,0:0:0:0:
369,128,37122,1,0,0:0:0:0:
369,128,37199,1,12,0:0:0:0:
299,360,37507,5,6,0:0:0:0:
319,358,37584,1,8,0:0:0:0:
342,349,37660,1,8,0:0:0:0:
366,332,37737,1,8,0:0:0:0:
390,310,37814,5,4,0:0:0:0:
409,277,37891,1,8,0:0:0:0:
417,237,37968,1,8,0:0:0:0:
402,194,38045,1,8,0:0:0:0:
361,168,38122,5,4,0:0:0:0:
323,130,38199,1,8,0:0:0:0:
350,79,38276,1,8,0:0:0:0:
407,98,38353,1,8,0:0:0:0:
416,150,38430,6,0,L|361:167,1,58.4999975157979,14|8,0:0|0:0,0:0:0:0:
68,240,38584,1,14,0:0:0:0:
68,240,38891,5,14,0:0:0:0:
390,310,39045,1,14,0:0:0:0:
327,14,39353,5,2,0:0:0:0:
215,299,39660,1,2,0:0:0:0:
215,299,39968,6,0,P|291:279|326:139,1,215.99999412346,14|10,0:0|0:0,0:0:0:0:
81,139,40430,1,2,0:0:0:0:
86,96,40506,1,8,0:0:0:0:
92,55,40583,1,4,0:0:0:0:
2,284,40737,2,0,B|58:275|58:275|124:289,1,107.99999706173,6|8,0:0|0:0,0:0:0:0:
371,211,41045,6,0,B|260:231|260:231|131:202,1,215.99999412346,6|4,0:0|0:0,0:0:0:0:
330,0,41507,2,0,L|317:130,1,107.99999706173,10|0,0:0|0:0,0:0:0:0:
221,336,41814,2,0,P|128:310|81:311,1,107.99999706173,6|4,0:0|0:0,0:0:0:0:
399,209,42122,2,0,L|412:339,1,107.99999706173,10|0,0:0|0:0,0:0:0:0:
69,86,42430,6,0,B|121:62|170:114|170:114|228:65|303:106,1,215.99999412346,6|8,0:0|0:0,0:0:0:0:
101,155,42891,1,0,0:0:0:0:
273,15,43045,1,4,0:0:0:0:
371,208,43199,2,0,P|307:206|253:211,1,107.99999706173,6|10,0:0|0:0,0:0:0:0:
0,316,43507,6,0,P|105:303|229:362,1,215.99999412346,6|0,0:0|0:0,0:0:0:0:
328,342,43968,1,10,0:0:0:0:
283,182,44122,1,0,0:0:0:0:
75,279,44276,2,0,L|55:172,1,107.99999706173,6|0,0:0|0:0,0:0:0:0:
261,106,44584,2,0,L|278:0,1,107.99999706173,10|0,0:0|0:0,0:0:0:0:
337,321,44891,6,0,L|445:127,1,215.99999412346,6|10,0:0|0:0,0:0:0:0:
276,203,45353,1,2,0:0:0:0:
360,351,45507,1,6,0:0:0:0:
145,260,45660,2,0,P|94:242|40:233,1,107.99999706173,4|8,0:0|0:0,0:0:0:0:
253,35,45968,6,0,B|226:141|226:141|258:259,1,215.99999412346,6|4,0:0|0:0,0:0:0:0:
341,142,46430,2,0,P|351:89|371:38,1,107.99999706173,10|0,0:0|0:0,0:0:0:0:
183,329,46737,2,0,P|172:276|152:225,1,107.99999706173,6|4,0:0|0:0,0:0:0:0:
437,353,47045,1,10,0:0:0:0:
437,353,47353,6,0,P|400:294|345:258,1,107.99999706173,14|4,0:0|0:0,0:0:0:0:
144,144,47660,1,4,0:0:0:0:
484,242,47814,6,0,P|441:211|367:200,1,107.99999706173,14|4,0:0|0:0,0:0:0:0:
144,182,48122,1,4,0:0:0:0:
483,153,48276,6,0,P|440:184|380:199,1,107.99999706173,14|4,0:0|0:0,0:0:0:0:
144,220,48584,1,4,0:0:0:0:
430,33,48737,6,0,P|396:94|337:137,1,107.99999706173,14|4,0:0|0:0,0:0:0:0:
144,259,49045,1,4,0:0:0:0:
245,53,49199,1,14,0:0:0:0:
291,326,49353,5,8,0:0:0:0:
325,346,49429,1,8,0:0:0:0:
364,332,49506,1,4,0:0:0:0:
377,295,49583,5,8,0:0:0:0:
359,259,49660,1,8,0:0:0:0:
315,253,49737,1,8,0:0:0:0:
286,285,49814,6,0,P|303:160|244:53,1,215.99999412346,14|8,0:0|0:0,0:0:0:0:
103,255,50276,1,2,0:0:0:0:
96,294,50353,1,8,0:0:0:0:
89,337,50429,1,4,0:0:0:0:
0,111,50584,2,0,P|60:99|111:100,1,107.99999706173,6|8,0:0|0:0,0:0:0:0:
376,49,50891,6,0,B|321:23|282:93|282:93|265:14|187:28,1,215.99999412346,6|4,0:0|0:0,0:0:0:0:
431,136,51353,2,0,L|416:279,1,107.99999706173,10|0,0:0|0:0,0:0:0:0:
178,251,51660,2,0,P|246:267|312:256,1,107.99999706173,6|4,0:0|0:0,0:0:0:0:
35,171,51968,2,0,P|62:89|67:50,1,107.99999706173,10|0,0:0|0:0,0:0:0:0:
92,336,52276,6,2,P|205:302|323:335,1,215.99999412346,6|8,0:0|0:0,0:0:0:0:
386,253,52737,1,0,0:0:0:0:
200,380,52891,1,4,0:0:0:0:
50,199,53045,2,0,L|159:205,1,107.99999706173,6|10,0:0|0:0,0:0:0:0:
412,126,53353,6,0,B|305:153|305:153|188:123,1,215.99999412346,6|6,0:0|0:0,0:0:0:0:
47,84,53814,1,10,0:0:0:0:
183,204,53968,1,0,0:0:0:0:
303,75,54122,2,0,P|243:53|186:48,1,107.99999706173,6|0,0:0|0:0,0:0:0:0:
502,120,54430,2,8,P|461:70|414:38,1,107.99999706173,10|0,0:0|0:0,0:0:0:0:
336,282,54737,6,0,P|267:340|121:303,1,215.99999412346,6|10,0:0|0:0,0:0:0:0:
389,353,55199,1,2,0:0:0:0:
283,195,55353,1,4,0:0:0:0:
512,253,55507,2,0,P|438:235|401:235,1,107.99999706173,6|10,0:0|0:0,0:0:0:0:
201,113,55814,6,0,B|151:152|151:152|348:161,1,215.99999412346,6|0,0:0|0:0,0:0:0:0:
50,143,56276,2,0,P|69:79|90:36,1,107.99999706173,10|0,0:0|0:0,0:0:0:0:
310,300,56584,2,0,P|247:285|196:284,1,107.99999706173,6|4,0:0|0:0,0:0:0:0:
481,138,56891,2,0,P|464:192|492:251,1,107.99999706173,10|0,0:0|0:0,0:0:0:0:
144,38,57199,6,0,B|223:16|280:74|280:74|373:15,1,215.99999412346,6|10,0:0|0:0,0:0:0:0:
480,238,57660,2,0,P|431:208|367:221,1,107.99999706173,2|4,0:0|0:0,0:0:0:0:
143,122,57968,2,0,P|199:119|248:161,1,107.99999706173,6|8,0:0|0:0,0:0:0:0:
21,355,58276,6,0,B|1:291|61:214|61:214|19:127,1,215.99999412346,2|0,0:0|0:0,0:0:0:0:
149,346,58737,1,8,0:0:0:0:
245,117,58891,1,8,0:0:0:0:
245,117,58968,1,8,0:0:0:0:
245,117,59045,1,6,0:0:0:0:
304,291,59199,1,0,0:0:0:0:
124,170,59353,1,8,0:3:0:0:
308,15,59507,1,4,0:3:0:0:
417,357,59660,6,0,P|424:290|415:266,1,72.0000002384188,14|0,0:0|0:0,0:0:0:0:
384,185,59968,2,0,P|397:126|406:113,1,72.0000002384188,4|4,0:0|0:0,0:0:0:0:
456,29,60276,1,8,0:0:0:0:
443,15,60584,1,6,0:0:0:0:
301,98,60737,6,0,L|229:104,1,72.0000002384188,6|0,0:0|0:0,0:0:0:0:
49,75,61045,2,0,P|67:116|78:174,1,72.0000002384188,10|0,0:0|0:0,0:0:0:0:
169,295,61353,2,0,P|187:254|198:196,1,72.0000002384188,6|8,0:0|0:0,0:0:0:0:
136,70,61660,2,0,L|207:63,1,72.0000002384188,6|0,0:0|0:0,0:0:0:0:
460,138,61968,1,8,0:0:0:0:
460,138,62045,1,8,0:0:0:0:
460,138,62122,6,0,P|389:168|307:141,1,144.000000476838,14|4,0:0|0:0,0:0:0:0:
236,117,62584,1,4,0:0:0:0:
148,225,62737,1,8,0:0:0:0:
122,210,63045,2,0,L|108:125,1,72.0000002384188,6|6,0:0|0:0,0:0:0:0:
11,262,63353,6,0,L|-3:347,1,72.0000002384188,0|10,0:0|0:0,0:0:0:0:
192,296,63660,1,0,0:0:0:0:
110,138,63814,2,0,L|11:119,1,72.0000002384188,6|8,0:0|0:0,0:0:0:0:
237,52,64122,2,0,L|295:37,1,45.0000001490117,10|8,0:0|0:0,0:0:0:0:
382,164,64276,2,0,L|324:149,1,45.0000001490117,8|8,0:0|0:0,0:0:0:0:
512,30,64430,2,0,L|497:84,1,45.0000001490117,8|8,0:0|0:0,0:0:0:0:
401,327,64584,5,14,0:0:0:0:
205,218,64737,1,0,0:0:0:0:
205,218,64891,1,4,0:0:0:0:
451,131,65045,5,14,0:0:0:0:
296,291,65198,1,4,0:0:0:0:
296,291,65352,1,4,0:0:0:0:
213,55,65507,5,14,0:0:0:0:
433,89,65660,1,4,0:0:0:0:
433,89,65814,1,4,0:0:0:0:
209,224,65968,5,14,0:0:0:0:
296,21,66121,1,0,0:0:0:0:
296,21,66275,1,4,0:0:0:0:
106,217,66430,6,0,P|52:225|-11:212,1,90.0000002980235,14|4,0:0|0:0,0:0:0:0:
281,325,66737,6,0,P|227:317|164:330,1,90.0000002980235,14|4,0:0|0:0,0:0:0:0:
202,0,67045,6,0,P|189:52|195:120,1,90.0000002980235,14|0,0:0|0:0,0:0:0:0:
37,6,67353,1,4,0:0:0:0:
274,89,67507,6,0,P|286:141|280:209,1,90.0000002980235,14|4,0:0|0:0,0:0:0:0:
439,95,67815,1,4,0:0:0:0:
201,174,67968,6,0,P|188:226|194:294,1,90.0000002980235,14|4,0:0|0:0,0:0:0:0:
36,180,68276,1,4,0:0:0:0:
273,264,68430,6,0,P|285:316|279:384,1,90.0000002980235,14|0,0:0|0:0,0:0:0:0:
438,270,68738,1,4,0:0:0:0:
338,60,68891,6,0,P|307:61|261:77,1,45.0000001490117,10|8,0:0|0:0,0:0:0:0:
156,177,69045,2,0,P|187:176|233:160,1,45.0000001490117,10|8,0:0|0:0,0:0:0:0:
353,51,69199,6,0,P|322:52|276:68,1,45.0000001490117,10|8,0:3|0:3,0:0:0:0:
140,187,69353,2,0,P|171:186|217:170,1,45.0000001490117,6|4,0:3|0:3,0:0:0:0:
461,78,69507,5,14,0:0:0:0:
265,187,69660,1,0,0:0:0:0:
265,187,69814,1,4,0:0:0:0:
511,274,69968,5,14,0:0:0:0:
356,114,70121,1,4,0:0:0:0:
356,114,70275,1,4,0:0:0:0:
273,350,70430,5,14,0:0:0:0:
493,316,70583,1,4,0:0:0:0:
493,316,70737,1,4,0:0:0:0:
265,187,70891,5,14,0:0:0:0:
356,384,71044,1,0,0:0:0:0:
356,384,71198,1,4,0:0:0:0:
60,166,71353,6,0,P|59:121|71:77,1,90.0000002980235,14|4,0:0|0:0,0:0:0:0:
162,341,71660,6,0,P|169:296|165:252,1,90.0000002980235,14|4,0:0|0:0,0:0:0:0:
5,30,71968,6,0,P|49:38|93:36,1,90.0000002980235,14|0,0:0|0:0,0:0:0:0:
262,0,72276,1,4,0:0:0:0:
478,147,72430,6,0,P|433:155|389:153,1,90.0000002980235,14|4,0:0|0:0,0:0:0:0:
221,117,72738,1,4,0:0:0:0:
9,268,72891,6,0,P|53:276|97:274,1,90.0000002980235,14|4,0:0|0:0,0:0:0:0:
257,238,73199,1,4,0:0:0:0:
482,370,73353,6,0,P|437:378|393:376,1,90.0000002980235,14|0,0:0|0:0,0:0:0:0:
319,115,73660,1,4,0:0:0:0:
337,111,73737,1,0,0:0:0:0:
358,107,73813,1,14,0:0:0:0:
210,326,73968,5,8,0:0:0:0:
170,314,74044,1,8,0:0:0:0:
130,302,74121,1,14,0:0:0:0:
442,178,74276,1,8,0:0:0:0:
442,178,74353,1,8,0:0:0:0:
442,178,74430,6,0,P|375:153|270:161,1,153.000003424883,14|8,0:0|0:0,0:0:0:0:
111,208,74891,2,0,P|163:221|208:248,1,76.5000017124417,0|4,0:0|0:0,0:0:0:0:
296,313,75199,2,0,L|309:222,1,76.5000017124417,4|8,0:0|0:0,0:0:0:0:
374,115,75507,6,0,L|281:94,1,76.5000017124417,4|0,0:0|0:0,0:0:0:0:
136,39,75814,2,0,P|205:26|234:25,1,76.5000017124417,4|8,0:0|0:0,0:0:0:0:
454,148,76122,2,0,P|391:144|295:172,1,153.000003424883,0|0,0:0|0:0,0:0:0:0:
201,104,76584,1,8,0:0:0:0:
201,104,76737,1,0,0:0:0:0:
60,182,76891,6,0,P|58:137|72:93,1,76.5000017124417,6|0,0:0|0:0,0:0:0:0:
150,12,77199,1,8,0:0:0:0:
280,99,77353,2,0,L|380:108,1,76.5000017124417,0|4,0:0|0:0,0:0:0:0:
499,60,77660,2,0,P|492:117|494:161,1,76.5000017124417,4|8,0:0|0:0,0:0:0:0:
502,270,77968,6,0,P|442:258|403:259,1,76.5000017124417,4|0,0:0|0:0,0:0:0:0:
298,332,78276,2,0,P|238:344|199:343,1,76.5000017124417,0|8,0:0|0:0,0:0:0:0:
60,288,78584,2,0,P|101:263|153:251,1,76.5000017124417,0|0,0:0|0:0,0:0:0:0:
143,252,78814,1,0,0:0:0:0:
158,249,78891,2,0,L|169:207,1,38.2500008562209,4|4,0:0|0:0,0:0:0:0:
214,0,79045,1,12,0:0:0:0:
346,76,79353,6,0,P|295:19|192:5,1,161.999995592595,14|8,0:0|0:0,0:0:0:0:
22,106,79814,1,0,0:0:0:0:
22,106,79891,1,0,0:0:0:0:
22,106,79968,1,4,0:0:0:0:
190,154,80122,1,4,0:0:0:0:
111,5,80276,1,0,0:0:0:0:
266,120,80430,6,0,P|264:184|250:226,1,80.9999977962974,8|0,0:0|0:0,0:0:0:0:
149,218,80737,1,0,0:0:0:0:
202,358,80891,1,8,0:0:0:0:
292,277,81045,1,0,0:0:0:0:
154,188,81199,1,4,0:0:0:0:
235,361,81353,1,4,0:0:0:0:
42,263,81507,2,0,P|33:222|31:182,1,80.9999977962974,8|0,0:0|0:0,0:0:0:0:
269,98,81814,6,0,P|203:142|114:120,1,161.999995592595,14|8,0:0|0:0,0:0:0:0:
384,172,82276,1,0,0:0:0:0:
374,153,82352,1,0,0:0:0:0:
365,136,82429,1,4,0:0:0:0:
482,328,82584,2,0,L|384:323,1,80.9999977962974,4|0,0:0|0:0,0:0:0:0:
192,258,82891,6,0,L|289:262,1,80.9999977962974,8|0,0:0|0:0,0:0:0:0:
463,336,83199,2,0,L|365:331,1,80.9999977962974,4|8,0:0|0:0,0:0:0:0:
204,269,83507,2,0,L|301:273,1,80.9999977962974,0|4,0:0|0:0,0:0:0:0:
437,347,83814,1,8,0:0:0:0:
303,250,83968,1,8,0:0:0:0:
263,241,84044,1,8,0:0:0:0:
223,232,84121,1,8,0:3:0:0:
183,224,84198,1,4,0:3:0:0:
145,216,84276,6,0,L|311:200,1,153.000003424883,14|8,0:0|0:0,0:0:0:0:
161,123,84737,2,0,L|64:112,1,76.5000017124417,0|4,0:0|0:0,0:0:0:0:
2,239,85045,2,0,P|61:250|100:280,1,76.5000017124417,4|8,0:0|0:0,0:0:0:0:
197,342,85353,6,0,L|214:254,1,76.5000017124417,4|0,0:0|0:0,0:0:0:0:
351,220,85660,2,0,L|334:132,1,76.5000017124417,4|8,0:0|0:0,0:0:0:0:
278,310,85968,2,0,P|349:326|386:327,1,76.5000017124417,0|4,0:0|0:0,0:0:0:0:
464,258,86276,1,0,0:0:0:0:
336,144,86430,1,8,0:0:0:0:
336,144,86584,1,0,0:0:0:0:
162,224,86737,6,0,P|174:176|170:120,1,76.5000017124417,6|0,0:0|0:0,0:0:0:0:
255,65,87045,1,8,0:0:0:0:
313,224,87199,2,0,L|423:239,1,76.5000017124417,0|4,0:0|0:0,0:0:0:0:
488,107,87507,2,0,P|479:164|491:205,1,76.5000017124417,4|8,0:0|0:0,0:0:0:0:
501,342,87814,6,0,P|452:334|389:340,1,76.5000017124417,4|0,0:0|0:0,0:0:0:0:
273,370,88122,2,0,L|255:273,1,76.5000017124417,0|8,0:0|0:0,0:0:0:0:
381,154,88430,2,0,L|291:183,1,76.5000017124417,4|8,0:0|0:0,0:0:0:0:
294,183,88660,1,0,0:0:0:0:
277,187,88737,2,0,L|202:192,1,38.2500008562209,4|0,0:0|0:0,0:0:0:0:
20,152,88891,1,12,0:0:0:0:
95,31,89199,6,0,P|21:87|27:168,1,161.999995592595,14|8,0:0|0:0,0:0:0:0:
236,57,89660,1,0,0:0:0:0:
236,57,89737,1,0,0:0:0:0:
236,57,89814,1,4,0:0:0:0:
211,237,89968,1,4,0:0:0:0:
92,118,90122,1,0,0:0:0:0:
238,251,90276,6,0,P|192:250|143:258,1,80.9999977962974,8|0,0:0|0:0,0:0:0:0:
289,179,90583,1,0,0:0:0:0:
407,309,90737,1,8,0:0:0:0:
264,265,90891,1,0,0:0:0:0:
375,174,91045,1,4,0:0:0:0:
379,321,91199,1,4,0:0:0:0:
502,118,91353,2,0,L|484:28,1,80.9999977962974,8|0,0:0|0:0,0:0:0:0:
232,182,91660,6,0,P|310:171|385:106,1,161.999995592595,14|8,0:0|0:0,0:0:0:0:
144,11,92122,1,0,0:0:0:0:
162,7,92199,1,0,0:0:0:0:
183,3,92275,1,4,0:0:0:0:
32,175,92430,2,8,P|17:107|15:72,1,80.9999977962974,4|0,0:0|0:0,0:0:0:0:
191,263,92737,6,8,P|205:195|207:160,1,80.9999977962974,8|0,0:0|0:0,0:0:0:0:
54,364,93045,2,8,P|39:296|37:261,1,80.9999977962974,4|8,0:0|0:0,0:0:0:0:
206,183,93353,1,8,0:0:0:0:
216,141,93429,1,8,0:0:0:0:
226,101,93506,1,8,0:3:0:0:
334,272,93660,1,8,0:3:0:0:
425,93,93814,1,4,0:3:0:0:
361,297,93968,1,4,0:3:0:0:
297,33,94122,5,14,0:0:0:0:
234,351,94430,2,0,L|401:338,1,153.000003424883,4|8,0:0|0:0,0:0:0:0:
477,293,94891,1,0,0:0:0:0:
392,186,95045,1,4,0:0:0:0:
291,323,95199,6,0,L|188:317,1,76.5000017124417,4|0,0:0|0:0,0:0:0:0:
65,250,95507,2,0,L|168:244,1,76.5000017124417,8|0,0:0|0:0,0:0:0:0:
273,151,95814,2,0,P|224:140|171:146,1,76.5000017124417,4|8,0:0|0:0,0:0:0:0:
36,234,96122,2,0,L|46:134,1,76.5000017124417,0|12,0:0|0:0,0:0:0:0:
319,251,96430,1,8,0:0:0:0:
319,251,96507,1,0,0:0:0:0:
319,251,96584,6,0,P|302:179|329:88,1,153.000003424883,6|4,0:0|0:0,0:0:0:0:
234,242,97045,2,0,L|135:256,1,76.5000017124417,0|8,0:0|0:0,0:0:0:0:
10,146,97353,2,0,P|58:153|106:178,1,76.5000017124417,0|4,0:0|0:0,0:0:0:0:
233,120,97660,6,0,P|241:62|235:21,1,76.5000017124417,4|0,0:0|0:0,0:0:0:0:
83,163,97968,2,0,L|97:243,1,76.5000017124417,8|0,0:0|0:0,0:0:0:0:
196,345,98276,2,0,P|248:338|302:352,1,76.5000017124417,4|8,0:0|0:0,0:0:0:0:
394,296,98584,1,4,0:0:0:0:
266,218,98737,1,8,0:0:0:0:
476,173,98891,1,0,0:0:0:0:
271,341,99045,5,14,0:0:0:0:
136,170,99353,1,4,0:0:0:0:
136,170,99507,1,0,0:0:0:0:
301,93,99660,2,0,L|395:82,1,76.5000017124417,8|0,0:0|0:0,0:0:0:0:
158,73,99968,2,0,P|203:42|254:24,1,76.5000017124417,4|4,0:0|0:0,0:0:0:0:
233,186,100276,5,0,0:0:0:0:
41,30,100430,2,0,P|29:77|40:135,1,76.5000017124417,8|0,0:0|0:0,0:0:0:0:
226,275,100737,2,0,P|215:227|179:180,1,76.5000017124417,4|8,0:0|0:0,0:0:0:0:
18,346,101045,1,0,0:0:0:0:
18,346,101122,1,0,0:0:0:0:
18,346,101199,1,12,0:0:0:0:
214,346,101507,5,6,0:0:0:0:
194,344,101584,1,8,0:0:0:0:
171,335,101660,1,8,0:0:0:0:
147,318,101737,1,8,0:0:0:0:
123,296,101814,5,4,0:0:0:0:
104,263,101891,1,8,0:0:0:0:
96,223,101968,1,8,0:0:0:0:
111,180,102045,1,8,0:0:0:0:
152,154,102122,5,4,0:0:0:0:
190,116,102199,1,8,0:0:0:0:
163,65,102276,1,8,0:0:0:0:
106,84,102353,1,8,0:0:0:0:
97,136,102430,6,0,L|152:153,1,58.4999975157979,14|8,0:0|0:0,0:0:0:0:
445,226,102584,1,14,0:0:0:0:
445,226,102891,5,12,0:0:0:0:
123,296,103045,1,12,0:0:0:0:
332,31,103353,5,2,0:0:0:0:
268,333,103660,1,2,0:0:0:0:
268,333,103968,6,0,B|317:292|407:353|407:353|439:256,1,215.99999412346,14|10,0:0|0:0,0:0:0:0:
228,197,104430,1,2,0:0:0:0:
269,184,104506,1,8,0:0:0:0:
308,171,104583,1,4,0:0:0:0:
76,333,104737,2,0,P|137:319|213:345,1,107.99999706173,6|8,0:0|0:0,0:0:0:0:
414,177,105045,6,0,L|189:151,1,215.99999412346,6|4,0:0|0:0,0:0:0:0:
0,281,105507,2,0,B|58:291|58:291|115:268,1,107.99999706173,10|0,0:0|0:0,0:0:0:0:
348,274,105814,2,0,P|323:204|277:167,1,107.99999706173,6|4,0:0|0:0,0:0:0:0:
144,366,106122,2,0,L|271:373,1,107.99999706173,10|0,0:0|0:0,0:0:0:0:
382,134,106430,6,0,P|279:149|167:123,1,215.99999412346,6|8,0:0|0:0,0:0:0:0:
67,144,106891,1,0,0:0:0:0:
254,6,107045,1,4,0:0:0:0:
357,237,107199,2,0,P|293:235|239:240,1,107.99999706173,6|10,0:0|0:0,0:0:0:0:
457,19,107507,6,0,B|480:114|480:114|446:237,1,215.99999412346,6|0,0:0|0:0,0:0:0:0:
397,351,107968,1,10,0:0:0:0:
512,184,108122,1,0,0:0:0:0:
262,332,108276,2,0,P|244:261|242:209,1,107.99999706173,6|0,0:0|0:0,0:0:0:0:
469,105,108584,2,0,P|487:34|489:-18,1,107.99999706173,10|0,0:0|0:0,0:0:0:0:
394,322,108891,6,0,L|172:340,1,215.99999412346,6|10,0:0|0:0,0:0:0:0:
304,201,109353,1,2,0:0:0:0:
503,313,109507,1,4,0:0:0:0:
469,105,109660,2,0,L|433:-41,1,107.99999706173,6|8,0:0|0:0,0:0:0:0:
204,267,109968,6,0,B|309:286|309:286|436:261,1,215.99999412346,6|4,0:0|0:0,0:0:0:0:
131,317,110430,2,0,P|118:251|140:192,1,107.99999706173,10|0,0:0|0:0,0:0:0:0:
337,202,110737,2,0,P|350:136|328:77,1,107.99999706173,6|4,0:0|0:0,0:0:0:0:
31,308,111045,1,10,0:0:0:0:
31,308,111353,6,0,L|143:214,1,107.99999706173,14|4,0:0|0:0,0:0:0:0:
322,78,111660,1,4,0:0:0:0:
175,365,111814,6,0,L|223:237,1,107.99999706173,14|4,0:0|0:0,0:0:0:0:
283,78,112121,1,4,0:0:0:0:
337,365,112276,6,0,L|296:238,1,107.99999706173,14|4,0:0|0:0,0:0:0:0:
244,77,112583,1,4,0:0:0:0:
481,308,112737,6,0,L|375:212,1,107.99999706173,14|4,0:0|0:0,0:0:0:0:
207,77,113045,1,4,0:0:0:0:
500,138,113199,1,14,0:0:0:0:
217,257,113353,5,8,0:0:0:0:
251,277,113429,1,8,0:0:0:0:
290,263,113506,1,10,0:0:0:0:
303,226,113583,5,8,0:0:0:0:
285,190,113660,1,8,0:0:0:0:
241,184,113737,1,8,0:0:0:0:
212,216,113814,6,0,L|447:279,1,215.99999412346,14|10,0:0|0:0,0:0:0:0:
42,259,114276,1,2,0:0:0:0:
49,220,114353,1,8,0:0:0:0:
56,177,114429,1,4,0:0:0:0:
185,362,114584,2,0,P|245:350|296:351,1,107.99999706173,6|8,0:0|0:0,0:0:0:0:
0,111,114891,6,0,P|122:149|225:117,1,215.99999412346,6|4,0:0|0:0,0:0:0:0:
417,224,115353,2,0,L|402:367,1,107.99999706173,10|0,0:0|0:0,0:0:0:0:
115,262,115660,2,0,P|197:248|243:226,1,107.99999706173,6|4,0:0|0:0,0:0:0:0:
474,118,115968,2,0,P|392:104|346:82,1,107.99999706173,10|0,0:0|0:0,0:0:0:0:
87,123,116276,6,0,B|173:160|173:160|312:123,1,215.99999412346,4|8,0:0|0:0,0:0:0:0:
375,194,116737,1,0,0:0:0:0:
217,66,116891,1,4,0:0:0:0:
105,263,117045,2,0,L|214:269,1,107.99999706173,6|10,0:0|0:0,0:0:0:0:
335,39,117353,6,0,B|350:120|290:179|290:179|328:269,1,215.99999412346,6|0,0:0|0:0,0:0:0:0:
466,222,117814,1,10,0:0:0:0:
322,356,117968,1,0,0:0:0:0:
149,124,118122,2,0,P|209:102|266:97,1,107.99999706173,6|0,0:0|0:0,0:0:0:0:
389,311,118430,2,8,P|348:261|301:229,1,107.99999706173,10|0,0:0|0:0,0:0:0:0:
35,370,118737,6,0,L|259:331,1,215.99999412346,6|10,0:0|0:0,0:0:0:0:
390,336,119199,1,2,0:0:0:0:
199,306,119353,1,4,0:0:0:0:
385,213,119507,2,0,P|374:142|386:82,1,107.99999706173,6|8,0:0|0:0,0:0:0:0:
507,309,119814,6,0,B|458:245|458:245|408:307|337:278,1,215.99999412346,6|0,0:0|0:0,0:0:0:0:
178,113,120276,2,0,B|236:131|236:131|315:93,1,107.99999706173,10|0,0:0|0:0,0:0:0:0:
82,211,120584,2,0,L|63:89,1,107.99999706173,6|4,0:0|0:0,0:0:0:0:
47,319,120891,2,0,P|106:334|155:283,1,107.99999706173,10|0,0:0|0:0,0:0:0:0:
279,108,121199,6,0,B|333:135|333:135|149:109,1,215.99999412346,6|10,0:0|0:0,0:0:0:0:
359,228,121660,1,2,0:0:0:0:
328,35,121814,1,0,0:0:0:0:
302,318,121968,2,0,P|317:254|305:177,1,107.99999706173,6|8,0:0|0:0,0:0:0:0:
456,331,122276,6,0,L|229:356,1,215.99999412346,6|0,0:0|0:0,0:0:0:0:
132,308,122737,1,8,0:0:0:0:
347,204,122891,5,8,0:0:0:0:
347,204,122968,1,8,0:0:0:0:
347,204,123045,1,6,0:0:0:0:
205,81,123199,1,0,0:0:0:0:
412,20,123353,1,8,0:3:0:0:
267,264,123507,1,4,0:3:0:0:
428,21,123660,6,0,L|354:36,1,72.0000002384188,14|0,0:0|0:0,0:0:0:0:
261,139,123968,2,0,L|187:124,1,72.0000002384188,4|4,0:0|0:0,0:0:0:0:
71,46,124276,1,8,0:0:0:0:
53,53,124584,1,6,0:0:0:0:
0,275,124737,6,0,P|42:275|83:266,1,72.0000002384188,6|0,0:0|0:0,0:0:0:0:
169,332,125045,2,0,P|209:321|246:301,1,72.0000002384188,10|0,0:0|0:0,0:0:0:0:
346,344,125353,2,0,P|382:323|413:294,1,72.0000002384188,6|8,0:0|0:0,0:0:0:0:
496,232,125660,2,0,P|508:192|513:150,1,72.0000002384188,6|0,0:0|0:0,0:0:0:0:
291,2,125968,1,8,0:0:0:0:
291,2,126045,1,8,0:0:0:0:
291,2,126122,6,0,L|264:162,1,144.000000476838,14|4,0:0|0:0,0:0:0:0:
364,243,126584,1,4,0:0:0:0:
161,313,126737,1,8,0:0:0:0:
138,308,127045,2,0,P|129:268|129:227,1,72.0000002384188,6|6,0:0|0:0,0:0:0:0:
220,93,127353,6,0,P|185:83|149:80,1,72.0000002384188,0|8,0:0|0:0,0:0:0:0:
85,166,127660,1,0,0:0:0:0:
227,193,127814,2,0,L|318:197,1,72.0000002384188,6|2,0:0|0:0,0:0:0:0:
326,207,128045,2,0,L|347:165,1,36.0000001192094,0|8,0:0|0:0,0:0:0:0:
340,141,128199,2,0,L|377:119,1,36.0000001192094,4|8,0:0|0:0,0:0:0:0:
335,357,128584,6,0,B|72:382|75:207|-14:-44|227:-128|464:-53|578:-9|722:365|298:444|-7:451|52:-79|480:129|202:200,1,1295.99996474076,14|0,0:0|0:0,0:0:0:0:
256,192,133507,5,2,0:0:0:0:
256,192,135968,5,2,0:0:0:0:
256,192,137814,5,2,0:0:0:0:
396,332,138276,1,8,0:0:0:0:
396,332,138353,1,8,0:0:0:0:
396,332,138430,6,0,L|422:167,1,144.000000476838,14|0,0:0|0:0,0:0:0:0:
357,126,138891,1,4,0:0:0:0:
511,30,139045,1,8,0:0:0:0:
293,215,139353,1,4,0:0:0:0:
293,215,139507,6,0,P|264:162|276:70,1,144.000000476838,4|8,0:0|0:0,0:0:0:0:
123,180,139968,2,0,L|211:191,1,72.0000002384188,0|4,0:0|0:0,0:0:0:0:
112,43,140276,2,0,L|37:61,1,72.0000002384188,8|0,0:0|0:0,0:0:0:0:
182,103,140584,1,4,0:0:0:0:
319,44,140737,1,8,0:0:0:0:
319,44,140814,1,8,0:0:0:0:
319,44,140891,6,0,L|413:39,1,72.0000002384188,6|0,0:0|0:0,0:0:0:0:
486,38,141199,1,0,0:0:0:0:
401,195,141353,2,0,L|378:109,1,72.0000002384188,0|8,0:0|0:0,0:0:0:0:
496,173,141660,1,0,0:0:0:0:
426,289,141814,1,4,0:0:0:0:
312,196,141968,6,0,L|221:208,1,72.0000002384188,4|0,0:0|0:0,0:0:0:0:
414,321,142276,1,8,0:0:0:0:
401,195,142430,2,0,L|243:168,1,144.000000476838,0|8,0:0|0:0,0:0:0:0:
139,231,142891,2,0,P|161:192|169:153,1,72.0000002384188,0|4,0:0|0:0,0:0:0:0:
36,71,143199,1,8,0:0:0:0:
36,71,143276,1,8,0:0:0:0:
36,71,143353,6,0,P|99:69|71:9,2,144.000000476838,6|0|8,0:0|0:0|0:0,0:0:0:0:
0,266,144276,1,4,0:0:0:0:
121,169,144430,6,0,L|287:192,1,144.000000476838,4|8,0:0|0:0,0:0:0:0:
391,311,144891,2,0,L|305:323,1,72.0000002384188,0|4,0:0|0:0,0:0:0:0:
470,166,145199,2,0,L|405:215,1,72.0000002384188,8|0,0:0|0:0,0:0:0:0:
486,361,145507,1,4,0:0:0:0:
209,299,145660,1,8,0:0:0:0:
209,299,145737,1,8,0:0:0:0:
209,299,145814,6,0,P|238:265|290:253,1,72.0000002384188,6|0,0:0|0:0,0:0:0:0:
454,190,146122,1,0,0:0:0:0:
341,278,146276,1,0,0:0:0:0:
324,95,146430,2,0,L|229:80,1,72.0000002384188,8|0,0:0|0:0,0:0:0:0:
201,202,146737,2,0,L|105:212,1,72.0000002384188,4|4,0:0|0:0,0:0:0:0:
19,314,147045,6,0,P|15:266|19:230,1,72.0000002384188,0|8,0:0|0:0,0:0:0:0:
148,343,147353,1,0,0:0:0:0:
260,316,147507,1,4,0:0:0:0:
129,256,147660,1,8,0:0:0:0:
298,220,147814,1,8,0:0:0:0:
107,153,147968,1,8,0:3:0:0:
324,79,148122,1,4,0:3:0:0:
324,79,148199,1,0,0:0:0:0:
324,79,148276,6,0,P|367:36|309:11,2,144.000000476838,14|0|8,0:0|0:0|0:0,0:0:0:0:
112,48,149199,1,4,0:0:0:0:
8,122,149353,6,0,L|162:141,1,144.000000476838,4|8,0:0|0:0,0:0:0:0:
240,197,149814,2,0,P|288:191|338:196,1,72.0000002384188,0|4,0:0|0:0,0:0:0:0:
474,253,150122,2,0,L|466:167,1,72.0000002384188,8|0,0:0|0:0,0:0:0:0:
359,267,150430,1,4,0:0:0:0:
418,109,150583,1,8,0:0:0:0:
418,109,150660,1,8,0:0:0:0:
418,109,150737,6,0,P|474:101|512:103,1,72.0000002384188,6|0,0:0|0:0,0:0:0:0:
372,4,151045,1,0,0:0:0:0:
305,148,151199,2,0,L|201:162,1,72.0000002384188,0|8,0:0|0:0,0:0:0:0:
154,33,151506,1,0,0:0:0:0:
132,202,151660,1,4,0:0:0:0:
267,60,151814,6,0,L|356:76,1,72.0000002384188,4|0,0:0|0:0,0:0:0:0:
415,126,152122,1,8,0:0:0:0:
242,258,152276,2,0,L|90:234,1,144.000000476838,0|8,0:0|0:0,0:0:0:0:
298,186,152737,2,0,P|320:147|328:108,1,72.0000002384188,0|4,0:0|0:0,0:0:0:0:
413,315,153045,1,8,0:0:0:0:
413,315,153122,1,8,0:0:0:0:
413,315,153199,6,0,P|469:336|469:273,2,144.000000476838,6|0|8,0:0|0:0|0:0,0:0:0:0:
447,102,154122,1,4,0:0:0:0:
447,102,154276,6,0,P|383:108|290:145,1,144.000000476838,4|8,0:0|0:0,0:0:0:0:
144,220,154737,2,0,L|234:238,1,72.0000002384188,0|4,0:0|0:0,0:0:0:0:
395,194,155045,2,0,L|494:180,1,72.0000002384188,8|0,0:0|0:0,0:0:0:0:
375,299,155353,1,4,0:0:0:0:
318,155,155506,1,8,0:0:0:0:
318,155,155583,1,8,0:0:0:0:
318,155,155660,6,0,P|273:147|218:152,1,72.0000002384188,6|0,0:0|0:0,0:0:0:0:
156,144,155968,1,0,0:0:0:0:
315,67,156122,2,0,L|397:56,1,72.0000002384188,0|8,0:0|0:0,0:0:0:0:
395,194,156429,1,0,0:0:0:0:
496,70,156584,2,0,L|479:-8,1,72.0000002384188,4|4,0:0|0:0,0:0:0:0:
345,64,156891,5,0,0:0:0:0:
406,224,157045,1,8,0:0:0:0:
502,107,157199,1,0,0:0:0:0:
300,161,157353,1,4,0:0:0:0:
300,161,157430,1,0,0:0:0:0:
300,161,157507,1,8,0:0:0:0:
486,251,157660,2,0,L|416:265,1,72.0000002384188,8|4,0:3|0:3,0:0:0:0:
207,312,157968,1,0,0:0:0:0:
207,312,158045,1,0,0:0:0:0:
207,312,158122,5,14,0:0:0:0:
257,190,160584,5,14,0:0:0:0:
150,220,162430,6,0,L|93:240,3,53.9999985308649,2|2|2|2,0:0|0:0|0:0|0:0,0:0:0:0:
402,129,162737,2,0,L|475:151,3,53.9999985308649,2|2|2|2,0:0|0:0|0:0|0:0,0:0:0:0:
171,297,163045,6,0,B|261:254|213:172|213:172|251:87,1,215.99999412346,14|10,0:0|0:0,0:0:0:0:
415,243,163507,1,2,0:0:0:0:
410,200,163583,1,8,0:0:0:0:
406,159,163660,1,4,0:0:0:0:
245,348,163814,2,0,B|303:335|303:335|367:340,1,107.99999706173,6|8,0:0|0:0,0:0:0:0:
402,129,164122,6,0,P|295:99|181:104,1,215.99999412346,6|4,0:0|0:0,0:0:0:0:
79,307,164584,2,0,L|203:291,1,107.99999706173,10|0,0:0|0:0,0:0:0:0:
3,45,164891,2,0,B|-16:92|-16:92|13:176,1,107.99999706173,6|4,0:0|0:0,0:0:0:0:
168,28,165199,2,0,P|252:22|309:33,1,107.99999706173,10|0,0:0|0:0,0:0:0:0:
338,277,165507,6,0,B|261:274|261:274|229:247|229:247|131:240,1,215.99999412346,6|8,0:0|0:0,0:0:0:0:
82,167,165968,1,0,0:0:0:0:
275,38,166122,1,4,0:0:0:0:
401,204,166276,2,0,L|279:200,1,107.99999706173,6|10,0:0|0:0,0:0:0:0:
120,0,166584,6,0,B|97:95|97:95|127:212,1,215.99999412346,6|6,0:0|0:0,0:0:0:0:
236,171,167045,1,10,0:0:0:0:
17,125,167199,1,0,0:0:0:0:
279,85,167353,2,0,L|270:198,1,107.99999706173,6|0,0:0|0:0,0:0:0:0:
47,231,167660,2,0,L|55:115,1,107.99999706173,10|0,0:0|0:0,0:0:0:0:
379,259,167968,6,0,B|312:253|266:307|266:307|193:237,1,215.99999412346,6|10,0:0|0:0,0:0:0:0:
365,342,168430,1,2,0:0:0:0:
509,231,168584,1,4,0:0:0:0:
275,208,168737,2,0,P|324:186|391:188,1,107.99999706173,6|8,0:0|0:0,0:0:0:0:
104,78,169045,6,0,B|209:97|209:97|330:77,1,215.99999412346,6|4,0:0|0:0,0:0:0:0:
500,0,169507,2,0,L|487:112,1,107.99999706173,10|0,0:0|0:0,0:0:0:0:
420,294,169814,2,0,P|346:284|273:300,1,107.99999706173,6|4,0:0|0:0,0:0:0:0:
480,130,170122,1,10,0:0:0:0:
200,379,170430,6,0,B|179:327|179:327|228:264,1,107.99999706173,14|4,0:0|0:0,0:0:0:0:
420,294,170737,1,4,0:0:0:0:
210,286,170891,6,0,B|231:234|231:234|182:171,1,107.99999706173,14|4,0:0|0:0,0:0:0:0:
0,199,171199,1,4,0:0:0:0:
199,193,171353,6,0,B|178:141|178:141|227:78,1,107.99999706173,14|6,0:0|0:0,0:0:0:0:
419,103,171660,1,4,0:0:0:0:
209,100,171814,6,0,B|230:48|230:48|181:-15,1,107.99999706173,14|4,0:0|0:0,0:0:0:0:
8,6,172122,1,4,0:0:0:0:
113,205,172276,1,14,0:0:0:0:
304,85,172430,5,8,0:0:0:0:
332,58,172506,1,8,0:0:0:0:
372,62,172583,1,6,0:0:0:0:
394,96,172660,5,8,0:0:0:0:
384,135,172737,1,8,0:0:0:0:
343,151,172814,1,8,0:0:0:0:
307,125,172891,6,0,B|398:98|398:98|537:128,1,215.99999412346,14|10,0:0|0:0,0:0:0:0:
285,267,173353,1,2,0:0:0:0:
324,260,173430,1,8,0:0:0:0:
366,252,173506,1,4,0:0:0:0:
116,129,173660,2,0,P|97:71|108:13,1,107.99999706173,6|8,0:0|0:0,0:0:0:0:
389,5,173968,6,0,B|315:17|315:17|266:48|266:48|181:61,1,215.99999412346,6|4,0:0|0:0,0:0:0:0:
452,181,174430,2,0,L|436:327,1,107.99999706173,10|0,0:0|0:0,0:0:0:0:
153,221,174737,2,0,B|202:242|202:242|265:213,1,107.99999706173,6|4,0:0|0:0,0:0:0:0:
100,50,175045,2,0,P|46:22|-27:19,1,107.99999706173,10|0,0:0|0:0,0:0:0:0:
305,273,175353,6,0,B|383:166|241:189|325:73,1,215.99999412346,6|8,0:0|0:0,0:0:0:0:
417,29,175814,1,0,0:0:0:0:
512,213,175968,1,4,0:0:0:0:
346,339,176122,2,0,P|413:323|473:333,1,107.99999706173,6|10,0:0|0:0,0:0:0:0:
285,138,176430,6,0,B|179:162|179:162|56:139,1,215.99999412346,6|0,0:0|0:0,0:0:0:0:
364,66,176891,1,10,0:0:0:0:
209,255,177045,1,0,0:0:0:0:
110,63,177199,2,0,B|54:64|54:64|-12:98,1,107.99999706173,6|0,0:0|0:0,0:0:0:0:
310,280,177507,2,0,B|254:279|254:279|184:241,1,107.99999706173,10|0,0:0|0:0,0:0:0:0:
483,68,177814,6,0,B|415:113|364:66|364:66|340:163,1,215.99999412346,6|10,0:0|0:0,0:0:0:0:
512,185,178276,1,2,0:0:0:0:
421,14,178430,1,4,0:0:0:0:
405,257,178584,2,0,L|535:266,1,107.99999706173,6|10,0:0|0:0,0:0:0:0:
247,12,178891,6,0,P|268:86|198:235,1,215.99999412346,6|0,0:0|0:0,0:0:0:0:
79,44,179353,2,0,B|144:53|144:53|193:97,1,107.99999706173,10|0,0:0|0:0,0:0:0:0:
45,225,179660,2,0,L|25:337,1,107.99999706173,6|4,0:0|0:0,0:0:0:0:
326,187,179968,2,0,B|355:128|355:128|339:67,1,107.99999706173,10|0,0:0|0:0,0:0:0:0:
472,237,180276,6,0,L|245:216,1,215.99999412346,6|10,0:0|0:0,0:0:0:0:
79,44,180737,2,0,P|60:114|82:173,1,107.99999706173,2|4,0:0|0:0,0:0:0:0:
243,296,181045,2,0,B|185:307|185:307|112:283,1,107.99999706173,6|8,0:0|0:0,0:0:0:0:
344,87,181353,6,0,P|264:20|157:96,1,215.99999412346,6|0,0:0|0:0,0:0:0:0:
367,181,181814,1,8,0:0:0:0:
186,289,181968,1,8,0:0:0:0:
186,289,182045,1,8,0:0:0:0:
186,289,182122,1,6,0:0:0:0:
255,94,182276,1,0,0:0:0:0:
325,296,182430,1,8,0:3:0:0:
139,159,182584,1,4,0:3:0:0:
386,200,182737,6,0,L|396:114,1,72.0000002384188,14|0,0:0|0:0,0:0:0:0:
490,268,183045,2,0,L|402:275,1,72.0000002384188,4|4,0:0|0:0,0:0:0:0:
292,182,183353,1,8,0:0:0:0:
292,182,183660,2,0,P|282:125|293:81,1,72.0000002384188,6|6,0:0|0:0,0:0:0:0:
269,283,183968,6,0,P|221:273|192:246,1,72.0000002384188,0|10,0:0|0:0,0:0:0:0:
385,202,184276,1,0,0:0:0:0:
194,87,184430,2,0,P|228:40|268:18,1,72.0000002384188,6|8,0:0|0:0,0:0:0:0:
116,206,184737,2,0,L|104:298,1,72.0000002384188,6|0,0:0|0:0,0:0:0:0:
209,344,185045,1,8,0:0:0:0:
209,344,185122,1,8,0:0:0:0:
210,344,185199,6,0,P|144:317|78:341,1,144.000000476838,14|4,0:0|0:0,0:0:0:0:
198,247,185660,1,4,0:0:0:0:
38,136,185814,1,8,0:0:0:0:
48,137,186122,1,6,0:0:0:0:
189,57,186276,6,0,L|99:40,1,72.0000002384188,6|0,0:0|0:0,0:0:0:0:
239,151,186584,2,0,P|276:130|299:97,1,72.0000002384188,10|0,0:0|0:0,0:0:0:0:
397,30,186891,2,0,P|354:22|310:26,1,72.0000002384188,6|8,0:0|0:0,0:0:0:0:
310,234,187199,2,0,L|368:219,1,45.0000001490117,6|0,0:0|0:0,0:0:0:0:
502,256,187353,2,0,L|447:229,1,45.0000001490117,4|0,0:0|0:0,0:0:0:0:
428,104,187507,2,0,L|411:164,1,45.0000001490117,8|8,0:0|0:0,0:0:0:0:
364,335,187661,5,14,0:0:0:0:
245,144,187814,1,0,0:0:0:0:
245,144,187968,1,4,0:0:0:0:
504,170,188122,5,14,0:0:0:0:
293,247,188275,1,4,0:0:0:0:
293,247,188429,1,4,0:0:0:0:
339,0,188584,5,14,0:0:0:0:
422,206,188737,1,4,0:0:0:0:
422,206,188891,1,4,0:0:0:0:
161,185,189045,5,14,0:0:0:0:
370,113,189198,1,0,0:0:0:0:
370,113,189352,1,4,0:0:0:0:
24,127,189507,6,0,B|6:76|6:76|27:14,1,90.0000002980235,14|4,0:0|0:0,0:0:0:0:
130,365,189814,6,0,B|148:314|148:314|127:252,1,90.0000002980235,14|4,0:0|0:0,0:0:0:0:
271,136,190122,6,0,B|308:97|308:97|373:89,1,90.0000002980235,14|0,0:0|0:0,0:0:0:0:
499,202,190430,1,4,0:0:0:0:
271,136,190584,6,0,B|320:158|320:158|350:216,1,90.0000002980235,14|4,0:0|0:0,0:0:0:0:
391,371,190891,1,4,0:0:0:0:
271,136,191045,6,0,B|221:158|221:158|191:216,1,90.0000002980235,14|4,0:0|0:0,0:0:0:0:
130,365,191353,1,4,0:0:0:0:
271,136,191507,6,0,B|233:97|233:97|168:89,1,90.0000002980235,14|0,0:0|0:0,0:0:0:0:
31,197,191814,1,4,0:0:0:0:
310,319,191968,6,0,B|333:305|333:305|356:269,1,45.0000001490117,10|8,0:0|0:0,0:0:0:0:
402,122,192122,2,0,B|378:135|378:135|355:171,1,45.0000001490117,10|8,0:0|0:0,0:0:0:0:
303,335,192276,6,0,B|326:321|326:321|349:285,1,45.0000001490117,10|8,0:3|0:3,0:0:0:0:
407,107,192430,2,0,B|383:120|383:120|360:156,1,45.0000001490117,6|4,0:3|0:3,0:0:0:0:
297,352,192584,5,14,0:0:0:0:
107,226,192737,1,0,0:0:0:0:
107,226,192891,1,4,0:0:0:0:
321,77,193045,5,14,0:0:0:0:
183,254,193198,1,4,0:0:0:0:
183,254,193352,1,4,0:0:0:0:
45,29,193507,5,14,0:0:0:0:
237,140,193660,1,4,0:0:0:0:
237,140,193814,1,4,0:0:0:0:
90,356,193968,5,14,0:0:0:0:
299,284,194121,1,0,0:0:0:0:
299,284,194275,1,4,0:0:0:0:
182,57,194430,6,0,B|232:38|232:38|266:49,1,90.0000002980235,14|4,0:0|0:0,0:0:0:0:
421,159,194737,6,0,B|472:176|472:176|506:163,1,90.0000002980235,14|4,0:0|0:0,0:0:0:0:
100,232,195045,6,0,B|150:213|150:213|184:224,1,90.0000002980235,14|0,0:0|0:0,0:0:0:0:
339,334,195353,1,4,0:0:0:0:
166,93,195507,6,0,B|219:98|219:98|244:124,1,90.0000002980235,14|4,0:0|0:0,0:0:0:0:
344,286,195815,1,4,0:0:0:0:
341,7,195968,6,0,B|382:40|382:40|389:75,1,90.0000002980235,14|4,0:0|0:0,0:0:0:0:
347,249,196276,6,0,L|284:240,3,45.0000001490117,4|0|14|0,0:0|0:0|0:0|0:0,0:0:0:0:
179,199,196584,2,0,L|116:208,3,45.0000001490117,0|0|4|0,0:0|0:0|0:0|0:0,0:0:0:0:
44,242,196891,5,12,0:0:0:0:
53,198,196967,1,8,0:0:0:0:
49,153,197044,1,10,0:0:0:0:
33,111,197121,1,8,0:0:0:0:
3,68,197199,5,12,0:0:0:0:
60,92,197275,1,8,0:0:0:0:
136,86,197352,1,10,0:0:0:0:
221,57,197429,1,8,0:0:0:0:
47,371,198122,6,0,B|193:363|236:233|236:233|139:278|22:254|22:254|54:178|145:167|145:167|55:151|6:76|6:76|99:41|211:94|211:94|165:6|208:-41|208:-41|276:-24|295:65|295:65|385:-22|483:7|483:7|438:93|348:129|348:129|442:120|508:181|508:181|452:229|340:219|340:219|394:288|385:374|385:374|260:324|236:232|236:232,1,2419.20003754212,14|0,0:0|0:0,0:0:0:0:
