osu file format v14

[General]
AudioFilename: audio.mp3
AudioLeadIn: 0
PreviewTime: 131968
Countdown: 0
SampleSet: Normal
StackLeniency: 0.7
Mode: 0
LetterboxInBreaks: 0
WidescreenStoryboard: 1

[Editor]
DistanceSpacing: 1.3
BeatDivisor: 2
GridSize: 32
TimelineZoom: 1.799999

[Metadata]
Title:Inai Sekai
TitleUnicode:イナイセカイ
Artist:Primary
ArtistUnicode:Primary
Creator:Lasse
Version:Normal
Source:
Tags:yuikonnu yuiko meis clauson 8th single aster tataricus Kalibe Momochikun Logic Agent DarkVortex Chromoxx asuasu_yura Nwolf
BeatmapID:1186045
BeatmapSetID:560389

[Difficulty]
HPDrainRate:2.5
CircleSize:3
OverallDifficulty:3.5
ApproachRate:5
SliderMultiplier:0.799999999999999
SliderTickRate:1

[Events]
//Background and Video events
0,0,"bg.jpg",0,0
//Break Periods
2,54303,57823
2,104103,107743
2,132183,138463
2,178263,180703
//Storyboard Layer 0 (Background)
//Storyboard Layer 1 (Fail)
//Storyboard Layer 2 (Pass)
//Storyboard Layer 3 (Foreground)
//Storyboard Sound Samples

[TimingPoints]
463,240,4,1,1,100,1,0
1423,-100,4,1,1,79,0,0
8023,-100,4,1,1,76,0,0
8203,-100,4,2,99,5,0,0
8263,-100,4,2,1,76,0,0
9103,-111.111111111111,4,2,1,64,0,0
16783,-111.111111111111,4,2,1,65,0,0
24463,-125,4,2,1,63,0,0
32143,-111.111111111111,4,2,1,66,0,0
33823,-111.111111111111,4,2,1,68,0,0
34063,-100,4,2,1,70,0,0
34183,-100,4,2,1,72,0,0
34303,-100,4,2,1,73,0,0
34423,-100,4,2,1,74,0,0
34543,-100,4,2,1,75,0,0
34663,-100,4,2,1,76,0,0
34783,-100,4,2,1,77,0,0
34903,-100,4,2,1,78,0,0
35023,-100,4,2,99,5,0,0
35503,-100,4,2,99,50,0,0
35743,-100,4,2,99,5,0,0
35983,-90.9090909090909,4,1,1,80,0,1
37363,-90.9090909090909,4,2,99,5,0,1
37423,-90.9090909090909,4,1,1,80,0,1
41743,-90.9090909090909,4,1,1,85,0,1
42103,-90.9090909090909,4,1,1,86,0,1
42463,-90.9090909090909,4,1,1,87,0,1
42703,-90.9090909090909,4,1,1,80,0,1
43183,-90.9090909090909,4,1,1,70,0,0
43303,-90.9090909090909,4,1,1,72,0,0
43423,-90.9090909090909,4,1,1,74,0,0
43543,-90.9090909090909,4,1,1,76,0,0
43663,-90.9090909090909,4,1,1,80,0,1
45043,-90.9090909090909,4,2,99,5,0,1
45103,-90.9090909090909,4,1,1,80,0,1
49423,-90.9090909090909,4,1,1,85,0,1
50863,-90.9090909090909,4,1,1,80,0,1
51343,-100,4,1,1,79,0,0
52243,-100,4,1,1,60,0,0
52783,-100,4,1,1,50,0,0
54103,-100,4,1,1,45,0,0
59023,-125,4,2,1,53,0,0
59503,-125,4,2,1,25,0,0
59623,-125,4,2,1,53,0,0
60223,-125,4,2,1,25,0,0
60343,-125,4,2,1,53,0,0
60403,-125,4,2,1,25,0,0
60703,-125,4,2,1,53,0,0
61423,-125,4,2,1,25,0,0
61543,-125,4,2,1,53,0,0
64063,-125,4,2,1,25,0,0
64183,-125,4,2,1,53,0,0
65863,-125,4,2,2,54,0,0
65983,-125,4,2,2,55,0,0
66103,-125,4,2,2,57,0,0
66223,-125,4,2,2,59,0,0
66343,-125,4,2,1,61,0,0
66703,-111.111111111111,4,2,1,65,0,0
74383,-125,4,2,1,63,0,0
82063,-111.111111111111,4,2,1,66,0,0
83743,-111.111111111111,4,2,1,68,0,0
83983,-100,4,2,1,70,0,0
84103,-100,4,2,1,72,0,0
84223,-100,4,2,1,73,0,0
84343,-100,4,2,1,74,0,0
84463,-100,4,2,1,75,0,0
84583,-100,4,2,1,76,0,0
84703,-100,4,2,1,77,0,0
84823,-100,4,2,1,78,0,0
84943,-100,4,2,99,5,0,0
85423,-100,4,2,99,50,0,0
85663,-100,4,2,99,5,0,0
85903,-90.9090909090909,4,1,1,81,0,1
87283,-90.9090909090909,4,2,99,5,0,1
87343,-90.9090909090909,4,1,1,81,0,1
91663,-90.9090909090909,4,1,1,86,0,1
92023,-90.9090909090909,4,1,1,87,0,1
92383,-90.9090909090909,4,1,1,88,0,1
92623,-90.9090909090909,4,1,1,81,0,1
93103,-90.9090909090909,4,1,1,70,0,0
93223,-90.9090909090909,4,1,1,72,0,0
93343,-90.9090909090909,4,1,1,74,0,0
93463,-90.9090909090909,4,1,1,76,0,0
93583,-90.9090909090909,4,1,1,81,0,1
94963,-90.9090909090909,4,1,1,5,0,1
95023,-90.9090909090909,4,1,1,81,0,1
99343,-90.9090909090909,4,1,1,86,0,1
100783,-90.9090909090909,4,1,1,81,0,1
101263,-111.111111111111,4,2,1,65,0,0
101503,-111.111111111111,4,2,1,20,0,0
101623,-111.111111111111,4,2,1,50,0,0
101743,-111.111111111111,4,2,1,20,0,0
101983,-111.111111111111,4,2,1,40,0,0
102043,-111.111111111111,4,2,1,30,0,0
102463,-111.111111111111,4,2,1,20,0,0
102943,-111.111111111111,4,2,1,10,0,0
103903,-111.111111111111,4,2,1,30,0,0
108943,-111.111111111111,4,2,1,60,0,0
116143,-111.111111111111,4,2,1,35,0,0
116623,-100,4,1,1,80,0,1
116743,-100,4,1,1,60,0,1
116863,-100,4,1,1,72,0,1
124303,-100,4,1,1,72,0,1
124423,-100,4,1,1,62,0,0
124543,-100,4,1,1,74,0,1
124663,-100,4,1,3,74,0,1
124783,-100,4,1,1,75,0,1
125023,-100,4,1,1,76,0,1
125143,-100,4,1,3,76,0,1
125263,-100,4,1,1,77,0,1
125503,-100,4,1,1,78,0,1
125623,-100,4,1,3,78,0,1
125743,-100,4,1,1,79,0,1
125983,-100,4,1,1,80,0,1
126223,-100,4,1,1,82,0,1
126463,-100,4,1,1,76,0,1
126703,-100,4,1,1,74,0,1
126823,-100,4,1,1,64,0,1
126943,-100,4,1,1,73,0,1
127183,-100,4,1,1,72,0,1
128743,-100,4,1,1,62,0,1
128863,-100,4,1,1,72,0,1
129343,-100,4,1,1,50,0,1
129463,-100,4,1,1,72,0,1
129583,-100,4,1,1,72,0,1
129823,-100,4,2,1,72,0,1
130063,-111.111111111111,4,2,1,65,0,0
130303,-111.111111111111,4,2,1,20,0,0
130543,-111.111111111111,4,2,1,15,0,0
130783,-111.111111111111,4,2,1,10,0,0
131023,-111.111111111111,4,2,99,5,0,0
131983,-111.111111111111,4,2,1,40,0,0
139663,-111.111111111111,4,2,1,45,0,0
141343,-111.111111111111,4,2,1,50,0,0
141583,-111.111111111111,4,2,1,55,0,0
141823,-111.111111111111,4,2,1,61,0,0
142063,-111.111111111111,4,2,1,68,0,0
142303,-111.111111111111,4,2,1,75,0,0
143023,-111.111111111111,4,2,99,50,0,0
143263,-111.111111111111,4,2,99,5,0,0
143503,-90.9090909090909,4,1,1,82,0,1
144883,-90.9090909090909,4,2,99,5,0,1
144943,-90.9090909090909,4,1,1,82,0,1
149263,-90.9090909090909,4,1,1,87,0,1
149623,-90.9090909090909,4,1,1,88,0,1
149983,-90.9090909090909,4,1,1,89,0,1
150223,-90.9090909090909,4,1,1,82,0,1
150703,-90.9090909090909,4,1,1,70,0,0
150823,-90.9090909090909,4,1,1,72,0,0
150943,-90.9090909090909,4,1,1,74,0,0
151063,-90.9090909090909,4,1,1,76,0,0
151183,-90.9090909090909,4,1,1,82,0,1
152563,-90.9090909090909,4,2,99,5,0,1
152623,-90.9090909090909,4,1,1,82,0,1
156943,-90.9090909090909,4,1,1,87,0,1
157303,-90.9090909090909,4,1,1,88,0,1
157663,-90.9090909090909,4,1,1,89,0,1
157903,-90.9090909090909,4,1,1,82,0,0
158143,-90.9090909090909,4,1,1,84,0,0
158383,-90.9090909090909,4,1,1,86,0,0
158463,-90.9090909090909,4,1,1,87,0,0
158503,-90.9090909090909,4,1,1,87,0,0
158543,-90.9090909090909,4,1,1,89,0,0
158623,-90.9090909090909,4,1,1,90,0,0
158743,-90.9090909090909,4,1,1,70,0,0
158863,-90.9090909090909,4,1,1,84,0,1
160243,-90.9090909090909,4,2,99,5,0,1
160303,-90.9090909090909,4,1,1,84,0,1
164623,-90.9090909090909,4,1,1,89,0,1
164983,-90.9090909090909,4,1,1,90,0,1
165343,-90.9090909090909,4,1,1,91,0,1
165583,-90.9090909090909,4,1,1,85,0,1
166063,-90.9090909090909,4,1,1,70,0,0
166183,-90.9090909090909,4,1,1,72,0,0
166303,-90.9090909090909,4,1,1,74,0,0
166423,-90.9090909090909,4,1,1,76,0,0
166543,-90.9090909090909,4,1,1,84,0,1
167923,-90.9090909090909,4,2,99,5,0,1
167983,-90.9090909090909,4,1,1,84,0,1
172303,-90.9090909090909,4,1,1,89,0,1
172663,-90.9090909090909,4,1,1,90,0,1
173023,-90.9090909090909,4,1,1,91,0,1
173263,-90.9090909090909,4,1,1,85,0,1
174223,-100,4,1,1,81,0,0
175123,-100,4,1,1,60,0,0
175663,-100,4,1,1,50,0,0
178063,-100,4,1,1,60,0,0
181003,-100,4,2,99,5,0,0
181063,-100,4,1,1,81,0,0
181903,-100,4,2,99,40,0,0
182143,-100,4,2,99,5,0,0
182383,240,6,1,1,70,1,0
182383,-100,4,1,1,70,0,0
182503,-100,4,1,3,70,0,0
182863,-100,4,1,1,70,0,0
182983,-100,4,1,3,70,0,0
183823,240,4,1,3,70,1,0
184783,-100,4,1,1,70,0,0
184903,-100,4,1,3,70,0,0
185023,-100,4,1,1,70,0,0
185263,-100,4,1,1,72,0,0
185503,-100,4,1,1,70,0,0
185743,-100,4,1,1,75,0,0
188503,-100,4,1,1,70,0,0
189103,-100,4,1,2,65,0,0
189223,-100,4,1,2,60,0,0
189343,-100,4,1,2,55,0,0
189463,-100,4,1,1,20,0,0
189583,-100,4,2,99,5,0,0
189643,-100,4,2,99,5,0,0

[Colours]
Combo1 : 250,190,230
Combo2 : 130,200,230
Combo3 : 255,230,140
Combo4 : 170,245,170

[HitObjects]
42,68,1423,6,0,P|118:48|191:78,1,160,4|8,0:2|0:2,0:0:0:0:
110,182,2263,2,0,P|97:252|121:315,1,120,6|2,0:2|0:2,0:0:0:0:
182,348,2863,2,0,L|261:353,1,79.9999999999999,8|2,0:2|0:2,0:0:0:0:
338,310,3343,2,0,B|368:254|350:204|350:204|354:178|384:157,1,160,6|8,0:2|0:2,0:0:0:0:
481,83,4183,2,0,P|420:88|361:68,1,120,6|10,0:2|0:2,0:0:0:0:
286,29,4783,1,8,0:2:0:0:
235,197,5263,6,0,B|214:236|226:281|242:266|252:316|224:349,1,160,6|8,0:2|0:2,0:0:0:0:
92,349,6103,2,0,P|76:291|95:235,1,120,6|2,0:2|0:2,0:0:0:0:
147,164,6703,2,0,L|149:68,1,79.9999999999999,8|2,0:2|0:2,0:0:0:0:
222,36,7183,2,0,B|244:29|269:25|269:25|296:40|296:40|327:32|376:41,1,160,6|8,0:2|0:2,0:0:0:0:
456,146,8023,2,0,L|461:274,1,120,6|8,0:2|0:3,0:0:0:0:
427,347,8623,1,8,0:2:0:0:
324,219,9103,6,0,B|261:186|261:186|191:218,1,143.999995605469,8|8,0:2|0:2,0:0:0:0:
135,324,9943,2,0,B|98:342|98:342|24:332,1,107.999996704102,8|0,0:2|1:2,0:0:0:0:
3,255,10543,1,8,0:0:0:0:
114,132,11023,2,0,B|145:90|133:45|133:45|147:34|184:40,1,143.999995605469,2|8,1:2|0:2,0:0:0:0:
341,89,11983,2,0,B|389:103|434:77|434:77|480:87,1,143.999995605469,2|8,1:2|0:0,0:0:0:0:
510,165,12703,1,2,0:2:0:0:
479,242,12943,6,0,B|432:252|432:252|387:226|339:240,1,143.999995605469,6|8,1:2|0:2,0:0:0:0:
251,327,13783,2,0,P|164:353|74:303,1,179.999994506836,8|8,0:2|0:0,0:0:0:0:
30,256,14623,1,0,1:2:0:0:
55,177,14863,2,0,L|44:91,2,71.9999978027344,2|2|10,1:2|0:2|0:2,0:0:0:0:
129,212,15583,2,0,P|159:216|219:205,1,71.9999978027344,2|0,0:2|0:2,0:0:0:0:
261,155,16063,1,2,0:2:0:0:
339,179,16303,1,14,0:2:0:0:
483,98,16783,6,0,B|449:77|397:83|397:83|336:45,1,143.999995605469,6|8,0:2|0:2,0:0:0:0:
226,40,17623,2,0,B|179:38|179:38|159:32|159:32|109:33,1,107.999996704102,8|0,0:2|1:2,0:0:0:0:
54,85,18223,1,8,0:0:0:0:
190,179,18703,2,0,B|218:188|247:176|247:176|268:183|268:183|300:174|331:180,1,143.999995605469,2|8,1:2|0:2,0:0:0:0:
413,323,19663,2,0,B|385:332|356:320|356:320|335:327|335:327|303:318|271:324,1,143.999995605469,2|8,0:0|0:0,0:0:0:0:
199,363,20383,1,2,0:2:0:0:
128,319,20623,6,0,B|106:288|106:288|89:241|129:179,1,143.999995605469,6|8,1:2|0:2,0:0:0:0:
248,173,21463,2,0,B|337:187|337:187|378:172|378:102,1,179.999994506836,8|8,0:2|0:0,0:0:0:0:
334,41,22303,1,2,0:2:0:0:
255,66,22543,2,0,B|183:77|188:37|113:53,1,143.999995605469,2|10,1:2|0:2,0:0:0:0:
79,127,23263,2,0,L|76:206,1,71.9999978027344,2|0,0:2|0:0,0:0:0:0:
40,272,23743,2,0,L|37:351,1,71.9999978027344,4|8,0:3|0:3,0:0:0:0:
163,367,24463,6,0,B|199:374|226:355|226:355|273:365,1,95.9999999999999,6|0,0:2|1:2,0:0:0:0:
355,325,25183,2,0,P|401:249|339:184,1,192,0|8,1:2|0:2,0:0:0:0:
202,217,26383,6,0,B|172:210|172:210|145:229|109:222,1,95.9999999999999,2|0,1:2|1:2,0:0:0:0:
35,147,27103,2,0,B|17:100|45:37|45:37|87:17|123:46,1,192,2|8,1:2|0:2,0:0:0:0:
253,89,28303,6,0,L|357:84,1,95.9999999999999,4|0,1:2|1:2,0:0:0:0:
427,155,29023,2,0,B|432:189|432:189|422:211|422:211|435:243|416:306,1,128,2|2,1:2|0:2,0:0:0:0:
380,351,29743,1,10,0:2:0:0:
227,284,30223,6,0,B|193:280|193:280|147:301|102:279,1,128,4|8,1:2|0:2,0:0:0:0:
49,214,30943,2,0,L|41:90,2,95.9999999999999,2|8|8,1:2|0:2|0:2,0:0:0:0:
210,119,32143,6,0,L|218:-5,2,107.999996704102,6|0|8,1:2|1:2|0:2,0:0:0:0:
238,208,33103,2,0,P|298:241|360:211,1,143.999995605469,0|8,1:2|0:2,0:0:0:0:
423,142,33823,1,2,1:2:0:0:
493,206,34063,6,0,L|491:290,1,79.9999999999999,14|8,1:2|1:2,0:0:0:0:
432,352,34543,2,0,B|410:344|389:351|389:351|377:346|377:346|347:358|315:348,1,120,10|12,1:2|0:2,0:0:0:0:
107,275,35503,1,0,0:2:0:0:
170,112,35983,6,0,B|171:43|171:43|146:14|105:17,2,132.00000402832,6|0|8,0:2|0:2|0:2,0:0:0:0:
232,276,37183,2,0,P|274:286|317:277,1,88.0000026855468,8|2,0:2|0:2,0:0:0:0:
390,228,37663,1,8,0:2:0:0:
463,179,37903,2,0,B|466:136|466:136|445:98|464:45,2,132.00000402832,2|0|8,0:2|0:2|0:2,0:0:0:0:
423,350,39103,5,8,0:2:0:0:
347,304,39343,2,0,P|305:290|262:294,1,88.0000026855468,2|8,0:2|0:2,0:0:0:0:
183,335,39823,2,0,P|118:344|57:320,2,132.00000402832,2|0|8,0:2|0:2|0:2,0:0:0:0:
251,172,41023,1,8,0:2:0:0:
320,118,41263,2,0,P|362:107|405:116,1,88.0000026855468,2|8,0:2|0:2,0:0:0:0:
475,170,41743,5,14,0:1:0:0:
484,302,42103,1,6,0:1:0:0:
364,242,42463,2,0,P|281:230|229:296,1,176.000005371094,14|12,0:1|0:2,0:0:0:0:
155,344,43183,2,0,L|53:332,1,88.0000026855468,10|8,0:2|0:2,0:0:0:0:
11,265,43663,6,0,B|1:199|1:199|21:137,2,132.00000402832,6|0|8,0:2|0:2|0:2,0:0:0:0:
182,224,44863,2,0,B|206:189|206:189|207:138,1,88.0000026855468,8|2,0:2|0:2,0:0:0:0:
232,58,45343,1,8,0:2:0:0:
321,55,45583,2,0,B|376:62|376:62|410:50|410:50|460:47,2,132.00000402832,2|0|8,0:2|0:2|0:2,0:0:0:0:
147,21,46783,5,8,0:2:0:0:
79,77,47023,2,0,L|73:168,1,88.0000026855468,2|8,0:2|0:2,0:0:0:0:
152,204,47503,2,0,B|207:197|207:197|241:209|241:209|291:212,2,132.00000402832,2|0|8,0:2|0:2|0:2,0:0:0:0:
7,304,48703,1,8,0:2:0:0:
75,359,48943,2,0,B|99:367|99:367|161:366,1,88.0000026855468,2|8,0:2|0:2,0:0:0:0:
230,311,49423,5,14,0:1:0:0:
273,186,49783,1,14,0:1:0:0:
360,285,50143,2,0,B|399:321|437:328|437:328|464:289|457:246,1,176.000005371094,14|14,0:1|0:3,0:0:0:0:
438,159,50863,1,10,0:2:0:0:
301,74,51343,5,6,0:2:0:0:
256,192,51583,12,12,54103,0:2:0:0:
137,81,59023,6,0,P|253:33|376:59,2,256,0|2|2,1:2|0:2|0:2,0:0:0:0:
278,212,61663,6,0,P|389:222|515:351,2,288,2|0|2,0:2|0:2|0:2,0:0:0:0:
35,293,64783,6,0,P|16:233|34:162,1,128,2|2,0:2|0:2,0:0:0:0:
100,127,65503,2,0,P|136:129|170:121,1,63.9999999999999,2|0,0:2|1:2,0:0:0:0:
237,84,65983,2,0,P|268:78|300:80,1,63.9999999999999,8|8,0:2|0:2,0:0:0:0:
411,203,66703,6,0,B|338:213|350:176|270:186,1,143.999995605469,6|8,0:2|0:2,0:0:0:0:
293,308,67543,2,0,P|342:328|395:326,1,107.999996704102,8|0,0:2|1:2,0:0:0:0:
463,278,68143,1,8,0:0:0:0:
498,116,68623,2,0,B|473:74|473:74|428:45|381:54,1,143.999995605469,2|8,1:2|0:2,0:0:0:0:
221,93,69583,2,0,B|189:95|189:95|168:89|168:89|141:96|141:96|113:81|75:89,1,143.999995605469,2|8,0:0|0:0,0:0:0:0:
31,155,70303,1,2,0:2:0:0:
76,224,70543,6,0,B|91:264|91:264|60:314|77:361,1,143.999995605469,6|8,1:2|0:2,0:0:0:0:
197,331,71383,2,0,B|311:301|311:301|390:326,1,179.999994506836,8|8,0:2|0:0,0:0:0:0:
443,359,72223,1,2,0:2:0:0:
482,286,72463,2,0,B|495:240|495:240|492:176|459:143,1,143.999995605469,2|10,1:2|0:2,0:0:0:0:
396,104,73183,2,0,L|318:92,1,71.9999978027344,2|0,0:2|0:0,0:0:0:0:
257,142,73663,2,0,L|179:154,1,71.9999978027344,4|8,0:3|0:3,0:0:0:0:
63,223,74383,6,0,P|45:178|48:131,1,95.9999999999999,6|0,0:2|1:2,0:0:0:0:
86,32,75103,2,0,B|125:21|173:47|173:47|220:59|274:40,1,192,0|8,1:2|0:2,0:0:0:0:
412,22,76303,6,0,B|406:51|406:51|416:135,1,95.9999999999999,2|0,1:2|1:2,0:0:0:0:
440,219,77023,2,0,P|438:265|327:234,1,192,2|8,1:2|0:2,0:0:0:0:
232,146,78223,6,0,P|187:132|140:136,1,95.9999999999999,4|0,1:2|1:2,0:0:0:0:
55,201,78943,2,0,B|27:243|27:243|17:285|33:321,1,128,2|2,1:2|0:2,0:0:0:0:
104,360,79663,1,10,0:2:0:0:
263,311,80143,6,0,B|308:305|308:305|344:317|344:317|389:313,1,128,4|8,1:2|0:2,0:0:0:0:
445,253,80863,2,0,L|453:129,2,95.9999999999999,2|8|8,1:2|0:2|0:2,0:0:0:0:
304,129,82063,6,0,L|296:5,2,107.999996704102,6|0|8,1:2|1:2|0:2,0:0:0:0:
282,220,83023,2,0,B|216:252|216:252|154:216,1,143.999995605469,0|8,1:2|0:2,0:0:0:0:
78,162,83743,1,2,1:2:0:0:
2,218,83983,6,0,L|-4:308,1,79.9999999999999,14|8,1:2|1:2,0:0:0:0:
70,345,84463,2,0,B|99:345|118:358|118:358|132:349|132:349|155:359|183:356,1,120,10|12,1:2|0:2,0:0:0:0:
403,344,85423,1,0,0:2:0:0:
463,178,85903,6,0,B|475:138|475:138|464:98|464:98|477:48,2,132.00000402832,6|0|8,0:2|0:2|0:2,0:0:0:0:
325,288,87103,2,0,B|280:298|280:298|239:287,1,88.0000026855468,8|2,0:2|0:2,0:0:0:0:
158,253,87583,1,8,0:2:0:0:
76,218,87823,2,0,B|61:152|93:157|77:87,2,132.00000402832,2|0|8,0:2|0:2|0:2,0:0:0:0:
178,360,89023,5,8,0:2:0:0:
253,314,89263,2,0,B|266:274|266:274|262:228,1,88.0000026855468,2|8,0:2|0:2,0:0:0:0:
214,154,89743,2,0,B|206:68|206:68|229:28,2,132.00000402832,2|0|8,0:2|0:2|0:2,0:0:0:0:
355,259,90943,1,8,0:2:0:0:
434,222,91183,2,0,B|447:182|447:182|443:136,1,88.0000026855468,2|8,0:2|0:2,0:0:0:0:
389,66,91663,5,14,0:1:0:0:
257,52,92023,1,6,0:1:0:0:
126,38,92383,2,0,B|84:51|84:51|32:109|59:173,1,176.000005371094,14|12,0:1|0:2,0:0:0:0:
138,213,93103,2,0,L|228:223,1,88.0000026855468,10|8,0:2|0:2,0:0:0:0:
307,190,93583,6,0,B|360:182|360:182|389:195|389:195|448:196,2,132.00000402832,6|0|8,0:2|0:2|0:2,0:0:0:0:
180,312,94783,2,0,L|92:302,1,88.0000026855468,8|2,0:2|0:2,0:0:0:0:
23,248,95263,1,8,0:2:0:0:
60,163,95503,2,0,B|66:120|66:120|38:84|49:36,2,132.00000402832,2|0|8,0:2|0:2|0:2,0:0:0:0:
9,332,96703,5,8,0:2:0:0:
91,302,96943,2,0,P|131:292|183:302,1,88.0000026855468,2|8,0:2|0:2,0:0:0:0:
253,342,97423,2,0,P|317:349|377:323,2,132.00000402832,2|0|8,0:2|0:2|0:2,0:0:0:0:
102,250,98623,1,8,0:2:0:0:
84,163,98863,2,0,B|78:124|78:124|90:77,1,88.0000026855468,2|8,0:2|0:2,0:0:0:0:
171,42,99343,5,14,0:1:0:0:
302,47,99703,1,14,0:1:0:0:
433,52,100063,2,0,B|459:88|459:88|443:127|443:127|457:184,2,132.00000402832,14|12|10,0:1|0:2|0:2,0:0:0:0:
327,150,101263,5,2,0:2:0:0:
256,192,101503,12,2,103903,0:0:0:0:
170,57,108943,6,0,P|120:42|68:54,2,107.999996704102,6|2|2,0:2|0:2|0:2,0:0:0:0:
231,114,109903,1,8,0:2:0:0:
383,49,110383,2,0,P|418:42|453:49,1,71.9999978027344,2|2,0:2|0:2,0:0:0:0:
419,125,110863,2,0,B|400:169|400:169|395:234,2,107.999996704102,2|2|2,0:2|0:2|0:2,0:0:0:0:
502,117,111823,1,8,0:2:0:0:
510,282,112303,1,12,0:2:0:0:
345,300,112783,6,0,B|297:298|297:298|271:287|271:287|225:298,2,107.999996704102,2|2|2,0:2|0:2|0:2,0:0:0:0:
400,361,113743,1,8,0:2:0:0:
474,213,114223,2,0,B|485:177|485:177|477:129,1,71.9999978027344,2|2,0:2|0:2,0:0:0:0:
430,75,114703,2,0,B|377:54|377:54|317:72,2,107.999996704102,2|2|2,0:2|0:2|0:2,0:0:0:0:
68,326,116623,5,4,0:2:0:0:
112,250,116863,2,0,B|121:210|121:210|103:173|114:132,1,120,2|10,0:1|0:2,0:0:0:0:
220,55,117583,2,0,B|260:67|260:67|341:53,1,120,2|2,1:2|0:2,0:0:0:0:
466,25,118303,1,2,0:2:0:0:
445,110,118543,6,0,B|428:155|428:155|449:280,1,160,6|10,0:2|0:2,0:0:0:0:
469,350,119263,1,2,0:1:0:0:
293,353,119743,2,0,L|192:348,2,79.9999999999999,2|8|2,0:2|0:2|0:2,0:0:0:0:
339,278,120463,5,4,0:2:0:0:
362,193,120703,2,0,B|369:130|369:130|342:78,1,120,2|2,0:1|0:2,0:0:0:0:
217,39,121423,2,0,L|74:26,2,120,2|2|2,0:1|0:2|0:2,0:0:0:0:
250,120,122383,1,6,0:2:0:0:
185,283,122863,2,0,B|144:298|144:298|45:295,1,120,10|6,0:2|0:2,0:0:0:0:
20,172,123583,1,12,0:1:0:0:
77,105,123823,2,0,B|117:100|117:100|162:102,1,79.9999999999999,12|12,0:2|0:1,0:0:0:0:
240,128,124303,6,0,L|319:124,1,79.9999999999999,4|10,0:2|0:1,0:0:0:0:
397,82,124783,2,0,B|434:72|434:72|477:75|477:75|520:54,2,120,10|14|2,0:1|0:2|0:1,0:0:0:0:
395,170,125743,2,0,L|398:249,1,79.9999999999999,10|10,0:1|0:1,0:0:0:0:
342,317,126223,2,0,L|262:320,1,79.9999999999999,6|2,0:1|0:1,0:0:0:0:
186,370,126703,1,10,0:1:0:0:
104,329,126943,6,0,B|82:286|82:286|64:234|110:154,1,160,2|8,0:1|0:2,0:0:0:0:
189,28,127903,1,2,0:1:0:0:
274,48,128143,2,0,B|315:49|315:49|344:43|344:43|416:47,2,120,6|2|2,0:0|0:2|0:1,0:0:0:0:
253,132,129103,2,0,B|248:154|254:170|254:170|245:187|245:187|277:229|253:283,1,160,2|8,0:1|0:2,0:0:0:0:
111,355,130063,6,0,B|112:317|88:295|88:295|93:272|93:272|39:261|19:206|19:206|29:152|74:137,1,287.999991210937,6|0,0:2|0:2,0:0:0:0:
354,68,131983,5,4,1:2:0:0:
354,68,139663,5,4,1:2:0:0:
158,316,141343,6,0,L|85:312,2,71.9999978027344,2|4|8,0:2|0:3|0:3,0:0:0:0:
239,344,142063,1,2,0:3:0:0:
315,305,142303,1,8,0:2:0:0:
256,74,143023,1,0,0:2:0:0:
125,192,143503,6,0,B|42:206|42:206|-10:182,2,132.00000402832,6|0|8,0:2|0:2|0:2,0:0:0:0:
297,156,144703,2,0,B|351:149|351:149|403:162,1,88.0000026855468,8|2,0:2|0:2,0:0:0:0:
451,213,145183,1,8,0:2:0:0:
395,280,145423,2,0,B|353:296|353:296|316:288|316:288|262:290,2,132.00000402832,2|0|8,0:2|0:2|0:2,0:0:0:0:
465,118,146623,5,8,0:2:0:0:
393,67,146863,2,0,B|351:57|351:57|303:62,1,88.0000026855468,2|8,0:2|0:2,0:0:0:0:
226,98,147343,2,0,B|174:87|174:87|137:62|133:17,2,132.00000402832,2|0|8,0:2|0:2|0:2,0:0:0:0:
381,181,148543,1,8,0:2:0:0:
407,265,148783,2,0,B|411:309|411:309|401:351,1,88.0000026855468,2|8,0:2|0:2,0:0:0:0:
321,315,149263,5,14,0:1:0:0:
197,361,149623,1,6,0:1:0:0:
113,256,149983,2,0,B|86:229|86:229|56:155|109:98,1,176.000005371094,14|12,0:1|0:2,0:0:0:0:
178,49,150703,2,0,L|279:43,1,88.0000026855468,10|8,0:2|0:2,0:0:0:0:
351,65,151183,6,0,B|431:71|431:71|476:45,2,132.00000402832,6|0|8,0:2|0:2|0:2,0:0:0:0:
230,193,152383,2,0,B|218:239|218:239|225:278,1,88.0000026855468,8|2,0:2|0:2,0:0:0:0:
298,327,152863,1,8,0:2:0:0:
371,279,153103,2,0,B|384:233|384:233|370:192|370:192|369:129,2,132.00000402832,2|0|8,0:2|0:2|0:2,0:0:0:0:
217,366,154303,5,8,0:2:0:0:
143,317,154543,2,0,P|130:274|143:227,1,88.0000026855468,2|8,0:2|0:2,0:0:0:0:
183,157,155023,2,0,B|190:102|190:102|166:73|173:29,2,132.00000402832,2|0|8,0:2|0:2|0:2,0:0:0:0:
45,267,156223,1,8,0:2:0:0:
12,185,156463,2,0,P|2:142|15:100,1,88.0000026855468,2|8,0:2|0:2,0:0:0:0:
81,41,156943,5,14,0:1:0:0:
187,118,157303,1,14,0:1:0:0:
293,39,157663,2,0,B|346:24|346:24|407:30|446:83,1,176.000005371094,14|8,0:1|2:2,0:0:0:0:
465,169,158383,2,0,L|464:287,1,88.0000026855468,8|14,2:3|0:2,0:0:0:0:
410,327,158863,6,0,B|327:341|327:341|275:317,2,132.00000402832,6|0|8,0:2|0:2|0:2,0:0:0:0:
327,170,160063,2,0,B|282:158|282:158|231:164,1,88.0000026855468,8|2,0:2|0:2,0:0:0:0:
165,209,160543,1,8,0:2:0:0:
87,166,160783,2,0,B|74:127|74:127|89:93|89:93|89:29,2,132.00000402832,2|0|8,0:2|0:2|0:2,0:0:0:0:
143,332,161983,5,8,0:2:0:0:
219,288,162223,2,0,B|264:276|264:276|305:280,1,88.0000026855468,2|8,0:2|0:2,0:0:0:0:
382,323,162703,2,0,B|443:346|443:346|502:315,2,132.00000402832,2|0|8,0:2|0:2|0:2,0:0:0:0:
266,189,163903,1,8,0:2:0:0:
322,121,164143,2,0,B|329:75|329:75|316:35,1,88.0000026855468,2|8,0:2|0:2,0:0:0:0:
229,17,164623,5,14,0:1:0:0:
97,31,164983,1,6,0:1:0:0:
174,141,165343,2,0,B|175:174|175:174|165:200|165:200|169:228|169:228|144:275|165:325,1,176.000005371094,14|12,0:1|0:2,0:0:0:0:
240,351,166063,2,0,L|343:359,1,88.0000026855468,10|8,0:2|0:2,0:0:0:0:
404,315,166543,6,0,B|419:253|419:253|405:177,2,132.00000402832,6|0|8,0:2|0:2|0:2,0:0:0:0:
252,224,167743,2,0,B|245:181|245:181|252:137,1,88.0000026855468,8|2,0:2|0:2,0:0:0:0:
288,56,168223,1,8,0:2:0:0:
377,66,168463,2,0,B|431:72|431:72|462:67|462:67|509:89,2,132.00000402832,2|0|8,0:2|0:2|0:2,0:0:0:0:
207,18,169663,5,8,0:2:0:0:
133,66,169903,2,0,L|127:157,1,88.0000026855468,2|8,0:2|0:2,0:0:0:0:
151,238,170383,2,0,B|156:286|156:286|142:315|142:315|136:368,2,132.00000402832,6|0|8,0:2|0:2|0:2,0:0:0:0:
43,98,171583,1,12,0:2:0:0:
22,183,171823,2,0,L|16:274,1,88.0000026855468,8|12,0:2|0:2,0:0:0:0:
49,352,172303,5,14,0:1:0:0:
180,349,172663,1,14,0:1:0:0:
311,346,173023,2,0,B|349:317|349:317|371:243|332:196,1,176.000005371094,14|8,0:1|0:2,0:0:0:0:
249,165,173743,1,10,0:2:0:0:
117,256,174223,5,6,0:2:0:0:
256,192,174463,12,6,178063,0:2:0:0:
46,56,181903,5,0,0:2:0:0:
128,193,182383,6,0,B|138:234|138:234|109:297|135:362,1,160,6|10,0:1|0:2,0:0:0:0:
298,299,183343,2,0,P|337:291|377:291,1,79.9999999999999,0|8,0:0|0:2,0:0:0:0:
464,279,183823,2,0,P|502:210|458:134,1,160,10|0,0:1|0:0,0:0:0:0:
332,31,184783,1,12,0:2:0:0:
256,189,185263,1,14,0:2:0:0:
180,31,185743,6,0,B|129:20|129:20|65:16|19:71,1,160,6|10,0:2|0:1,0:0:0:0:
69,184,186583,2,0,L|74:310,1,120,6|0,0:2|0:0,0:0:0:0:
141,359,187183,2,0,L|220:355,1,79.9999999999999,10|0,0:1|0:2,0:0:0:0:
275,287,187663,2,0,B|282:255|282:255|273:241|273:241|281:210|281:210|256:178|270:123,1,160,6|10,0:2|0:1,0:0:0:0:
360,40,188503,2,0,P|415:27|476:45,1,120,6|10,0:2|0:1,0:0:0:0:
500,128,189103,2,0,L|500:208,1,80.0000005960464,8|10,0:2|0:2,0:0:0:0:
