osu file format v14

[General]
AudioFilename: audio.mp3
AudioLeadIn: 0
PreviewTime: 131968
Countdown: 0
SampleSet: Normal
StackLeniency: 0.7
Mode: 0
LetterboxInBreaks: 0
WidescreenStoryboard: 1

[Editor]
DistanceSpacing: 1.3
BeatDivisor: 4
GridSize: 32
TimelineZoom: 1.499999

[Metadata]
Title:Inai Sekai
TitleUnicode:イナイセカイ
Artist:Primary
ArtistUnicode:Primary
Creator:Lasse
Version:Advanced
Source:
Tags:yuikonnu yuiko meis clauson 8th single aster tataricus Kalibe Momochikun Logic Agent DarkVortex Chromoxx asuasu_yura Nwolf
BeatmapID:1188839
BeatmapSetID:560389

[Difficulty]
HPDrainRate:4
CircleSize:3.4
OverallDifficulty:5
ApproachRate:7
SliderMultiplier:0.959999999999999
SliderTickRate:1

[Events]
//Background and Video events
0,0,"bg.jpg",0,0
//Break Periods
2,54303,58123
2,104103,108043
2,132183,138763
2,178263,181003
//Storyboard Layer 0 (Background)
//Storyboard Layer 1 (Fail)
//Storyboard Layer 2 (Pass)
//Storyboard Layer 3 (Foreground)
//Storyboard Sound Samples

[TimingPoints]
463,240,4,1,1,100,1,0
1423,-100,4,1,1,79,0,0
8023,-100,4,1,1,76,0,0
8203,-100,4,2,99,5,0,0
8263,-100,4,2,1,76,0,0
9103,-117.647058823529,4,2,1,64,0,0
16783,-117.647058823529,4,2,1,65,0,0
24463,-142.857142857143,4,2,1,63,0,0
32143,-117.647058823529,4,2,1,66,0,0
33823,-117.647058823529,4,2,1,68,0,0
34063,-100,4,2,1,70,0,0
34183,-100,4,2,1,72,0,0
34303,-100,4,2,1,73,0,0
34423,-100,4,2,1,74,0,0
34543,-100,4,2,1,75,0,0
34663,-100,4,2,1,76,0,0
34783,-100,4,2,1,77,0,0
34903,-100,4,2,1,78,0,0
35023,-100,4,2,99,5,0,0
35503,-117.647058823529,4,2,99,50,0,0
35743,-117.647058823529,4,2,99,5,0,0
35983,-90.9090909090909,4,1,1,80,0,1
37363,-90.9090909090909,4,2,99,5,0,1
37423,-90.9090909090909,4,1,1,80,0,1
41743,-90.9090909090909,4,1,1,85,0,1
42103,-90.9090909090909,4,1,1,86,0,1
42463,-90.9090909090909,4,1,1,87,0,1
42703,-90.9090909090909,4,1,1,80,0,1
43183,-90.9090909090909,4,1,1,70,0,0
43303,-90.9090909090909,4,1,1,72,0,0
43423,-90.9090909090909,4,1,1,74,0,0
43543,-90.9090909090909,4,1,1,76,0,0
43663,-90.9090909090909,4,1,1,80,0,1
45043,-90.9090909090909,4,2,99,5,0,1
45103,-90.9090909090909,4,1,1,80,0,1
49423,-90.9090909090909,4,1,1,85,0,1
50863,-90.9090909090909,4,1,1,80,0,1
51343,-100,4,1,1,79,0,0
52243,-100,4,1,1,60,0,0
52783,-100,4,1,1,50,0,0
54103,-100,4,1,1,45,0,0
59023,-142.857142857143,4,2,1,53,0,0
59503,-142.857142857143,4,2,1,25,0,0
59623,-142.857142857143,4,2,1,53,0,0
60223,-142.857142857143,4,2,1,25,0,0
60343,-142.857142857143,4,2,1,53,0,0
60403,-142.857142857143,4,2,1,25,0,0
60703,-142.857142857143,4,2,1,53,0,0
61423,-142.857142857143,4,2,1,25,0,0
61543,-142.857142857143,4,2,1,53,0,0
64063,-142.857142857143,4,2,1,25,0,0
64183,-142.857142857143,4,2,1,53,0,0
64783,-129.87012987013,4,2,1,53,0,0
65863,-129.87012987013,4,2,2,54,0,0
65983,-129.87012987013,4,2,2,55,0,0
66103,-129.87012987013,4,2,2,57,0,0
66223,-129.87012987013,4,2,2,59,0,0
66343,-129.87012987013,4,2,1,61,0,0
66703,-117.647058823529,4,2,1,65,0,0
74383,-142.857142857143,4,2,1,63,0,0
82063,-117.647058823529,4,2,1,66,0,0
83743,-117.647058823529,4,2,1,68,0,0
83983,-100,4,2,1,70,0,0
84103,-100,4,2,1,72,0,0
84223,-100,4,2,1,73,0,0
84343,-100,4,2,1,74,0,0
84463,-100,4,2,1,75,0,0
84583,-100,4,2,1,76,0,0
84703,-100,4,2,1,77,0,0
84823,-100,4,2,1,78,0,0
84943,-100,4,2,99,5,0,0
85423,-117.647058823529,4,2,99,50,0,0
85663,-117.647058823529,4,2,99,5,0,0
85903,-90.9090909090909,4,1,1,81,0,1
87283,-90.9090909090909,4,2,99,5,0,1
87343,-90.9090909090909,4,1,1,81,0,1
91663,-90.9090909090909,4,1,1,86,0,1
92023,-90.9090909090909,4,1,1,87,0,1
92383,-90.9090909090909,4,1,1,88,0,1
92623,-90.9090909090909,4,1,1,81,0,1
93103,-90.9090909090909,4,1,1,70,0,0
93223,-90.9090909090909,4,1,1,72,0,0
93343,-90.9090909090909,4,1,1,74,0,0
93463,-90.9090909090909,4,1,1,76,0,0
93583,-90.9090909090909,4,1,1,81,0,1
94963,-90.9090909090909,4,1,1,5,0,1
95023,-90.9090909090909,4,1,1,81,0,1
99343,-90.9090909090909,4,1,1,86,0,1
100783,-90.9090909090909,4,1,1,81,0,1
101263,-133.333333333333,4,2,1,65,0,0
101503,-133.333333333333,4,2,1,20,0,0
101623,-133.333333333333,4,2,1,50,0,0
101743,-133.333333333333,4,2,1,20,0,0
101983,-133.333333333333,4,2,1,40,0,0
102043,-133.333333333333,4,2,1,30,0,0
102463,-133.333333333333,4,2,1,20,0,0
102943,-133.333333333333,4,2,1,10,0,0
103903,-133.333333333333,4,2,1,30,0,0
108943,-133.333333333333,4,2,1,60,0,0
116143,-133.333333333333,4,2,1,35,0,0
116623,-100,4,1,1,80,0,1
116743,-100,4,1,1,60,0,1
116863,-100,4,1,1,72,0,1
124303,-100,4,1,1,72,0,1
124423,-100,4,1,1,62,0,0
124543,-100,4,1,1,74,0,1
124663,-100,4,1,3,74,0,1
124783,-100,4,1,1,75,0,1
125023,-100,4,1,1,76,0,1
125143,-100,4,1,3,76,0,1
125263,-100,4,1,1,77,0,1
125503,-100,4,1,1,78,0,1
125623,-100,4,1,3,78,0,1
125743,-100,4,1,1,79,0,1
125983,-100,4,1,1,80,0,1
126223,-100,4,1,1,82,0,1
126463,-100,4,1,1,76,0,1
126703,-100,4,1,1,74,0,1
126823,-100,4,1,1,64,0,1
126943,-100,4,1,1,73,0,1
127183,-100,4,1,1,72,0,1
128743,-100,4,1,1,62,0,1
128863,-100,4,1,1,72,0,1
129343,-100,4,1,1,50,0,1
129463,-100,4,1,1,72,0,1
129583,-100,4,1,1,72,0,1
129823,-100,4,2,1,72,0,1
130063,-133.333333333333,4,2,1,65,0,0
130303,-133.333333333333,4,2,1,20,0,0
130543,-133.333333333333,4,2,1,15,0,0
130783,-133.333333333333,4,2,1,10,0,0
131023,-133.333333333333,4,2,99,5,0,0
131983,-133.333333333333,4,2,1,40,0,0
139663,-133.333333333333,4,2,1,45,0,0
141343,-133.333333333333,4,2,1,50,0,0
141583,-105.263157894737,4,2,1,55,0,0
141823,-105.263157894737,4,2,1,61,0,0
142063,-105.263157894737,4,2,1,68,0,0
142303,-105.263157894737,4,2,1,75,0,0
143023,-117.64705882353,4,2,99,50,0,0
143263,-117.64705882353,4,2,99,5,0,0
143503,-90.9090909090909,4,1,1,82,0,1
144883,-90.9090909090909,4,2,99,5,0,1
144943,-90.9090909090909,4,1,1,82,0,1
149263,-90.9090909090909,4,1,1,87,0,1
149623,-90.9090909090909,4,1,1,88,0,1
149983,-90.9090909090909,4,1,1,89,0,1
150223,-90.9090909090909,4,1,1,82,0,1
150703,-90.9090909090909,4,1,1,70,0,0
150823,-90.9090909090909,4,1,1,72,0,0
150943,-90.9090909090909,4,1,1,74,0,0
151063,-90.9090909090909,4,1,1,76,0,0
151183,-90.9090909090909,4,1,1,82,0,1
152563,-90.9090909090909,4,2,99,5,0,1
152623,-90.9090909090909,4,1,1,82,0,1
156943,-90.9090909090909,4,1,1,87,0,1
157303,-90.9090909090909,4,1,1,88,0,1
157663,-90.9090909090909,4,1,1,89,0,1
157903,-90.9090909090909,4,1,1,82,0,0
158143,-90.9090909090909,4,1,1,84,0,0
158383,-90.9090909090909,4,1,1,86,0,0
158463,-90.9090909090909,4,1,1,87,0,0
158503,-90.9090909090909,4,1,1,87,0,0
158543,-90.9090909090909,4,1,1,89,0,0
158623,-90.9090909090909,4,1,1,90,0,0
158743,-90.9090909090909,4,1,1,70,0,0
158863,-90.9090909090909,4,1,1,84,0,1
160243,-90.9090909090909,4,2,99,5,0,1
160303,-90.9090909090909,4,1,1,84,0,1
164623,-90.9090909090909,4,1,1,89,0,1
164983,-90.9090909090909,4,1,1,90,0,1
165343,-90.9090909090909,4,1,1,91,0,1
165583,-90.9090909090909,4,1,1,85,0,1
166063,-90.9090909090909,4,1,1,70,0,0
166183,-90.9090909090909,4,1,1,72,0,0
166303,-90.9090909090909,4,1,1,74,0,0
166423,-90.9090909090909,4,1,1,76,0,0
166543,-90.9090909090909,4,1,1,84,0,1
167923,-90.9090909090909,4,2,99,5,0,1
167983,-90.9090909090909,4,1,1,84,0,1
172303,-90.9090909090909,4,1,1,89,0,1
172663,-90.9090909090909,4,1,1,90,0,1
173023,-90.9090909090909,4,1,1,91,0,1
173263,-90.9090909090909,4,1,1,85,0,1
174223,-100,4,1,1,81,0,0
175123,-100,4,1,1,60,0,0
175663,-100,4,1,1,50,0,0
178063,-100,4,1,1,60,0,0
181003,-100,4,2,99,5,0,0
181063,-100,4,1,1,81,0,0
181903,-100,4,2,99,40,0,0
182143,-100,4,2,99,5,0,0
182383,240,6,1,1,70,1,0
182383,-100,4,1,1,70,0,0
182503,-100,4,1,3,70,0,0
182863,-100,4,1,1,70,0,0
182983,-100,4,1,3,70,0,0
183823,240,4,1,3,70,1,0
184783,-100,4,1,1,70,0,0
184903,-100,4,1,3,70,0,0
185023,-100,4,1,1,70,0,0
185263,-100,4,1,1,72,0,0
185503,-100,4,1,1,70,0,0
185743,-100,4,1,1,75,0,0
188503,-100,4,1,1,70,0,0
189103,-100,4,1,2,65,0,0
189223,-100,4,1,2,60,0,0
189343,-100,4,1,2,55,0,0
189463,-100,4,1,1,20,0,0
189583,-100,4,2,99,5,0,0
189643,-100,4,2,99,5,0,0

[Colours]
Combo1 : 250,190,230
Combo2 : 130,200,230
Combo3 : 255,230,140
Combo4 : 170,245,170

[HitObjects]
21,67,1423,6,0,P|63:45|110:49,1,95.9999999999999,4|2,0:2|0:2,0:0:0:0:
162,163,1903,2,0,L|168:258,1,95.9999999999999,8|2,0:2|0:2,0:0:0:0:
194,300,2263,2,0,P|264:308|326:273,1,144,6|2,0:2|0:2,0:0:0:0:
379,160,2863,1,8,0:2:0:0:
449,261,3103,1,2,0:2:0:0:
502,150,3343,6,0,L|508:55,1,95.9999999999999,6|0,0:2|0:0,0:0:0:0:
391,8,3823,1,8,0:2:0:0:
292,86,4063,1,2,0:2:0:0:
292,86,4183,2,0,P|230:120|159:113,1,144,6|10,0:2|0:2,0:0:0:0:
50,51,4783,1,8,0:2:0:0:
50,176,5023,1,2,0:2:0:0:
158,236,5263,6,0,P|208:239|254:250,1,95.9999999999999,6|2,0:2|0:2,0:0:0:0:
189,357,5743,2,0,P|139:354|93:343,1,95.9999999999999,8|2,0:2|0:2,0:0:0:0:
54,317,6103,2,0,B|40:276|40:276|50:170,1,144,6|2,0:2|0:2,0:0:0:0:
50,51,6703,1,8,0:2:0:0:
159,113,6943,1,2,0:2:0:0:
268,50,7183,6,0,B|313:35|313:35|361:42,2,95.9999999999999,6|0|8,0:2|0:0|0:2,0:0:0:0:
330,158,7903,1,2,0:2:0:0:
330,158,8023,2,0,B|335:207|335:207|324:244|324:244|328:308,1,144,6|8,0:2|0:3,0:0:0:0:
440,352,8623,2,0,L|504:344,2,48,8|8|8,0:2|0:2|0:2,0:0:0:0:
278,370,9103,6,0,P|227:341|159:340,1,122.400002334595,8|0,0:2|1:2,0:0:0:0:
128,358,9583,2,0,L|47:355,1,81.6000015563964,8|0,0:2|0:0,0:0:0:0:
2,258,10063,2,0,P|-2:217|6:178,1,81.6000015563964,2|0,0:2|1:2,0:0:0:0:
103,224,10543,2,0,P|135:199|174:188,1,81.6000015563964,8|2,0:0|1:2,0:0:0:0:
276,218,11023,6,0,B|290:158|264:162|280:96,1,122.400002334595,2|0,1:2|1:2,0:0:0:0:
314,55,11503,2,0,L|396:53,1,81.6000015563964,8|2,0:2|0:2,0:0:0:0:
478,117,11983,2,0,P|438:121|402:142,2,81.6000015563964,2|0|8,1:2|1:2|0:0,0:0:0:0:
473,222,12703,1,2,0:2:0:0:
400,299,12943,6,0,B|366:303|334:286|334:286|305:283|283:303,1,122.400002334595,6|0,1:2|1:2,0:0:0:0:
253,329,13423,2,0,L|171:324,1,81.6000015563964,8|0,0:2|0:0,0:0:0:0:
80,270,13903,2,0,B|51:266|51:266|26:270|26:270|-1:266,2,81.6000015563964,2|0|8,0:2|1:2|0:0,0:0:0:0:
173,219,14623,1,0,1:2:0:0:
82,163,14863,6,0,P|75:122|82:79,1,81.6000015563964,2|2,1:2|0:2,0:0:0:0:
112,56,15223,1,0,1:2:0:0:
112,56,15343,2,0,L|218:48,1,81.6000015563964,10|2,0:2|0:2,0:0:0:0:
351,71,15943,2,0,L|420:66,1,40.8000007781982,8|2,0:2|0:2,0:0:0:0:
493,98,16303,1,14,0:2:0:0:
485,310,16783,6,0,B|450:324|450:324|406:329|370:300,1,122.400002334595,6|0,0:2|1:2,0:0:0:0:
343,270,17263,2,0,L|340:181,1,81.6000015563964,8|0,0:2|0:0,0:0:0:0:
267,110,17743,2,0,P|261:153|242:190,1,81.6000015563964,2|0,0:2|1:2,0:0:0:0:
159,250,18223,2,0,P|118:266|77:268,1,81.6000015563964,8|2,0:0|1:2,0:0:0:0:
8,187,18703,6,0,L|-1:64,1,122.400002334595,2|0,1:2|1:0,0:0:0:0:
31,39,19183,2,0,P|68:23|109:20,1,81.6000015563964,8|2,0:2|0:2,0:0:0:0:
212,42,19663,1,2,0:0:0:0:
212,42,19783,2,0,B|198:105|234:102|213:162,1,122.400002334595,8|8,0:0|0:0,0:0:0:0:
125,220,20383,1,2,0:2:0:0:
103,323,20623,6,0,B|152:341|152:341|222:334,1,122.400002334595,6|0,1:2|1:2,0:0:0:0:
260,318,21103,2,0,L|351:322,1,81.6000015563964,8|0,0:2|0:0,0:0:0:0:
432,266,21583,2,0,B|461:264|461:264|485:270|485:270|513:269,2,81.6000015563964,2|0|8,0:2|1:2|0:0,0:0:0:0:
339,215,22303,1,2,0:2:0:0:
246,164,22543,6,0,B|239:123|239:123|250:79,1,81.6000015563964,2|2,1:2|0:2,0:0:0:0:
331,17,23023,1,10,0:2:0:0:
437,51,23263,1,2,0:2:0:0:
437,51,23383,2,0,B|458:91|458:91|448:190,1,122.400002334595,4|4,1:2|0:3,0:0:0:0:
432,266,23983,2,0,L|438:315,2,40.8000007781982,8|8|6,0:3|0:3|0:3,0:0:0:0:
339,215,24463,6,0,P|283:198|228:206,1,100.799996923828,6|0,0:2|1:2,0:0:0:0:
153,298,25183,2,0,P|198:216|103:178,1,201.599993847656,0|8,1:2|0:2,0:0:0:0:
234,37,26383,6,0,P|284:28|336:30,1,100.799996923828,2|0,1:2|1:2,0:0:0:0:
454,82,27103,2,0,L|462:159,1,67.1999979492187,2|0,1:2|0:2,0:0:0:0:
422,227,27583,2,0,P|388:228|354:225,1,67.1999979492187,2|8,0:2|0:2,0:0:0:0:
280,178,28063,1,2,0:3:0:0:
201,140,28303,6,0,B|148:134|150:154|98:144,1,100.799996923828,4|0,1:2|1:2,0:0:0:0:
30,255,29023,2,0,P|112:244|171:258,1,134.399995898437,2|2,1:2|0:2,0:0:0:0:
237,298,29743,1,10,0:2:0:0:
410,274,30223,6,0,P|419:242|416:204,1,67.1999979492187,4|0,1:2|0:2,0:0:0:0:
370,134,30703,1,8,0:2:0:0:
285,156,30943,2,0,L|199:149,1,67.1999979492187,2|0,1:2|0:0,0:0:0:0:
186,163,31303,2,0,L|153:161,1,33.5999989746094,8|0,0:2|1:2,0:0:0:0:
72,124,31663,2,0,L|38:122,2,33.5999989746094,8|8|0,0:2|0:2|1:2,0:0:0:0:
152,54,32143,6,0,B|191:40|191:40|289:48,2,122.400002334595,6|0|8,1:2|1:2|0:2,0:0:0:0:
77,128,33103,1,0,1:2:0:0:
77,128,33223,2,0,L|70:226,1,81.6000015563964,8|0,0:2|1:2,0:0:0:0:
68,250,33583,2,0,L|61:348,1,81.6000015563964,8|2,0:2|1:2,0:0:0:0:
178,364,34063,5,14,1:2:0:0:
225,280,34303,1,8,1:2:0:0:
317,254,34543,1,10,1:2:0:0:
400,300,34783,2,0,P|418:304|450:305,1,48,10|12,1:1|0:2,0:0:0:0:
490,105,35503,6,0,B|457:121|457:121|412:125|376:98,1,122.400002334595,0|0,0:2|0:0,0:0:0:0:
330,71,35983,6,0,B|278:52|278:52|202:67,1,105.600003222656,6|8,0:2|0:2,0:0:0:0:
202,107,36343,2,0,L|197:230,1,105.600003222656,0|0,0:2|0:2,0:0:0:0:
160,250,36703,2,0,B|110:259|110:259|58:240,1,105.600003222656,8|0,0:2|0:0,0:0:0:0:
1,115,37183,1,8,0:2:0:0:
98,18,37423,1,2,0:2:0:0:
202,107,37663,1,8,0:2:0:0:
306,18,37903,6,0,B|353:2|353:2|460:19,2,158.400004833984,2|0|8,0:2|0:2|0:2,0:0:0:0:
160,250,39103,1,8,0:2:0:0:
30,203,39343,2,0,P|21:161|42:90,1,105.600003222656,2|8,0:2|0:2,0:0:0:0:
154,32,39823,6,0,L|333:39,1,158.400004833984,2|0,0:2|0:2,0:0:0:0:
474,165,40543,2,0,P|423:147|362:141,1,105.600003222656,8|0,0:2|0:0,0:0:0:0:
281,244,41023,1,8,0:2:0:0:
345,364,41263,1,2,0:2:0:0:
467,301,41503,1,8,0:2:0:0:
474,165,41743,6,0,L|481:48,1,105.600003222656,14|2,0:1|0:3,0:0:0:0:
421,6,42103,2,0,P|374:29|292:23,1,105.600003222656,6|2,0:1|0:3,0:0:0:0:
242,40,42463,2,0,P|190:28|139:38,1,105.600003222656,14|0,0:1|0:0,0:0:0:0:
26,116,42943,1,12,0:2:0:0:
64,248,43183,2,0,L|51:311,2,52.8000016113281,10|8|8,0:2|0:2|0:2,0:0:0:0:
194,149,43663,6,0,B|273:130|269:177|348:162,1,158.400004833984,6|0,0:2|0:2,0:0:0:0:
495,305,44383,2,0,P|451:284|371:278,1,105.600003222656,8|0,0:2|0:0,0:0:0:0:
277,347,44863,1,8,0:2:0:0:
138,350,45103,1,2,0:2:0:0:
16,283,45343,1,8,0:2:0:0:
135,210,45583,6,0,P|150:157|138:87,1,105.600003222656,2|8,0:2|0:2,0:0:0:0:
122,59,45943,2,0,P|172:73|224:69,1,105.600003222656,0|0,0:2|0:2,0:0:0:0:
272,45,46303,2,0,P|324:40|374:54,2,105.600003222656,8|0|8,0:2|0:0|0:2,0:0:0:0:
310,177,47023,2,0,P|324:227|319:279,1,105.600003222656,2|8,0:2|0:2,0:0:0:0:
193,336,47503,6,0,B|143:337|143:337|82:308|82:308|18:312,2,158.400004833984,2|0|8,0:2|0:2|0:2,0:0:0:0:
462,286,48703,1,8,0:2:0:0:
499,154,48943,1,2,0:2:0:0:
367,116,49183,1,8,0:2:0:0:
329,247,49423,6,0,B|275:251|275:251|206:235,1,105.600003222656,14|2,0:1|0:3,0:0:0:0:
158,196,49783,2,0,L|159:80,1,105.600003222656,14|2,0:1|0:3,0:0:0:0:
219,39,50143,2,0,L|275:35,1,52.8000016113281,14|2,0:1|0:3,0:0:0:0:
408,43,50503,2,0,L|460:46,1,52.8000016113281,8|14,0:2|0:3,0:0:0:0:
370,150,50863,2,0,L|317:153,2,52.8000016113281,10|8|8,0:2|0:2|0:2,0:0:0:0:
474,232,51343,5,6,0:2:0:0:
256,192,51583,12,12,54103,0:2:0:0:
135,58,59023,6,0,B|159:118|129:200|107:165|60:239|101:310,2,268.799991796875,0|2|2,1:2|0:2|0:2,0:0:0:0:
189,257,61663,6,0,B|290:317|385:251|385:251|347:204|308:203,2,302.399990771484,2|0|2,0:2|0:2|0:2,0:0:0:0:
97,53,64783,6,0,P|60:50|25:61,2,73.9199985336914,2|0|2,0:2|0:2|0:2,0:0:0:0:
179,87,65503,2,0,P|215:90|250:78,1,73.9199985336914,2|0,0:2|1:2,0:0:0:0:
329,37,65983,2,0,P|363:25|400:28,1,73.9199985336914,8|8,0:2|0:2,0:0:0:0:
404,240,66703,6,0,B|379:218|379:218|357:171|372:131,1,122.400002334595,6|0,0:2|1:2,0:0:0:0:
407,108,67183,2,0,L|488:110,1,81.6000015563964,8|0,0:2|0:0,0:0:0:0:
503,215,67663,2,0,P|492:260|491:302,1,81.6000015563964,2|0,0:2|1:2,0:0:0:0:
408,362,68143,2,0,P|363:350|320:350,1,81.6000015563964,8|2,0:0|1:2,0:0:0:0:
225,373,68623,6,0,P|238:314|228:254,1,122.400002334595,2|0,1:2|1:0,0:0:0:0:
207,218,69103,2,0,P|200:176|205:136,1,81.6000015563964,8|2,0:2|0:2,0:0:0:0:
282,65,69583,1,2,0:0:0:0:
282,65,69703,2,0,B|342:86|339:50|402:64,1,122.400002334595,8|8,0:0|0:0,0:0:0:0:
503,96,70303,1,2,0:2:0:0:
424,168,70543,6,0,B|364:189|367:153|304:167,1,122.400002334595,6|0,1:2|1:2,0:0:0:0:
284,203,71023,2,0,L|275:291,1,81.6000015563964,8|0,0:2|0:0,0:0:0:0:
185,228,71503,2,0,L|186:137,2,81.6000015563964,2|0|8,0:2|1:2|0:0,0:0:0:0:
129,318,72223,1,2,0:2:0:0:
79,224,72463,6,0,L|70:136,1,81.6000015563964,2|2,1:2|0:2,0:0:0:0:
125,51,72943,1,10,0:2:0:0:
236,58,73183,1,2,0:2:0:0:
236,58,73303,2,0,B|274:56|274:56|305:64|305:64|357:60,1,122.400002334595,4|4,1:2|0:3,0:0:0:0:
452,106,73903,2,0,L|498:109,2,40.8000007781982,8|8|6,0:3|0:3|0:3,0:0:0:0:
363,180,74383,6,0,P|345:231|358:302,1,100.799996923828,6|0,0:2|1:2,0:0:0:0:
442,367,75103,2,0,P|375:310|266:309,1,201.599993847656,0|8,1:2|0:2,0:0:0:0:
98,364,76303,6,0,P|146:351|178:312,1,100.799996923828,2|0,1:2|1:2,0:0:0:0:
200,183,77023,2,0,L|206:102,1,67.1999979492187,2|0,1:2|0:2,0:0:0:0:
160,40,77503,2,0,L|79:34,1,67.1999979492187,2|8,0:2|0:2,0:0:0:0:
17,79,77983,1,2,0:3:0:0:
65,151,78223,6,0,P|80:204|77:259,1,100.799996923828,4|0,1:2|1:2,0:0:0:0:
17,365,78943,2,0,P|74:330|142:328,1,134.399995898437,2|2,1:2|0:2,0:0:0:0:
223,357,79663,1,10,0:2:0:0:
393,321,80143,6,0,P|403:283|399:240,1,67.1999979492187,4|0,1:2|0:2,0:0:0:0:
367,175,80623,1,8,0:2:0:0:
332,95,80863,2,0,P|322:62|322:29,1,67.1999979492187,2|0,1:2|0:0,0:0:0:0:
358,3,81223,2,0,L|393:-1,1,33.5999989746094,8|0,0:2|1:2,0:0:0:0:
474,26,81583,2,0,L|509:22,2,33.5999989746094,8|8|0,0:2|0:2|1:2,0:0:0:0:
407,108,82063,6,0,B|365:111|365:111|332:95|332:95|273:100,2,122.400002334595,6|0|8,1:2|1:2|0:2,0:0:0:0:
509,151,83023,1,0,1:2:0:0:
509,151,83143,2,0,B|517:193|517:193|502:249,1,81.6000015563964,8|0,0:2|1:2,0:0:0:0:
473,254,83503,2,0,B|436:243|436:243|394:251,1,81.6000015563964,8|2,0:2|1:2,0:0:0:0:
300,333,83983,5,14,1:2:0:0:
212,294,84223,1,8,1:2:0:0:
221,198,84463,1,10,1:2:0:0:
315,176,84703,2,0,P|322:151|322:128,1,48,10|12,1:1|0:2,0:0:0:0:
147,22,85423,6,0,B|130:87|159:85|138:143,1,122.400002334595,0|0,0:2|0:0,0:0:0:0:
101,181,85903,6,0,B|96:290,1,105.600003222656,6|8,0:2|0:2,0:0:0:0:
76,336,86263,2,0,B|120:325|120:325|178:338,1,105.600003222656,0|0,0:2|0:2,0:0:0:0:
227,358,86623,2,0,B|336:353,1,105.600003222656,8|0,0:2|0:0,0:0:0:0:
465,318,87103,1,8,0:2:0:0:
472,180,87343,1,2,0:2:0:0:
342,130,87583,1,8,0:2:0:0:
254,238,87823,6,0,B|197:243|197:243|155:230|155:230|86:234,2,158.400004833984,2|0|8,0:2|0:2|0:2,0:0:0:0:
450,46,89023,1,8,0:2:0:0:
472,180,89263,2,0,B|471:221|471:221|459:251|459:251|458:293,1,105.600003222656,2|8,0:2|0:2,0:0:0:0:
347,357,89743,6,0,P|273:332|174:335,1,158.400004833984,2|0,0:2|0:2,0:0:0:0:
0,258,90463,2,0,P|51:250|100:230,1,105.600003222656,8|0,0:2|0:0,0:0:0:0:
207,144,90943,1,8,0:2:0:0:
343,159,91183,1,2,0:2:0:0:
429,266,91423,1,8,0:2:0:0:
479,139,91663,6,0,B|491:100|491:100|492:73|472:35,1,105.600003222656,14|2,0:1|0:3,0:0:0:0:
394,49,92023,2,0,B|355:63|355:63|291:56,1,105.600003222656,6|2,0:1|0:3,0:0:0:0:
216,30,92383,2,0,B|152:23|152:23|113:37,1,105.600003222656,14|0,0:1|0:0,0:0:0:0:
59,164,92863,1,12,0:2:0:0:
186,219,93103,2,0,L|242:223,2,52.8000016113281,10|8|8,0:2|0:2|0:2,0:0:0:0:
62,316,93583,6,0,B|75:257|75:257|57:219|57:219|59:164,1,158.400004833984,6|0,0:2|0:2,0:0:0:0:
216,30,94303,2,0,L|332:36,1,105.600003222656,8|0,0:2|0:0,0:0:0:0:
455,66,94783,1,8,0:2:0:0:
496,198,95023,1,2,0:2:0:0:
402,299,95263,1,8,0:2:0:0:
361,167,95503,6,0,B|312:143|312:143|238:164,1,105.600003222656,2|8,0:2|0:2,0:0:0:0:
235,202,95863,2,0,L|229:318,1,105.600003222656,0|0,0:2|0:2,0:0:0:0:
195,347,96223,2,0,B|145:360|145:360|96:336,2,105.600003222656,8|0|8,0:2|0:0|0:2,0:0:0:0:
318,286,96943,2,0,B|367:272|367:272|416:296,1,105.600003222656,2|8,0:2|0:2,0:0:0:0:
497,185,97423,6,0,B|520:137|520:137|516:69|471:33,2,158.400004833984,2|0|8,0:2|0:2|0:2,0:0:0:0:
295,372,98623,1,8,0:2:0:0:
190,282,98863,1,2,0:2:0:0:
59,327,99103,1,8,0:2:0:0:
84,192,99343,6,0,P|87:145|88:71,1,105.600003222656,14|2,0:1|0:3,0:0:0:0:
144,29,99703,2,0,P|191:32|265:33,1,105.600003222656,14|2,0:1|0:3,0:0:0:0:
329,26,100063,2,0,P|355:28|384:31,1,52.8000016113281,14|2,0:1|0:3,0:0:0:0:
399,167,100423,2,0,P|415:186|434:209,1,52.8000016113281,12|14,0:2|0:3,0:0:0:0:
348,316,100783,2,0,P|345:341|343:371,2,52.8000016113281,10|8|8,0:2|0:2|0:2,0:0:0:0:
301,205,101263,5,2,0:2:0:0:
256,192,101503,12,2,103903,0:0:0:0:
80,150,108943,6,0,L|71:22,2,108.000004119873,6|2|2,0:2|0:2|0:2,0:0:0:0:
85,242,109903,1,8,0:2:0:0:
272,228,110383,2,0,L|367:221,1,72.0000027465821,2|2,0:2|0:2,0:0:0:0:
405,152,110863,2,0,L|396:24,2,108.000004119873,2|2|2,0:2|0:2|0:2,0:0:0:0:
475,214,111823,1,8,0:2:0:0:
414,284,112063,2,0,L|420:379,1,72.0000027465821,2|12,0:3|0:2,0:0:0:0:
289,219,112783,6,0,L|280:91,2,108.000004119873,2|2|2,0:2|0:2|0:2,0:0:0:0:
227,289,113743,1,8,0:2:0:0:
85,166,114223,2,0,B|77:64,1,72.0000027465821,2|2,0:2|0:2,0:0:0:0:
141,23,114703,2,0,B|268:14,2,108.000004119873,2|2|2,0:2|0:2|0:2,0:0:0:0:
87,329,116623,5,4,0:2:0:0:
164,231,116863,1,2,0:1:0:0:
164,230,116983,2,0,P|210:221|258:225,1,95.9999999999999,2|10,0:2|0:2,0:0:0:0:
370,292,117463,1,4,0:0:0:0:
370,292,117583,2,0,P|438:311|507:285,1,144,2|2,1:2|0:2,0:0:0:0:
426,116,118303,1,2,0:2:0:0:
302,135,118543,6,0,L|188:130,2,95.9999999999999,6|2|10,0:2|0:1|0:2,0:0:0:0:
375,226,119263,1,2,0:1:0:0:
375,226,119383,2,0,P|384:273|363:335,1,95.9999999999999,4|8,0:2|0:2,0:0:0:0:
331,343,119743,2,0,L|217:348,2,95.9999999999999,2|8|2,0:2|0:2|0:2,0:0:0:0:
454,366,120463,5,4,0:2:0:0:
477,242,120703,2,0,P|476:146|472:99,1,144,2|2,0:1|0:2,0:0:0:0:
362,38,121303,1,4,0:2:0:0:
362,38,121423,2,0,L|205:24,2,144,2|2|2,0:1|0:2|0:2,0:0:0:0:
280,132,122383,6,0,P|274:181|274:227,1,95.9999999999999,6|2,0:2|0:1,0:0:0:0:
332,338,122863,2,0,P|286:319|241:307,1,95.9999999999999,10|2,0:2|0:1,0:0:0:0:
193,307,123223,2,0,P|145:313|99:326,1,95.9999999999999,6|0,0:2|0:2,0:0:0:0:
56,347,123583,1,12,0:1:0:0:
2,234,123823,1,12,0:2:0:0:
92,147,124063,1,12,0:1:0:0:
202,205,124303,6,0,B|252:216|252:216|309:202,1,95.9999999999999,4|10,0:2|0:1,0:0:0:0:
404,142,124783,2,0,B|447:131|447:131|497:142,1,95.9999999999999,10|10,0:1|0:1,0:0:0:0:
512,193,125143,1,14,0:2:0:0:
512,193,125263,2,0,P|505:243|509:312,1,95.9999999999999,2|2,0:1|0:1,0:0:0:0:
419,380,125743,2,0,P|407:333|388:289,1,95.9999999999999,10|10,0:1|0:1,0:0:0:0:
295,205,126223,2,0,L|195:200,1,95.9999999999999,6|2,0:1|0:1,0:0:0:0:
85,146,126703,1,10,0:1:0:0:
189,75,126943,5,2,0:1:0:0:
189,75,127063,2,0,B|222:66|222:66|253:72|253:72|283:69,1,95.9999999999999,4|8,0:2|0:2,0:0:0:0:
322,41,127423,2,0,L|422:46,1,95.9999999999999,8|8,0:2|0:2,0:0:0:0:
490,147,127903,1,2,0:1:0:0:
380,207,128143,2,0,B|336:215|336:215|275:205|275:205|238:212,2,144,6|2|2,0:0|0:2|0:1,0:0:0:0:
428,232,128983,1,6,0:2:0:0:
428,232,129103,2,0,B|451:304|402:360|402:360|322:323,1,192,2|8,0:1|0:2,0:0:0:0:
207,275,130063,6,0,B|179:267|160:272|160:272|142:259|142:259|121:262|121:262|74:248|54:198|54:198|79:146|134:147,1,288.000010986328,6|0,0:2|0:2,0:0:0:0:
384,192,131983,5,4,1:2:0:0:
384,192,139663,5,4,1:2:0:0:
384,192,141343,5,2,0:2:0:0:
431,257,141583,1,4,0:3:0:0:
384,323,141823,1,8,0:3:0:0:
305,299,142063,1,2,0:3:0:0:
305,216,142303,1,8,0:2:0:0:
463,35,143023,6,0,B|421:48|421:48|343:39,1,122.400002334595,0|0,0:2|0:0,0:0:0:0:
292,26,143503,6,0,P|241:12|189:19,1,105.600003222656,6|8,0:2|0:2,0:0:0:0:
157,61,143863,2,0,L|146:187,1,105.600003222656,0|0,0:2|0:2,0:0:0:0:
171,213,144223,2,0,P|221:226|273:218,1,105.600003222656,8|0,0:2|0:0,0:0:0:0:
381,132,144703,1,8,0:2:0:0:
496,208,144943,1,2,0:2:0:0:
459,340,145183,1,8,0:2:0:0:
322,345,145423,6,0,B|269:351|269:351|215:340|215:340|148:345,2,158.400004833984,2|0|8,0:2|0:2|0:2,0:0:0:0:
473,116,146623,1,8,0:2:0:0:
348,57,146863,2,0,B|308:52|308:52|275:57|275:57|243:51,1,105.600003222656,2|8,0:2|0:2,0:0:0:0:
116,9,147343,6,0,B|133:89|102:85|121:166,1,158.400004833984,2|0,0:2|0:2,0:0:0:0:
248,328,148063,2,0,P|203:301|149:279,1,105.600003222656,8|0,0:2|0:0,0:0:0:0:
18,258,148543,1,8,0:2:0:0:
121,166,148783,1,2,0:2:0:0:
258,173,149023,1,8,0:2:0:0:
349,274,149263,6,0,B|390:285|390:285|482:280,1,105.600003222656,14|2,0:1|0:3,0:0:0:0:
501,218,149623,2,0,L|505:112,1,105.600003222656,6|2,0:1|0:3,0:0:0:0:
458,48,149983,2,0,B|417:37|417:37|353:40,1,105.600003222656,14|0,0:1|0:0,0:0:0:0:
217,59,150463,1,12,0:2:0:0:
81,78,150703,2,0,B|49:77|49:77|17:72,2,52.8000016113281,10|8|8,0:2|0:2|0:2,0:0:0:0:
206,178,151183,6,0,B|225:257|178:253|193:332,1,158.400004833984,6|0,0:2|0:2,0:0:0:0:
393,379,151903,2,0,P|413:330|412:278,1,105.600003222656,8|0,0:2|0:0,0:0:0:0:
380,144,152383,1,8,0:2:0:0:
262,71,152623,1,2,0:2:0:0:
126,102,152863,1,8,0:2:0:0:
51,220,153103,6,0,P|36:270|44:322,1,105.600003222656,2|8,0:2|0:2,0:0:0:0:
116,355,153463,2,0,L|241:354,1,105.600003222656,0|0,0:2|0:2,0:0:0:0:
289,312,153823,2,0,P|340:304|391:318,2,105.600003222656,8|0|8,0:2|0:0|0:2,0:0:0:0:
170,241,154543,2,0,P|162:189|176:138,1,105.600003222656,2|8,0:2|0:2,0:0:0:0:
288,58,155023,6,0,B|340:61|340:61|391:49|391:49|437:75,2,158.400004833984,2|0|8,0:2|0:2|0:2,0:0:0:0:
15,19,156223,1,8,0:2:0:0:
16,156,156463,1,2,0:2:0:0:
17,293,156703,1,8,0:2:0:0:
136,223,156943,6,0,P|187:212|239:221,1,105.600003222656,14|2,0:1|0:3,0:0:0:0:
311,254,157303,2,0,P|362:262|414:251,1,105.600003222656,14|2,0:1|0:3,0:0:0:0:
467,193,157663,1,14,0:1:0:0:
366,99,157903,2,0,L|379:20,2,70.4000021484375,8|2|4,2:2|2:3|2:3,0:0:0:0:
279,130,158383,2,0,L|162:120,1,105.600003222656,8|14,2:3|0:2,0:0:0:0:
35,43,158863,6,0,B|45:77|45:77|37:154,1,105.600003222656,6|8,0:2|0:2,0:0:0:0:
11,193,159223,2,0,B|-3:310,1,105.600003222656,0|0,0:2|0:2,0:0:0:0:
16,347,159583,2,0,B|50:337|50:337|127:345,1,105.600003222656,8|0,0:2|0:0,0:0:0:0:
255,365,160063,1,8,0:2:0:0:
367,284,160303,1,2,0:2:0:0:
388,147,160543,1,8,0:2:0:0:
305,35,160783,6,0,B|256:19|256:19|222:33|222:33|187:35|136:19,2,158.400004833984,2|0|8,0:2|0:2|0:2,0:0:0:0:
467,257,161983,1,8,0:2:0:0:
356,338,162223,2,0,B|315:337|315:337|285:325|285:325|243:324,1,105.600003222656,2|8,0:2|0:2,0:0:0:0:
121,364,162703,6,0,P|171:310|163:218,1,158.400004833984,2|0,0:2|0:2,0:0:0:0:
43,65,163423,2,0,P|32:118|46:179,1,105.600003222656,8|0,0:2|0:0,0:0:0:0:
168,116,163903,1,8,0:2:0:0:
304,136,164143,1,2,0:2:0:0:
411,221,164383,1,8,0:2:0:0:
496,114,164623,6,0,B|463:84|463:84|388:63,1,105.600003222656,14|2,0:1|0:3,0:0:0:0:
329,41,164983,2,0,B|285:50|285:50|226:35,1,105.600003222656,6|2,0:1|0:3,0:0:0:0:
147,40,165343,2,0,B|87:24|87:24|44:34,1,105.600003222656,14|0,0:1|0:0,0:0:0:0:
6,166,165823,1,12,0:2:0:0:
71,279,166063,2,0,L|75:341,2,52.8000016113281,10|8|8,0:2|0:2|0:2,0:0:0:0:
169,151,166543,6,0,B|207:120|207:120|252:107|313:136,1,158.400004833984,6|0,0:2|0:2,0:0:0:0:
439,299,167263,2,0,P|395:281|335:272,1,105.600003222656,8|0,0:2|0:0,0:0:0:0:
230,358,167743,1,8,0:2:0:0:
115,282,167983,1,2,0:2:0:0:
151,149,168223,1,8,0:2:0:0:
288,142,168463,6,0,B|311:112|311:112|326:80|308:24,1,105.600003222656,2|8,0:2|0:2,0:0:0:0:
265,23,168823,2,0,L|150:14,1,105.600003222656,0|0,0:2|0:2,0:0:0:0:
111,37,169183,2,0,L|-4:28,2,105.600003222656,8|0|8,0:2|0:0|0:2,0:0:0:0:
185,152,169903,2,0,B|199:186|199:186|205:221|173:271,1,105.600003222656,2|8,0:2|0:2,0:0:0:0:
79,340,170383,6,0,B|161:360|165:317|235:336,2,158.400004833984,6|0|8,0:2|0:2|0:2,0:0:0:0:
3,75,171583,1,12,0:2:0:0:
126,14,171823,1,8,0:2:0:0:
240,90,172063,1,12,0:2:0:0:
362,29,172303,6,0,B|413:18|413:18|464:33,1,105.600003222656,14|2,0:1|0:3,0:0:0:0:
488,108,172663,2,0,P|486:152|487:227,1,105.600003222656,14|2,0:1|0:3,0:0:0:0:
440,277,173023,2,0,P|414:272|387:268,1,52.8000016113281,14|2,0:1|0:3,0:0:0:0:
254,298,173383,2,0,P|227:294|201:289,1,52.8000016113281,2|8,0:3|0:2,0:0:0:0:
66,265,173743,2,0,P|39:265|13:267,2,52.8000016113281,10|8|8,0:2|0:2|0:2,0:0:0:0:
151,357,174223,5,6,0:2:0:0:
256,192,174463,12,6,178063,0:2:0:0:
81,340,181903,5,0,0:2:0:0:
165,168,182383,6,0,B|198:148|198:148|263:156,1,95.9999999999999,6|10,0:1|0:2,0:0:0:0:
375,188,182863,1,10,0:2:0:0:
465,100,183103,2,0,L|474:28,2,48,2|10|0,0:2|0:1|0:0,0:0:0:0:
477,224,183583,2,0,L|468:296,1,48,8|8,0:2|0:2,0:0:0:0:
432,300,183823,6,0,P|377:313|321:303,2,95.9999999999999,10|10|0,0:1|0:2|0:0,0:0:0:0:
375,188,184543,1,10,0:1:0:0:
254,155,184783,2,0,L|122:145,1,95.9999999999999,12|2,0:2|2:3,0:0:0:0:
47,89,185263,2,0,P|87:81|145:55,1,95.9999999999999,14|10,0:2|0:2,0:0:0:0:
257,24,185743,6,0,P|307:27|353:38,1,95.9999999999999,6|2,0:2|0:2,0:0:0:0:
411,147,186223,2,0,L|403:246,1,95.9999999999999,10|2,0:1|0:2,0:0:0:0:
415,289,186583,2,0,B|395:276|361:273|361:273|312:303|260:268,1,144,6|0,0:2|0:0,0:0:0:0:
185,192,187183,1,10,0:1:0:0:
156,314,187423,1,0,0:2:0:0:
63,227,187663,6,0,P|55:181|68:135,2,95.9999999999999,6|2|10,0:2|1:1|0:1,0:0:0:0:
189,195,188383,1,2,0:3:0:0:
189,195,188503,2,0,B|263:184|256:218|331:204,1,144,6|10,0:2|0:1,0:1:0:0:
419,116,189103,2,0,L|483:108,2,48,8|8|10,0:2|0:2|0:2,0:0:0:0:
