osu file format v14

[General]
AudioFilename: audio.mp3
AudioLeadIn: 0
PreviewTime: 128467
Countdown: 0
SampleSet: Soft
StackLeniency: 0.4
Mode: 0
LetterboxInBreaks: 0
WidescreenStoryboard: 1

[Editor]
Bookmarks: 26414,52128,70610,84271,97128,109985,129271,154985,167842,180700,193557,206414,223021
DistanceSpacing: 0.6
BeatDivisor: 4
GridSize: 8
TimelineZoom: 1.7

[Metadata]
Title:In the Garden
TitleUnicode:In the Garden
Artist:Primary
ArtistUnicode:Primary
Creator:TheBlank
Version:We Can Always Fly
Source:
Tags:iljaaz OliBomby 11th album from meis clauson underflow Yuiko
BeatmapID:1802412
BeatmapSetID:859533

[Difficulty]
HPDrainRate:5
CircleSize:3.8
OverallDifficulty:9
ApproachRate:9.5
SliderMultiplier:1.4
SliderTickRate:1

[Events]
//Background and Video events
0,0,"Konachan.com - 246656 sample.jpg",0,0
//Break Periods
//Storyboard Layer 0 (Background)
//Storyboard Layer 1 (Fail)
//Storyboard Layer 2 (Pass)
//Storyboard Layer 3 (Foreground)
//Storyboard Sound Samples

[TimingPoints]
700,267.857142857143,3,2,0,28,1,0
13557,-58.1395348837209,3,2,0,28,0,0
26816,-116.279069767442,3,2,0,28,0,0
29092,-94.3396226415094,3,2,0,28,0,0
39003,-86.2068965517241,3,2,0,28,0,0
49316,-79.3650793650794,3,2,0,28,0,0
49717,-76.9230769230769,3,2,0,28,0,0
50119,-71.4285714285714,3,2,0,28,0,0
50521,-73.5294117647059,3,2,0,28,0,0
52396,-100,3,2,0,28,0,0
52932,-83.3333333333333,3,2,0,28,0,0
55342,-76.9230769230769,3,2,0,28,0,0
57753,-125,3,2,0,28,0,0
57954,-125,3,2,0,5,0,0
58021,-52.6315789473684,3,2,0,28,0,0
58222,-52.6315789473684,3,2,0,5,0,0
58289,-37.037037037037,3,2,0,28,0,0
58490,-37.037037037037,3,2,0,5,0,0
58557,-37.037037037037,3,2,0,28,0,1
60967,-47.6190476190476,3,2,0,28,0,1
61771,-41.6666666666667,3,2,0,28,0,1
64182,-55.5555555555556,3,2,0,28,0,1
64717,-47.6190476190476,3,2,0,28,0,1
64985,-37.037037037037,3,2,0,28,0,1
67396,-47.6190476190476,3,2,0,28,0,1
68200,-37.037037037037,3,2,0,28,0,1
84271,-79.3650793650794,3,2,0,28,0,1
87485,-68.4931506849315,3,2,0,28,0,1
89092,-64.1025641025641,3,2,0,28,0,1
90700,-60.2409638554217,3,2,0,28,0,1
91503,-56.8181818181818,3,2,0,28,0,1
93110,-53.763440860215,3,2,0,28,0,1
94717,-48.5436893203883,3,2,0,28,0,1
97128,-48.5436893203883,3,2,0,28,0,0
97396,-100,3,2,0,28,0,0
109985,-83.3333333333333,3,2,0,28,0,0
119025,-83.3333333333333,3,2,0,5,0,0
119092,-83.3333333333333,3,2,0,28,0,0
125253,-76.9230769230769,3,2,0,28,0,0
126057,-71.4285714285714,3,2,0,28,0,0
128467,-71.4285714285714,3,2,0,28,0,0
128668,-71.4285714285714,3,2,0,5,0,0
128735,-45.4545454545455,3,2,0,28,0,0
128936,-45.4545454545455,3,2,0,5,0,0
129003,-33.3333333333333,3,2,0,28,0,0
129204,-33.3333333333333,3,2,0,5,0,0
129271,-33.3333333333333,3,2,0,28,0,1
136503,-28.5714285714286,3,2,0,28,0,1
136771,-33.3333333333333,3,2,0,28,0,1
138914,-29.4117647058824,3,2,0,28,0,1
139717,-25,3,2,0,28,0,1
141325,-33.3333333333333,3,2,0,28,0,1
142932,-27.027027027027,3,2,0,28,0,1
143200,-33.3333333333333,3,2,0,28,0,1
154985,-90.9090909090909,3,2,0,28,0,0
160075,-90.9090909090909,3,2,0,5,0,0
160208,-90.9090909090909,3,2,0,28,0,0
160476,-90.9090909090909,3,2,0,5,0,0
160610,-90.9090909090909,3,2,0,28,0,0
161749,-90.9090909090909,3,2,0,5,0,0
161816,-90.9090909090909,3,2,0,28,0,0
180164,-58.8235294117647,3,2,0,28,0,0
180432,-33.3333333333333,3,2,0,28,0,0
180700,-33.3333333333333,3,2,0,28,0,1
193557,-66.6666666666667,3,2,0,28,0,0
207217,-133.333333333333,3,2,0,28,0,0
222485,-133.333333333333,3,2,0,5,0,0

[Colours]
Combo1 : 255,255,0
Combo2 : 255,255,255
Combo3 : 37,185,239
Combo4 : 23,209,116

[HitObjects]
0,163,700,6,0,P|52:131|121:161,1,140,0|0,0:0|0:0,0:0:0:0:
287,257,1101,2,0,P|226:225|159:243,1,140,0|0,0:0|0:0,0:0:0:0:
94,351,1503,6,0,L|202:342,1,105,0|0,0:0|0:0,0:0:0:0:
224,355,1771,2,0,L|332:346,1,105,0|0,0:0|0:0,0:0:0:0:
354,359,2039,2,0,L|462:350,1,105,0|0,0:0|0:0,0:0:0:0:
498,231,2307,6,0,P|423:223|374:290,1,140,0|0,0:0|0:0,0:0:0:0:
279,157,2708,2,0,P|316:153|353:170,2,70,0|0|0,0:0|0:0|0:0,0:0:0:0:
200,224,3110,6,0,P|166:228|134:216,1,70,0|0,0:0|0:0,0:0:0:0:
118,34,3378,2,0,P|165:75|174:155,1,140,0|0,0:0|0:0,0:0:0:0:
6,311,3914,6,0,B|39:290|74:309|74:309|112:329|156:308,1,140,0|0,0:0|0:0,0:0:0:0:
343,341,4316,2,0,P|288:299|221:310,1,140,0|0,0:0|0:0,0:0:0:0:
328,253,4717,6,0,P|342:199|310:150,1,105,0|0,0:0|0:0,0:0:0:0:
288,147,4985,2,0,P|265:100|279:51,1,105,0|0,0:0|0:0,0:0:0:0:
303,33,5253,2,0,P|353:19|410:43,1,105,0|0,0:0|0:0,0:0:0:0:
220,102,5521,6,0,P|154:73|73:93,1,140,0|0,0:0|0:0,0:0:0:0:
76,257,5923,2,0,P|136:226|133:145,1,140,0|0,0:0|0:0,0:0:0:0:
0,259,6325,6,0,P|11:299|77:335,1,105,0|0,0:0|0:0,0:0:0:0:
102,332,6592,2,0,P|160:317|218:335,1,105,0|0,0:0|0:0,0:0:0:0:
239,344,6860,2,0,P|284:318|353:327,1,105,0|0,0:0|0:0,0:0:0:0:
420,205,7128,6,0,P|326:208|303:249,1,140,0|0,0:0|0:0,0:0:0:0:
490,252,7530,2,0,P|503:205|443:121,1,140,0|0,0:0|0:0,0:0:0:0:
327,104,7932,6,0,P|267:117|210:101,1,105,0|0,0:0|0:0,0:0:0:0:
190,105,8200,2,0,P|159:145|88:157,1,105,0|0,0:0|0:0,0:0:0:0:
81,174,8467,2,0,P|102:213|81:276,1,105,0|0,0:0|0:0,0:0:0:0:
5,157,8735,6,0,P|-3:80|54:31,1,140,0|0,0:0|0:0,0:0:0:0:
148,34,9137,2,0,P|184:41|220:25,2,70,0|0|0,0:0|0:0|0:0,0:0:0:0:
290,5,9539,6,0,P|294:52|271:85,1,70,0|0,0:0|0:0,0:0:0:0:
226,170,9807,2,0,P|291:153|378:191,1,140,0|0,0:0|0:0,0:0:0:0:
492,25,10342,6,0,P|462:83|470:176,1,140,0|0,0:0|0:0,0:0:0:0:
504,285,10744,2,0,P|435:269|364:310,1,140,0|0,0:0|0:0,0:0:0:0:
173,325,11146,6,0,B|150:331|150:331|190:355|237:337,1,105,0|0,0:0|0:0,0:0:0:0:
256,321,11414,2,0,P|274:280|241:204,1,105,0|0,0:0|0:0,0:0:0:0:
246,199,11682,2,0,L|246:74,1,105,0|0,0:0|0:0,0:0:0:0:
298,30,11950,1,0,0:0:0:0:
345,6,13557,6,0,P|370:63|348:147,1,120.400001837158,0|0,0:0|0:0,0:0:0:0:
207,194,13825,1,0,0:0:0:0:
69,6,13958,6,0,P|44:63|66:147,1,120.400001837158,0|0,0:0|0:0,0:0:0:0:
207,194,14226,1,0,0:0:0:0:
187,17,14360,5,0,0:0:0:0:
82,256,14494,1,0,0:0:0:0:
323,266,14628,5,0,0:0:0:0:
135,82,14762,1,0,0:0:0:0:
173,363,14896,5,0,0:0:0:0:
263,133,15030,1,0,0:0:0:0:
23,319,15164,6,0,P|0:248|31:185,1,120.400001837158,0|0,0:0|0:0,0:0:0:0:
135,82,15432,1,0,0:0:0:0:
247,319,15566,6,0,P|270:248|239:185,1,120.400001837158,0|0,0:0|0:0,0:0:0:0:
135,82,15833,1,0,0:0:0:0:
156,308,15967,5,0,0:0:0:0:
254,61,16101,1,0,0:0:0:0:
85,169,16235,5,0,0:0:0:0:
309,132,16369,1,0,0:0:0:0:
181,10,16503,5,0,0:0:0:0:
202,137,16637,1,0,0:0:0:0:
415,14,16771,6,0,P|452:72|444:144,1,120.400001837158,0|0,0:0|0:0,0:0:0:0:
411,287,17039,1,0,0:0:0:0:
138,283,17173,6,0,P|196:246|268:254,1,120.400001837158,0|0,0:0|0:0,0:0:0:0:
411,287,17441,1,0,0:0:0:0:
232,380,17575,5,0,0:0:0:0:
274,130,17708,1,0,0:0:0:0:
450,314,17842,5,0,0:0:0:0:
150,364,17976,1,0,0:0:0:0:
206,73,18110,5,0,0:0:0:0:
370,369,18244,1,0,0:0:0:0:
56,154,18378,6,0,P|44:218|72:275,1,120.400001837158,0|0,0:0|0:0,0:0:0:0:
230,365,18646,1,0,0:0:0:0:
404,154,18780,6,0,P|416:218|388:275,1,120.400001837158,0|0,0:0|0:0,0:0:0:0:
230,365,19048,1,0,0:0:0:0:
212,97,19182,5,0,0:0:0:0:
311,322,19316,1,0,0:0:0:0:
131,259,19450,5,0,0:0:0:0:
292,108,19583,1,0,0:0:0:0:
261,259,19717,5,0,0:0:0:0:
139,30,19851,1,0,0:0:0:0:
50,301,19985,6,0,P|103:343|175:336,1,120.400001837158,0|0,0:0|0:0,0:0:0:0:
341,296,20253,1,0,0:0:0:0:
336,5,20387,6,0,P|294:58|301:130,1,120.400001837158,0|0,0:0|0:0,0:0:0:0:
341,296,20655,1,0,0:0:0:0:
426,117,20789,5,0,0:0:0:0:
167,182,20923,1,0,0:0:0:0:
352,372,21057,5,0,0:0:0:0:
402,73,21191,1,0,0:0:0:0:
130,193,21325,5,0,0:0:0:0:
464,291,21458,1,0,0:0:0:0:
253,63,21592,6,0,P|229:133|248:192,1,120.400001837158,0|0,0:0|0:0,0:0:0:0:
352,372,21860,1,0,0:0:0:0:
43,273,21994,6,0,P|113:249|172:268,1,120.400001837158,0|0,0:0|0:0,0:0:0:0:
352,372,22262,1,0,0:0:0:0:
152,166,22396,5,0,0:0:0:0:
400,149,22530,1,0,0:0:0:0:
259,264,22664,5,0,0:0:0:0:
171,74,22798,1,0,0:0:0:0:
285,165,22932,5,0,0:0:0:0:
156,259,23066,1,0,0:0:0:0:
108,19,23200,6,0,P|173:-6|236:18,1,120.400001837158,0|0,0:0|0:0,0:0:0:0:
338,100,23467,1,0,0:0:0:0:
108,181,23601,6,0,P|173:206|236:182,1,120.400001837158,0|0,0:0|0:0,0:0:0:0:
338,100,23869,1,0,0:0:0:0:
61,82,24003,5,0,0:0:0:0:
96,320,24137,1,0,0:0:0:0:
182,93,24271,5,0,0:0:0:0:
142,363,24405,1,0,0:0:0:0:
262,86,24539,5,0,0:0:0:0:
291,384,24673,1,0,0:0:0:0:
454,160,24807,6,0,P|386:137|333:168,1,120.400001837158,0|0,0:0|0:0,0:0:0:0:
224,314,25075,1,0,0:0:0:0:
70,84,25208,6,0,P|47:152|78:205,1,120.400001837158,0|0,0:0|0:0,0:0:0:0:
224,314,25476,1,0,0:0:0:0:
241,59,25610,5,0,0:0:0:0:
138,246,25744,1,0,0:0:0:0:
297,189,25878,5,0,0:0:0:0:
166,92,26012,1,0,0:0:0:0:
192,167,26146,5,0,0:0:0:0:
241,59,26280,1,0,0:0:0:0:
6,112,26414,1,0,0:0:0:0:
6,112,26682,5,0,0:0:0:0:
62,230,26816,2,0,P|91:230|119:218,1,60.2000009185791,0|0,0:0|0:0,0:0:0:0:
192,167,27083,1,0,0:0:0:0:
256,296,27217,6,0,P|230:281|211:257,1,60.2000009185791,0|0,0:0|0:0,0:0:0:0:
373,323,27485,2,0,P|373:352|361:380,1,60.2000009185791,0|0,0:0|0:0,0:0:0:0:
337,208,27753,1,0,0:0:0:0:
256,296,27887,1,0,0:0:0:0:
409,248,28021,6,0,P|417:196|388:143,1,90.3000013778687,0|0,0:0|0:0,0:0:0:0:
385,137,28289,1,0,0:0:0:0:
228,178,28423,2,0,B|218:208|218:208|347:208,1,150.500002296448,0|0,0:0|0:0,0:0:0:0:
385,137,28825,6,0,L|287:136,1,90.3000013778687,0|0,0:0|0:0,0:0:0:0:
183,67,29092,2,0,P|146:60|110:68,1,74.2000001132202,0|0,0:0|0:0,0:0:0:0:
112,216,29360,2,0,P|148:222|184:214,1,74.2000001132202,0|0,0:0|0:0,0:0:0:0:
46,154,29628,6,0,P|21:180|12:248,1,74.2000001132202,0|0,0:0|0:0,0:0:0:0:
97,320,29896,1,0,0:0:0:0:
148,154,30030,2,0,P|173:180|182:248,1,74.2000001132202,0|0,0:0|0:0,0:0:0:0:
95,230,30298,1,0,0:0:0:0:
70,54,30432,6,0,L|-8:28,1,74.2000001132202,0|0,0:0|0:0,0:0:0:0:
46,154,30700,1,0,0:0:0:0:
180,56,30833,2,0,L|258:30,1,74.2000001132202,0|0,0:0|0:0,0:0:0:0:
207,147,31101,1,0,0:0:0:0:
46,154,31235,6,0,P|8:211|32:295,1,148.40000022644,0|0,0:0|0:0,0:0:0:0:
168,240,31637,2,0,L|95:230,2,74.2000001132202,0|0|0,0:0|0:0|0:0,0:0:0:0:
210,314,32039,6,0,P|248:257|241:196,1,111.30000016983,0|0,0:0|0:0,0:0:0:0:
190,168,32307,2,0,P|241:190|295:180,1,111.30000016983,0|0,0:0|0:0,0:0:0:0:
252,110,32575,2,0,L|255:27,1,74.2000001132202,0|0,0:0|0:0,0:0:0:0:
382,183,32842,6,0,P|353:241|293:270,1,111.30000016983,0|0,0:0|0:0,0:0:0:0:
277,267,33110,1,0,0:0:0:0:
323,113,33244,2,0,P|367:92|428:107,1,111.30000016983,0|0,0:0|0:0,0:0:0:0:
451,133,33512,1,0,0:0:0:0:
295,180,33646,2,0,L|211:162,1,74.2000001132202,0|0,0:0|0:0,0:0:0:0:
419,263,33914,2,0,L|491:243,1,74.2000001132202,0|0,0:0|0:0,0:0:0:0:
389,340,34182,2,0,P|349:304|344:227,1,111.30000016983,0|0,0:0|0:0,0:0:0:0:
471,218,34450,6,0,B|494:241|494:241|398:268,1,111.30000016983,0|0,0:0|0:0,0:0:0:0:
340,116,34717,1,0,0:0:0:0:
226,245,34851,2,0,P|187:237|149:206,2,74.2000001132202,0|0|0,0:0|0:0|0:0,0:0:0:0:
222,164,35253,6,0,L|224:25,1,111.30000016983,0|0,0:0|0:0,0:0:0:0:
250,25,35521,2,0,L|329:5,1,74.2000001132202,0|0,0:0|0:0,0:0:0:0:
222,164,35789,2,0,L|143:144,1,74.2000001132202,0|0,0:0|0:0,0:0:0:0:
92,113,36057,6,0,L|76:243,1,111.30000016983,0|0,0:0|0:0,0:0:0:0:
72,260,36325,1,0,0:0:0:0:
222,164,36458,2,0,L|206:294,1,111.30000016983,0|0,0:0|0:0,0:0:0:0:
202,311,36726,1,0,0:0:0:0:
371,156,36860,2,0,L|355:286,1,111.30000016983,0|0,0:0|0:0,0:0:0:0:
351,303,37128,1,0,0:0:0:0:
501,207,37262,2,0,L|485:337,1,111.30000016983,0|0,0:0|0:0,0:0:0:0:
481,354,37530,1,0,0:0:0:0:
452,143,37664,6,0,P|403:82|318:91,1,148.40000022644,0|0,0:0|0:0,0:0:0:0:
404,52,38066,2,0,P|433:30|455:0,2,74.2000001132202,0|0|0,0:0|0:0|0:0,0:0:0:0:
244,97,38467,6,0,P|247:60|262:27,1,74.2000001132202,0|0,0:0|0:0,0:0:0:0:
154,171,38735,2,0,P|150:134|136:100,1,74.2000001132202,0|0,0:0|0:0,0:0:0:0:
119,257,39003,2,0,P|147:263|198:255,1,81.2000024780274
229,240,39204,1,0,0:0:0:0:
229,240,39271,6,0,P|209:304|226:354,1,121.800003717041
260,376,39539,1,0,0:0:0:0:
314,201,39673,2,0,P|277:160|221:146,1,81.2000024780274,0|0,0:0|0:0,0:0:0:0:
154,171,39941,1,0,0:0:0:0:
308,299,40075,6,0,P|362:287|402:245,1,81.2000024780274,0|0,0:0|0:0,0:0:0:0:
425,86,40342,2,0,P|407:138|423:194,1,81.2000024780274,0|0,0:0|0:0,0:0:0:0:
474,240,40610,1,0,0:0:0:0:
502,140,40744,1,0,0:0:0:0:
375,257,40878,6,0,P|365:320|376:353,1,81.2000024780274,0|0,0:0|0:0,0:0:0:0:
457,303,41146,1,0,0:0:0:0:
373,162,41280,2,0,P|334:171|302:196,2,81.2000024780274,0|2|0,0:0|0:0|0:0,0:0:0:0:
292,279,41682,6,0,P|245:254|230:158,1,121.800003717041,0|0,0:0|0:0,0:0:0:0:
219,151,41950,2,0,P|165:124|107:139,1,121.800003717041,0|0,0:0|0:0,0:0:0:0:
157,205,42217,2,0,L|150:328,1,121.800003717041,0|0,0:0|0:0,0:0:0:0:
107,384,42485,6,0,L|114:261,1,121.800003717041,0|0,0:0|0:0,0:0:0:0:
116,221,42753,1,0,0:0:0:0:
37,303,42887,2,0,L|31:400,1,81.2000024780274
118,202,43155,1,0,0:0:0:0:
185,303,43289,6,0,L|181:391,1,81.2000024780274
243,198,43557,1,0,0:0:0:0:
84,118,43691,2,0,P|42:155|36:236,1,121.800003717041,0|0,0:0|0:0,0:0:0:0:
43,256,43958,1,0,0:0:0:0:
163,90,44092,6,0,P|126:48|45:42,1,121.800003717041,0|0,0:0|0:0,0:0:0:0:
22,44,44360,1,0,0:0:0:0:
147,170,44494,2,0,P|187:167|222:147,2,81.2000024780274,0|0|0,0:0|0:0|0:0,0:0:0:0:
257,74,44896,6,0,P|298:121|276:207,1,121.800003717041,0|0,0:0|0:0,0:0:0:0:
236,225,45164,2,0,P|306:220|352:258,1,121.800003717041,0|0,0:0|0:0,0:0:0:0:
367,283,45432,1,0,0:0:0:0:
222,147,45566,1,0,0:0:0:0:
277,309,45700,6,0,P|311:359|389:374,1,121.800003717041,0|0,0:0|0:0,0:0:0:0:
407,370,45967,1,0,0:0:0:0:
242,226,46101,2,0,P|197:265|187:327,1,121.800003717041
188,365,46369,1,0,0:0:0:0:
367,283,46503,6,0,B|364:261|364:261|270:313,1,121.800003717041,0|0,0:0|0:0,0:0:0:0:
259,374,46771,2,0,L|358:326,1,81.2000024780274,0|0,0:0|0:0,0:0:0:0:
242,226,47039,1,0,0:0:0:0:
367,283,47173,1,0,0:0:0:0:
265,147,47307,6,0,P|199:148|168:188,1,81.2000024780274,0|0,0:0|0:0,0:0:0:0:
135,235,47575,1,0,0:0:0:0:
323,206,47708,2,0,P|343:162|342:108,1,81.2000024780274
299,31,47976,1,0,0:0:0:0:
242,226,48110,6,0,P|274:275|360:287,1,121.800003717041
265,147,48378,2,0,L|177:120,1,81.2000024780274
368,59,48646,2,0,L|445:35,1,81.2000024780274
507,0,48914,6,0,L|510:95,1,81.2000024780274
512,177,49182,1,0,0:0:0:0:
368,59,49316,6,0,L|370:161,1,88.1999973083497
373,236,49583,1,0,0:0:0:0:
229,118,49717,6,0,L|231:223,1,90.9999958343508
233,300,49985,1,0,0:0:0:0:
90,177,50119,6,0,L|92:290,1,97.9999970092774
95,373,50387,1,0,0:0:0:0:
180,149,50521,2,0,P|128:90|15:119,1,190.400001162109
90,177,50923,1,0,0:0:0:0:
26,106,51057,1,0,0:0:0:0:
65,260,51191,1,0,2:0:0:0:
180,149,51325,5,0,0:0:0:0:
0,206,51458,1,0,0:0:0:0:
245,213,51592,5,0,1:0:0:0:
25,130,51726,1,0,1:0:0:0:
234,325,51860,5,0,1:0:0:0:
236,56,51994,1,0,1:0:0:0:
467,192,52128,1,0,1:0:0:0:
467,192,52396,6,0,P|371:222|314:200,1,140
269,144,52798,1,0,0:0:0:0:
135,369,52932,2,0,B|160:278|106:282|136:195,1,167.999994873047
226,213,53333,1,0,0:0:0:0:
56,183,53467,1,0,0:0:0:0:
222,341,53601,1,0,0:0:0:0:
244,110,53735,6,0,P|282:57|407:57,1,167.999994873047
466,158,54137,1,0,0:0:0:0:
339,135,54271,1,0,0:0:0:0:
477,39,54405,1,0,0:0:0:0:
348,275,54539,6,0,L|357:385,1,83.9999974365235
470,122,54807,2,0,L|479:11,1,83.9999974365235
452,263,55075,1,0,0:0:0:0:
378,42,55208,1,0,0:0:0:0:
234,295,55342,6,0,P|174:309|60:247,1,181.999991668702
310,203,55744,1,0,0:0:0:0:
112,42,55878,1,0,0:0:0:0:
172,227,56012,1,0,0:0:0:0:
348,13,56146,6,0,P|408:-1|522:61,1,181.999991668702
310,203,56548,1,0,0:0:0:0:
512,192,56682,1,0,0:0:0:0:
237,84,56816,1,0,0:0:0:0:
300,349,56950,5,0,0:0:0:0:
272,3,57083,1,0,0:0:0:0:
184,339,57217,1,0,0:0:0:0:
390,88,57351,1,0,0:0:0:0:
87,274,57485,1,0,0:0:0:0:
498,192,57619,1,0,0:0:0:0:
13,193,57753,6,0,L|-1:95,1,84
79,30,58021,2,0,P|84:117|162:203,1,199.499994672775
208,139,58289,2,0,P|156:39|285:11,1,283.500001081467
303,384,58557,6,0,B|273:312|299:242|299:242|322:173|288:105,1,283.500001081467
229,66,58825,1,0,0:0:0:0:
502,259,58958,2,0,P|392:264|491:359,1,283.500001081467
512,332,59226,1,0,0:0:0:0:
417,90,59360,6,0,L|222:66,1,189.000000720978
160,376,59628,2,0,L|278:219,1,189.000000720978
31,10,59896,2,0,L|107:190,1,189.000000720978
322,381,60164,5,0,0:0:0:0:
218,139,60298,1,0,0:0:0:0:
61,351,60432,1,0,0:0:0:0:
417,90,60566,5,0,0:0:0:0:
160,26,60700,1,0,0:0:0:0:
234,279,60833,1,0,0:0:0:0:
316,27,60967,6,0,P|381:1|474:7,1,146.999995513916
187,142,61235,2,0,P|122:116|29:122,1,146.999995513916
316,261,61503,2,0,P|381:235|474:241,1,146.999995513916
114,320,61771,6,0,P|72:205|41:295,1,251.999992309571
37,325,62039,1,0,0:0:0:0:
362,121,62173,2,0,P|254:208|245:364,1,251.999992309571
251,384,62441,1,0,0:0:0:0:
499,168,62575,6,0,L|484:0,1,167.999994873047
347,288,62842,2,0,L|361:120,1,167.999994873047
176,379,63110,2,0,L|219:216,1,167.999994873047
271,0,63378,5,0,0:0:0:0:
31,108,63512,1,0,0:0:0:0:
361,120,63646,1,0,0:0:0:0:
52,90,63780,5,0,0:0:0:0:
305,263,63914,1,0,0:0:0:0:
305,0,64048,1,0,0:0:0:0:
123,278,64182,6,0,P|24:276|-30:250,1,125.999996154785
204,79,64450,1,0,0:0:0:0:
309,373,64583,1,0,0:0:0:0:
472,0,64717,2,0,L|488:188,1,146.999995513916
512,378,64985,6,0,P|425:284|275:285,1,283.500001081467
207,339,65253,1,0,0:0:0:0:
512,246,65387,2,0,P|333:192|138:298,1,378.000001441956
14,23,65789,6,0,L|29:236,1,189.000000720978
208,0,66057,2,0,L|114:191,1,189.000000720978
413,15,66325,2,0,L|236:134,1,189.000000720978
0,284,66592,5,0,0:0:0:0:
298,357,66726,1,0,0:0:0:0:
125,169,66860,1,0,0:0:0:0:
512,284,66994,5,0,0:0:0:0:
214,357,67128,1,0,0:0:0:0:
387,169,67262,1,0,0:0:0:0:
138,253,67396,6,0,P|96:313|91:384,1,146.999995513916
125,169,67664,2,0,P|58:199|19:259,1,146.999995513916
155,89,67932,2,0,P|82:82|17:114,1,146.999995513916
458,343,68200,6,0,B|476:271|453:206|453:206|426:138|462:63,1,283.500001081467
506,5,68467,1,0,0:0:0:0:
365,384,68601,2,0,L|348:89,1,283.500001081467
345,0,68869,1,0,0:0:0:0:
263,347,69003,6,0,P|243:268|265:150,1,189.000000720978
3,102,69271,2,0,P|93:130|165:191,1,189.000000720978
345,0,69539,2,0,P|275:63|187:95,1,189.000000720978
62,358,69807,5,0,0:0:0:0:
357,253,69941,1,0,0:0:0:0:
119,49,70075,1,0,0:0:0:0:
157,369,70208,5,0,0:0:0:0:
415,193,70342,1,0,0:0:0:0:
132,57,70476,1,0,0:0:0:0:
107,264,70610,6,0,B|53:259|53:259|91:210|218:203|311:248,1,283.500001081467
411,291,70878,2,0,P|463:194|292:156,1,283.500001081467
184,94,71146,2,0,P|293:38|491:58,1,283.500001081467
339,118,71414,6,0,L|337:321,1,189.000000720978
239,25,71682,1,0,0:0:0:0:
139,118,71816,6,0,L|141:321,1,189.000000720978
239,25,72083,1,0,0:0:0:0:
244,324,72217,5,0,0:0:0:0:
150,34,72351,1,0,0:0:0:0:
409,154,72485,5,0,0:0:0:0:
140,306,72619,1,0,0:0:0:0:
319,0,72753,5,0,0:0:0:0:
329,336,72887,1,0,0:0:0:0:
6,138,73021,6,0,L|209:118,2,189.000000720978
279,234,73423,2,0,L|76:214,2,189.000000720978
385,87,73825,5,0,0:0:0:0:
277,322,73958,1,0,0:0:0:0:
279,121,74092,5,0,0:0:0:0:
490,152,74226,1,0,0:0:0:0:
372,212,74360,5,0,0:0:0:0:
329,33,74494,1,0,0:0:0:0:
186,343,74628,6,0,P|148:232|54:261,1,189.000000720978
277,322,74896,1,0,0:0:0:0:
368,343,75030,6,0,P|406:232|500:261,1,189.000000720978
277,322,75298,1,0,0:0:0:0:
259,23,75432,5,0,0:0:0:0:
275,298,75566,1,0,0:0:0:0:
423,39,75700,5,0,0:0:0:0:
118,63,75833,1,0,0:0:0:0:
276,349,75967,5,0,0:0:0:0:
335,12,76101,1,0,0:0:0:0:
111,165,76235,5,0,0:0:0:0:
229,126,76369,1,0,0:0:0:0:
205,256,76503,1,0,0:0:0:0:
79,177,76637,5,0,0:0:0:0:
255,113,76771,1,0,0:0:0:0:
198,285,76905,1,0,0:0:0:0:
157,62,77039,6,0,P|257:18|365:152,1,283.500001081467
255,113,77307,2,0,P|355:69|463:203,1,283.500001081467
368,140,77575,2,0,P|286:34|158:73,1,283.500001081467
70,306,77842,6,0,L|60:104,1,189.000000720978
157,351,78110,1,0,0:0:0:0:
244,306,78244,6,0,L|254:104,1,189.000000720978
157,351,78512,1,0,0:0:0:0:
154,63,78646,5,0,0:0:0:0:
258,336,78780,1,0,0:0:0:0:
312,22,78914,5,0,0:0:0:0:
166,329,79048,1,0,0:0:0:0:
89,22,79182,5,0,0:0:0:0:
268,364,79316,1,0,0:0:0:0:
408,15,79450,6,0,L|403:216,2,189.000000720978
182,203,79851,2,0,L|178:15,2,189.000000720978
302,311,80253,5,0,0:0:0:0:
289,94,80387,1,0,0:0:0:0:
182,205,80521,5,0,0:0:0:0:
346,202,80655,1,0,0:0:0:0:
260,169,80789,5,0,0:0:0:0:
262,254,80923,1,0,0:0:0:0:
379,50,81057,6,0,P|282:6|193:57,1,189.000000720978
92,166,81325,1,0,0:0:0:0:
379,282,81458,6,0,P|282:326|193:275,1,189.000000720978
92,166,81726,1,0,0:0:0:0:
413,183,81860,5,0,0:0:0:0:
68,167,81994,1,0,0:0:0:0:
305,365,82128,5,0,0:0:0:0:
292,59,82262,1,0,0:0:0:0:
83,311,82396,5,0,0:0:0:0:
377,284,82530,1,0,0:0:0:0:
138,70,82664,5,0,0:0:0:0:
162,196,82798,1,0,0:0:0:0:
274,85,82932,1,0,0:0:0:0:
117,52,83066,5,0,0:0:0:0:
150,225,83200,1,0,0:0:0:0:
305,72,83333,1,0,0:0:0:0:
63,159,83467,5,0,0:0:0:0:
187,87,83601,1,0,0:0:0:0:
231,282,83735,5,0,0:0:0:0:
102,82,83869,1,0,0:0:0:0:
308,144,84003,5,0,0:0:0:0:
142,255,84137,1,0,0:0:0:0:
380,186,84271,6,0,P|389:143|380:100,1,88.1999973083497
306,0,84539,1,0,0:0:0:0:
237,188,84673,2,0,P|228:145|236:102,1,88.1999973083497
306,0,84941,1,0,0:0:0:0:
390,268,85075,6,0,P|442:238|466:189,1,88.1999973083497
211,268,85342,2,0,P|166:228|152:175,1,88.1999973083497
390,268,85610,2,0,P|377:327|338:365,1,88.1999973083497
300,113,85878,6,0,P|357:94|409:108,1,88.1999973083497
463,131,86146,1,0,0:0:0:0:
277,194,86280,2,0,P|237:164|212:101,1,88.1999973083497
355,175,86548,1,0,0:0:0:0:
219,46,86682,6,0,P|171:58|138:104,1,88.1999973083497
330,191,86950,2,0,P|343:150|332:108,1,88.1999973083497
148,216,87217,2,0,P|177:248|219:259,1,88.1999973083497
81,165,87485,6,0,P|69:234|88:277,1,102.200002807007
147,367,87753,1,0,0:0:0:0:
215,168,87887,2,0,P|227:217|214:266,1,102.200002807007
147,367,88155,1,0,0:0:0:0:
154,102,88289,6,0,L|157:-28,1,102.200002807007
236,317,88557,2,0,L|121:379,1,102.200002807007
382,139,88825,2,0,L|493:206,1,102.200002807007
289,152,89092,6,0,P|300:92|362:45,1,109.200003665772
423,18,89360,1,0,0:0:0:0:
335,236,89494,2,0,P|272:245|207:205,1,109.200003665772
159,152,89762,1,0,0:0:0:0:
377,151,89896,6,0,P|422:191|432:267,1,109.200003665772
180,300,90164,2,0,P|146:249|156:172,1,109.200003665772
221,84,90432,1,0,0:0:0:0:
103,384,90566,1,0,0:0:0:0:
335,236,90700,6,0,L|463:214,1,116.200001684418
360,349,90967,1,0,0:0:0:0:
221,84,91101,2,0,L|93:62,1,116.200001684418
198,200,91369,1,0,0:0:0:0:
452,102,91503,6,0,L|449:-28,1,102.200002807007
370,329,91771,2,0,L|459:378,1,102.200002807007
215,144,92039,2,0,L|127:197,1,102.200002807007
309,140,92307,6,0,P|281:76|190:51,1,123.200003759766
75,7,92575,1,0,0:0:0:0:
69,270,92708,2,0,P|37:207|77:121,1,123.200003759766
75,7,92976,1,0,0:0:0:0:
294,222,93110,6,0,P|355:205|390:152,1,130.200004072724
94,234,93378,2,0,P|77:296|105:353,1,130.200004072724,0|0,3:0|3:0,3:0:0:0:
182,54,93646,2,0,P|138:9|74:5,1,130.200004072724,0|0,2:0|2:0,2:0:0:0:
241,299,93914,6,0,P|302:315|359:287,1,130.200004072724,0|0,2:0|2:0,2:0:0:0:
421,165,94182,1,0,0:0:0:0:
202,213,94316,2,0,P|156:257|152:321,1,130.200004072724,0|0,2:0|2:0,2:0:0:0:
359,287,94583,1,0,0:0:0:0:
105,84,94717,2,0,B|62:115|62:115|58:233,1,144.199998789825
406,118,94985,2,0,B|400:65|400:65|300:2,1,144.199998789825
226,361,95253,2,0,B|274:382|274:382|378:327,1,144.199998789825
231,72,95521,6,0,B|203:120|203:120|247:262,1,144.199998789825
270,288,95789,1,0,0:0:0:0:
323,17,95923,1,0,0:0:0:0:
364,183,96057,1,0,0:0:0:0:
231,72,96191,1,0,0:0:0:0:
512,0,96325,5,0,0:0:0:0:
0,192,96592,5,0,0:0:0:0:
512,384,96860,5,0,0:0:0:0:
256,0,97128,5,0,0:0:0:0:
189,135,97396,5,0,0:0:0:0:
189,135,97530,2,0,P|255:152|323:136,1,140
433,12,97932,2,0,L|441:104,1,70
512,163,98200,2,0,L|503:255,1,70
495,351,98467,1,0,0:0:0:0:
387,231,98601,1,0,0:0:0:0:
387,231,98735,2,0,P|321:212|247:241,1,140
323,327,99137,2,0,P|257:349|191:331,1,140
94,255,99539,1,0,0:0:0:0:
34,116,99807,6,0,P|25:165|5:205,1,70
143,82,100075,2,0,P|138:47|126:14,1,70
261,195,100342,2,0,L|273:55,1,140
374,206,100744,2,0,P|378:240|390:273,1,70
480,218,101012,1,0,0:0:0:0:
287,384,101146,2,0,P|291:349|303:316,1,70
393,372,101414,1,0,0:0:0:0:
171,368,101548,2,0,P|116:352|40:295,1,140
23,382,101950,2,0,P|50:297|31:148,1,210
0,61,102619,5,0,0:0:0:0:
0,61,102753,2,0,L|81:53,1,70
258,143,103021,2,0,L|188:136,1,70
156,49,103289,5,0,0:0:0:0:
234,224,103423,1,0,0:0:0:0:
347,69,103557,1,0,0:0:0:0:
479,18,103825,5,0,0:0:0:0:
479,18,103958,2,0,P|476:65|480:106,1,70
498,176,104226,1,0,0:0:0:0:
327,287,104360,2,0,L|340:135,2,140
452,240,105030,1,0,0:0:0:0:
349,382,105164,2,0,P|270:368|227:305,1,140
327,287,105566,2,0,B|415:283|392:329|475:323,1,140
233,324,105967,1,0,0:0:0:0:
151,188,106235,6,0,P|153:231|166:264,1,70
55,150,106503,2,0,P|53:193|40:226,1,70
20,30,106771,2,0,P|87:23|169:31,1,140
291,80,107173,2,0,P|287:139|273:179,1,70
243,11,107441,1,0,0:0:0:0:
494,0,107575,2,0,L|501:87,1,70
512,181,107842,1,0,0:0:0:0:
376,105,107976,2,0,P|380:46|394:6,1,70
428,173,108244,1,0,0:0:0:0:
164,219,108378,2,0,P|215:159|224:253,1,210
85,179,109048,5,0,0:0:0:0:
379,287,109182,1,0,0:0:0:0:
379,287,109985,6,0,B|406:207|353:182|377:107,1,167.999994873047
479,292,110387,2,0,P|468:338|445:372,1,83.9999974365235
467,206,110655,1,0,0:0:0:0:
309,375,110789,2,0,L|209:366,1,83.9999974365235
0,287,111057,2,0,L|99:278,1,83.9999974365235
254,267,111325,1,0,0:0:0:0:
65,362,111458,1,0,0:0:0:0:
0,123,111592,2,0,P|95:55|165:55,1,167.999994873047
206,192,111994,2,0,L|123:181,2,83.9999974365235
5,1,112396,1,0,0:0:0:0:
5,1,112664,6,0,P|17:69|17:105,1,83.9999974365235
221,35,112932,2,0,P|210:93|211:142,1,83.9999974365235
426,15,113200,2,0,P|465:83|464:172,1,167.999994873047
377,319,113601,2,0,L|366:227,1,83.9999974365235
457,269,113869,1,0,0:0:0:0:
270,373,114003,2,0,L|281:281,1,83.9999974365235
190,323,114271,1,0,0:0:0:0:
377,319,114405,2,0,L|357:147,1,167.999994873047
39,251,114807,2,0,B|147:277|121:224|205:228,1,167.999994873047
290,206,115208,2,0,L|279:289,2,83.9999974365235
124,358,115610,6,0,L|29:355,1,83.9999974365235
290,206,115878,2,0,L|385:203,1,83.9999974365235
39,251,116146,1,0,0:0:0:0:
312,308,116280,1,0,0:0:0:0:
78,145,116414,6,0,P|25:78|2:-2,1,167.999994873047
191,116,116816,2,0,P|192:163|180:211,1,83.9999974365235
110,40,117083,1,0,0:0:0:0:
321,19,117217,2,0,L|418:9,1,83.9999974365235
455,143,117485,1,0,0:0:0:0:
274,124,117619,2,0,L|177:114,1,83.9999974365235
321,19,117887,1,0,0:0:0:0:
331,221,118021,2,0,P|326:304|297:383,1,167.999994873047
122,289,118423,2,0,P|170:255|217:255,1,83.9999974365235
198,346,118691,1,0,0:0:0:0:
16,191,118825,6,0,P|62:163|162:143,1,125.999996154785
164,161,119092,2,0,P|216:180|261:183,1,83.9999974365235
418,105,119360,2,0,P|459:103|500:112,1,83.9999974365235
450,384,119628,2,0,P|438:316|447:212,1,167.999994873047
256,101,120030,2,0,P|244:151|245:203,1,83.9999974365235
341,288,120298,1,0,0:0:0:0:
334,83,120432,2,0,L|331:-2,1,83.9999974365235
137,47,120700,1,0,0:0:0:0:
371,162,120833,2,0,P|411:123|420:61,1,83.9999974365235
225,0,121101,1,0,0:0:0:0:
119,278,121235,6,0,P|118:347|124:382,2,83.9999974365235
209,160,121637,1,0,0:0:0:0:
207,137,121771,1,0,0:0:0:0:
204,114,121905,1,0,0:0:0:0:
228,381,122039,5,0,0:0:0:0:
69,82,122173,1,0,0:0:0:0:
368,293,122307,5,0,0:0:0:0:
74,217,122441,1,0,0:0:0:0:
333,182,122575,5,0,0:0:0:0:
141,324,122708,1,0,0:0:0:0:
360,0,122842,5,0,0:0:0:0:
360,0,123110,6,0,P|372:68|421:179,1,167.999994873047
498,238,123512,1,0,0:0:0:0:
222,372,123646,6,0,P|231:276|276:202,1,167.999994873047
357,134,124048,1,0,0:0:0:0:
352,325,124182,1,0,0:0:0:0:
338,119,124316,1,0,0:0:0:0:
452,367,124450,6,0,P|459:285|435:180,1,167.999994873047
191,237,124851,1,0,0:0:0:0:
387,285,124985,1,0,0:0:0:0:
158,268,125119,1,0,0:0:0:0:
443,201,125253,6,0,P|380:190|336:201,1,90.9999958343508
107,347,125521,2,0,P|170:358|214:347,1,90.9999958343508
33,243,125789,1,0,0:0:0:0:
291,358,125923,1,0,0:0:0:0:
253,45,126057,6,0,P|166:7|79:46,1,195.999994018555
239,271,126458,1,0,0:0:0:0:
174,101,126592,1,0,0:0:0:0:
213,303,126726,1,0,0:0:0:0:
339,86,126860,5,0,0:0:0:0:
47,109,126994,1,0,0:0:0:0:
371,105,127128,1,0,0:0:0:0:
18,84,127262,1,0,0:0:0:0:
390,20,127396,5,0,0:0:0:0:
10,177,127530,1,0,0:0:0:0:
367,358,127664,5,0,0:0:0:0:
291,0,127798,1,0,0:0:0:0:
120,365,127932,1,0,0:0:0:0:
512,142,128066,1,0,0:0:0:0:
60,93,128200,1,0,0:0:0:0:
367,358,128333,1,0,0:0:0:0:
511,12,128467,6,0,P|445:2|363:-1,1,146.999995513916
244,138,128735,2,0,P|331:107|479:114,1,231.000007049561
510,233,129003,2,0,P|404:198|221:291,1,315.000012016297
396,364,129271,6,0,L|388:72,1,210.000008010865
115,59,129539,1,0,0:0:0:0:
415,371,129673,2,0,L|407:79,1,210.000008010865
101,51,129941,1,0,0:0:0:0:
434,378,130075,5,0,0:0:0:0:
423,0,130208,1,0,0:0:0:0:
71,268,130342,5,0,0:0:0:0:
493,255,130476,1,0,0:0:0:0:
181,0,130610,5,0,0:0:0:0:
191,348,130744,1,0,0:0:0:0:
491,66,130878,5,0,0:0:0:0:
4,142,131012,1,0,0:0:0:0:
503,64,131146,1,0,0:0:0:0:
12,58,131280,5,0,0:0:0:0:
499,134,131414,1,0,0:0:0:0:
0,56,131548,1,0,0:0:0:0:
190,384,131682,5,0,0:0:0:0:
0,318,131816,1,0,0:0:0:0:
322,290,131950,5,0,0:0:0:0:
512,224,132083,1,0,0:0:0:0:
190,196,132217,5,0,0:0:0:0:
0,130,132351,1,0,0:0:0:0:
355,191,132485,6,0,P|366:283|257:337,1,210.000008010865
0,281,132753,1,0,0:0:0:0:
239,119,132887,2,0,B|281:88|281:88|279:294,1,210.000008010865
279,384,133155,1,0,0:0:0:0:
184,37,133289,6,0,B|92:-17|92:-17|139:95,1,210.000008010865
419,125,133557,2,0,B|511:73|511:73|408:59,1,210.000008010865,0|0,3:0|3:0,3:0:0:0:
225,284,133825,2,0,B|224:389|224:389|287:307,1,210.000008010865,0|0,2:0|2:0,2:0:0:0:
298,41,134092,5,0,0:0:0:0:
94,271,134226,1,0,0:0:0:0:
396,332,134360,1,0,0:0:0:0:
262,0,134494,5,0,0:0:0:0:
55,362,134628,1,0,0:0:0:0:
474,359,134762,1,0,0:0:0:0:
110,153,134896,5,0,0:0:0:0:
156,384,135030,1,0,0:0:0:0:
402,153,135164,5,0,0:0:0:0:
356,384,135298,1,0,0:0:0:0:
256,0,135432,5,0,0:0:0:0:
256,384,135566,1,0,0:0:0:0:
61,88,135700,6,0,B|1:5|1:5|111:66,1,210.000008010865
256,384,135967,1,0,0:0:0:0:
451,88,136101,2,0,B|510:5|510:5|400:66,1,210.000008010865
256,384,136369,1,0,0:0:0:0:
256,0,136503,6,0,B|265:47|240:98|240:98|264:129|264:129|229:183|275:257,1,245.000002336502
508,163,136771,2,0,P|415:124|330:178,1,210.000008010865
3,220,137039,2,0,P|96:259|182:206,1,210.000008010865
90,153,137307,5,0,0:0:0:0:
422,231,137441,1,0,0:0:0:0:
175,0,137575,1,0,0:0:0:0:
267,384,137708,5,0,0:0:0:0:
356,2,137842,1,0,0:0:0:0:
91,286,137976,1,0,0:0:0:0:
512,174,138110,5,0,0:0:0:0:
0,49,138244,1,0,0:0:0:0:
460,77,138378,5,0,0:0:0:0:
51,177,138512,1,0,0:0:0:0:
256,32,138646,5,0,0:0:0:0:
256,320,138780,1,0,0:0:0:0:
422,3,138914,6,0,P|529:27|524:137,1,238.00000453949
256,384,139182,1,0,0:0:0:0:
89,3,139316,2,0,P|-17:27|-12:137,1,238.00000453949
256,384,139583,1,0,0:0:0:0:
380,107,139717,6,0,B|291:53|247:111|195:171|90:92,1,280
380,200,139985,2,0,P|455:164|383:14,1,280
114,201,140253,2,0,P|39:165|111:15,1,280
380,107,140521,5,0,0:0:0:0:
356,384,140655,1,0,0:0:0:0:
360,106,140789,1,0,0:0:0:0:
91,380,140923,5,0,0:0:0:0:
115,103,141057,1,0,0:0:0:0:
111,381,141191,1,0,0:0:0:0:
204,56,141325,6,0,P|130:7|13:92,1,210.000008010865
333,340,141592,2,0,P|421:345|480:213,1,210.000008010865
115,103,141860,2,0,P|66:177|150:294,1,210.000008010865
379,244,142128,6,0,B|417:192|417:192|141:192,1,315.000012016297
65,192,142396,1,0,0:0:0:0:
379,140,142530,2,0,B|417:192|417:192|141:192,1,315.000012016297
65,193,142798,1,0,0:0:0:0:
382,84,142932,6,0,B|455:192|455:192|369:318,1,258.999999011993
299,58,143200,2,0,P|380:1|463:62,1,210.000008010865
465,324,143467,2,0,P|383:380|301:320,1,210.000008010865
512,192,143735,5,0,0:0:0:0:
299,58,143869,1,0,0:0:0:0:
290,310,144003,1,0,0:0:0:0:
512,149,144137,5,0,0:0:0:0:
207,54,144271,1,0,0:0:0:0:
278,364,144405,1,0,0:0:0:0:
435,88,144539,5,0,0:0:0:0:
141,0,144673,1,0,0:0:0:0:
39,260,144807,5,0,0:0:0:0:
333,172,144941,1,0,0:0:0:0:
8,183,145075,2,0,P|-41:268|22:343,1,210.000008010865
333,172,145342,6,0,B|270:87|270:87|142:42,1,210.000008010865
5,16,145610,1,0,0:0:0:0:
161,344,145744,2,0,B|76:281|76:281|31:153,1,210.000008010865
5,16,146012,1,0,0:0:0:0:
436,173,146146,6,0,P|509:57|461:-2,1,210.000008010865
207,253,146414,2,0,P|229:351|326:372,1,210.000008010865
251,16,146682,2,0,P|155:-13|88:59,1,210.000008010865
419,81,146950,5,0,0:0:0:0:
180,77,147083,1,0,0:0:0:0:
297,286,147217,1,0,0:0:0:0:
425,22,147351,5,0,0:0:0:0:
118,97,147485,1,0,0:0:0:0:
339,324,147619,1,0,0:0:0:0:
290,39,147753,5,0,0:0:0:0:
28,11,147887,1,0,0:0:0:0:
46,210,148021,5,0,0:0:0:0:
291,115,148155,1,0,0:0:0:0:
293,384,148289,5,0,0:0:0:0:
48,289,148423,1,0,0:0:0:0:
512,167,148557,6,0,B|460:128|397:178|397:178|372:160|372:160|341:215|272:227|216:177,1,315.000012016297
172,119,148825,1,0,0:0:0:0:
466,244,148958,2,0,B|416:335|416:335|305:366,1,210.000008010865
139,384,149226,1,0,0:0:0:0:
279,57,149360,6,0,B|188:106|188:106|156:218,1,210.000008010865
512,179,149628,2,0,B|514:75|514:75|433:-7,1,210.000008010865
290,320,149896,2,0,B|378:373|378:373|490:345,1,210.000008010865
262,165,150164,5,0,0:0:0:0:
435,114,150298,1,0,0:0:0:0:
393,288,150432,1,0,0:0:0:0:
177,197,150566,5,0,0:0:0:0:
451,25,150700,1,0,0:0:0:0:
461,348,150833,1,0,0:0:0:0:
267,91,150967,5,0,0:0:0:0:
512,165,151101,1,0,0:0:0:0:
282,1,151235,5,0,0:0:0:0:
37,75,151369,1,0,0:0:0:0:
274,186,151503,2,0,P|359:105|300:2,1,210.000008010865
129,243,151771,6,0,B|187:324|187:324|352:366,1,210.000008010865
512,315,152039,1,0,0:0:0:0:
301,0,152173,2,0,B|396:26|396:26|492:167,1,210.000008010865,0|0,2:0|2:0,2:0:0:0:
512,315,152441,1,0,2:0:0:0:
158,152,152575,6,0,P|93:156|47:289,1,210.000008010865
354,144,152842,2,0,P|373:101|279:-16,1,210.000008010865
263,318,153110,2,0,P|298:372|437:345,1,210.000008010865
280,81,153378,5,0,0:0:0:0:
130,243,153512,1,0,0:0:0:0:
355,297,153646,1,0,0:0:0:0:
243,105,153780,5,0,0:0:0:0:
119,339,153914,1,0,0:0:0:0:
397,332,154048,1,0,0:0:0:0:
227,172,154182,5,0,0:0:0:0:
25,117,154316,1,0,0:0:0:0:
119,339,154450,5,0,0:0:0:0:
321,284,154583,1,0,0:0:0:0:
215,138,154717,5,0,0:0:0:0:
254,365,154851,1,0,0:0:0:0:
432,218,154985,6,0,P|430:131|405:57,1,154.000004699707
336,154,155387,2,0,P|334:48|372:-5,1,154.000004699707
324,259,155789,2,0,L|153:245,2,154.000004699707
116,118,156592,6,0,P|155:97|188:47,1,77.0000023498536
89,21,156860,1,0,0:0:0:0:
68,220,156994,2,0,P|48:294|-16:364,1,154.000004699707
170,246,157396,2,0,P|172:290|173:339,1,77.0000023498536
252,212,157664,2,0,P|263:255|271:303,1,77.0000023498536
327,165,157932,2,0,P|346:205|361:251,1,77.0000023498536
440,369,158200,5,0,0:0:0:0:
509,159,158333,1,0,0:0:0:0:
512,165,158601,2,0,P|471:119|504:29,1,154.000004699707
508,253,159003,2,0,L|333:234,2,154.000004699707
253,189,159807,6,0,P|229:94|242:11,1,154.000004699707
234,39,160208,2,0,P|200:89|99:155,1,154.000004699707
20,56,160610,2,0,L|16:156,1,77.0000023498536
89,331,160878,2,0,L|85:231,1,77.0000023498536
124,33,161146,5,0,0:0:0:0:
8,214,161280,1,0,0:0:0:0:
330,183,161414,5,0,0:0:0:0:
343,184,161548,2,0,P|414:217|442:257,1,115.50000352478
435,245,161816,2,0,L|451:67,1,154.000004699707
327,300,162217,2,0,P|375:348|474:363,2,154.000004699707
54,365,163021,6,0,P|129:352|185:300,1,154.000004699707
67,177,163423,2,0,P|78:242|104:280,1,77.0000023498536
164,195,163691,1,0,0:0:0:0:
59,16,163825,2,0,L|38:107,1,77.0000023498536
157,22,164092,2,0,L|160:114,1,77.0000023498536
252,7,164360,2,0,L|283:98,1,77.0000023498536
344,243,164628,5,0,0:0:0:0:
410,71,164762,1,0,0:0:0:0:
405,65,165030,2,0,P|400:127|436:227,1,154.000004699707
237,110,165432,5,0,0:0:0:0:
185,257,165700,2,0,P|234:236|268:202,1,77.0000023498536
313,351,165967,1,0,0:0:0:0:
334,258,166101,1,0,0:0:0:0:
43,145,166235,5,0,0:0:0:0:
44,224,166369,1,0,0:0:0:0:
108,181,166503,1,0,0:0:0:0:
188,175,166637,5,0,0:0:0:0:
4,299,166771,1,0,0:0:0:0:
0,74,166905,1,0,0:0:0:0:
159,308,167039,6,0,P|113:344|66:362,1,77.0000023498536
316,140,167307,2,0,P|370:162|408:193,1,77.0000023498536
92,87,167575,2,0,P|84:30|92:-18,1,77.0000023498536
188,174,167842,5,0,0:0:0:0:
92,232,168646,5,0,0:0:0:0:
188,174,168914,1,0,0:0:0:0:
257,257,169182,1,0,0:0:0:0:
229,56,169450,1,0,0:0:0:0:
229,56,170253,6,0,L|392:54,1,154.000004699707
494,54,170789,1,0,0:0:0:0:
494,54,171057,6,0,P|446:162|460:223,1,154.000004699707
449,193,171458,1,0,0:0:0:0:
372,306,171726,5,0,0:0:0:0:
372,306,171860,2,0,P|274:268|223:297,1,154.000004699707
153,353,172396,1,0,0:0:0:0:
9,282,172664,1,0,0:0:0:0:
9,282,173467,6,0,L|13:112,1,154.000004699707
72,33,174003,1,0,0:0:0:0:
147,204,174271,1,0,0:0:0:0:
147,204,175075,5,0,0:0:0:0:
185,81,175342,1,0,0:0:0:0:
218,248,175610,1,0,0:0:0:0:
216,7,175878,1,0,0:0:0:0:
216,7,176682,6,0,P|296:29|380:13,1,154.000004699707
443,43,177217,1,0,0:0:0:0:
443,43,177485,6,0,P|412:123|429:197,1,154.000004699707
424,187,177887,1,0,0:0:0:0:
369,271,178155,5,0,0:0:0:0:
369,271,178289,2,0,P|298:297|222:259,1,154.000004699707
168,168,178825,1,0,0:0:0:0:
192,352,179092,1,0,0:0:0:0:
192,352,179896,6,0,L|49:343,1,115.50000352478
108,302,180164,2,0,L|303:293,1,178.500003404617
324,259,180432,2,0,L|8:248,1,315.000012016297
267,29,180700,6,0,B|366:50|366:50|409:149,1,210.000008010865
512,384,180967,1,0,0:0:0:0:
95,276,181101,2,0,B|148:361|148:361|297:371,1,210.000008010865,0|0,3:0|3:0,3:0:0:0:
512,384,181369,1,0,3:0:0:0:
52,44,181503,2,0,B|22:-7|-34:-2|-34:-2|-6:48|53:46,1,210.000008010865,0|0,3:0|3:0,3:0:0:0:
339,45,181771,2,0,B|398:45|422:-6|422:-6|364:-7|336:44,1,210.000008010865,0|0,3:0|3:0,3:0:0:0:
191,292,182039,2,0,B|160:343|194:390|194:390|224:339|192:290,1,210.000008010865,0|0,3:0|3:0,3:0:0:0:
215,0,182307,5,0,0:0:0:0:
93,186,182441,1,0,0:0:0:0:
316,198,182575,1,0,0:0:0:0:
168,0,182708,5,0,0:0:0:0:
56,337,182842,1,0,0:0:0:0:
404,263,182976,1,0,0:0:0:0:
0,0,183110,5,0,0:0:0:0:
512,146,183244,1,0,0:0:0:0:
0,146,183378,5,0,0:0:0:0:
512,0,183512,1,0,0:0:0:0:
142,382,183646,5,0,0:0:0:0:
256,0,183780,1,0,0:0:0:0:
512,377,183914,6,0,B|512:270|512:270|411:157,1,210.000008010865
256,0,184182,1,0,0:0:0:0:
0,377,184316,2,0,B|0:270|0:270|101:157,1,210.000008010865
256,0,184583,1,0,0:0:0:0:
438,184,184717,6,8,L|501:385,1,210.000008010865,8|8,2:0|2:0,2:0:0:0:
236,166,184985,2,8,L|379:10,1,210.000008010865,8|8,3:0|3:0,3:0:0:0:
322,349,185253,2,8,L|116:303,1,210.000008010865,8|8,3:0|3:0,3:0:0:0:
475,11,185521,5,0,0:0:0:0:
252,384,185655,1,0,0:0:0:0:
41,5,185789,1,0,0:0:0:0:
443,0,185923,5,0,3:0:0:0:
282,382,186057,1,0,3:0:0:0:
14,40,186191,1,0,3:0:0:0:
512,384,186325,5,0,0:0:0:0:
0,238,186458,1,0,0:0:0:0:
512,238,186592,5,0,0:0:0:0:
0,384,186726,1,0,0:0:0:0:
256,0,186860,5,0,0:0:0:0:
256,384,186994,1,0,0:0:0:0:
0,384,187128,6,0,L|275:280,1,210.000008010865
512,192,187396,1,0,0:0:0:0:
0,0,187530,2,0,L|291:110,1,210.000008010865
512,192,187798,1,0,0:0:0:0:
0,384,187932,6,0,B|82:368|82:368|120:323|120:323|247:315,1,210.000008010865
512,384,188200,2,0,B|430:368|430:368|392:323|392:323|265:315,1,210.000008010865
257,0,188467,2,0,L|255:250,1,210.000008010865
482,275,188735,5,0,0:0:0:0:
30,275,188869,1,0,0:0:0:0:
422,49,189003,1,0,3:0:0:0:
9,227,189137,5,0,0:0:0:0:
461,227,189271,1,0,0:0:0:0:
69,1,189405,1,0,3:0:0:0:
506,374,189539,5,0,0:0:0:0:
437,0,189673,1,0,0:0:0:0:
313,384,189807,5,0,3:0:0:0:
322,0,189941,1,0,3:0:0:0:
138,377,190075,5,8,3:0:0:0:
206,0,190208,1,8,3:0:0:0:
408,192,190342,6,0,B|345:107|345:107|217:62,1,210.000008010865
5,16,190610,1,0,0:0:0:0:
192,384,190744,2,0,B|107:321|107:321|62:193,1,210.000008010865
5,16,191012,1,0,0:0:0:0:
438,280,191146,2,0,B|500:237|500:237|488:78,1,210.000008010865
158,228,191414,2,0,B|162:303|162:303|306:371,1,210.000008010865
342,13,191682,2,0,B|273:-19|273:-19|141:70,1,210.000008010865
13,143,191950,5,0,0:0:0:0:
512,45,192083,1,0,0:0:0:0:
19,106,192217,1,0,0:0:0:0:
502,160,192351,5,0,0:0:0:0:
3,258,192485,1,0,0:0:0:0:
496,197,192619,1,0,0:0:0:0:
260,114,192753,5,0,0:0:0:0:
308,371,192887,1,0,0:0:0:0:
50,319,193021,5,0,0:0:0:0:
98,62,193155,1,0,0:0:0:0:
414,62,193289,5,0,0:0:0:0:
462,319,193423,1,0,0:0:0:0:
120,198,193557,6,0,P|156:122|196:77,2,105.000004005432
212,192,193958,2,0,P|257:155|331:143,2,105.000004005432
400,384,194360,5,0,0:0:0:0:
400,384,194494,1,0,0:0:0:0:
298,242,194628,1,0,0:0:0:0:
298,242,194762,1,0,0:0:0:0:
367,92,194896,1,0,0:0:0:0:
367,92,195030,1,0,0:0:0:0:
474,212,195164,6,0,P|454:270|461:326,1,105.000004005432
468,116,195432,1,0,0:0:0:0:
367,92,195566,2,0,P|304:98|250:83,1,105.000004005432
316,0,195833,1,0,0:0:0:0:
186,185,195967,6,0,L|224:286,1,105.000004005432
110,105,196235,2,0,L|89:227,1,105.000004005432
95,7,196503,2,0,L|-7:68,1,105.000004005432
283,38,196771,5,0,0:0:0:0:
229,7,196905,1,0,0:0:0:0:
229,70,197039,1,0,0:0:0:0:
158,168,197173,5,0,0:0:0:0:
104,137,197307,1,0,0:0:0:0:
158,105,197441,1,0,0:0:0:0:
65,301,197575,6,0,L|168:286,1,105.000004005432
337,262,197842,1,0,0:0:0:0:
251,358,197976,1,0,0:0:0:0:
337,262,198110,1,0,0:0:0:0:
251,358,198244,1,0,0:0:0:0:
125,203,198378,6,0,P|59:180|8:195,2,105.000004005432
337,262,198780,2,0,P|403:285|454:270,2,105.000004005432
413,76,199182,6,0,L|400:180,1,105.000004005432
485,25,199450,2,0,L|496:145,1,105.000004005432
309,36,199717,5,0,0:0:0:0:
501,256,199851,1,0,0:0:0:0:
174,102,199985,6,0,P|162:25|183:-32,1,105.000004005432
295,134,200253,1,0,0:0:0:0:
125,186,200387,2,0,P|78:120|74:66,1,105.000004005432
282,153,200655,1,0,0:0:0:0:
174,298,200789,6,0,L|111:382,1,105.000004005432
278,293,201057,1,0,0:0:0:0:
351,384,201191,1,0,0:0:0:0:
278,293,201325,1,0,0:0:0:0:
351,384,201458,1,0,0:0:0:0:
61,249,201592,6,0,P|35:329|27:383,1,105.000004005432
156,176,201860,1,0,0:0:0:0:
400,251,201994,2,0,P|426:331|434:385,1,105.000004005432
305,178,202262,1,0,0:0:0:0:
231,279,202396,6,0,L|231:384,1,105.000004005432
156,176,202664,2,0,P|134:234|126:286,1,105.000004005432
305,178,202932,2,0,P|327:236|335:288,1,105.000004005432
279,73,203200,6,0,P|335:21|398:3,1,105.000004005432
390,127,203467,1,0,0:0:0:0:
187,72,203601,2,0,P|144:32|123:-11,2,105.000004005432
475,143,204003,6,0,L|466:16,1,105.000004005432
382,231,204271,2,0,L|391:104,1,105.000004005432
491,241,204539,1,0,0:0:0:0:
427,330,204673,1,0,0:0:0:0:
150,242,204807,6,0,B|92:249|92:249|17:280,2,105.000004005432
512,314,205209,1,0,0:0:0:0:
298,191,205342,1,0,0:0:0:0:
512,68,205476,1,0,0:0:0:0:
150,142,205610,2,0,B|92:135|92:135|17:104,1,105.000004005432
424,151,205878,5,0,0:0:0:0:
338,317,206012,1,0,0:0:0:0:
169,231,206146,1,0,0:0:0:0:
255,63,206280,1,0,0:0:0:0:
298,191,206414,5,0,0:0:0:0:
37,347,206682,5,0,0:0:0:0:
37,347,206816,1,0,0:0:0:0:
81,104,207083,5,0,0:0:0:0:
81,104,207217,2,0,L|198:101,1,105.000004005432
259,54,207753,1,0,0:0:0:0:
326,207,208021,5,0,0:0:0:0:
233,277,208289,1,0,0:0:0:0:
233,277,208423,1,0,0:0:0:0:
374,320,208691,1,0,0:0:0:0:
374,320,208825,2,0,L|491:314,1,105.000004005432
290,368,209360,1,0,0:0:0:0:
171,178,209628,5,0,0:0:0:0:
91,308,209896,1,0,0:0:0:0:
91,308,210030,1,0,0:0:0:0:
66,99,210298,1,0,0:0:0:0:
66,99,210432,2,0,L|208:91,1,105.000004005432
280,199,210967,1,0,0:0:0:0:
412,48,211235,5,0,0:0:0:0:
440,222,211503,1,0,0:0:0:0:
440,222,211637,1,0,0:0:0:0:
271,323,211905,1,0,0:0:0:0:
271,323,212039,2,0,L|149:315,1,105.000004005432
79,262,212575,1,0,0:0:0:0:
246,55,212842,5,0,0:0:0:0:
39,145,213110,1,0,0:0:0:0:
39,145,213244,1,0,0:0:0:0:
240,159,213512,1,0,0:0:0:0:
240,159,213646,2,0,L|246:37,1,105.000004005432
221,252,214182,1,0,0:0:0:0:
446,63,214450,5,0,0:0:0:0:
482,216,214717,1,0,0:0:0:0:
482,216,214851,1,0,0:0:0:0:
368,359,215119,1,0,0:0:0:0:
368,359,215253,2,0,L|368:236,1,105.000004005432
448,361,215789,1,0,0:0:0:0:
240,325,216057,5,0,0:0:0:0:
77,355,216325,1,0,0:0:0:0:
77,355,216458,1,0,0:0:0:0:
117,200,216726,1,0,0:0:0:0:
117,200,216860,2,0,L|114:73,1,105.000004005432
199,249,217396,1,0,0:0:0:0:
360,34,217664,6,0,B|311:101|315:218|343:278|343:278|384:270|420:226|406:192|406:192|377:158|267:150|204:175|204:175|148:195|67:200|13:182|13:182|9:139|48:93|82:87|82:87|127:122|133:233|113:274|113:274|97:310|92:357|114:374|114:374|150:344|225:336|268:350|268:350|319:363|365:360|395:345|395:345|428:326|480:279|498:233|491:182|465:141|465:141|433:100|430:41|473:8,1,1890.00007209778
