osu file format v14

[General]
AudioFilename: audio.mp3
AudioLeadIn: 0
PreviewTime: 81651
Countdown: 1
SampleSet: Soft
StackLeniency: 0.7
Mode: 0
LetterboxInBreaks: 0
WidescreenStoryboard: 0

[Editor]
Bookmarks: 43851,63051,77451,178251,192651,255051,331851,336651
DistanceSpacing: 1.4
BeatDivisor: 4
GridSize: 32
TimelineZoom: 1

[Metadata]
Title:Hope
TitleUnicode:Hope
Artist:Primary
ArtistUnicode:Primary
Creator:guineaQ
Version:Vivere
Source:
Tags:Point. Meis Clauson Yuiko Yuikonnu
BeatmapID:1150185
BeatmapSetID:542607

[Difficulty]
HPDrainRate:6
CircleSize:4
OverallDifficulty:8.2
ApproachRate:9
SliderMultiplier:2.7
SliderTickRate:2

[Events]
//Background and Video events
0,0,".w..jpg",0,0
//Break Periods
2,255251,271251
//Storyboard Layer 0 (Background)
//Storyboard Layer 1 (Fail)
//Storyboard Layer 2 (Pass)
//Storyboard Layer 3 (Foreground)
//Storyboard Sound Samples

[TimingPoints]
651,600,4,2,1,50,1,0
5451,-100,4,2,1,60,0,0
82251,-90.0900900900901,4,2,1,60,0,1
120651,-100,4,2,1,60,0,0
139851,-100,4,2,1,50,0,0
159051,-100,4,2,1,60,0,0
197451,-90.0900900900901,4,2,1,60,0,1
235851,-133.333333333333,4,2,1,60,0,0
271851,-100,4,2,1,60,0,0
274251,-90.0900900900901,4,2,1,60,0,1
312651,-100,4,2,1,60,0,0
331851,-100,4,2,1,40,0,0
332451,-100,4,2,1,35,0,0
333051,-100,4,2,1,30,0,0
333651,-100,4,2,1,25,0,0
334251,-100,4,2,1,20,0,0
334851,-100,4,2,1,10,0,0
335451,-100,4,2,1,5,0,0

[Colours]
Combo1 : 240,124,47
Combo2 : 128,255,0
Combo3 : 54,233,107
Combo4 : 78,224,221

[HitObjects]
207,197,651,6,0,P|177:132|205:37,1,135,2|0,1:2|1:0,0:0:0:0:
294,115,1101,1,2,0:0:0:0:
179,219,1251,2,0,L|91:223,1,67.5,8|0,0:0|0:0,0:0:0:0:
235,292,1551,2,0,L|384:300,2,135,2|0|2,0:0|1:0|0:0,0:0:0:0:
81,336,2451,1,8,0:0:0:0:
108,305,2751,1,0,1:0:0:0:
137,275,3051,6,0,P|168:194|141:123,1,135,0|0,1:2|1:0,0:0:0:0:
49,197,3501,1,2,0:0:0:0:
169,296,3651,2,0,L|253:291,1,67.5,8|0,0:0|0:0,0:0:0:0:
400,219,3951,2,0,P|432:308|436:368,1,135,2|0,0:0|1:0,0:0:0:0:
297,197,4551,2,0,L|292:125,1,67.5,2|0,3:2|0:0,0:0:0:0:
236,291,4851,1,8,0:0:0:0:
400,219,5151,1,8,0:0:0:0:
260,112,5301,1,8,0:0:0:0:
335,294,5451,6,0,P|380:316|423:316,1,67.5,6|0,0:0|0:0,0:0:0:0:
481,271,5751,1,0,1:0:0:0:
389,156,5901,1,2,0:0:0:0:
335,294,6051,2,0,L|333:365,1,67.5,8|0,0:0|0:0,0:0:0:0:
417,252,6351,2,0,P|353:204|288:215,2,135,2|0|2,0:0|3:0|0:0,0:0:0:0:
219,246,7251,2,0,L|217:178,1,67.5,8|0,0:0|0:0,0:0:0:0:
142,293,7551,1,0,1:0:0:0:
264,110,7851,6,0,P|304:101|363:123,1,67.5,2|0,0:0|0:0,0:0:0:0:
303,199,8151,1,0,1:0:0:0:
170,98,8301,1,2,0:0:0:0:
279,296,8451,2,0,L|387:291,1,67.5,8|0,0:0|0:0,0:0:0:0:
208,226,8751,2,0,P|179:286|202:360,2,135,2|0|2,0:0|3:0|0:0,0:0:0:0:
392,169,9651,2,0,L|500:164,1,67.5,8|0,0:0|0:0,0:0:0:0:
340,82,9951,1,0,1:0:0:0:
208,226,10251,6,0,L|100:221,1,67.5,2|0,0:0|0:0,0:0:0:0:
275,156,10551,1,0,1:0:0:0:
286,336,10701,1,2,0:0:0:0:
324,133,10851,2,0,P|330:72|325:33,1,67.5,8|0,0:0|0:0,0:0:0:0:
226,177,11151,2,0,P|277:231|372:228,2,135,2|0|2,0:0|3:0|0:0,0:0:0:0:
362,39,12051,2,0,L|364:125,1,67.5,8|0,0:0|0:0,0:0:0:0:
422,220,12351,1,0,1:0:0:0:
255,67,12651,6,0,P|224:64|157:85,1,67.5,2|0,3:2|0:0,0:0:0:0:
100,134,12951,1,0,1:0:0:0:
225,211,13101,1,2,0:0:0:0:
106,46,13251,2,0,L|14:49,1,67.5,8|0,0:0|0:0,0:0:0:0:
98,181,13551,2,0,L|245:174,2,135,2|0|2,0:0|3:0|3:2,0:0:0:0:
228,90,14451,2,0,L|295:87,1,67.5,8|0,0:0|0:0,0:0:0:0:
154,27,14751,1,2,0:0:0:0:
201,225,15051,6,0,P|206:262|203:317,1,67.5,6|0,3:2|0:0,0:0:0:0:
117,179,15351,1,0,1:0:0:0:
269,155,15501,1,2,0:0:0:0:
124,264,15651,2,0,P|79:256|42:222,1,67.5,8|0,0:0|0:0,0:0:0:0:
223,192,15951,2,0,P|247:278|225:338,2,135,2|0|2,0:0|3:0|0:0,0:0:0:0:
102,85,16851,2,0,L|114:183,1,67.5,8|0,0:0|0:0,0:0:0:0:
179,31,17151,1,0,1:0:0:0:
65,226,17451,6,0,L|53:324,1,67.5,2|0,3:2|0:0,0:0:0:0:
184,198,17751,1,0,1:0:0:0:
25,147,17901,1,2,0:0:0:0:
144,275,18051,2,0,P|186:284|241:264,1,67.5,8|0,0:0|0:0,0:0:0:0:
65,226,18351,2,0,L|48:368,2,135,2|0|2,0:0|3:0|3:2,0:0:0:0:
210,113,19251,2,0,L|307:109,1,67.5,8|0,0:0|0:0,0:0:0:0:
412,153,19551,2,0,L|344:155,1,67.5,0|0,1:0|0:0,0:0:0:0:
242,255,19851,6,0,P|229:289|231:342,1,67.5,2|0,3:2|0:0,0:0:0:0:
332,309,20151,1,0,1:0:0:0:
266,169,20301,1,2,0:0:0:0:
368,333,20451,2,0,P|412:341|463:335,1,67.5,8|0,0:0|0:0,0:0:0:0:
340,195,20751,2,0,P|249:203|189:223,2,135,2|0|2,0:0|3:0|0:0,0:0:0:0:
229,308,21651,2,0,L|146:312,1,67.5,8|0,0:0|0:0,0:0:0:0:
51,241,21951,1,0,1:0:0:0:
194,116,22251,6,0,L|261:112,1,67.5,2|0,3:2|0:0,0:0:0:0:
132,170,22551,1,0,1:0:0:0:
274,45,22701,1,2,0:0:0:0:
119,121,22851,2,0,L|51:124,1,67.5,8|0,0:0|0:0,0:0:0:0:
224,195,23151,2,0,P|256:279|255:352,2,135,2|0|2,3:2|3:0|3:2,0:0:0:0:
126,49,24051,2,0,L|58:52,1,67.5,8|0,0:0|0:0,0:0:0:0:
185,139,24351,1,2,3:2:0:0:
211,33,24501,1,0,0:0:0:0:
105,128,24651,5,6,0:0:0:0:
176,181,24801,2,0,L|187:295,1,67.5,0|0,0:0|1:0,0:0:0:0:
74,102,25101,1,2,0:0:0:0:
231,67,25251,2,0,P|271:66|334:87,1,67.5,8|0,0:0|0:0,0:0:0:0:
176,181,25551,2,0,P|122:115|109:37,1,135,2|0,0:0|1:0,0:0:0:0:
257,149,26001,1,0,0:0:0:0:
165,297,26151,2,0,L|69:304,1,67.5,2|0,0:0|0:0,0:0:0:0:
228,199,26451,2,0,L|324:206,1,67.5,8|0,0:0|0:0,0:0:0:0:
145,220,26751,2,0,P|146:169|188:130,1,67.5,0|0,1:0|0:0,0:0:0:0:
287,270,27051,5,2,0:0:0:0:
228,199,27201,2,0,L|223:110,1,67.5,0|0,0:0|1:0,0:0:0:0:
309,297,27501,1,2,0:0:0:0:
156,338,27651,2,0,L|60:345,1,67.5,8|0,0:0|0:0,0:0:0:0:
228,199,27951,2,0,P|309:232|364:287,1,135,2|0,0:0|1:0,0:0:0:0:
197,273,28401,1,0,0:0:0:0:
106,167,28551,2,0,P|98:126|112:81,1,67.5,2|0,3:2|0:0,0:0:0:0:
176,252,28851,2,0,L|178:331,1,67.5,8|0,0:0|0:0,0:0:0:0:
281,207,29151,1,0,0:0:0:0:
281,207,29301,1,0,0:0:0:0:
184,132,29451,5,2,0:0:0:0:
118,191,29601,2,0,L|43:193,1,67.5,0|0,0:0|1:0,0:0:0:0:
217,101,29901,1,2,0:0:0:0:
257,250,30051,2,0,L|259:329,1,67.5,8|0,0:0|0:0,0:0:0:0:
327,157,30351,2,0,B|325:48|325:48|351:85,1,135,2|0,0:0|1:0,0:0:0:0:
419,166,30801,1,0,0:0:0:0:
290,241,30951,2,0,P|254:211|233:153,1,67.5,2|0,0:0|0:0,0:0:0:0:
384,248,31251,2,0,P|365:297|339:326,1,67.5,8|0,0:0|0:0,0:0:0:0:
243,193,31551,2,0,L|250:112,1,67.5,0|0,1:0|0:0,0:0:0:0:
184,249,31851,6,0,P|245:274|304:245,1,135,2|0,0:0|1:0,0:0:0:0:
147,177,32301,1,2,0:0:0:0:
71,332,32451,2,0,L|63:227,1,67.5,8|0,0:0|0:0,0:0:0:0:
141,90,32751,2,0,L|150:224,2,135,2|0|2,0:0|3:0|3:2,0:0:0:0:
75,37,33501,1,0,0:0:0:0:
184,121,33651,2,0,L|270:117,1,67.5,8|0,0:0|0:0,0:0:0:0:
133,240,33951,1,2,0:0:0:0:
272,87,34251,6,0,P|316:71|381:70,1,67.5,6|0,0:0|0:0,0:0:0:0:
276,179,34551,1,0,1:0:0:0:
401,130,34701,1,2,0:0:0:0:
276,179,34851,2,0,P|242:172|211:159,1,67.5,8|0,0:0|0:0,0:0:0:0:
401,130,35151,2,0,L|375:290,1,135,2|0,0:0|1:0,0:0:0:0:
310,345,35601,1,0,0:0:0:0:
259,206,35751,2,0,L|273:127,1,67.5,2|0,0:0|0:0,0:0:0:0:
294,301,36051,2,0,P|241:307|205:291,1,67.5,8|0,0:0|0:0,0:0:0:0:
170,205,36351,2,0,P|117:199|81:215,1,67.5,0|0,1:0|0:0,0:0:0:0:
108,352,36651,6,0,L|133:289,1,67.5,2|0,0:0|0:0,0:0:0:0:
259,206,36951,1,0,1:0:0:0:
127,133,37101,1,2,0:0:0:0:
228,303,37251,2,0,P|261:308|294:301,1,67.5,8|0,0:0|0:0,0:0:0:0:
322,134,37551,2,0,P|250:162|284:223,1,135,2|0,0:0|3:0,0:0:0:0:
360,223,38001,1,0,0:0:0:0:
414,88,38151,2,0,L|411:0,1,67.5,2|0,3:2|0:0,0:0:0:0:
360,223,38451,2,0,L|357:290,1,67.5,8|0,0:0|0:0,0:0:0:0:
492,196,38751,2,0,L|420:170,1,67.5,0|0,1:0|0:0,0:0:0:0:
281,193,39051,6,0,L|217:170,1,67.5,2|0,0:0|0:0,0:0:0:0:
106,225,39351,1,0,1:0:0:0:
230,263,39501,1,2,0:0:0:0:
364,193,39651,2,0,P|350:148|317:117,1,67.5,8|0,0:0|0:0,0:0:0:0:
327,288,39951,2,0,P|409:282|462:218,1,135,2|0,0:0|1:0,0:0:0:0:
364,193,40401,1,0,0:0:0:0:
230,263,40551,2,0,P|226:296|239:346,1,67.5,2|0,0:0|0:0,0:0:0:0:
364,193,40851,2,0,L|374:94,1,67.5,8|0,0:0|0:0,0:0:0:0:
264,243,41151,2,0,L|270:175,1,67.5,0|0,1:0|0:0,0:0:0:0:
196,37,41451,6,0,L|202:104,1,67.5,2|0,0:0|0:0,0:0:0:0:
289,190,41751,1,0,1:0:0:0:
147,244,41901,1,2,0:0:0:0:
287,108,42051,2,0,P|324:115|366:156,1,67.5,8|0,0:0|0:0,0:0:0:0:
266,270,42351,2,0,P|215:228|210:163,2,135,2|0|2,0:0|3:0|3:2,0:0:0:0:
360,229,43101,1,0,0:0:0:0:
210,163,43251,2,0,L|130:163,1,67.5,8|0,0:0|0:0,0:0:0:0:
266,91,43551,1,2,0:0:0:0:
267,234,43701,1,0,0:0:0:0:
178,85,43851,5,6,0:0:0:0:
254,6,44001,2,0,P|306:12|346:44,1,67.5,0|0,0:0|1:0,0:0:0:0:
178,85,44301,1,2,0:0:0:0:
297,146,44451,2,0,L|386:144,1,67.5,8|0,0:0|0:0,0:0:0:0:
245,222,44751,2,0,P|205:169|214:104,1,135,2|0,0:0|1:0,0:0:0:0:
309,60,45201,1,0,0:0:0:0:
431,142,45351,2,0,L|363:143,1,67.5,2|0,0:0|0:0,0:0:0:0:
222,241,45651,2,0,L|154:239,1,67.5,8|0,0:0|0:0,0:0:0:0:
293,190,45951,1,0,0:0:0:0:
293,190,46101,1,0,0:0:0:0:
372,329,46251,5,2,0:0:0:0:
436,255,46401,2,0,L|431:172,1,67.5,0|0,0:0|1:0,0:0:0:0:
372,329,46701,1,2,0:0:0:0:
477,214,46851,2,0,P|479:177|465:131,1,67.5,8|0,0:0|0:0,0:0:0:0:
288,88,47151,2,0,P|308:167|366:202,1,135,2|0,0:0|3:0,0:0:0:0:
385,104,47601,1,0,0:0:0:0:
226,13,47751,2,0,L|144:21,1,67.5,2|0,3:2|0:0,0:0:0:0:
288,88,48051,2,0,L|355:81,1,67.5,8|0,0:0|0:0,0:0:0:0:
224,161,48351,2,0,L|142:169,1,67.5,0|0,1:0|0:0,0:0:0:0:
288,88,48651,5,0,0:0:0:0:
346,213,48801,2,0,L|353:287,1,67.5,0|0,0:0|1:0,0:0:0:0:
419,143,49101,1,0,0:0:0:0:
288,88,49251,2,0,L|206:96,1,67.5,8|0,0:0|0:0,0:0:0:0:
339,6,49551,2,0,P|381:86|362:145,1,135,2|0,0:0|1:0,0:0:0:0:
286,178,50001,1,0,0:0:0:0:
153,101,50151,2,0,L|220:94,1,67.5,2|0,0:0|0:0,0:0:0:0:
178,217,50451,2,0,L|110:223,1,67.5,8|0,0:0|0:0,0:0:0:0:
14,200,50751,2,0,L|81:193,1,67.5,0|0,1:0|0:0,0:0:0:0:
202,129,51051,6,0,P|247:153|270:207,1,67.5,2|0,0:0|0:0,0:0:0:0:
241,287,51351,1,0,1:0:0:0:
366,211,51501,1,2,0:0:0:0:
178,217,51651,2,0,L|110:223,1,67.5,8|0,0:0|0:0,0:0:0:0:
256,165,51951,2,0,P|268:248|228:298,2,135,2|0|2,0:0|3:0|3:2,0:0:0:0:
159,125,52701,1,0,0:0:0:0:
301,65,52851,2,0,P|333:66|394:94,1,67.5,8|0,0:0|0:0,0:0:0:0:
211,143,53151,1,2,0:0:0:0:
306,248,53451,6,0,L|311:169,1,67.5,6|0,0:0|0:0,0:0:0:0:
368,314,53751,1,0,1:0:0:0:
255,355,53901,1,2,0:0:0:0:
395,229,54051,2,0,P|434:251|455:318,1,67.5,8|0,0:0|0:0,0:0:0:0:
268,260,54351,2,0,P|224:198|257:112,1,135,2|0,0:0|1:0,0:0:0:0:
293,50,54801,1,0,0:0:0:0:
377,175,54951,2,0,L|293:181,1,67.5,2|0,0:0|0:0,0:0:0:0:
164,138,55251,2,0,L|248:144,1,67.5,8|0,0:0|0:0,0:0:0:0:
268,260,55551,2,0,P|280:309|274:340,1,67.5,0|0,1:0|0:0,0:0:0:0:
187,213,55851,6,0,P|208:186|238:171,1,67.5,2|0,0:0|0:0,0:0:0:0:
337,201,56151,1,0,1:0:0:0:
281,79,56301,1,2,0:0:0:0:
337,201,56451,2,0,L|338:277,1,67.5,8|0,0:0|0:0,0:0:0:0:
413,136,56751,2,0,B|411:24|411:24|394:56,1,135,2|0,0:0|3:0,0:0:0:0:
341,149,57201,1,0,0:0:0:0:
259,33,57351,2,0,L|162:17,1,67.5,2|0,3:2|0:0,0:0:0:0:
274,159,57651,2,0,L|340:148,1,67.5,8|0,0:0|0:0,0:0:0:0:
205,108,57951,2,0,P|188:159|199:203,1,67.5,0|0,1:0|0:0,0:0:0:0:
287,265,58251,6,0,P|285:231|270:201,1,67.5,2|0,0:0|0:0,0:0:0:0:
195,258,58551,1,0,1:0:0:0:
278,358,58701,1,2,0:0:0:0:
167,258,58851,2,0,L|95:261,1,67.5,8|0,0:0|0:0,0:0:0:0:
202,152,59151,2,0,L|374:145,1,135,2|0,0:0|1:0,0:0:0:0:
446,193,59601,1,0,0:0:0:0:
407,56,59751,2,0,P|366:35|312:39,1,67.5,2|0,0:0|0:0,0:0:0:0:
445,146,60051,2,0,L|504:91,1,67.5,8|0,0:0|0:0,0:0:0:0:
341,128,60351,2,0,L|294:177,1,67.5,0|0,1:0|0:0,0:0:0:0:
389,293,60651,6,0,P|387:252|367:214,1,67.5,2|0,0:0|0:0,0:0:0:0:
270,164,60951,1,0,1:0:0:0:
272,286,61101,1,2,0:0:0:0:
357,144,61251,2,0,L|355:71,1,67.5,8|0,0:0|0:0,0:0:0:0:
287,256,61551,2,0,P|326:319|417:334,2,135,2|0|2,0:0|3:0|3:2,0:0:0:0:
357,144,62301,1,0,0:0:0:0:
454,236,62451,2,0,L|387:238,1,67.5,8|0,0:0|0:0,0:0:0:0:
216,277,62751,1,2,0:0:0:0:
70,173,63051,6,0,L|137:171,1,67.5,6|0,0:0|0:0,0:0:0:0:
229,229,63351,1,0,1:0:0:0:
175,76,63501,1,2,0:0:0:0:
229,229,63651,2,0,P|237:283|229:320,1,67.5,8|0,0:0|0:0,0:0:0:0:
150,181,63951,2,0,P|212:136|279:153,2,135,2|0|2,0:0|1:0|0:0,0:0:0:0:
235,295,64851,2,0,L|312:290,1,67.5,8|0,0:0|0:0,0:0:0:0:
172,211,65151,6,0,L|28:220,2,135,2|0|2,0:0|1:0|0:0,0:0:0:0:
296,134,66051,2,0,P|303:107|300:54,1,67.5,8|0,0:0|0:0,0:0:0:0:
219,181,66351,2,0,L|226:257,1,67.5,0|0,1:0|0:0,0:0:0:0:
342,108,66651,1,2,0:0:0:0:
163,74,66951,1,2,3:2:0:0:
225,248,67251,2,0,L|232:324,1,67.5,8|0,0:0|0:0,0:0:0:0:
268,176,67551,1,0,1:0:0:0:
163,74,67851,6,0,P|114:96|94:128,1,67.5,2|0,0:0|0:0,0:0:0:0:
179,168,68151,1,0,1:0:0:0:
251,27,68301,1,2,0:0:0:0:
179,168,68451,2,0,L|145:234,1,67.5,8|0,0:0|0:0,0:0:0:0:
268,137,68751,2,0,P|228:85|163:74,2,135,2|0|2,0:0|1:0|0:0,0:0:0:0:
212,257,69651,2,0,P|203:295|203:338,1,67.5,8|0,0:0|0:0,0:0:0:0:
327,199,69951,6,0,L|480:189,2,135,2|0|2,0:0|1:0|0:0,0:0:0:0:
172,133,70851,2,0,L|103:128,1,67.5,8|0,0:0|0:0,0:0:0:0:
197,214,71151,1,0,1:0:0:0:
238,75,71301,1,2,0:0:0:0:
109,215,71451,1,2,0:0:0:0:
276,155,71751,1,2,0:0:0:0:
139,41,72051,1,8,0:0:0:0:
231,71,72201,2,0,P|189:123|104:131,1,135,2|0,3:2|0:0,0:0:0:0:
40,26,72651,6,0,L|49:112,1,67.5,6|0,0:0|0:0,0:0:0:0:
162,157,72951,1,0,1:0:0:0:
48,234,73101,1,2,0:0:0:0:
162,157,73251,2,0,L|251:155,1,67.5,8|0,0:0|0:0,0:0:0:0:
92,232,73551,2,0,L|72:74,2,135,2|0|2,0:0|1:0|0:0,0:0:0:0:
206,111,74451,2,0,L|295:109,1,67.5,8|0,0:0|0:0,0:0:0:0:
172,23,74751,6,0,P|114:94|120:148,2,135,2|0|2,0:0|1:0|0:0,0:0:0:0:
273,109,75651,2,0,L|362:107,1,67.5,8|0,0:0|0:0,0:0:0:0:
437,72,75951,2,0,L|369:73,1,67.5,0|0,1:0|0:0,0:0:0:0:
258,202,76251,1,2,0:0:0:0:
425,239,76551,1,2,3:2:0:0:
369,73,76851,2,0,L|365:2,1,67.5,8|0,0:0|0:0,0:0:0:0:
313,137,77151,1,0,1:0:0:0:
239,229,77451,6,0,L|85:245,1,135,2|0,1:2|0:0,0:0:0:0:
213,319,77901,2,0,L|301:310,2,67.5,0|0|0,0:0|1:0|0:0,0:0:0:0:
104,242,78351,2,0,P|95:166|143:95,2,135,0|0|0,0:0|1:0|0:0,0:0:0:0:
214,192,79251,2,0,B|275:176|302:212|348:197,1,135,0|0,1:0|0:0,0:0:0:0:
254,64,79851,6,0,L|99:71,1,135,2|0,0:0|0:0,0:0:0:0:
191,190,80301,1,2,0:0:0:0:
315,251,80451,6,0,L|308:96,1,135,2|0,0:0|0:0,0:0:0:0:
191,190,80901,1,2,0:0:0:0:
244,319,81051,2,0,P|283:346|335:344,1,67.5,2|0,0:0|0:0,0:0:0:0:
328,204,81351,1,2,3:2:0:0:
99,302,81651,2,0,L|184:266,1,67.5,8|0,0:0|0:0,0:0:0:0:
292,219,81951,1,0,0:0:0:0:
223,41,82251,6,0,P|190:68|206:179,1,149.850003658447,6|0,0:0|1:0,0:0:0:0:
320,257,82701,1,2,0:0:0:0:
256,113,82851,2,0,L|340:108,1,74.9250018292237,8|0,0:0|0:0,0:0:0:0:
193,167,83151,1,2,0:0:0:0:
152,96,83301,2,0,P|123:79|68:68,2,74.9250018292237,0|0|0,0:0|1:0|0:0,0:0:0:0:
241,240,83751,2,0,L|248:333,1,74.9250018292237,2|0,0:0|0:0,0:0:0:0:
193,167,84051,2,0,P|244:152|299:172,1,74.9250018292237,8|0,0:0|0:0,0:0:0:0:
395,271,84351,2,0,L|297:273,1,74.9250018292237,0|0,1:0|0:0,0:0:0:0:
128,210,84651,6,0,P|122:136|215:93,1,149.850003658447,2|0,0:0|1:0,0:0:0:0:
334,96,85101,1,2,0:0:0:0:
193,167,85251,2,0,L|294:167,1,74.9250018292237,8|0,0:0|0:0,0:0:0:0:
401,240,85551,1,2,0:0:0:0:
320,273,85701,2,0,P|300:309|303:363,2,74.9250018292237,0|0|0,0:0|3:0|0:0,0:0:0:0:
421,154,86151,2,0,P|417:116|398:84,1,74.9250018292237,2|0,3:2|0:0,0:0:0:0:
236,161,86451,2,0,L|337:161,1,74.9250018292237,8|0,0:0|0:0,0:0:0:0:
433,53,86751,1,0,1:0:0:0:
356,13,86901,1,0,0:0:0:0:
429,137,87051,6,0,P|446:198|452:305,1,149.850003658447,2|0,0:0|1:0,0:0:0:0:
316,226,87501,1,2,0:0:0:0:
445,94,87651,2,0,L|318:101,1,74.9250018292237,8|0,0:0|0:0,0:0:0:0:
211,18,87951,1,2,0:0:0:0:
298,62,88101,2,0,L|372:57,2,74.9250018292237,0|0|0,0:0|1:0|0:0,0:0:0:0:
150,188,88551,2,0,L|130:273,1,74.9250018292237,2|0,0:0|0:0,0:0:0:0:
225,129,88851,2,0,P|175:94|126:97,1,74.9250018292237,8|0,0:0|0:0,0:0:0:0:
243,226,89151,2,0,P|287:205|314:170,1,74.9250018292237,0|0,1:0|0:0,0:0:0:0:
376,40,89451,6,0,L|384:192,1,149.850003658447,2|0,0:0|1:0,0:0:0:0:
299,85,89901,1,2,0:0:0:0:
409,218,90051,2,0,L|414:305,1,74.9250018292237,8|0,0:0|0:0,0:0:0:0:
467,118,90351,1,2,0:0:0:0:
367,62,90501,2,0,P|324:50|277:50,2,74.9250018292237,0|0|0,0:0|3:0|0:0,0:0:0:0:
511,145,90951,2,0,L|425:155,1,74.9250018292237,2|0,3:2|0:0,0:0:0:0:
296,233,91251,2,0,L|382:243,1,74.9250018292237,8|0,0:0|0:0,0:0:0:0:
264,114,91551,1,2,0:0:0:0:
208,188,91701,1,0,0:0:0:0:
357,120,91851,6,0,P|324:44|259:22,1,149.850003658447,6|0,0:0|1:0,0:0:0:0:
194,208,92301,1,2,0:0:0:0:
362,157,92451,2,0,L|438:165,1,74.9250018292237,8|0,0:0|0:0,0:0:0:0:
264,114,92751,1,2,0:0:0:0:
303,220,92901,2,0,P|310:272|311:316,2,74.9250018292237,0|0|0,0:0|1:0|0:0,0:0:0:0:
228,93,93351,2,0,P|231:55|237:18,1,74.9250018292237,2|0,0:0|0:0,0:0:0:0:
406,106,93651,2,0,L|312:121,1,74.9250018292237,8|0,0:0|0:0,0:0:0:0:
201,196,93951,2,0,L|107:181,1,74.9250018292237,0|0,1:0|0:0,0:0:0:0:
245,280,94251,6,0,P|289:222|265:130,1,149.850003658447,2|0,0:0|1:0,0:0:0:0:
182,35,94701,1,2,0:0:0:0:
131,171,94851,2,0,P|163:188|200:195,1,74.9250018292237,8|0,0:0|0:0,0:0:0:0:
82,78,95151,1,2,0:0:0:0:
182,35,95301,2,0,L|273:25,2,74.9250018292237,0|0|0,0:0|3:0|0:0,0:0:0:0:
91,182,95751,2,0,L|16:173,1,74.9250018292237,2|0,3:2|0:0,0:0:0:0:
97,340,96051,2,0,L|145:248,1,74.9250018292237,8|0,0:0|0:0,0:0:0:0:
250,177,96351,1,0,1:0:0:0:
168,122,96501,1,0,0:0:0:0:
236,279,96651,6,0,P|320:255|353:177,1,149.850003658447,2|0,0:0|1:0,0:0:0:0:
257,76,97101,1,2,0:0:0:0:
435,155,97251,2,0,L|337:162,1,74.9250018292237,8|0,0:0|0:0,0:0:0:0:
208,244,97551,1,2,0:0:0:0:
239,147,97701,2,0,P|238:91|221:47,2,74.9250018292237,0|0|0,0:0|3:0|0:0,0:0:0:0:
194,283,98151,2,0,L|200:365,1,74.9250018292237,2|0,0:0|0:0,0:0:0:0:
45,195,98451,2,0,L|159:210,1,74.9250018292237,8|0,0:0|0:0,0:0:0:0:
255,163,98751,2,0,P|299:155|360:166,1,74.9250018292237,0|0,1:0|0:0,0:0:0:0:
448,279,99051,6,0,B|394:285|394:285|359:267|359:267|303:273,1,149.850003658447,0|0,0:0|1:0,0:0:0:0:
438,173,99501,1,2,0:0:0:0:
266,254,99651,2,0,L|159:266,1,74.9250018292237,8|0,0:0|0:0,0:0:0:0:
402,317,99951,1,2,0:0:0:0:
482,257,100101,2,0,P|500:225|499:178,2,74.9250018292237,0|0|0,0:0|3:0|0:0,0:0:0:0:
271,199,100551,2,0,P|272:161|290:129,1,74.9250018292237,2|0,3:2|0:0,0:0:0:0:
469,69,100851,2,0,L|362:81,1,74.9250018292237,8|0,0:0|0:0,0:0:0:0:
228,28,101151,1,8,0:0:0:0:
271,199,101301,1,8,0:0:0:0:
196,17,101451,6,0,P|105:35|52:82,1,149.850003658447,6|0,0:0|1:0,0:0:0:0:
177,160,101901,1,2,0:0:0:0:
309,100,102051,2,0,L|403:95,1,74.9250018292237,8|0,0:0|0:0,0:0:0:0:
203,148,102351,2,0,L|297:143,1,74.9250018292237,2|0,0:0|0:0,0:0:0:0:
384,242,102651,2,0,P|365:198|361:139,1,74.9250018292237,0|0,1:0|0:0,0:0:0:0:
254,28,102951,2,0,P|246:64|230:98,1,74.9250018292237,2|0,0:0|0:0,0:0:0:0:
62,25,103251,2,0,L|137:22,1,74.9250018292237,8|0,0:0|0:0,0:0:0:0:
230,98,103551,2,0,L|239:185,1,74.9250018292237,0|0,1:0|0:0,0:0:0:0:
109,291,103851,6,0,L|128:138,1,149.850003658447,2|0,0:0|1:0,0:0:0:0:
217,275,104301,1,2,0:0:0:0:
46,132,104451,2,0,P|67:85|120:62,1,74.9250018292237,8|0,0:0|0:0,0:0:0:0:
245,196,104751,1,2,0:0:0:0:
215,288,104901,2,0,L|211:370,2,74.9250018292237,0|0|0,0:0|3:0|0:0,0:0:0:0:
278,105,105351,1,2,3:2:0:0:
343,176,105501,1,0,0:0:0:0:
186,120,105651,2,0,L|91:111,1,74.9250018292237,8|0,0:0|0:0,0:0:0:0:
299,68,105951,1,0,3:0:0:0:
275,170,106101,1,0,0:0:0:0:
159,25,106251,6,0,P|258:23|331:39,1,149.850003658447,2|0,0:0|1:0,0:0:0:0:
458,138,106701,1,2,0:0:0:0:
300,220,106851,2,0,L|411:212,1,74.9250018292237,8|0,0:0|0:0,0:0:0:0:
256,309,107151,2,0,P|216:272|204:224,1,74.9250018292237,2|0,0:0|0:0,0:0:0:0:
321,122,107451,2,0,L|314:217,1,74.9250018292237,0|0,1:0|0:0,0:0:0:0:
249,36,107751,2,0,L|242:131,1,74.9250018292237,2|0,0:0|0:0,0:0:0:0:
150,223,108051,2,0,L|58:237,1,74.9250018292237,8|0,0:0|0:0,0:0:0:0:
195,308,108351,2,0,P|234:269|244:226,1,74.9250018292237,0|0,1:0|0:0,0:0:0:0:
130,102,108651,6,0,P|103:168|149:222,1,149.850003658447,2|0,0:0|1:0,0:0:0:0:
274,142,109101,1,2,0:0:0:0:
116,55,109251,2,0,L|222:40,1,74.9250018292237,8|0,0:0|0:0,0:0:0:0:
362,127,109551,1,2,0:0:0:0:
286,189,109701,2,0,P|272:229|269:299,2,74.9250018292237,0|0|0,0:0|3:0|0:0,0:0:0:0:
438,64,110151,1,2,3:2:0:0:
457,158,110301,1,0,0:0:0:0:
350,39,110451,2,0,L|255:41,1,74.9250018292237,8|0,0:0|0:0,0:0:0:0:
457,158,110751,1,2,3:2:0:0:
512,81,110901,1,0,0:0:0:0:
352,148,111051,6,0,P|377:223|445:262,1,149.850003658447,6|0,0:0|1:0,0:0:0:0:
417,61,111501,1,2,0:0:0:0:
255,104,111651,2,0,L|175:124,1,74.9250018292237,8|0,0:0|0:0,0:0:0:0:
330,40,111951,2,0,L|356:136,1,74.9250018292237,2|0,0:0|0:0,0:0:0:0:
205,201,112251,2,0,L|224:128,1,74.9250018292237,0|0,1:0|0:0,0:0:0:0:
406,195,112551,2,0,P|359:210|288:193,1,74.9250018292237,2|0,0:0|0:0,0:0:0:0:
152,143,112851,2,0,P|186:129|224:128,1,74.9250018292237,8|0,0:0|0:0,0:0:0:0:
333,209,113151,2,0,L|333:299,1,74.9250018292237,0|0,1:0|0:0,0:0:0:0:
409,153,113451,6,0,B|409:35|409:35|426:51|435:70,1,149.850003658447,2|0,0:0|1:0,0:0:0:0:
463,233,113901,1,2,0:0:0:0:
319,121,114051,2,0,P|299:66|305:18,1,74.9250018292237,8|0,0:0|0:0,0:0:0:0:
443,162,114351,1,2,0:0:0:0:
371,234,114501,2,0,L|275:234,2,74.9250018292237,0|0|0,0:0|3:0|0:0,0:0:0:0:
242,91,114951,1,2,3:2:0:0:
204,179,115101,1,0,0:0:0:0:
337,71,115251,2,0,P|312:23|274:0,1,74.9250018292237,8|0,0:0|0:0,0:0:0:0:
204,179,115551,1,0,3:0:0:0:
240,267,115701,1,0,0:0:0:0:
242,91,115851,6,0,P|144:103|112:151,1,149.850003658447,2|0,0:0|1:0,0:0:0:0:
294,220,116301,1,2,0:0:0:0:
99,255,116451,2,0,L|184:251,1,74.9250018292237,8|0,0:0|0:0,0:0:0:0:
344,202,116751,1,2,0:0:0:0:
393,275,116901,2,0,P|411:339|409:400,2,74.9250018292237,0|0|0,0:0|1:0|0:0,0:0:0:0:
289,118,117351,2,0,L|214:121,1,74.9250018292237,2|0,0:0|0:0,0:0:0:0:
317,272,117651,2,0,L|349:186,1,74.9250018292237,8|0,0:0|0:0,0:0:0:0:
348,53,117951,2,0,P|290:70|252:107,1,74.9250018292237,0|0,1:0|0:0,0:0:0:0:
187,232,118251,6,0,L|342:228,1,149.850003658447,2|0,0:0|1:0,0:0:0:0:
119,161,118701,1,2,0:0:0:0:
278,77,118851,2,0,L|382:74,1,74.9250018292237,8|0,0:0|0:0,0:0:0:0:
203,30,119151,1,2,0:0:0:0:
257,164,119301,2,0,P|298:172|338:172,2,74.9250018292237,0|0|0,0:0|3:0|0:0,0:0:0:0:
136,88,119751,1,2,3:2:0:0:
167,173,119901,1,0,0:0:0:0:
275,45,120051,2,0,P|229:31|167:33,1,74.9250018292237,8|0,0:0|0:0,0:0:0:0:
148,200,120351,1,8,0:0:0:0:
302,131,120501,1,8,0:0:0:0:
177,294,120651,6,0,P|132:316|89:316,1,67.5,6|0,0:0|0:0,0:0:0:0:
31,271,120951,1,0,1:0:0:0:
123,156,121101,1,2,0:0:0:0:
177,294,121251,2,0,L|179:365,1,67.5,8|0,0:0|0:0,0:0:0:0:
95,252,121551,2,0,P|159:204|224:215,2,135,2|0|2,0:0|3:0|0:0,0:0:0:0:
293,246,122451,2,0,L|295:178,1,67.5,8|0,0:0|0:0,0:0:0:0:
370,293,122751,1,0,1:0:0:0:
248,110,123051,6,0,P|208:101|149:123,1,67.5,2|0,0:0|0:0,0:0:0:0:
209,199,123351,1,0,1:0:0:0:
342,98,123501,1,2,0:0:0:0:
233,296,123651,2,0,L|125:291,1,67.5,8|0,0:0|0:0,0:0:0:0:
304,226,123951,2,0,P|333:286|310:360,2,135,2|0|2,0:0|3:0|0:0,0:0:0:0:
120,169,124851,2,0,L|12:164,1,67.5,8|0,0:0|0:0,0:0:0:0:
172,82,125151,1,0,1:0:0:0:
304,226,125451,6,0,L|412:221,1,67.5,2|0,0:0|0:0,0:0:0:0:
237,156,125751,1,0,1:0:0:0:
226,336,125901,1,2,0:0:0:0:
188,133,126051,2,0,P|182:72|187:33,1,67.5,8|0,0:0|0:0,0:0:0:0:
286,177,126351,2,0,P|235:231|140:228,2,135,2|0|2,0:0|3:0|0:0,0:0:0:0:
150,39,127251,2,0,L|148:125,1,67.5,8|0,0:0|0:0,0:0:0:0:
90,220,127551,1,0,1:0:0:0:
257,67,127851,6,0,P|288:64|355:85,1,67.5,2|0,3:2|0:0,0:0:0:0:
412,134,128151,1,0,1:0:0:0:
287,211,128301,1,2,0:0:0:0:
406,46,128451,2,0,L|498:49,1,67.5,8|0,0:0|0:0,0:0:0:0:
414,181,128751,2,0,L|267:174,2,135,2|0|2,0:0|3:0|3:2,0:0:0:0:
284,90,129651,2,0,L|217:87,1,67.5,8|0,0:0|0:0,0:0:0:0:
358,27,129951,1,2,0:0:0:0:
311,225,130251,6,0,P|306:262|309:317,1,67.5,6|0,3:2|0:0,0:0:0:0:
395,179,130551,1,0,1:0:0:0:
243,155,130701,1,2,0:0:0:0:
388,264,130851,2,0,P|433:256|470:222,1,67.5,8|0,0:0|0:0,0:0:0:0:
289,192,131151,2,0,P|265:278|287:338,2,135,2|0|2,0:0|3:0|0:0,0:0:0:0:
410,85,132051,2,0,L|398:183,1,67.5,8|0,0:0|0:0,0:0:0:0:
333,31,132351,1,0,1:0:0:0:
447,226,132651,6,0,L|459:324,1,67.5,2|0,3:2|0:0,0:0:0:0:
328,198,132951,1,0,1:0:0:0:
487,147,133101,1,2,0:0:0:0:
368,275,133251,2,0,P|326:284|271:264,1,67.5,8|0,0:0|0:0,0:0:0:0:
447,226,133551,2,0,L|464:368,2,135,2|0|2,0:0|3:0|3:2,0:0:0:0:
302,113,134451,2,0,L|205:109,1,67.5,8|0,0:0|0:0,0:0:0:0:
100,153,134751,2,0,L|168:155,1,67.5,0|0,1:0|0:0,0:0:0:0:
270,255,135051,6,0,P|283:289|281:342,1,67.5,2|0,3:2|0:0,0:0:0:0:
180,309,135351,1,0,1:0:0:0:
246,169,135501,1,2,0:0:0:0:
144,333,135651,2,0,P|100:341|49:335,1,67.5,8|0,0:0|0:0,0:0:0:0:
172,195,135951,2,0,P|263:203|323:223,2,135,2|0|2,0:0|3:0|0:0,0:0:0:0:
283,308,136851,2,0,L|366:312,1,67.5,8|0,0:0|0:0,0:0:0:0:
461,241,137151,1,0,1:0:0:0:
318,116,137451,6,0,L|251:112,1,67.5,2|0,3:2|0:0,0:0:0:0:
380,170,137751,1,0,1:0:0:0:
238,45,137901,1,2,0:0:0:0:
393,121,138051,2,0,L|461:124,1,67.5,8|0,0:0|0:0,0:0:0:0:
288,195,138351,2,0,P|256:279|257:352,2,135,2|0|2,3:2|3:0|3:2,0:0:0:0:
386,49,139251,2,0,L|454:52,1,67.5,8|0,0:0|0:0,0:0:0:0:
320,148,139551,2,0,L|252:145,1,67.5,2|0,0:0|0:0,0:0:0:0:
133,213,139851,5,6,0:0:0:0:
133,213,140001,2,0,L|111:58,1,135
212,97,140451,2,0,L|222:174,1,67.5,8|0,0:0|0:0,0:0:0:0:
133,213,140751,2,0,P|137:113|287:90,1,270
229,230,141651,2,0,L|220:163,1,67.5,8|0,0:0|0:0,0:0:0:0:
316,261,141951,2,0,L|371:214,1,67.5
229,230,142251,5,0,0:0:0:0:
229,230,142401,2,0,P|247:324|307:357,1,135
380,277,142851,2,0,P|339:262|289:265,1,67.5,8|0,0:0|0:0,0:0:0:0:
185,311,143151,2,0,P|138:218|294:165,1,270
282,271,144051,2,0,L|212:217,1,67.5,8|0,0:0|0:0,0:0:0:0:
202,101,144351,1,0,0:0:0:0:
202,101,144501,1,0,0:0:0:0:
100,191,144651,5,0,0:0:0:0:
100,191,144801,2,0,L|261:178,1,135
269,40,145251,2,0,L|186:46,1,67.5,8|0,0:0|0:0,0:0:0:0:
140,200,145551,2,0,P|199:91|317:131,1,270
230,245,146451,2,0,P|226:212|234:179,1,67.5,8|0,0:0|0:0,0:0:0:0:
321,219,146751,2,0,P|328:251|327:285,1,67.5
235,179,147051,6,0,B|310:216|339:183|361:158|431:179,1,202.5
292,100,147651,2,0,L|287:7,1,67.5,8|0,0:0|0:0,0:0:0:0:
235,179,147951,2,0,P|197:97|362:35,1,270
292,100,148851,2,0,L|302:270,1,135,8|0,0:0|0:0,0:0:0:0:
349,31,149451,5,0,0:0:0:0:
203,77,149751,1,0,0:0:0:0:
384,114,150051,1,8,0:0:0:0:
203,77,150351,2,0,P|148:146|275:221,1,270
390,126,151251,1,8,0:0:0:0:
228,153,151551,2,0,L|322:152,1,67.5
362,204,151851,5,0,0:0:0:0:
203,77,152151,1,0,0:0:0:0:
246,281,152451,1,8,0:0:0:0:
318,86,152751,2,0,P|251:27|83:88,1,270
202,152,153651,2,0,L|207:247,1,67.5,8|0,0:0|0:0,0:0:0:0:
240,303,153951,2,0,L|243:235,1,67.5
306,141,154251,6,0,P|391:178|331:268,1,202.5
212,178,154851,2,0,P|221:96|254:73,1,67.5,8|0,0:0|0:0,0:0:0:0:
288,238,155151,2,0,P|189:269|151:106,1,270
267,142,156051,2,0,P|217:170|201:198,1,67.5,8|0,0:0|0:0,0:0:0:0:
170,263,156351,1,0,0:0:0:0:
351,186,156651,6,0,P|346:90|259:47,1,202.5
210,178,157251,2,0,L|266:141,1,67.5,8|0,0:0|0:0,0:0:0:0:
241,280,157551,2,0,P|133:254|161:81,1,270,0|0,0:0|1:0,0:0:0:0:
121,113,158301,1,0,1:0:0:0:
266,141,158451,2,0,L|210:178,1,67.5,8|0,0:0|0:0,0:0:0:0:
317,60,158751,1,2,0:0:0:0:
317,60,158901,1,0,0:0:0:0:
361,206,159051,5,6,0:0:0:0:
210,178,159201,2,0,L|138:184,1,67.5,0|0,0:0|1:0,0:0:0:0:
305,112,159501,1,2,0:0:0:0:
270,270,159651,2,0,L|255:348,1,67.5,8|0,0:0|0:0,0:0:0:0:
357,229,159951,2,0,L|328:62,1,135,2|0,0:0|1:0,0:0:0:0:
264,36,160401,1,0,0:0:0:0:
420,70,160551,2,0,P|459:69|498:59,1,67.5,2|0,0:0|0:0,0:0:0:0:
333,95,160851,2,0,P|333:134|344:173,1,67.5,8|0,0:0|0:0,0:0:0:0:
387,266,161151,1,0,1:0:0:0:
459,175,161301,1,0,0:0:0:0:
299,243,161451,5,2,0:0:0:0:
371,150,161601,2,0,L|377:67,1,67.5,0|0,0:0|1:0,0:0:0:0:
299,243,161901,1,2,0:0:0:0:
424,221,162051,2,0,P|453:168|450:130,1,67.5,8|0,0:0|0:0,0:0:0:0:
299,243,162351,2,0,P|292:157|262:80,1,135,0|0,1:0|3:0,0:0:0:0:
215,45,162801,1,0,0:0:0:0:
141,187,162951,2,0,L|226:187,1,67.5,2|0,3:2|0:0,0:0:0:0:
105,86,163251,2,0,L|37:86,1,67.5,8|0,0:0|0:0,0:0:0:0:
182,162,163551,2,0,L|194:251,1,67.5,0|0,1:0|0:0,0:0:0:0:
266,26,163851,5,2,0:0:0:0:
205,134,164001,2,0,L|215:222,1,67.5,0|0,0:0|1:0,0:0:0:0:
145,61,164301,1,2,0:0:0:0:
298,113,164451,2,0,L|378:140,1,67.5,8|0,0:0|0:0,0:0:0:0:
205,134,164751,2,0,P|223:56|291:19,1,135,2|0,0:0|1:0,0:0:0:0:
377,60,165201,1,0,0:0:0:0:
303,179,165351,2,0,P|295:146|297:112,1,67.5,2|0,0:0|0:0,0:0:0:0:
406,195,165651,2,0,L|414:272,1,67.5,8|0,0:0|0:0,0:0:0:0:
331,336,165951,2,0,L|337:268,1,67.5,0|0,1:0|0:0,0:0:0:0:
356,120,166251,6,0,P|407:106|446:113,1,67.5,2|0,0:0|0:0,0:0:0:0:
308,191,166551,1,0,1:0:0:0:
288,51,166701,1,2,0:0:0:0:
282,234,166851,2,0,L|278:313,1,67.5,8|0,0:0|0:0,0:0:0:0:
334,152,167151,2,0,L|166:79,2,135,2|0|2,0:0|3:0|3:2,0:0:0:0:
417,203,167901,1,0,0:0:0:0:
291,88,168051,2,0,L|302:-14,1,67.5,8|0,0:0|0:0,0:0:0:0:
214,174,168351,1,2,0:0:0:0:
397,128,168651,6,0,P|424:82|432:41,1,67.5,6|0,0:0|0:0,0:0:0:0:
307,151,168951,1,0,1:0:0:0:
452,206,169101,1,2,0:0:0:0:
260,162,169251,2,0,L|160:167,1,67.5,8|0,0:0|0:0,0:0:0:0:
358,234,169551,2,0,B|469:232|469:232|435:205,1,135,2|0,0:0|1:0,0:0:0:0:
351,140,170001,1,0,0:0:0:0:
269,253,170151,2,0,P|264:290|262:340,1,67.5,2|0,0:0|0:0,0:0:0:0:
211,166,170451,2,0,P|208:132|204:98,1,67.5,8|0,0:0|0:0,0:0:0:0:
132,222,170751,2,0,L|37:224,1,67.5,0|0,1:0|0:0,0:0:0:0:
244,289,171051,6,0,L|149:287,1,67.5,2|0,0:0|0:0,0:0:0:0:
64,223,171351,1,0,1:0:0:0:
120,351,171501,1,2,0:0:0:0:
177,199,171651,2,0,P|185:145|182:107,1,67.5,8|0,0:0|0:0,0:0:0:0:
109,269,171951,2,0,P|163:294|256:252,1,135,2|0,0:0|3:0,0:0:0:0:
276,181,172401,1,0,0:0:0:0:
146,118,172551,2,0,L|59:119,1,67.5,2|0,3:2|0:0,0:0:0:0:
204,35,172851,2,0,L|300:35,1,67.5,8|0,0:0|0:0,0:0:0:0:
146,118,173151,2,0,P|171:162|179:202,1,67.5,0|0,1:0|0:0,0:0:0:0:
195,337,173451,6,0,P|206:305|224:277,1,67.5,2|0,0:0|0:0,0:0:0:0:
326,232,173751,1,0,1:0:0:0:
323,360,173901,1,2,0:0:0:0:
250,189,174051,2,0,L|262:97,1,67.5,8|0,0:0|0:0,0:0:0:0:
405,254,174351,2,0,L|239:278,1,135,2|0,0:0|1:0,0:0:0:0:
178,341,174801,1,0,0:0:0:0:
202,180,174951,2,0,L|214:88,1,67.5,2|0,0:0|0:0,0:0:0:0:
72,187,175251,2,0,P|106:235|135:258,1,67.5,8|0,0:0|0:0,0:0:0:0:
224,266,175551,2,0,P|265:240|291:206,1,67.5,0|0,1:0|0:0,0:0:0:0:
366,104,175851,6,0,L|280:109,1,67.5,2|0,0:0|0:0,0:0:0:0:
184,73,176151,1,0,1:0:0:0:
298,8,176301,1,2,0:0:0:0:
258,174,176451,2,0,L|253:260,1,67.5,8|0,0:0|0:0,0:0:0:0:
366,104,176751,2,0,P|276:71|234:66,2,135,2|0|2,0:0|3:0|3:2,0:0:0:0:
439,183,177501,1,0,0:0:0:0:
343,297,177651,2,0,L|346:229,1,67.5,8|0,0:0|0:0,0:0:0:0:
474,140,177951,1,2,0:0:0:0:
339,63,178251,6,0,P|293:60|241:75,1,67.5,6|0,0:0|0:0,0:0:0:0:
191,118,178551,1,0,1:0:0:0:
307,209,178701,1,2,0:0:0:0:
191,118,178851,2,0,L|93:123,1,67.5,8|0,0:0|0:0,0:0:0:0:
276,184,179151,2,0,L|422:177,2,135,2|0|2,0:0|1:0|0:0,0:0:0:0:
123,121,180051,2,0,L|191:118,1,67.5,8|0,0:0|0:0,0:0:0:0:
97,219,180351,6,0,P|35:165|25:97,2,135,2|0|2,0:0|1:0|0:0,0:0:0:0:
224,116,181251,2,0,L|233:30,1,67.5,8|0,0:0|0:0,0:0:0:0:
310,130,181551,2,0,L|302:197,1,67.5,0|0,1:0|0:0,0:0:0:0:
156,254,181851,1,2,0:0:0:0:
231,48,182151,1,2,3:2:0:0:
388,198,182451,2,0,P|424:202|480:194,1,67.5,8|0,0:0|0:0,0:0:0:0:
321,137,182751,1,0,1:0:0:0:
350,282,183051,6,0,P|395:331|418:348,1,67.5,2|0,0:0|0:0,0:0:0:0:
388,198,183351,1,0,1:0:0:0:
257,262,183501,1,2,0:0:0:0:
388,198,183651,2,0,L|486:198,1,67.5,8|0,0:0|0:0,0:0:0:0:
316,112,183951,2,0,P|362:60|438:32,2,135,2|0|2,0:0|1:0|0:0,0:0:0:0:
257,262,184851,2,0,P|200:282|147:278,1,67.5,8|0,0:0|0:0,0:0:0:0:
288,163,185151,6,0,L|371:293,2,135,2|0|2,0:0|1:0|0:0,0:0:0:0:
215,35,186051,2,0,L|135:30,1,67.5,8|0,0:0|0:0,0:0:0:0:
198,126,186351,1,0,1:0:0:0:
314,35,186501,1,2,0:0:0:0:
198,126,186651,1,2,0:0:0:0:
389,166,186951,1,2,0:0:0:0:
314,35,187251,1,8,0:0:0:0:
300,129,187401,2,0,P|374:108|407:47,1,135,2|0,3:2|0:0,0:0:0:0:
227,71,187851,6,0,P|205:123|209:156,1,67.5,6|0,0:0|0:0,0:0:0:0:
281,217,188151,1,0,1:0:0:0:
136,271,188301,1,2,0:0:0:0:
281,217,188451,2,0,L|363:217,1,67.5,8|0,0:0|0:0,0:0:0:0:
211,298,188751,2,0,L|186:133,2,135,2|0|2,0:0|1:0|0:0,0:0:0:0:
243,86,189651,2,0,L|256:-7,1,67.5,8|0,0:0|0:0,0:0:0:0:
313,148,189951,6,0,P|254:178|190:164,2,135
171,53,190851,2,0,P|122:71|94:109,1,67.5,8|0,0:0|0:0,0:0:0:0:
177,147,191151,2,0,L|180:214,1,67.5,0|0,1:0|0:0,0:0:0:0:
101,316,191451,1,2,0:0:0:0:
302,239,191751,1,2,3:2:0:0:
140,102,192051,2,0,P|102:82|59:75,1,67.5,8|0,0:0|0:0,0:0:0:0:
66,197,192351,1,0,1:0:0:0:
168,66,192651,6,0,L|336:60,1,135,2|0,0:0|1:0,0:0:0:0:
246,192,193101,1,2,0:0:0:0:
140,102,193251,2,0,L|41:106,1,67.5,8|0,0:0|0:0,0:0:0:0:
154,196,193551,2,0,P|234:113|216:46,2,135,2|0|2,0:0|1:0|0:0,0:0:0:0:
192,24,194451,2,0,L|259:21,1,67.5,8|0,0:0|0:0,0:0:0:0:
336,149,194751,1,2,0:0:0:0:
194,254,195051,6,0,L|109:102,2,135,2|0|8,0:0|1:0|0:0,0:0:0:0:
256,160,195951,1,0,1:0:0:0:
256,352,196251,1,2,0:0:0:0:
422,262,196551,1,2,3:2:0:0:
256,160,196851,2,0,L|182:149,1,67.5,8|0,0:0|0:0,0:0:0:0:
74,215,197151,1,0,0:0:0:0:
294,245,197451,6,0,P|345:177|306:83,1,149.850003658447,6|0,0:0|0:0,0:0:0:0:
194,209,197901,1,2,0:0:0:0:
267,346,198051,2,0,P|312:347|370:315,1,74.9250018292237,8|0,0:0|0:0,0:0:0:0:
256,160,198351,1,2,0:0:0:0:
164,226,198501,2,0,L|154:326,2,74.9250018292237,0|0|0,0:0|1:0|0:0,0:0:0:0:
252,83,198951,2,0,L|242:-17,1,74.9250018292237,2|0,0:0|0:0,0:0:0:0:
97,90,199251,2,0,P|133:118|170:127,1,74.9250018292237,8|0,0:0|0:0,0:0:0:0:
266,190,199551,2,0,P|301:202|329:226,1,74.9250018292237,0|0,1:0|0:0,0:0:0:0:
171,265,199851,6,0,P|142:188|168:115,1,149.850003658447
325,77,200301,1,2,0:0:0:0:
191,190,200451,2,0,L|266:190,1,74.9250018292237,8|0,0:0|0:0,0:0:0:0:
389,241,200751,1,2,0:0:0:0:
303,278,200901,2,0,P|289:313|287:364,2,74.9250018292237,0|0|0,0:0|3:0|0:0,0:0:0:0:
391,152,201351,2,0,P|387:114|373:80,1,74.9250018292237,2|0,3:2|0:0,0:0:0:0:
213,138,201651,2,0,L|288:138,1,74.9250018292237,8|0,0:0|0:0,0:0:0:0:
158,59,201951,1,0,1:0:0:0:
133,194,202101,1,0,0:0:0:0:
251,45,202251,6,0,P|176:13|161:72,1,149.850003658447,2|0,0:0|1:0,0:0:0:0:
225,183,202701,1,2,0:0:0:0:
329,87,202851,2,0,L|324:5,1,74.9250018292237,8|0,0:0|0:0,0:0:0:0:
259,153,203151,1,2,0:0:0:0:
168,82,203301,2,0,P|128:70|63:68,2,74.9250018292237,0|0|0,0:0|1:0|0:0,0:0:0:0:
306,180,203751,2,0,P|343:175|378:164,1,74.9250018292237,2|0,0:0|0:0,0:0:0:0:
168,82,204051,2,0,L|180:193,1,74.9250018292237,8|0,0:0|0:0,0:0:0:0:
297,254,204351,2,0,L|305:179,1,74.9250018292237,0|0,1:0|0:0,0:0:0:0:
389,307,204651,6,0,P|325:358|251:350,1,149.850003658447,2|0,0:0|1:0,0:0:0:0:
185,208,205101,1,2,0:0:0:0:
297,254,205251,2,0,L|305:179,1,74.9250018292237,8|0,0:0|0:0,0:0:0:0:
197,317,205551,1,0,0:0:0:0:
143,219,205701,2,0,P|109:171|76:146,2,74.9250018292237,0|0|0,0:0|3:0|0:0,0:0:0:0:
198,88,206151,2,0,P|220:42|260:-1,1,74.9250018292237,2|0,3:2|0:0,0:0:0:0:
332,179,206451,2,0,P|285:184|228:177,1,74.9250018292237,8|0,0:0|0:0,0:0:0:0:
393,93,206751,1,2,0:0:0:0:
429,229,206901,1,0,0:0:0:0:
300,101,207051,6,0,P|343:14|408:3,1,149.850003658447,6|0,0:0|1:0,0:0:0:0:
410,161,207501,1,2,0:0:0:0:
280,223,207651,2,0,P|234:220|187:206,1,74.9250018292237,8|0,0:0|0:0,0:0:0:0:
343,125,207951,1,2,0:0:0:0:
397,239,208101,2,0,L|401:321,2,74.9250018292237,0|0|0,0:0|1:0|0:0,0:0:0:0:
300,101,208551,2,0,L|304:19,1,74.9250018292237,2|0,0:0|0:0,0:0:0:0:
473,116,208851,2,0,P|413:133|365:133,1,74.9250018292237,8|0,0:0|0:0,0:0:0:0:
290,205,209151,2,0,P|230:188|182:188,1,74.9250018292237,0|0,1:0|0:0,0:0:0:0:
337,286,209451,6,0,P|380:226|368:153,1,149.850003658447,2|0,0:0|1:0,0:0:0:0:
253,67,209901,1,2,0:0:0:0:
215,205,210051,2,0,L|327:205,1,74.9250018292237,8|0,0:0|0:0,0:0:0:0:
161,115,210351,1,2,0:0:0:0:
111,233,210501,2,0,P|100:272|96:328,2,74.9250018292237,0|0|0,0:0|3:0|0:0,0:0:0:0:
179,73,210951,2,0,P|174:35|163:0,1,74.9250018292237,2|0,3:2|0:0,0:0:0:0:
31,141,211251,2,0,L|147:134,1,74.9250018292237,8|0,0:0|0:0,0:0:0:0:
224,230,211551,1,0,1:0:0:0:
109,258,211701,1,0,0:0:0:0:
228,144,211851,6,0,P|295:185|294:276,1,149.850003658447,2|0,0:0|1:0,0:0:0:0:
144,247,212301,1,2,0:0:0:0:
275,83,212451,2,0,L|271:-3,1,74.9250018292237,8|0,0:0|0:0,0:0:0:0:
206,173,212751,1,2,0:0:0:0:
312,241,212901,2,0,L|386:237,2,74.9250018292237,0|0|0,0:0|1:0|0:0,0:0:0:0:
206,173,213351,2,0,L|131:176,1,74.9250018292237,2|0,0:0|0:0,0:0:0:0:
185,332,213651,2,0,P|212:292|228:231,1,74.9250018292237,8|0,0:0|0:0,0:0:0:0:
300,147,213951,2,0,P|314:112|336:82,1,74.9250018292237,0|0,1:0|0:0,0:0:0:0:
326,238,214251,6,0,P|237:219|204:153,1,149.850003658447,2|0,0:0|1:0,0:0:0:0:
335,82,214701,1,2,0:0:0:0:
402,213,214851,2,0,L|400:320,1,74.9250018292237,8|0,0:0|0:0,0:0:0:0:
300,147,215151,1,0,0:0:0:0:
419,92,215301,2,0,P|472:81|520:85,2,74.9250018292237,0|0|0,0:0|3:0|0:0,0:0:0:0:
277,179,215751,2,0,P|239:177|203:168,1,74.9250018292237,2|0,3:2|0:0,0:0:0:0:
317,18,216051,2,0,L|323:92,1,74.9250018292237,8|0,0:0|0:0,0:0:0:0:
461,221,216351,1,8,0:0:0:0:
426,37,216501,1,8,0:0:0:0:
356,202,216651,6,0,P|280:235|202:235,1,149.850003658447,6|0,0:0|0:0,0:0:0:0:
90,147,217101,1,2,0:0:0:0:
244,80,217251,2,0,L|144:80,1,74.9250018292237,8|0,0:0|0:0,0:0:0:0:
15,147,217551,2,0,L|89:147,1,74.9250018292237,2|0,0:0|0:0,0:0:0:0:
221,221,217851,2,0,P|230:266|230:337,1,74.9250018292237,0|0,1:0|0:0,0:0:0:0:
117,156,218151,2,0,P|120:118|128:82,1,74.9250018292237,2|0,0:0|0:0,0:0:0:0:
221,221,218451,2,0,P|258:189|303:165,1,74.9250018292237,8|0,0:0|0:0,0:0:0:0:
267,330,218751,2,0,P|321:317|375:317,1,74.9250018292237,0|0,1:0|0:0,0:0:0:0:
149,333,219051,6,0,L|136:151,1,149.850003658447,2|0,0:0|1:0,0:0:0:0:
241,308,219501,1,2,0:0:0:0:
61,186,219651,2,0,L|53:75,1,74.9250018292237,8|0,0:0|0:0,0:0:0:0:
23,277,219951,1,2,0:0:0:0:
150,210,220101,2,0,P|197:199|247:197,2,74.9250018292237,0|0|0,0:0|3:0|0:0,0:0:0:0:
8,313,220551,1,2,3:2:0:0:
88,367,220701,1,0,0:0:0:0:
61,186,220851,2,0,L|53:75,1,74.9250018292237,8|0,0:0|0:0,0:0:0:0:
150,210,221151,1,0,3:0:0:0:
29,275,221301,1,0,0:0:0:0:
148,116,221451,6,0,P|224:152|239:233,1,149.850003658447,2|0,0:0|1:0,0:0:0:0:
56,242,221901,1,2,0:0:0:0:
169,90,222051,2,0,L|160:9,1,74.9250018292237,8|0,0:0|0:0,0:0:0:0:
44,165,222351,2,0,L|53:84,1,74.9250018292237,2|0,0:0|0:0,0:0:0:0:
132,237,222651,2,0,P|167:230|239:238,1,74.9250018292237,0|0,1:0|0:0,0:0:0:0:
378,309,222951,2,0,P|343:316|271:308,1,74.9250018292237,2|0,0:0|0:0,0:0:0:0:
132,237,223251,2,0,L|45:240,1,74.9250018292237,8|0,0:0|0:0,0:0:0:0:
188,151,223551,2,0,L|262:148,1,74.9250018292237,0|0,1:0|0:0,0:0:0:0:
378,309,223851,6,0,P|295:315|280:249,1,149.850003658447,2|0,0:0|1:0,0:0:0:0:
453,236,224301,1,2,0:0:0:0:
295,149,224451,2,0,P|287:104|293:48,1,74.9250018292237,8|0,0:0|0:0,0:0:0:0:
408,212,224751,1,2,0:0:0:0:
274,274,224901,2,0,L|186:285,2,74.9250018292237,0|0|0,0:0|3:0|0:0,0:0:0:0:
449,195,225351,1,2,3:2:0:0:
392,300,225501,1,0,0:0:0:0:
316,137,225651,2,8,P|325:87|349:44,1,74.9250018292237
420,206,225951,1,0,3:0:0:0:
300,282,226101,1,0,0:0:0:0:
458,186,226251,6,0,L|469:34,1,149.850003658447,6|0,0:0|1:0,0:0:0:0:
338,147,226701,1,2,0:0:0:0:
419,271,226851,2,0,P|461:281|506:268,1,74.9250018292237,8|0,0:0|0:0,0:0:0:0:
338,147,227151,2,0,P|296:137|251:150,1,74.9250018292237,2|0,0:0|0:0,0:0:0:0:
267,296,227451,2,0,L|301:219,1,74.9250018292237,0|0,1:0|0:0,0:0:0:0:
139,157,227751,2,0,L|169:225,1,74.9250018292237,2|0,0:0|0:0,0:0:0:0:
338,147,228051,2,0,L|426:146,1,74.9250018292237,8|0,0:0|0:0,0:0:0:0:
279,72,228351,2,0,L|204:72,1,74.9250018292237,0|0,1:0|0:0,0:0:0:0:
358,163,228651,6,0,P|402:65|391:19,1,149.850003658447,2|0,0:0|1:0,0:0:0:0:
259,169,229101,1,2,0:0:0:0:
409,251,229251,2,0,L|484:215,1,74.9250018292237,8|0,0:0|0:0,0:0:0:0:
312,166,229551,1,2,0:0:0:0:
367,270,229701,2,0,P|372:304|371:359,2,74.9250018292237,0|0|0,0:0|3:0|0:0,0:0:0:0:
284,113,230151,1,2,3:2:0:0:
265,222,230301,1,0,0:0:0:0:
390,96,230451,2,0,L|399:19,1,74.9250018292237,8|0,0:0|0:0,0:0:0:0:
446,196,230751,1,0,3:0:0:0:
284,113,230901,1,0,0:0:0:0:
367,270,231051,6,0,P|273:297|190:269,1,149.850003658447,2|0,0:0|1:0,0:0:0:0:
353,179,231501,1,2,0:0:0:0:
457,314,231651,2,0,L|465:221,1,74.9250018292237,8|0,0:0|0:0,0:0:0:0:
343,65,231951,2,0,L|349:139,1,74.9250018292237,2|0,0:0|0:0,0:0:0:0:
268,252,232251,2,0,P|221:257|169:245,1,74.9250018292237,0|0,1:0|0:0,0:0:0:0:
88,139,232551,2,0,P|83:92|95:40,1,74.9250018292237,2|0,0:0|0:0,0:0:0:0:
246,92,232851,2,0,L|175:168,1,74.9250018292237,8|0,0:0|0:0,0:0:0:0:
72,272,233151,2,0,L|123:217,1,74.9250018292237,0|0,1:0|0:0,1:0:0:0:
264,70,233451,6,0,P|367:115|384:179,1,149.850003658447,2|0,0:0|0:0,0:0:0:0:
194,146,233901,1,2,0:0:0:0:
351,247,234051,2,0,L|354:339,1,74.9250018292237,8|0,0:0|0:0,0:0:0:0:
411,160,234351,1,2,0:0:0:0:
287,162,234501,2,0,P|257:195|244:245,2,74.9250018292237,0|0|0,0:0|3:0|0:0,0:0:0:0:
443,116,234951,1,2,3:2:0:0:
342,60,235101,1,0,0:0:0:0:
351,247,235251,2,0,L|354:339,1,74.9250018292237,8|0,0:0|0:0,0:0:0:0:
451,166,235551,1,8,0:0:0:0:
305,289,235701,1,8,0:0:0:0:
192,128,235851,5,6,0:0:0:0:
192,256,236151,1,0,1:0:0:0:
320,128,236301,1,2,0:0:0:0:
160,288,236451,2,0,L|96:288,1,50.6250019311906,8|0,0:0|0:0,0:0:0:0:
320,256,236751,2,0,L|384:256,1,50.6250019311906,2|0,0:0|0:0,0:0:0:0:
320,128,237051,1,0,1:0:0:0:
160,288,237351,1,2,0:0:0:0:
160,96,237651,2,0,L|160:32,1,50.6250019311906,8|0,0:0|0:0,0:0:0:0:
192,128,237951,2,0,L|192:64,1,50.6250019311906,0|0,1:0|0:0,0:0:0:0:
320,128,238251,6,0,L|320:192,1,50.6250019311906,2|0,0:0|0:0,0:0:0:0:
192,256,238551,1,0,1:0:0:0:
320,128,238701,1,2,0:0:0:0:
160,288,238851,2,0,L|96:288,1,50.6250019311906,8|0,0:0|0:0,0:0:0:0:
192,128,239151,2,0,L|256:128,1,50.6250019311906,2|0,0:0|0:0,0:0:0:0:
320,256,239451,2,0,L|256:256,1,50.6250019311906,0|0,3:0|0:0,0:0:0:0:
352,96,239751,1,2,3:2:0:0:
352,288,240051,1,8,0:0:0:0:
352,288,240351,1,0,1:0:0:0:
160,96,240651,6,0,L|96:96,2,50.6250019311906,2|0|0,0:0|0:0|1:0,0:0:0:0:
320,256,241101,1,2,0:0:0:0:
160,288,241251,2,0,L|96:288,1,50.6250019311906,8|0,0:0|0:0,0:0:0:0:
192,128,241551,2,0,L|256:128,1,50.6250019311906,2|0,0:0|0:0,0:0:0:0:
320,256,241851,1,0,1:0:0:0:
352,96,242151,1,2,0:0:0:0:
160,288,242451,2,0,L|160:352,2,50.6250019311906,8|0|0,0:0|0:0|1:0,0:0:0:0:
320,128,243051,6,0,L|320:64,1,50.6250019311906,2|0,3:2|0:0,0:0:0:0:
192,128,243351,1,0,1:0:0:0:
320,256,243501,1,2,0:0:0:0:
160,96,243651,2,0,L|160:32,1,50.6250019311906,8|0,0:0|0:0,0:0:0:0:
320,128,243951,2,0,L|384:128,1,50.6250019311906,2|0,0:0|0:0,0:0:0:0:
192,256,244251,2,0,L|128:256,1,50.6250019311906,0|0,3:0|0:0,0:0:0:0:
352,288,244551,1,2,3:2:0:0:
160,288,244851,1,8,0:0:0:0:
352,96,245151,1,2,0:0:0:0:
160,96,245451,6,0,L|96:96,2,50.6250019311906,6|0|0,0:0|0:0|1:0,0:0:0:0:
320,256,245901,1,2,0:0:0:0:
160,288,246051,2,0,L|96:288,1,50.6250019311906,8|0,0:0|0:0,0:0:0:0:
320,256,246351,2,0,L|384:256,1,50.6250019311906,2|0,0:0|0:0,0:0:0:0:
192,128,246651,1,0,1:0:0:0:
160,288,246951,1,2,0:0:0:0:
320,128,247251,2,0,L|320:64,1,50.6250019311906,8|0,0:0|0:0,0:0:0:0:
192,128,247551,2,0,L|192:64,1,50.6250019311906,0|0,1:0|0:0,0:0:0:0:
320,256,247851,6,0,L|320:192,1,50.6250019311906,2|0,3:2|0:0,0:0:0:0:
192,256,248151,1,0,1:0:0:0:
352,288,248301,1,2,0:0:0:0:
160,288,248451,2,0,L|96:288,1,50.6250019311906,8|0,0:0|0:0,0:0:0:0:
192,128,248751,2,0,L|288:128,1,50.6250019311906,2|0,0:0|0:0,0:0:0:0:
320,256,249051,2,0,L|320:320,1,50.6250019311906,0|0,3:0|0:0,0:0:0:0:
192,128,249351,1,2,3:2:0:0:
352,288,249651,1,8,0:0:0:0:
320,128,249951,1,0,1:0:0:0:
160,288,250251,6,0,L|160:352,2,50.6250019311906,2|0|0,3:2|0:0|1:0,0:0:0:0:
320,256,250701,1,2,0:0:0:0:
160,96,250851,2,0,L|96:96,1,50.6250019311906,8|0,0:0|0:0,0:0:0:0:
320,128,251151,2,0,L|381:128,1,50.6250019311906,2|0,0:0|0:0,0:0:0:0:
192,256,251451,1,0,1:0:0:0:
352,96,251751,1,2,0:0:0:0:
160,288,252051,2,0,L|224:288,1,50.6250019311906,8|0,0:0|0:0,0:0:0:0:
352,288,252351,2,0,L|288:288,1,50.6250019311906,0|0,1:0|0:0,0:0:0:0:
192,128,252651,6,0,L|192:64,1,50.6250019311906,2|0,3:2|0:0,0:0:0:0:
320,128,252951,1,0,1:0:0:0:
192,256,253101,1,2,0:0:0:0:
352,96,253251,2,0,L|448:96,1,50.6250019311906,8|0,0:0|0:0,0:0:0:0:
320,256,253551,2,0,L|320:320,1,50.6250019311906,2|0,0:0|0:0,0:0:0:0:
160,288,253851,2,0,L|96:288,1,50.6250019311906,0|0,3:0|0:0,0:0:0:0:
320,128,254151,1,2,3:2:0:0:
160,64,254451,1,8,0:0:0:0:
192,256,254751,1,2,0:0:0:0:
352,96,255051,5,4,0:0:0:0:
364,291,271851,6,0,P|383:211|349:120,1,135,2|0,0:0|0:0,0:0:0:0:
256,32,272301,1,2,0:0:0:0:
87,250,272451,6,0,P|168:223|224:148,1,135,2|0,0:0|0:0,0:0:0:0:
256,32,272901,1,2,0:0:0:0:
97,124,273051,1,2,0:0:0:0:
256,352,273351,1,2,3:2:0:0:
416,128,273651,1,8,0:0:0:0:
256,256,273951,1,0,0:0:0:0:
223,41,274251,6,0,P|190:68|206:179,1,149.850003658447,6|0,0:0|1:0,0:0:0:0:
320,257,274701,1,2,0:0:0:0:
256,113,274851,2,0,L|340:108,1,74.9250018292237,8|0,0:0|0:0,0:0:0:0:
193,167,275151,1,2,0:0:0:0:
152,96,275301,2,0,P|123:79|68:68,2,74.9250018292237,0|0|0,0:0|1:0|0:0,0:0:0:0:
241,240,275751,2,0,L|248:333,1,74.9250018292237,2|0,0:0|0:0,0:0:0:0:
193,167,276051,2,0,P|244:152|299:172,1,74.9250018292237,8|0,0:0|0:0,0:0:0:0:
395,271,276351,2,0,L|297:273,1,74.9250018292237,0|0,1:0|0:0,0:0:0:0:
128,210,276651,6,0,P|122:136|215:93,1,149.850003658447,2|0,0:0|1:0,0:0:0:0:
334,96,277101,1,2,0:0:0:0:
193,167,277251,2,0,L|294:167,1,74.9250018292237,8|0,0:0|0:0,0:0:0:0:
401,240,277551,1,2,0:0:0:0:
320,273,277701,2,0,P|300:309|303:363,2,74.9250018292237,0|0|0,0:0|3:0|0:0,0:0:0:0:
421,154,278151,2,0,P|417:116|398:84,1,74.9250018292237,2|0,3:2|0:0,0:0:0:0:
236,161,278451,2,0,L|337:161,1,74.9250018292237,8|0,0:0|0:0,0:0:0:0:
433,53,278751,1,0,1:0:0:0:
356,13,278901,1,0,0:0:0:0:
429,137,279051,6,0,P|446:198|452:305,1,149.850003658447,2|0,0:0|1:0,0:0:0:0:
316,226,279501,1,2,0:0:0:0:
445,94,279651,2,0,L|318:101,1,74.9250018292237,8|0,0:0|0:0,0:0:0:0:
211,18,279951,1,2,0:0:0:0:
298,62,280101,2,0,L|372:57,2,74.9250018292237,0|0|0,0:0|1:0|0:0,0:0:0:0:
150,188,280551,2,0,L|130:273,1,74.9250018292237,2|0,0:0|0:0,0:0:0:0:
225,129,280851,2,0,P|175:94|126:97,1,74.9250018292237,8|0,0:0|0:0,0:0:0:0:
243,226,281151,2,0,P|287:205|314:170,1,74.9250018292237,0|0,1:0|0:0,0:0:0:0:
376,40,281451,6,0,L|384:192,1,149.850003658447,2|0,0:0|1:0,0:0:0:0:
299,85,281901,1,2,0:0:0:0:
409,218,282051,2,0,L|414:305,1,74.9250018292237,8|0,0:0|0:0,0:0:0:0:
467,118,282351,1,2,0:0:0:0:
367,62,282501,2,0,P|324:50|277:50,2,74.9250018292237,0|0|0,0:0|3:0|0:0,0:0:0:0:
511,145,282951,2,0,L|425:155,1,74.9250018292237,2|0,3:2|0:0,0:0:0:0:
296,233,283251,2,0,L|382:243,1,74.9250018292237,8|0,0:0|0:0,0:0:0:0:
264,114,283551,1,2,0:0:0:0:
208,188,283701,1,0,0:0:0:0:
357,120,283851,6,0,P|324:44|259:22,1,149.850003658447,6|0,0:0|1:0,0:0:0:0:
194,208,284301,1,2,0:0:0:0:
362,157,284451,2,0,L|438:165,1,74.9250018292237,8|0,0:0|0:0,0:0:0:0:
264,114,284751,1,2,0:0:0:0:
303,220,284901,2,0,P|310:272|311:316,2,74.9250018292237,0|0|0,0:0|1:0|0:0,0:0:0:0:
228,93,285351,2,0,P|231:55|237:18,1,74.9250018292237,2|0,0:0|0:0,0:0:0:0:
406,106,285651,2,0,L|312:121,1,74.9250018292237,8|0,0:0|0:0,0:0:0:0:
201,196,285951,2,0,L|107:181,1,74.9250018292237,0|0,1:0|0:0,0:0:0:0:
245,280,286251,6,0,P|289:222|265:130,1,149.850003658447,2|0,0:0|1:0,0:0:0:0:
182,35,286701,1,2,0:0:0:0:
131,171,286851,2,0,P|163:188|200:195,1,74.9250018292237,8|0,0:0|0:0,0:0:0:0:
82,78,287151,1,2,0:0:0:0:
182,35,287301,2,0,L|273:25,2,74.9250018292237,0|0|0,0:0|3:0|0:0,0:0:0:0:
91,182,287751,2,0,L|16:173,1,74.9250018292237,2|0,3:2|0:0,0:0:0:0:
97,340,288051,2,0,L|145:248,1,74.9250018292237,8|0,0:0|0:0,0:0:0:0:
250,177,288351,1,0,1:0:0:0:
168,122,288501,1,0,0:0:0:0:
236,279,288651,6,0,P|320:255|353:177,1,149.850003658447,2|0,0:0|1:0,0:0:0:0:
257,76,289101,1,2,0:0:0:0:
435,155,289251,2,0,L|337:162,1,74.9250018292237,8|0,0:0|0:0,0:0:0:0:
208,244,289551,1,2,0:0:0:0:
239,147,289701,2,0,P|238:91|221:47,2,74.9250018292237,0|0|0,0:0|3:0|0:0,0:0:0:0:
194,283,290151,2,0,L|200:365,1,74.9250018292237,2|0,0:0|0:0,0:0:0:0:
45,195,290451,2,0,L|159:210,1,74.9250018292237,8|0,0:0|0:0,0:0:0:0:
255,163,290751,2,0,P|299:155|360:166,1,74.9250018292237,0|0,1:0|0:0,0:0:0:0:
448,279,291051,6,0,B|394:285|394:285|359:267|359:267|303:273,1,149.850003658447,0|0,0:0|1:0,0:0:0:0:
438,173,291501,1,2,0:0:0:0:
266,254,291651,2,0,L|159:266,1,74.9250018292237,8|0,0:0|0:0,0:0:0:0:
402,317,291951,1,2,0:0:0:0:
482,257,292101,2,0,P|500:225|499:178,2,74.9250018292237,0|0|0,0:0|3:0|0:0,0:0:0:0:
271,199,292551,2,0,P|272:161|290:129,1,74.9250018292237,2|0,3:2|0:0,0:0:0:0:
469,69,292851,2,0,L|362:81,1,74.9250018292237,8|0,0:0|0:0,0:0:0:0:
228,28,293151,1,8,0:0:0:0:
271,199,293301,1,8,0:0:0:0:
371,53,293451,6,0,P|301:26|227:27,1,149.850003658447,6|0,0:0|1:0,0:0:0:0:
135,141,293901,1,2,0:0:0:0:
297,212,294051,2,0,L|305:126,1,74.9250018292237,8|0,0:0|0:0,0:0:0:0:
182,258,294351,2,0,L|172:159,1,74.9250018292237,2|0,0:0|0:0,0:0:0:0:
270,306,294651,2,0,P|310:308|367:277,1,74.9250018292237,0|0,1:0|0:0,0:0:0:0:
245,143,294951,2,0,P|205:141|148:172,1,74.9250018292237,2|0,0:0|0:0,0:0:0:0:
59,267,295251,2,0,L|173:259,1,74.9250018292237,8|0,0:0|0:0,0:0:0:0:
295,220,295551,2,0,L|409:228,1,74.9250018292237,0|0,1:0|0:0,0:0:0:0:
232,292,295851,6,0,P|203:206|244:140,1,149.850003658447,2|0,0:0|1:0,0:0:0:0:
360,92,296301,1,2,0:0:0:0:
217,40,296451,2,0,P|169:35|111:41,1,74.9250018292237,8|0,0:0|0:0,0:0:0:0:
263,138,296751,1,2,0:0:0:0:
378,83,296901,2,0,L|482:83,2,74.9250018292237,0|0|0,0:0|3:0|0:0,0:0:0:0:
226,156,297351,1,2,3:2:0:0:
340,198,297501,1,0,0:0:0:0:
262,44,297651,2,0,P|196:20|153:19,1,74.9250018292237,8|0,0:0|0:0,0:0:0:0:
316,147,297951,1,0,3:0:0:0:
254,268,298101,1,0,0:0:0:0:
140,133,298251,6,0,L|320:145,1,149.850003658447,2|0,0:0|1:0,0:0:0:0:
399,256,298701,1,2,0:0:0:0:
240,350,298851,2,0,P|256:291|301:244,1,74.9250018292237,8|0,0:0|0:0,0:0:0:0:
422,185,299151,2,0,P|406:244|361:291,1,74.9250018292237,2|0,0:0|0:0,0:0:0:0:
270,119,299451,2,0,L|360:125,1,74.9250018292237,0|0,1:0|0:0,0:0:0:0:
171,201,299751,2,0,L|261:195,1,74.9250018292237,2|0,0:0|0:0,0:0:0:0:
377,289,300051,2,0,L|302:293,1,74.9250018292237,8|0,0:0|0:0,0:0:0:0:
171,201,300351,2,0,L|157:103,1,74.9250018292237,0|0,1:0|0:0,0:0:0:0:
267,216,300651,6,0,P|205:289|123:289,1,149.850003658447,2|0,0:0|1:0,0:0:0:0:
70,173,301101,1,2,0:0:0:0:
204,112,301251,2,0,L|315:121,1,74.9250018292237,8|0,0:0|0:0,0:0:0:0:
131,183,301551,1,2,0:0:0:0:
75,69,301701,2,0,P|114:15|147:1,2,74.9250018292237,0|0|0,0:0|3:0|0:0,0:0:0:0:
147,217,302151,1,2,3:2:0:0:
45,200,302301,1,0,0:0:0:0:
169,95,302451,2,0,P|205:100|256:120,1,74.9250018292237,8|0,0:0|0:0,0:0:0:0:
55,158,302751,1,2,3:2:0:0:
0,81,302901,1,0,0:0:0:0:
160,148,303051,6,0,P|135:223|67:262,1,149.850003658447,6|0,0:0|1:0,0:0:0:0:
95,61,303501,1,2,0:0:0:0:
257,104,303651,2,0,L|337:124,1,74.9250018292237,8|0,0:0|0:0,0:0:0:0:
182,40,303951,2,0,L|156:136,1,74.9250018292237,2|0,0:0|0:0,0:0:0:0:
307,201,304251,2,0,L|288:128,1,74.9250018292237,0|0,1:0|0:0,0:0:0:0:
106,195,304551,2,0,P|153:210|224:193,1,74.9250018292237,2|0,0:0|0:0,0:0:0:0:
360,143,304851,2,0,P|326:129|288:128,1,74.9250018292237,8|0,0:0|0:0,0:0:0:0:
179,209,305151,2,0,L|179:299,1,74.9250018292237,0|0,1:0|0:0,0:0:0:0:
103,153,305451,6,0,B|103:35|103:35|86:51|77:70,1,149.850003658447,2|0,0:0|1:0,0:0:0:0:
49,233,305901,1,2,0:0:0:0:
193,121,306051,2,0,P|213:66|207:18,1,74.9250018292237,8|0,0:0|0:0,0:0:0:0:
69,162,306351,1,2,0:0:0:0:
141,234,306501,2,0,L|237:234,2,74.9250018292237,0|0|0,0:0|3:0|0:0,0:0:0:0:
270,91,306951,1,2,3:2:0:0:
308,179,307101,1,0,0:0:0:0:
175,71,307251,2,0,P|200:23|238:0,1,74.9250018292237,8|0,0:0|0:0,0:0:0:0:
308,179,307551,1,0,3:0:0:0:
272,267,307701,1,0,0:0:0:0:
270,91,307851,6,0,P|368:103|400:151,1,149.850003658447,2|0,0:0|1:0,0:0:0:0:
218,220,308301,1,2,0:0:0:0:
413,255,308451,2,0,L|328:251,1,74.9250018292237,8|0,0:0|0:0,0:0:0:0:
168,202,308751,1,2,0:0:0:0:
119,275,308901,2,0,P|100:339|102:400,2,74.9250018292237,0|0|0,0:0|1:0|0:0,0:0:0:0:
223,118,309351,2,0,L|298:121,1,74.9250018292237,2|0,0:0|0:0,0:0:0:0:
195,272,309651,2,0,L|163:186,1,74.9250018292237,8|0,0:0|0:0,0:0:0:0:
164,53,309951,2,0,P|222:70|260:107,1,74.9250018292237,0|0,1:0|0:0,0:0:0:0:
325,232,310251,6,0,L|170:228,1,149.850003658447,2|0,0:0|1:0,0:0:0:0:
393,161,310701,1,2,0:0:0:0:
234,77,310851,2,0,L|130:74,1,74.9250018292237,8|0,0:0|0:0,0:0:0:0:
309,30,311151,1,2,0:0:0:0:
255,164,311301,2,0,P|214:172|174:172,2,74.9250018292237,0|0|0,0:0|3:0|0:0,0:0:0:0:
376,88,311751,1,2,3:2:0:0:
345,173,311901,1,0,0:0:0:0:
237,45,312051,2,0,P|283:31|345:33,1,74.9250018292237,8|0,0:0|0:0,0:0:0:0:
364,200,312351,1,8,0:0:0:0:
210,131,312501,1,8,0:0:0:0:
335,294,312651,6,0,P|380:316|423:316,1,67.5,6|0,0:0|0:0,0:0:0:0:
481,271,312951,1,0,1:0:0:0:
389,156,313101,1,2,0:0:0:0:
335,294,313251,2,0,L|333:365,1,67.5,8|0,0:0|0:0,0:0:0:0:
417,252,313551,2,0,P|353:204|288:215,2,135,2|0|2,0:0|3:0|0:0,0:0:0:0:
219,246,314451,2,0,L|217:178,1,67.5,8|0,0:0|0:0,0:0:0:0:
142,293,314751,1,0,1:0:0:0:
264,110,315051,6,0,P|304:101|363:123,1,67.5,2|0,0:0|0:0,0:0:0:0:
303,199,315351,1,0,1:0:0:0:
170,98,315501,1,2,0:0:0:0:
279,296,315651,2,0,L|387:291,1,67.5,8|0,0:0|0:0,0:0:0:0:
208,226,315951,2,0,P|179:286|202:360,2,135,2|0|2,0:0|3:0|0:0,0:0:0:0:
392,169,316851,2,0,L|500:164,1,67.5,8|0,0:0|0:0,0:0:0:0:
340,82,317151,1,0,1:0:0:0:
208,226,317451,6,0,L|100:221,1,67.5,2|0,0:0|0:0,0:0:0:0:
275,156,317751,1,0,1:0:0:0:
286,336,317901,1,2,0:0:0:0:
324,133,318051,2,0,P|330:72|325:33,1,67.5,8|0,0:0|0:0,0:0:0:0:
226,177,318351,2,0,P|277:231|372:228,2,135,2|0|2,0:0|3:0|0:0,0:0:0:0:
362,39,319251,2,0,L|364:125,1,67.5,8|0,0:0|0:0,0:0:0:0:
422,220,319551,1,0,1:0:0:0:
255,67,319851,6,0,P|224:64|157:85,1,67.5,2|0,3:2|0:0,0:0:0:0:
100,134,320151,1,0,1:0:0:0:
225,211,320301,1,2,0:0:0:0:
106,46,320451,2,0,L|14:49,1,67.5,8|0,0:0|0:0,0:0:0:0:
98,181,320751,2,0,L|245:174,2,135,2|0|2,0:0|3:0|3:2,0:0:0:0:
228,90,321651,2,0,L|295:87,1,67.5,8|0,0:0|0:0,0:0:0:0:
154,27,321951,1,2,0:0:0:0:
201,225,322251,6,0,P|206:262|203:317,1,67.5,6|0,3:2|0:0,0:0:0:0:
117,179,322551,1,0,1:0:0:0:
269,155,322701,1,2,0:0:0:0:
124,264,322851,2,0,P|79:256|42:222,1,67.5,8|0,0:0|0:0,0:0:0:0:
223,192,323151,2,0,P|247:278|225:338,2,135,2|0|2,0:0|3:0|0:0,0:0:0:0:
102,85,324051,2,0,L|114:183,1,67.5,8|0,0:0|0:0,0:0:0:0:
179,31,324351,1,0,1:0:0:0:
65,226,324651,6,0,L|53:324,1,67.5,2|0,3:2|0:0,0:0:0:0:
184,198,324951,1,0,1:0:0:0:
25,147,325101,1,2,0:0:0:0:
144,275,325251,2,0,P|186:284|241:264,1,67.5,8|0,0:0|0:0,0:0:0:0:
65,226,325551,2,0,L|48:368,2,135,2|0|2,0:0|3:0|3:2,0:0:0:0:
210,113,326451,2,0,L|307:109,1,67.5,8|0,0:0|0:0,0:0:0:0:
412,153,326751,2,0,L|344:155,1,67.5,0|0,1:0|0:0,0:0:0:0:
242,255,327051,6,0,P|229:289|231:342,1,67.5,2|0,3:2|0:0,0:0:0:0:
332,309,327351,1,0,1:0:0:0:
266,169,327501,1,2,0:0:0:0:
368,333,327651,2,0,P|412:341|463:335,1,67.5,8|0,0:0|0:0,0:0:0:0:
340,195,327951,2,0,P|249:203|189:223,2,135,2|0|2,0:0|3:0|0:0,0:0:0:0:
229,308,328851,2,0,L|146:312,1,67.5,8|0,0:0|0:0,0:0:0:0:
51,241,329151,1,0,1:0:0:0:
194,116,329451,6,0,L|261:112,1,67.5,2|0,3:2|0:0,0:0:0:0:
132,170,329751,1,0,1:0:0:0:
274,45,329901,1,2,0:0:0:0:
119,121,330051,2,0,L|51:124,1,67.5,8|0,0:0|0:0,0:0:0:0:
224,195,330351,2,0,P|256:279|255:352,2,135,2|0|2,3:2|3:0|3:2,0:0:0:0:
126,49,331251,2,0,L|58:52,1,67.5,8|0,0:0|0:0,0:0:0:0:
201,159,331551,1,2,0:0:0:0:
256,192,331851,12,0,336651,0:0:0:0:
