osu file format v14

[General]
AudioFilename: audio.mp3
AudioLeadIn: 0
PreviewTime: 194112
Countdown: 0
SampleSet: None
StackLeniency: 0.7
Mode: 0
LetterboxInBreaks: 0
WidescreenStoryboard: 0

[Editor]
Bookmarks: 11995,23289,34583,45877,57171,62818,82583,93877,105171,116465,127759,133406,153171,164465,175759,187053,195524,215289,226583
DistanceSpacing: 0.7
BeatDivisor: 8
GridSize: 4
TimelineZoom: 1.3

[Metadata]
Title:Higashi no Sora kara Hajimaru Sekai
TitleUnicode:東の空から始まる世界
Artist:Primary
ArtistUnicode:Primary
Creator:Lafayla
Version:Insane
Source:恋×シンアイ彼女
Tags:Lasse Laurier Hinsvar ゆいこんぬ yuikonnu japanese video game pop meis clauson yuiko shutter * girl azuma eroge vn visual novel koi-kakeru shin-ai kanojo school girls stories us:track ed ending koikake
BeatmapID:2291779
BeatmapSetID:1096746

[Difficulty]
HPDrainRate:5
CircleSize:4.6
OverallDifficulty:8
ApproachRate:8.5
SliderMultiplier:2.99999990463257
SliderTickRate:1

[Events]
//Background and Video events
0,0,"primarybg.jpg",0,0
//Break Periods
//Storyboard Layer 0 (Background)
//Storyboard Layer 1 (Fail)
//Storyboard Layer 2 (Pass)
//Storyboard Layer 3 (Foreground)
//Storyboard Layer 4 (Overlay)
//Storyboard Sound Samples

[TimingPoints]
701,705.882352941176,4,2,1,65,1,0
11995,-90.9090909090909,4,2,1,65,0,0
21524,-200,4,2,1,65,0,0
23200,-200,4,2,1,25,0,0
23289,-125,4,2,1,45,0,0
45877,-100,4,2,1,55,0,0
59995,-100,4,2,1,60,0,0
60348,-100,4,2,1,63,0,0
60700,-100,4,2,1,66,0,0
61053,-100,4,2,1,69,0,0
61406,-100,4,2,1,72,0,0
62818,-80,4,2,1,75,0,1
82583,-90.9090909090909,4,2,1,65,0,0
92112,-200,4,2,1,65,0,0
93789,-200,4,2,1,25,0,0
93877,-142.857142857143,4,2,1,40,0,0
104112,-125,4,2,1,43,0,0
105171,-125,4,2,1,45,0,0
116465,-100,4,2,1,55,0,0
130583,-100,4,2,1,60,0,0
130936,-100,4,2,1,64,0,0
131289,-100,4,2,1,68,0,0
131642,-100,4,2,1,70,0,0
133406,-80,4,2,1,75,0,1
153171,-90.9090909090909,4,2,1,65,0,0
172936,-200,4,2,1,65,0,0
175053,-200,4,2,1,25,0,0
175759,-200,4,2,1,40,0,0
187053,-200,4,2,1,45,0,0
194642,-200,4,2,1,70,0,0
195524,-80,4,2,1,75,0,1
215289,-90.9090909090909,4,2,1,65,0,0
224818,-200,4,2,1,65,0,0
226495,-200,4,2,1,25,0,0
226583,-200,4,2,1,40,0,0
226671,-200,4,2,1,40,0,0
227995,-200,4,2,1,37,0,0
229406,-200,4,2,1,34,0,0
230818,-200,4,2,1,31,0,0
232230,-200,4,2,1,28,0,0
233642,-200,4,2,1,25,0,0

[Colours]
Combo1 : 250,190,230
Combo2 : 130,200,230
Combo3 : 255,230,140
Combo4 : 170,245,170

[HitObjects]
333,384,10936,5,6,0:0:0:0:
469,235,11112,1,0,3:0:0:0:
469,235,11200,1,0,3:0:0:0:
469,235,11289,5,8,1:0:0:0:
341,184,11465,1,8,1:0:0:0:
228,327,11642,5,10,0:0:0:0:
137,367,11818,1,8,3:0:0:0:
137,367,11995,6,0,L|124:281,1,82.4999998950959,14|0,0:0|0:0,0:0:0:0:
21,260,12348,2,0,L|32:175,1,82.4999998950959,2|0,0:0|0:0,0:0:0:0:
120,0,12700,2,0,P|78:69|-7:54,1,164.999999790192,8|0,1:0|0:0,0:0:0:0:
139,168,13230,1,0,3:0:0:0:
139,168,13318,1,0,3:0:0:0:
139,168,13406,5,10,0:0:0:0:
232,54,13583,1,0,3:0:0:0:
321,103,13759,2,0,P|355:113|403:100,1,82.4999998950959,10|0,0:0|0:0,0:0:0:0:
260,202,14112,2,0,P|233:227|221:275,1,82.4999998950959,8|0,1:0|0:0,0:0:0:0:
382,364,14465,2,0,P|373:328|338:293,1,82.4999998950959,2|0,0:0|0:0,0:0:0:0:
343,296,14818,6,0,B|384:326|453:314|453:314|470:278|444:244,1,164.999999790192,10|0,0:0|0:0,0:0:0:0:
116,319,15524,2,0,B|75:350|6:337|6:337|-10:302|15:267,1,164.999999790192,8|0,1:0|0:0,0:0:0:0:
80,186,16053,1,0,3:0:0:0:
80,186,16142,1,0,3:0:0:0:
80,186,16230,5,10,0:0:0:0:
116,319,16406,1,0,3:0:0:0:
278,210,16583,5,10,0:0:0:0:
281,119,16759,1,2,0:0:0:0:
178,239,16936,5,8,1:0:0:0:
278,332,17112,1,2,0:0:0:0:
278,332,17289,6,0,P|319:336|357:321,1,82.4999998950959,8|0,0:0|0:0,0:0:0:0:
357,321,17642,6,0,P|363:271|390:245,1,82.4999998950959,14|0,0:0|0:0,0:0:0:0:
499,205,17995,2,0,P|492:156|466:129,1,82.4999998950959,2|0,0:0|0:0,0:0:0:0:
328,44,18348,2,0,B|416:70|398:-13|513:32,1,164.999999790192,8|0,1:0|0:0,0:0:0:0:
478,140,18877,1,0,3:0:0:0:
478,140,18965,1,0,3:0:0:0:
478,140,19053,5,10,0:0:0:0:
328,44,19230,1,0,3:0:0:0:
245,114,19406,2,0,L|232:199,1,82.4999998950959,10|0,0:0|0:0,0:0:0:0:
144,332,19759,2,0,L|132:249,1,82.4999998950959,8|0,1:0|0:0,0:0:0:0:
49,114,20112,2,0,L|37:196,1,82.4999998950959,2|0,0:0|0:0,0:0:0:0:
133,55,20465,6,0,P|181:20|251:20,1,123.749999842644,6|0,0:0|0:0,0:0:0:0:
285,35,20818,5,8,1:0:0:0:
237,126,20995,1,8,1:0:0:0:
365,231,21171,5,10,0:0:0:0:
425,308,21348,1,8,3:0:0:0:
425,308,21524,6,0,B|255:399|247:234|70:326,1,356.249988675118,6|0,0:0|0:0,0:0:0:0:
47,346,23289,6,0,P|80:291|68:228,1,119.999996185303,14|0,0:0|0:0,0:0:0:0:
73,237,23818,1,2,0:0:0:0:
0,130,23995,2,0,P|-8:69|24:17,1,119.999996185303,0|0,1:0|0:0,0:0:0:0:
124,6,24524,6,0,L|183:14,1,59.9999980926514,10|0,0:0|0:0,0:0:0:0:
260,98,24877,1,0,3:0:0:0:
260,98,25053,2,0,L|319:90,1,59.9999980926514,10|0,0:0|0:0,0:0:0:0:
477,16,25406,2,0,P|441:71|437:136,1,119.999996185303,0|0,1:0|0:0,0:0:0:0:
384,296,26112,6,0,P|376:237|342:187,1,119.999996185303,10|0,0:0|0:0,0:0:0:0:
342,187,26642,1,2,0:0:0:0:
222,244,26818,2,0,P|193:252|164:247,1,59.9999980926514,0|0,1:0|0:0,0:0:0:0:
76,201,27171,1,2,0:0:0:0:
76,201,27348,6,0,P|21:229|20:290,1,119.999996185303,10|0,0:0|3:0,0:0:0:0:
69,368,27877,2,0,L|132:359,1,59.9999980926514,10|0,0:0|0:0,0:0:0:0:
222,244,28230,2,0,P|278:251|302:303,1,119.999996185303,0|0,1:0|0:0,0:0:0:0:
400,384,28759,1,0,3:0:0:0:
400,384,28848,1,0,3:0:0:0:
400,384,28936,6,0,P|391:354|392:325,1,59.9999980926514,10|0,0:0|0:0,0:0:0:0:
472,265,29289,2,0,P|480:237|481:207,1,59.9999980926514,2|0,0:0|0:0,0:0:0:0:
512,69,29642,2,0,B|489:101|443:107|443:107|401:91,1,119.999996185303,0|0,1:0|0:0,0:0:0:0:
228,0,30348,6,0,L|219:59,1,59.9999980926514,10|0,0:0|0:0,0:0:0:0:
118,94,30700,2,0,L|126:153,1,59.9999980926514,10|0,0:0|0:0,0:0:0:0:
264,264,31053,2,0,B|208:239|208:239|142:264,1,119.999996185303,0|0,1:0|0:0,0:0:0:0:
54,320,31583,1,0,3:0:0:0:
54,320,31671,1,0,3:0:0:0:
54,320,31759,6,0,B|110:295|110:295|175:326,1,119.999996185303,10|0,0:0|0:0,0:0:0:0:
323,367,32465,2,0,P|354:369|382:358,1,59.9999980926514,0|0,1:0|0:0,0:0:0:0:
483,349,32818,2,0,P|458:296|479:241,1,119.999996185303,10|0,0:0|0:0,0:0:0:0:
478,241,33348,5,0,3:0:0:0:
387,145,33524,2,0,P|357:133|324:125,1,59.9999980926514,10|0,0:0|0:0,0:0:0:0:
192,74,33877,2,0,P|220:66|248:54,1,59.9999980926514,0|0,1:0|0:0,0:0:0:0:
103,146,34230,1,8,3:0:0:0:
0,129,34406,1,8,3:0:0:0:
0,129,34583,6,0,L|21:272,1,119.999996185303,14|0,0:0|0:0,0:0:0:0:
17,247,35112,1,2,0:0:0:0:
114,338,35289,2,0,L|130:219,1,119.999996185303,0|0,1:0|0:0,0:0:0:0:
196,138,35818,6,0,P|222:128|255:130,1,59.9999980926514,10|0,0:0|0:0,0:0:0:0:
348,176,36171,1,0,3:0:0:0:
348,176,36348,2,0,P|377:177|405:167,1,59.9999980926514,10|0,0:0|0:0,0:0:0:0:
504,303,36700,2,0,P|451:275|391:274,1,119.999996185303,0|0,1:0|0:0,0:0:0:0:
257,373,37406,6,0,P|197:372|144:344,1,119.999996185303,10|0,0:0|0:0,0:0:0:0:
144,344,37936,1,2,0:0:0:0:
39,240,38112,2,0,L|30:299,1,59.9999980926514,0|0,1:0|0:0,0:0:0:0:
139,249,38465,1,2,0:0:0:0:
139,249,38642,6,0,B|155:206|155:206|141:155|111:128,1,119.999996185303,10|0,0:0|3:0,0:0:0:0:
55,58,39171,2,0,L|114:49,1,59.9999980926514,10|0,0:0|0:0,0:0:0:0:
272,9,39524,2,0,B|253:23|239:74|239:74|255:117,1,119.999996185303,0|0,1:0|0:0,0:0:0:0:
349,173,40053,1,0,3:0:0:0:
349,173,40142,1,0,3:0:0:0:
349,173,40230,6,0,P|378:173|407:164,1,59.9999980926514,10|0,0:0|0:0,0:0:0:0:
498,247,40583,2,0,P|468:246|439:255,1,59.9999980926514,2|0,0:0|0:0,0:0:0:0:
353,375,40936,2,0,P|343:317|292:289,1,119.999996185303,0|0,1:0|0:0,0:0:0:0:
81,280,41642,6,0,P|112:280|139:268,1,59.9999980926514,10|0,0:0|0:0,0:0:0:0:
227,212,41995,1,10,0:0:0:0:
227,212,42171,1,2,0:0:0:0:
106,148,42348,2,0,B|94:129|94:129|133:97|186:103,1,119.999996185303,0|0,1:0|0:0,0:0:0:0:
292,129,42877,1,0,3:0:0:0:
292,129,42965,1,0,3:0:0:0:
292,129,43053,6,0,B|345:135|384:103|384:103|372:84,1,119.999996185303,10|0,0:0|0:0,0:0:0:0:
311,232,43759,2,0,P|317:261|333:286,1,59.9999980926514,0|0,1:0|0:0,0:0:0:0:
404,345,44112,2,0,P|392:287|421:236,1,119.999996185303,10|0,0:0|0:0,0:0:0:0:
421,236,44642,5,0,3:0:0:0:
512,119,44818,2,0,P|482:111|453:114,1,59.9999980926514,10|0,0:0|3:0,0:0:0:0:
423,130,45083,1,0,3:0:0:0:
423,130,45171,1,0,1:0:0:0:
311,201,45348,1,0,1:0:0:0:
311,201,45524,2,0,P|281:199|253:187,1,59.9999980926514,8|0,3:0|0:0,0:0:0:0:
150,60,45877,6,0,B|170:82|181:121|181:121|148:142|145:189,1,149.999995231629,14|0,0:0|0:0,0:0:0:0:
145,189,46406,1,10,0:0:0:0:
68,290,46583,2,0,P|30:287|-1:266,1,74.9999976158143,0|0,1:0|0:0,0:0:0:0:
120,379,46936,2,0,P|187:348|261:358,1,149.999995231629,10|0,0:0|0:0,0:0:0:0:
421,298,47465,5,0,3:0:0:0:
421,299,47642,2,0,P|383:298|351:279,1,74.9999976158143,10|0,0:0|0:0,0:0:0:0:
232,150,47995,2,0,L|243:229,1,74.9999976158143,0|0,1:0|0:0,0:0:0:0:
334,140,48348,2,0,L|344:65,1,74.9999976158143,10|0,0:0|3:0,0:0:0:0:
385,36,48612,1,0,3:0:0:0:
385,36,48700,6,0,P|459:63|460:151,1,149.999995231629,10|0,0:0|0:0,0:0:0:0:
471,126,49230,1,10,0:0:0:0:
301,183,49406,2,0,P|332:162|369:159,1,74.9999976158143,0|0,1:0|0:0,0:0:0:0:
498,276,49759,2,0,P|429:248|355:274,1,149.999995231629,10|0,0:0|0:0,0:0:0:0:
246,361,50289,5,0,3:0:0:0:
246,361,50465,2,0,P|208:359|176:341,1,74.9999976158143,10|0,0:0|0:0,0:0:0:0:
40,267,50818,2,0,L|114:256,1,74.9999976158143,0|0,1:0|0:0,0:0:0:0:
242,261,51171,1,10,0:0:0:0:
322,166,51348,1,0,3:0:0:0:
322,166,51436,1,0,3:0:0:0:
322,166,51524,6,0,B|334:145|343:104|343:104|330:57|290:26,1,149.999995231629,10|0,0:0|0:0,0:0:0:0:
298,33,52053,1,10,0:0:0:0:
155,97,52230,2,0,P|188:113|225:112,1,74.9999976158143,0|0,1:0|0:0,0:0:0:0:
69,31,52583,2,0,L|46:189,1,149.999995231629,10|0,0:0|0:0,0:0:0:0:
0,327,53112,5,0,3:0:0:0:
0,327,53289,2,0,P|24:299|59:287,1,74.9999976158143,10|0,0:0|0:0,0:0:0:0:
167,168,53642,2,0,L|156:247,1,74.9999976158143,0|0,1:0|0:0,0:0:0:0:
271,239,53995,2,0,L|260:318,1,74.9999976158143,10|0,0:0|3:0,0:0:0:0:
286,356,54259,1,0,3:0:0:0:
286,356,54348,6,0,B|361:385|359:317|447:350,1,149.999995231629,10|0,0:0|0:0,0:0:0:0:
430,344,54877,1,10,0:0:0:0:
355,214,55053,2,0,P|342:178|349:142,1,74.9999976158143,0|0,1:0|0:0,0:0:0:0:
493,41,55406,2,0,B|458:41|426:72|426:72|394:37|343:41,1,149.999995231629,10|0,0:0|0:0,0:0:0:0:
207,104,55936,5,0,3:0:0:0:
207,104,56112,2,0,P|197:60|194:6,1,74.9999976158143,10|0,0:0|0:0,0:0:0:0:
307,171,56465,2,0,P|302:208|294:244,1,74.9999976158143,0|0,1:0|0:0,0:0:0:0:
134,378,56818,1,8,3:0:0:0:
21,342,56995,1,8,3:0:0:0:
21,342,57171,6,0,B|-8:305|3:243|3:243|34:228|66:250,1,149.999995231629,14|0,0:0|0:0,0:0:0:0:
48,240,57700,1,10,0:0:0:0:
16,108,57877,2,0,P|16:68|38:36,1,74.9999976158143,0|0,1:0|0:0,0:0:0:0:
232,47,58230,2,0,B|150:39|128:95|128:95|154:129|175:124,1,149.999995231629,10|0,0:0|0:0,0:0:0:0:
300,128,58759,5,0,3:0:0:0:
300,128,58936,2,0,P|328:87|325:32,1,74.9999976158143,10|0,0:0|0:0,0:0:0:0:
223,185,59289,2,0,P|231:221|254:250,1,74.9999976158143,0|0,1:0|0:0,0:0:0:0:
435,309,59642,1,10,0:0:0:0:
512,208,59818,1,8,0:0:0:0:
512,208,59995,6,0,P|476:167|397:181,1,112.499996423721,10|0,0:0|0:0,0:0:0:0:
457,121,60348,6,0,P|406:102|344:155,1,112.499996423721,10|0,0:0|0:0,0:0:0:0:
368,71,60700,6,0,P|315:79|287:155,1,112.499996423721,10|0,0:0|0:0,0:0:0:0:
266,76,61053,6,0,P|225:109|239:189,1,112.499996423721,10|0,0:0|0:0,0:0:0:0:
246,210,61406,5,0,1:0:0:0:
254,218,61936,5,0,3:0:0:0:
254,218,62024,1,0,3:0:0:0:
254,218,62112,5,8,1:0:0:0:
362,101,62289,1,8,1:0:0:0:
188,1,62465,5,8,3:0:0:0:
74,42,62642,1,0,1:0:0:0:
74,42,62818,6,0,P|58:86|71:133,1,93.7499970197678,14|0,0:0|0:0,0:0:0:0:
231,120,63171,2,0,P|222:166|187:200,1,93.7499970197678,2|0,0:0|0:0,0:0:0:0:
0,280,63524,6,0,B|56:275|91:244|91:244|116:292|176:304,1,187.499994039536,8|0,1:0|0:0,0:0:0:0:
156,298,64053,1,0,0:0:0:0:
322,141,64230,5,10,0:0:0:0:
421,172,64406,1,0,3:0:0:0:
421,172,64583,2,0,P|439:216|421:266,1,93.7499970197678,10|0,0:0|0:0,0:0:0:0:
255,342,64936,6,0,B|340:302|395:369|395:369|357:372|348:345,1,187.499994039536,8|0,1:0|0:0,0:0:0:0:
291,220,65465,1,0,3:0:0:0:
291,220,65553,1,0,3:0:0:0:
291,220,65642,6,0,P|304:110|386:80,1,187.499994039536,10|0,0:0|0:0,0:0:0:0:
291,220,66171,1,2,0:0:0:0:
185,255,66348,2,0,P|142:153|197:86,1,187.499994039536,8|0,1:0|0:0,0:0:0:0:
179,96,66877,1,2,0:0:0:0:
417,181,67053,5,10,0:0:0:0:
485,98,67230,1,0,3:0:0:0:
485,98,67406,2,0,P|436:71|378:91,1,93.7499970197678,10|0,0:0|0:0,0:0:0:0:
231,177,67759,5,8,1:0:0:0:
231,177,67936,1,2,0:0:0:0:
126,41,68112,5,10,0:0:0:0:
18,69,68289,1,2,0:0:0:0:
18,69,68465,6,0,B|121:27|118:128|224:74,1,187.499994039536,14|0,0:0|0:0,0:0:0:0:
197,85,68995,1,0,0:0:0:0:
61,164,69171,6,0,L|43:258,1,93.7499970197678,8|0,1:0|0:0,0:0:0:0:
160,241,69524,2,0,L|177:335,1,93.7499970197678,2|0,0:0|0:0,0:0:0:0:
61,164,69877,5,10,0:0:0:0:
136,95,70053,1,0,3:0:0:0:
136,95,70230,2,0,P|181:79|227:92,1,93.7499970197678,10|0,0:0|0:0,0:0:0:0:
412,211,70583,6,0,B|386:189|344:169|344:169|274:182|236:217,1,187.499994039536,8|0,1:0|0:0,0:0:0:0:
69,315,71112,1,2,0:0:0:0:
69,315,71289,6,0,B|54:319|30:307|30:307|94:236|177:293,1,187.499994039536,10|0,0:0|0:0,0:0:0:0:
161,283,71818,1,0,0:0:0:0:
305,380,71995,6,0,P|355:379|395:353,1,93.7499970197678,8|0,1:0|0:0,0:0:0:0:
480,236,72348,2,0,P|439:210|391:210,1,93.7499970197678,2|0,0:0|0:0,0:0:0:0:
165,287,72700,5,10,0:0:0:0:
84,223,72877,1,0,3:0:0:0:
84,223,73053,6,0,P|71:175|101:131,1,93.7499970197678,10|0,0:0|3:0,0:0:0:0:
129,119,73318,1,0,3:0:0:0:
129,119,73406,5,8,1:0:0:0:
272,228,73583,1,8,3:0:0:0:
423,154,73759,5,10,0:0:0:0:
396,49,73936,1,8,3:0:0:0:
396,49,74112,6,0,P|350:20|304:32,1,93.7499970197678,14|0,0:0|0:0,0:0:0:0:
189,91,74465,2,0,P|143:95|106:68,1,93.7499970197678,2|0,0:0|0:0,0:0:0:0:
310,135,74818,6,0,B|358:198|320:266|320:266|280:267|251:251,1,187.499994039536,8|0,1:0|0:0,0:0:0:0:
273,260,75348,1,0,0:0:0:0:
74,139,75524,5,10,0:0:0:0:
0,210,75700,1,0,3:0:0:0:
0,210,75877,2,0,P|-10:256|14:302,1,93.7499970197678,10|0,0:0|0:0,0:0:0:0:
216,364,76230,6,0,B|150:370|111:300|111:300|114:340|73:373,1,187.499994039536,8|0,1:0|0:0,0:0:0:0:
133,193,76759,1,0,3:0:0:0:
133,193,76848,1,0,3:0:0:0:
133,193,76936,6,0,B|194:196|213:243|213:243|274:261|317:214,1,187.499994039536,10|0,0:0|0:0,0:0:0:0:
437,98,77465,1,2,0:0:0:0:
420,0,77642,2,0,B|359:3|340:50|340:50|279:68|236:21,1,187.499994039536,8|0,1:0|0:0,0:0:0:0:
256,39,78171,1,2,0:0:0:0:
437,98,78348,6,0,P|465:136|466:184,1,93.7499970197678,10|0,0:0|3:0,0:0:0:0:
312,261,78700,2,0,P|283:299|282:347,1,93.7499970197678,10|0,0:0|0:0,0:0:0:0:
360,176,79053,5,8,1:0:0:0:
360,176,79230,1,2,0:0:0:0:
207,75,79406,5,10,0:0:0:0:
89,132,79583,1,2,0:0:0:0:
89,132,79759,6,0,B|129:133|177:100|177:100|215:142|261:146,1,187.499994039536,14|0,0:0|0:0,0:0:0:0:
255,145,80289,1,0,0:0:0:0:
368,275,80465,6,0,L|385:183,1,93.7499970197678,8|0,1:0|0:0,0:0:0:0:
252,287,80818,2,0,L|270:378,1,93.7499970197678,2|0,0:0|0:0,0:0:0:0:
259,149,81171,5,10,0:0:0:0:
84,180,81348,1,0,3:0:0:0:
0,269,81524,5,6,0:0:0:0:
115,344,81700,1,0,3:0:0:0:
115,344,81789,1,0,3:0:0:0:
115,344,81877,5,8,1:0:0:0:
182,208,82053,1,8,1:0:0:0:
302,153,82230,5,10,0:0:0:0:
255,57,82406,1,8,3:0:0:0:
255,57,82583,6,0,P|213:40|174:47,1,82.4999998950959,14|0,0:0|0:0,0:0:0:0:
101,129,82936,2,0,P|60:134|23:118,1,82.4999998950959,2|0,0:0|0:0,0:0:0:0:
205,142,83289,2,0,B|260:207|208:264|208:264|203:236|217:216,1,164.999999790192,8|0,1:0|0:0,0:0:0:0:
327,128,83818,1,0,3:0:0:0:
333,136,83906,1,0,3:0:0:0:
333,136,83995,5,10,0:0:0:0:
444,227,84171,1,0,3:0:0:0:
375,320,84348,2,0,P|334:336|288:323,1,82.4999998950959,10|0,0:0|0:0,0:0:0:0:
444,227,84700,2,0,P|478:253|489:300,1,82.4999998950959,8|0,1:0|0:0,0:0:0:0:
330,214,85053,2,0,P|335:170|370:137,1,82.4999998950959,2|0,0:0|0:0,0:0:0:0:
359,142,85406,6,0,B|273:168|287:95|202:127,1,164.999999790192,10|0,0:0|0:0,0:0:0:0:
0,305,86112,2,0,B|85:331|71:258|156:290,1,164.999999790192,8|0,1:0|0:0,0:0:0:0:
272,367,86642,1,0,3:0:0:0:
272,367,86730,1,0,3:0:0:0:
272,367,86818,5,10,0:0:0:0:
371,283,86995,1,0,3:0:0:0:
203,177,87171,5,10,0:0:0:0:
157,290,87348,1,2,0:0:0:0:
324,202,87524,5,8,1:0:0:0:
454,214,87700,1,2,0:0:0:0:
454,214,87877,6,0,P|479:254|481:296,1,82.4999998950959,8|0,0:0|0:0,0:0:0:0:
482,287,88230,6,0,L|400:298,1,82.4999998950959,14|0,0:0|0:0,0:0:0:0:
326,377,88583,2,0,L|244:365,1,82.4999998950959,2|0,0:0|0:0,0:0:0:0:
60,344,88936,2,0,P|139:323|151:247,1,164.999999790192,8|0,1:0|0:0,0:0:0:0:
122,126,89465,1,0,3:0:0:0:
122,126,89553,1,0,3:0:0:0:
122,126,89642,5,10,0:0:0:0:
229,37,89818,1,0,3:0:0:0:
322,85,89995,2,0,P|337:129|322:171,1,82.4999998950959,10|0,0:0|0:0,0:0:0:0:
488,75,90348,2,0,P|442:65|412:32,1,82.4999998950959,8|0,1:0|0:0,0:0:0:0:
413,223,90700,2,0,P|443:188|487:178,1,82.4999998950959,2|0,0:0|0:0,0:0:0:0:
475,353,91053,6,0,P|417:339|348:335,1,123.749999842644,6|0,0:0|0:0,0:0:0:0:
317,338,91406,5,8,1:0:0:0:
269,247,91583,1,8,1:0:0:0:
163,123,91759,5,10,0:0:0:0:
103,200,91936,1,8,3:0:0:0:
103,200,92112,6,0,B|68:298|178:351|178:351|129:275|18:321,1,356.249988675118,6|0,0:0|0:0,0:0:0:0:
29,316,93877,5,6,0:0:0:0:
103,200,94230,5,0,0:0:0:0:
146,185,94583,1,0,0:0:0:0:
191,192,94936,1,2,0:0:0:0:
339,305,95642,5,0,0:0:0:0:
384,312,95995,1,0,0:0:0:0:
427,297,96348,1,2,0:0:0:0:
427,297,96700,5,2,0:0:0:0:
480,146,97053,5,0,0:0:0:0:
487,98,97406,1,0,0:0:0:0:
494,50,97759,1,2,0:0:0:0:
352,125,98465,5,0,0:0:0:0:
359,173,98818,1,0,0:0:0:0:
370,225,99171,1,2,0:0:0:0:
370,225,99524,6,0,P|313:210|258:248,1,104.999993457794,2|0,0:0|0:0,0:0:0:0:
191,311,100230,2,0,P|134:326|79:288,1,104.999993457794,2|0,0:0|0:0,0:0:0:0:
94,307,100936,6,0,P|124:239|129:176,1,104.999993457794,2|0,0:0|0:0,0:0:0:0:
226,168,101642,2,0,P|196:100|191:37,1,104.999993457794,2|0,0:0|0:0,0:0:0:0:
191,70,102348,6,0,L|86:56,2,104.999993457794,2|0|0,0:0|0:0|0:0,0:0:0:0:
305,54,103406,1,2,0:0:0:0:
305,54,104112,5,4,3:0:0:0:
318,70,104230,1,8,3:0:0:0:
326,89,104348,1,8,3:0:0:0:
331,109,104465,5,8,1:0:0:0:
413,239,104642,1,8,1:0:0:0:
413,239,104818,2,0,P|384:223|342:225,1,59.9999980926514,8|0,3:0|0:0,0:0:0:0:
206,299,105171,6,0,P|249:243|232:187,1,119.999996185303,14|0,0:0|0:0,0:0:0:0:
240,198,105700,1,2,0:0:0:0:
138,108,105877,2,0,P|132:50|172:7,1,119.999996185303,0|0,1:0|0:0,0:0:0:0:
288,7,106406,6,0,P|301:32|310:66,1,59.9999980926514,10|0,0:0|0:0,0:0:0:0:
402,112,106759,1,0,3:0:0:0:
402,112,106936,2,0,P|389:137|380:171,1,59.9999980926514,10|0,0:0|0:0,0:0:0:0:
291,296,107289,2,0,P|360:282|419:278,1,119.999996185303,0|0,1:0|0:0,0:0:0:0:
263,209,107995,6,0,P|203:203|144:191,1,119.999996185303,10|0,0:0|0:0,0:0:0:0:
144,191,108524,1,2,0:0:0:0:
4,127,108700,2,0,P|16:154|22:183,1,59.9999980926514,0|0,1:0|0:0,0:0:0:0:
10,276,109053,1,2,0:0:0:0:
10,276,109230,6,0,B|75:302|79:222|144:272,1,119.999996185303,10|0,0:0|3:0,0:0:0:0:
225,258,109759,2,0,P|215:220|203:196,1,59.9999980926514,10|0,0:0|0:0,0:0:0:0:
207,349,110112,2,0,B|272:375|276:295|341:345,1,119.999996185303,0|0,1:0|0:0,0:0:0:0:
427,357,110642,1,0,3:0:0:0:
427,357,110730,1,0,3:0:0:0:
427,357,110818,6,0,P|423:327|410:300,1,59.9999980926514,10|0,0:0|0:0,0:0:0:0:
334,228,111171,2,0,P|337:198|350:171,1,59.9999980926514,2|0,0:0|0:0,0:0:0:0:
484,75,111524,2,0,B|427:96|427:96|363:71,1,119.999996185303,0|0,1:0|0:0,0:0:0:0:
217,11,112230,6,0,P|186:11|159:23,1,59.9999980926514,10|0,0:0|0:0,0:0:0:0:
91,97,112583,1,10,0:0:0:0:
91,97,112759,1,2,0:0:0:0:
167,216,112936,2,0,L|309:236,1,119.999996185303,0|0,1:0|0:0,0:0:0:0:
366,274,113465,1,0,3:0:0:0:
366,274,113553,1,0,3:0:0:0:
366,274,113642,6,0,L|247:291,1,119.999996185303,10|0,0:0|0:0,0:0:0:0:
82,366,114348,2,0,P|93:338|95:308,1,59.9999980926514,0|0,1:0|0:0,0:0:0:0:
88,204,114700,2,0,B|132:240|184:218|184:218|170:196,1,119.999996185303,10|0,0:0|0:0,0:0:0:0:
174,203,115230,5,0,3:0:0:0:
247,291,115406,1,10,0:0:0:0:
313,163,115583,1,0,3:0:0:0:
313,163,115671,1,0,3:0:0:0:
313,163,115759,1,0,1:0:0:0:
216,90,115936,1,0,1:0:0:0:
216,90,116112,2,0,P|186:87|152:96,1,59.9999980926514,8|0,3:0|0:0,0:0:0:0:
0,222,116465,6,0,B|30:259|56:258|56:258|92:225|139:230,1,149.999995231629,14|0,0:0|0:0,0:0:0:0:
129,229,116995,1,10,0:0:0:0:
204,349,117171,2,0,P|166:350|132:335,1,74.9999976158143,0|0,1:0|0:0,0:0:0:0:
250,219,117524,2,0,P|314:233|323:326,1,149.999995231629,10|0,0:0|0:0,0:0:0:0:
432,382,118053,5,0,3:0:0:0:
432,382,118230,2,0,P|423:345|426:308,1,74.9999976158143,10|0,0:0|0:0,0:0:0:0:
512,169,118583,2,0,L|433:180,1,74.9999976158143,0|0,1:0|0:0,0:0:0:0:
441,50,118936,2,0,L|362:39,1,74.9999976158143,10|0,0:0|3:0,0:0:0:0:
329,55,119200,1,0,3:0:0:0:
329,55,119289,6,0,B|307:81|292:112|292:112|301:174|340:211,1,149.999995231629,10|0,0:0|0:0,0:0:0:0:
320,188,119818,1,10,0:0:0:0:
191,220,119995,2,0,P|155:212|127:184,1,74.9999976158143,0|0,1:0|0:0,0:0:0:0:
43,53,120348,2,0,B|41:37|55:19|55:19|97:76|37:141,1,149.999995231629,10|0,0:0|0:0,0:0:0:0:
0,265,120877,5,0,3:0:0:0:
0,265,121053,2,0,P|-6:302|17:342,1,74.9999976158143,10|0,0:0|0:0,0:0:0:0:
179,294,121406,2,0,L|190:220,1,74.9999976158143,0|0,1:0|0:0,0:0:0:0:
145,84,121759,1,10,0:0:0:0:
265,18,121936,1,0,3:0:0:0:
265,18,122024,1,0,3:0:0:0:
265,18,122112,6,0,B|308:22|334:47|334:47|363:17|399:15,1,149.999995231629,10|0,0:0|0:0,0:0:0:0:
398,15,122642,1,10,0:0:0:0:
472,141,122818,2,0,P|487:102|525:72,1,74.9999976158143,0|0,1:0|0:0,0:0:0:0:
508,246,123171,2,0,B|433:275|435:207|347:240,1,149.999995231629,10|0,0:0|0:0,0:0:0:0:
238,278,123700,5,0,3:0:0:0:
238,278,123877,2,0,L|248:203,1,74.9999976158143,10|0,0:0|0:0,0:0:0:0:
299,358,124230,2,0,P|263:381|218:377,1,74.9999976158143,0|0,1:0|0:0,0:0:0:0:
118,292,124583,2,0,P|82:268|37:272,1,74.9999976158143,10|0,0:0|3:0,0:0:0:0:
5,274,124848,1,0,3:0:0:0:
5,274,124936,6,0,P|38:205|8:129,1,149.999995231629,10|0,0:0|0:0,0:0:0:0:
16,138,125465,1,10,0:0:0:0:
119,48,125642,2,0,L|214:61,1,74.9999976158143,0|0,1:0|0:0,0:0:0:0:
377,122,125995,2,0,P|293:128|215:151,1,149.999995231629,10|0,0:0|0:0,0:0:0:0:
105,148,126524,5,0,3:0:0:0:
105,148,126700,2,0,P|129:189|128:244,1,74.9999976158143,10|0,0:0|0:0,0:0:0:0:
206,358,127053,2,0,P|213:321|234:290,1,74.9999976158143,0|0,1:0|0:0,0:0:0:0:
392,167,127406,1,8,3:0:0:0:
496,243,127583,1,8,3:0:0:0:
496,243,127759,6,0,B|445:277|385:251|385:251|392:271|392:293,1,149.999995231629,14|0,0:0|0:0,0:0:0:0:
391,283,128289,1,10,0:0:0:0:
287,178,128465,2,0,P|287:138|309:106,1,74.9999976158143,0|0,1:0|0:0,0:0:0:0:
293,273,128818,2,0,B|278:292|216:301|216:301|185:286|159:264,1,149.999995231629,10|0,0:0|0:0,0:0:0:0:
83,187,129348,5,0,3:0:0:0:
83,187,129524,2,0,P|120:184|153:168,1,74.9999976158143,10|0,0:0|0:0,0:0:0:0:
267,65,129877,2,0,P|234:49|197:47,1,74.9999976158143,0|0,1:0|0:0,0:0:0:0:
331,153,130230,1,10,0:0:0:0:
450,108,130406,1,8,0:0:0:0:
450,108,130583,6,0,L|434:219,1,112.499996423721,10|0,0:0|0:0,0:0:0:0:
502,198,130936,6,0,L|432:286,1,112.499996423721,10|0,0:0|0:0,0:0:0:0:
502,301,131289,6,0,L|397:343,1,112.499996423721,10|0,0:0|0:0,0:0:0:0:
358,365,131642,5,0,1:0:0:0:
215,273,131818,1,0,3:0:0:0:
215,273,131906,1,0,3:0:0:0:
215,273,131995,5,0,1:0:0:0:
368,193,132171,1,8,1:0:0:0:
162,168,132348,5,10,0:0:0:0:
79,125,132524,1,8,3:0:0:0:
332,85,132700,5,8,1:0:0:0:
368,193,132877,1,8,3:0:0:0:
226,318,133053,5,8,1:0:0:0:
128,199,133230,1,8,1:0:0:0:
128,199,133406,6,0,P|78:176|20:194,1,93.7499970197678,14|0,0:0|0:0,0:0:0:0:
117,310,133759,2,0,P|163:314|203:292,1,93.7499970197678,2|0,0:0|0:0,0:0:0:0:
322,140,134112,6,0,B|293:167|278:204|278:204|286:265|336:299,1,187.499994039536,8|0,1:0|0:0,0:0:0:0:
331,295,134642,1,0,0:0:0:0:
452,128,134818,5,10,0:0:0:0:
512,211,134995,1,0,3:0:0:0:
452,128,135171,2,0,P|446:79|479:44,1,93.7499970197678,10|0,0:0|0:0,0:0:0:0:
322,140,135524,6,0,B|220:160|245:77|142:104,1,187.499994039536,8|0,1:0|0:0,0:0:0:0:
0,209,136053,1,0,3:0:0:0:
0,209,136142,1,0,3:0:0:0:
0,209,136230,6,0,B|38:256|72:255|72:255|117:214|177:220,1,187.499994039536,10|0,0:0|0:0,0:0:0:0:
360,263,136759,1,2,0:0:0:0:
416,331,136936,2,0,B|378:378|344:377|344:377|299:336|239:342,1,187.499994039536,8|0,1:0|0:0,0:0:0:0:
254,341,137465,1,2,0:0:0:0:
419,187,137642,5,10,0:0:0:0:
512,253,137818,1,0,3:0:0:0:
419,187,137995,2,0,P|371:174|320:190,1,93.7499970197678,10|0,0:0|0:0,0:0:0:0:
142,322,138348,5,8,1:0:0:0:
142,322,138524,1,2,0:0:0:0:
0,201,138700,5,10,0:0:0:0:
52,110,138877,1,2,0:0:0:0:
52,110,139053,6,0,B|149:68|186:138|186:138|160:146|140:135,1,187.499994039536,14|0,0:0|0:0,0:0:0:0:
152,139,139583,1,0,0:0:0:0:
313,76,139759,6,0,P|357:68|423:120,1,93.7499970197678,8|0,1:0|0:0,0:0:0:0:
461,225,140112,2,0,P|418:244|373:236,1,93.7499970197678,2|0,0:0|0:0,0:0:0:0:
160,147,140465,5,10,0:0:0:0:
62,225,140642,1,0,3:0:0:0:
160,147,140818,2,0,P|172:96|137:46,1,93.7499970197678,10|0,0:0|0:0,0:0:0:0:
172,256,141171,6,0,B|214:254|248:218|248:218|292:268|263:325,1,187.499994039536,8|0,1:0|0:0,0:0:0:0:
345,151,141700,1,2,0:0:0:0:
345,151,141877,6,0,B|395:144|434:194|434:194|488:202|527:155,1,187.499994039536,10|0,0:0|0:0,0:0:0:0:
511,171,142406,1,0,0:0:0:0:
381,22,142583,6,0,L|282:43,1,93.7499970197678,8|0,1:0|0:0,0:0:0:0:
180,172,142936,2,0,L|81:150,1,93.7499970197678,2|0,0:0|0:0,0:0:0:0:
289,41,143289,5,10,0:0:0:0:
376,132,143465,1,0,3:0:0:0:
228,268,143642,5,10,0:0:0:0:
286,168,143818,1,0,3:0:0:0:
286,168,143906,1,0,3:0:0:0:
286,168,143995,5,8,1:0:0:0:
353,292,144171,1,8,3:0:0:0:
512,156,144348,5,10,0:0:0:0:
465,51,144524,1,8,3:0:0:0:
465,51,144700,6,0,P|417:78|404:128,1,93.7499970197678,14|0,0:0|0:0,0:0:0:0:
293,52,145053,2,0,P|265:99|279:149,1,93.7499970197678,2|0,0:0|0:0,0:0:0:0:
435,241,145406,6,0,B|397:205|349:209|349:209|307:263|240:238,1,187.499994039536,8|0,1:0|0:0,0:0:0:0:
268,245,145936,1,0,0:0:0:0:
103,136,146112,5,10,0:0:0:0:
201,79,146289,1,0,3:0:0:0:
103,136,146465,2,0,P|56:145|6:118,1,93.7499970197678,10|0,0:0|0:0,0:0:0:0:
197,183,146818,6,0,B|221:212|237:246|237:246|227:314|184:355,1,187.499994039536,8|0,1:0|0:0,0:0:0:0:
0,346,147348,1,0,3:0:0:0:
0,346,147436,1,0,3:0:0:0:
0,346,147524,6,0,B|-10:341|-29:326|-29:326|12:248|121:296,1,187.499994039536,10|0,0:0|0:0,0:0:0:0:
314,361,148053,1,2,0:0:0:0:
420,313,148230,2,0,B|430:308|449:293|449:293|408:215|299:263,1,187.499994039536,8|0,1:0|0:0,0:0:0:0:
317,255,148759,1,2,0:0:0:0:
417,93,148936,6,0,P|434:51|443:-1,1,93.7499970197678,10|0,0:0|3:0,0:0:0:0:
279,65,149289,2,0,P|287:111|304:154,1,93.7499970197678,10|0,0:0|0:0,0:0:0:0:
424,317,149642,5,8,1:0:0:0:
424,317,149818,1,2,0:0:0:0:
240,263,149995,5,10,0:0:0:0:
109,322,150171,1,2,0:0:0:0:
109,322,150348,6,0,B|67:348|67:348|101:265|70:200,1,187.499994039536,14|0,0:0|0:0,0:0:0:0:
76,214,150877,1,0,0:0:0:0:
0,80,151053,6,0,P|46:110|97:104,1,93.7499970197678,8|0,1:0|0:0,0:0:0:0:
196,45,151406,2,0,P|242:15|293:21,1,93.7499970197678,2|0,0:0|0:0,0:0:0:0:
496,93,151759,5,10,0:0:0:0:
351,177,151936,1,0,3:0:0:0:
217,215,152112,5,6,0:0:0:0:
313,285,152289,1,0,3:0:0:0:
313,285,152377,1,0,3:0:0:0:
313,285,152465,5,8,1:0:0:0:
209,111,152642,1,8,1:0:0:0:
81,239,152818,5,10,0:0:0:0:
40,330,152995,1,8,3:0:0:0:
40,330,153171,6,0,B|129:367|119:284|213:328,1,164.999999790192,14|0,0:0|0:0,0:0:0:0:
510,282,153877,2,0,B|421:319|430:236|337:280,1,164.999999790192,8|0,1:0|0:0,0:0:0:0:
474,171,154406,1,0,3:0:0:0:
474,171,154495,1,0,3:0:0:0:
474,171,154583,5,10,0:0:0:0:
466,80,154759,1,0,3:0:0:0:
320,135,154936,5,10,0:0:0:0:
252,78,155112,1,2,0:0:0:0:
252,78,155289,6,0,P|197:133|250:218,1,164.999999790192,8|0,1:0|0:0,0:0:0:0:
348,279,155818,2,0,P|351:251|357:225,1,41.2499999475479,8|0,0:0|0:0,0:0:0:0:
390,112,155995,5,10,0:0:0:0:
390,112,156348,1,2,0:0:0:0:
390,112,156700,2,0,P|359:138|319:142,1,82.4999998950959,8|0,1:0|0:0,0:0:0:0:
171,182,157053,2,0,P|209:185|243:215,1,82.4999998950959,2|0,0:0|3:0,0:0:0:0:
259,245,157318,1,0,3:0:0:0:
259,245,157406,5,10,0:0:0:0:
207,326,157583,1,0,3:0:0:0:
93,244,157759,5,10,0:0:0:0:
16,295,157936,1,2,0:0:0:0:
16,295,158112,6,0,P|2:341|0:385,1,82.4999998950959,8|0,1:0|0:0,0:0:0:0:
93,244,158465,2,0,P|89:203|76:163,1,82.4999998950959,10|0,0:0|3:0,0:0:0:0:
55,123,158730,1,0,3:0:0:0:
55,123,158818,6,0,B|74:150|118:159|118:159|155:122|212:120,1,164.999999790192,14|0,0:0|0:0,0:0:0:0:
509,191,159524,2,0,B|490:218|446:227|446:227|409:190|352:188,1,164.999999790192,8|0,1:0|0:0,0:0:0:0:
206,187,160053,1,0,3:0:0:0:
206,187,160142,1,0,3:0:0:0:
206,187,160230,5,10,0:0:0:0:
238,95,160406,1,0,3:0:0:0:
365,189,160583,5,10,0:0:0:0:
360,282,160759,1,2,0:0:0:0:
360,282,160936,6,0,B|303:323|249:307|249:307|226:272|243:226,1,164.999999790192,8|0,1:0|0:0,0:0:0:0:
234,131,161465,2,0,P|210:137|175:135,1,41.2499999475479,8|0,0:0|0:0,0:0:0:0:
38,128,161642,5,10,0:0:0:0:
38,128,161995,1,2,0:0:0:0:
38,128,162348,2,0,L|49:209,1,82.4999998950959,8|0,1:0|0:0,0:0:0:0:
150,312,162700,2,0,L|161:230,1,82.4999998950959,2|0,0:0|3:0,0:0:0:0:
172,200,162965,1,0,3:0:0:0:
172,200,163053,5,10,0:0:0:0:
82,40,163230,1,0,3:0:0:0:
18,178,163406,5,10,0:0:0:0:
215,91,163583,1,0,3:0:0:0:
223,108,163671,1,0,3:0:0:0:
238,92,163759,5,4,3:0:0:0:
277,75,163877,1,8,3:0:0:0:
319,87,163995,1,8,3:0:0:0:
349,124,164112,5,4,3:0:0:0:
398,139,164230,1,8,3:0:0:0:
448,123,164348,1,8,3:0:0:0:
448,123,164465,6,0,P|391:198|427:266,1,164.999999790192,14|0,0:0|0:0,0:0:0:0:
414,255,165171,2,0,P|367:257|335:290,1,82.4999998950959,8|0,1:0|0:0,0:0:0:0:
249,368,165524,2,0,P|202:366|170:333,1,82.4999998950959,2|0,0:0|3:0,0:0:0:0:
154,321,165789,1,0,3:0:0:0:
154,321,165877,5,10,0:0:0:0:
190,234,166053,1,0,3:0:0:0:
43,246,166230,5,10,0:0:0:0:
10,166,166406,1,2,0:0:0:0:
10,166,166583,6,0,P|12:125|45:89,1,82.4999998950959,8|0,1:0|0:0,0:0:0:0:
180,21,166936,1,2,0:0:0:0:
180,21,167112,2,0,L|183:62,1,41.2499999475479,8|0,0:0|0:0,0:0:0:0:
119,162,167289,6,0,B|161:154|198:179|198:179|224:136|258:128,1,164.999999790192,10|0,0:0|0:0,0:0:0:0:
258,128,167995,2,0,P|292:148|308:186,1,82.4999998950959,8|0,1:0|0:0,0:0:0:0:
401,114,168348,2,0,P|420:149|415:189,1,82.4999998950959,2|0,0:0|3:0,0:0:0:0:
405,226,168612,1,0,3:0:0:0:
405,226,168700,5,10,0:0:0:0:
420,308,168877,1,0,3:0:0:0:
284,374,169053,5,10,0:0:0:0:
226,312,169230,1,2,0:0:0:0:
226,312,169406,6,0,P|191:290|146:274,1,82.4999998950959,8|0,1:0|0:0,0:0:0:0:
12,224,169759,2,0,P|46:202|92:186,1,82.4999998950959,10|0,0:0|3:0,0:0:0:0:
128,179,170024,1,0,3:0:0:0:
128,179,170112,6,0,B|89:118|89:118|130:78|116:16,1,164.999999790192,10|0,0:0|0:0,0:0:0:0:
388,59,170818,2,0,B|427:119|427:119|385:159|400:222,1,164.999999790192,8|0,1:0|0:0,0:0:0:0:
433,375,171348,1,0,3:0:0:0:
433,375,171436,1,0,3:0:0:0:
433,375,171524,5,10,0:0:0:0:
355,297,171700,1,0,3:0:0:0:
499,199,171877,5,10,0:0:0:0:
433,375,172053,1,0,1:0:0:0:
367,203,172230,5,8,1:0:0:0:
269,143,172406,1,10,0:0:0:0:
269,143,172583,6,0,P|202:123|126:167,1,123.749999842644,8|0,3:0|0:0,0:0:0:0:
125,167,172936,6,0,B|237:147|302:276|228:361|228:361|311:290|386:334,1,449.999985694885,6|0,0:0|0:0,0:0:0:0:
374,327,175759,5,2,0:0:0:0:
381,285,176465,1,0,0:0:0:0:
388,242,177171,1,0,0:0:0:0:
395,200,177877,1,0,0:0:0:0:
148,308,178583,5,2,0:0:0:0:
141,266,179289,1,0,0:0:0:0:
134,224,179995,1,0,0:0:0:0:
127,182,180700,1,2,0:0:0:0:
127,182,181406,5,2,0:0:0:0:
162,160,182112,1,0,0:0:0:0:
203,157,182818,1,0,0:0:0:0:
239,174,183524,1,0,0:0:0:0:
465,91,184230,5,2,0:0:0:0:
429,108,184936,1,0,0:0:0:0:
388,105,185642,1,0,0:0:0:0:
353,83,186348,1,2,0:0:0:0:
353,83,187053,6,0,P|352:45|370:13,2,74.9999976158143,2|0|2,0:0|0:0|0:0,0:0:0:0:
290,159,188112,1,0,0:0:0:0:
290,159,188465,2,0,P|307:191|307:228,2,74.9999976158143,2|0|2,0:0|0:0|0:0,0:0:0:0:
220,87,189524,1,0,0:0:0:0:
220,87,189877,6,0,B|131:98,1,74.9999976158143,2|0,0:0|0:0,0:0:0:0:
82,185,190583,2,0,B|170:196,1,74.9999976158143,2|0,0:0|0:0,0:0:0:0:
247,231,191289,2,0,P|284:220|321:221,2,74.9999976158143,2|0|2,0:0|0:0|0:0,0:0:0:0:
247,231,192700,6,0,P|226:200|192:184,1,74.9999976158143,2|0,0:0|0:0,0:0:0:0:
192,90,193406,2,0,P|155:83|121:95,1,74.9999976158143,2|0,0:0|0:0,0:0:0:0:
51,158,194112,5,2,0:0:0:0:
51,158,194465,1,8,3:0:0:0:
111,304,194642,1,0,3:0:0:0:
111,304,194730,1,0,3:0:0:0:
111,304,194818,5,8,1:0:0:0:
247,231,194995,1,8,1:0:0:0:
377,88,195171,5,8,3:0:0:0:
510,161,195348,1,0,1:0:0:0:
510,161,195524,6,0,P|470:202|412:220,1,93.7499970197678,14|0,0:0|0:0,0:0:0:0:
373,347,195877,2,0,P|333:306|275:288,1,93.7499970197678,2|0,0:0|0:0,0:0:0:0:
110,226,196230,6,0,B|212:246|187:163|290:190,1,187.499994039536,8|0,1:0|0:0,0:0:0:0:
285,188,196759,1,0,0:0:0:0:
85,88,196936,5,10,0:0:0:0:
0,193,197112,1,0,3:0:0:0:
18,283,197289,2,0,P|66:320|106:323,1,93.7499970197678,10|0,0:0|0:0,0:0:0:0:
331,322,197642,6,0,B|259:284|198:321|198:321|229:343|256:332,1,187.499994039536,8|0,1:0|0:0,0:0:0:0:
445,283,198171,1,0,3:0:0:0:
445,283,198259,1,0,3:0:0:0:
445,283,198348,6,0,P|411:176|339:168,1,187.499994039536,10|0,0:0|0:0,0:0:0:0:
113,219,198877,1,2,0:0:0:0:
15,187,199053,2,0,P|49:80|121:72,1,187.499994039536,8|0,1:0|0:0,0:0:0:0:
111,69,199583,1,2,0:0:0:0:
225,244,199759,5,10,0:0:0:0:
336,141,199936,1,0,3:0:0:0:
294,51,200112,2,0,P|253:28|204:39,1,93.7499970197678,10|0,0:0|0:0,0:0:0:0:
432,122,200465,5,8,1:0:0:0:
488,24,200642,1,2,0:0:0:0:
503,213,200818,5,10,0:0:0:0:
405,269,200995,1,2,0:0:0:0:
405,269,201171,6,0,B|358:275|322:229|322:229|272:221|236:265,1,187.499994039536,14|0,0:0|0:0,0:0:0:0:
240,259,201700,1,0,0:0:0:0:
96,382,201877,6,0,P|116:340|100:282,1,93.7499970197678,8|0,1:0|0:0,0:0:0:0:
92,127,202230,2,0,P|117:165|175:180,1,93.7499970197678,2|0,0:0|0:0,0:0:0:0:
399,171,202583,5,10,0:0:0:0:
329,53,202759,1,0,3:0:0:0:
232,31,202936,2,0,P|180:32|137:51,1,93.7499970197678,10|0,0:0|0:0,0:0:0:0:
0,164,203289,6,0,B|80:118|141:171|141:171|110:176|87:153,1,187.499994039536,8|0,1:0|0:0,0:0:0:0:
106,166,203818,1,2,0:0:0:0:
277,124,203995,6,0,B|311:153|329:183|329:183|316:261|287:299,1,187.499994039536,10|0,0:0|0:0,0:0:0:0:
295,285,204524,1,0,0:0:0:0:
111,261,204700,6,0,P|65:266|24:290,1,93.7499970197678,8|0,1:0|0:0,0:0:0:0:
136,383,205053,2,0,P|182:378|223:354,1,93.7499970197678,2|0,0:0|0:0,0:0:0:0:
408,210,205406,5,10,0:0:0:0:
453,327,205583,1,0,3:0:0:0:
301,189,205759,5,10,0:0:0:0:
337,93,205936,1,0,3:0:0:0:
337,93,206024,1,0,3:0:0:0:
337,93,206112,5,8,1:0:0:0:
179,34,206289,1,8,3:0:0:0:
0,94,206465,5,10,0:0:0:0:
99,160,206642,1,8,3:0:0:0:
99,160,206818,6,0,P|123:199|128:251,1,93.7499970197678,14|0,0:0|0:0,0:0:0:0:
199,378,207171,2,0,P|204:331|228:292,1,93.7499970197678,2|0,0:0|0:0,0:0:0:0:
402,160,207524,6,0,B|359:160|318:203|318:203|278:167|233:172,1,187.499994039536,8|0,1:0|0:0,0:0:0:0:
235,172,208053,1,0,0:0:0:0:
412,23,208230,5,10,0:0:0:0:
512,133,208406,1,0,3:0:0:0:
503,224,208583,2,0,P|464:257|410:257,1,93.7499970197678,10|0,0:0|0:0,0:0:0:0:
232,351,208936,6,0,B|296:312|352:346|352:346|319:319|319:271,1,187.499994039536,8|0,1:0|0:0,0:0:0:0:
330,116,209465,1,0,3:0:0:0:
330,116,209553,1,0,3:0:0:0:
330,116,209642,6,0,B|376:67|435:65|435:65|474:96|496:134,1,187.499994039536,10|0,0:0|0:0,0:0:0:0:
259,186,210171,1,2,0:0:0:0:
182,116,210348,2,0,B|135:67|76:65|76:65|37:96|15:134,1,187.499994039536,8|0,1:0|0:0,0:0:0:0:
29,113,210877,1,2,0:0:0:0:
178,220,211053,6,0,P|224:215|259:184,1,93.7499970197678,10|0,0:0|3:0,0:0:0:0:
345,84,211406,2,0,P|391:88|426:119,1,93.7499970197678,10|0,0:0|0:0,0:0:0:0:
476,318,211759,5,8,1:0:0:0:
367,283,211936,1,2,0:0:0:0:
258,185,212112,5,10,0:0:0:0:
156,245,212289,1,2,0:0:0:0:
156,245,212465,6,0,B|110:297|154:347|154:347|190:318|236:325,1,187.499994039536,14|0,0:0|0:0,0:0:0:0:
222,323,212995,1,0,0:0:0:0:
361,256,213171,6,0,P|384:216|379:170,1,93.7499970197678,8|0,1:0|0:0,0:0:0:0:
299,9,213524,5,2,0:0:0:0:
227,120,213700,1,2,0:0:0:0:
84,177,213877,5,10,0:0:0:0:
9,82,214053,1,0,3:0:0:0:
227,120,214230,5,6,0:0:0:0:
288,214,214406,1,0,3:0:0:0:
288,214,214495,1,0,3:0:0:0:
288,214,214583,5,8,1:0:0:0:
351,38,214759,1,8,1:0:0:0:
475,203,214936,5,10,0:0:0:0:
512,312,215112,1,8,3:0:0:0:
512,312,215289,6,0,P|474:338|428:334,1,82.4999998950959,14|0,0:0|0:0,0:0:0:0:
342,268,215642,2,0,P|304:242|258:246,1,82.4999998950959,2|0,0:0|0:0,0:0:0:0:
142,383,215995,2,0,B|173:354|181:311|181:311|153:280|157:233,1,164.999999790192,8|0,1:0|0:0,0:0:0:0:
201,88,216524,1,0,3:0:0:0:
201,88,216612,1,0,3:0:0:0:
201,88,216700,5,10,0:0:0:0:
295,186,216877,1,0,3:0:0:0:
389,168,217053,2,0,P|408:131|406:91,1,82.4999998950959,10|0,0:0|0:0,0:0:0:0:
359,258,217406,2,0,P|380:292|416:311,1,82.4999998950959,8|0,1:0|0:0,0:0:0:0:
295,186,217759,2,0,P|254:187|219:209,1,82.4999998950959,2|0,0:0|0:0,0:0:0:0:
218,207,218112,6,0,B|182:198|156:155|156:155|119:180|79:173,1,164.999999790192,10|0,0:0|0:0,0:0:0:0:
358,108,218818,2,0,B|394:99|420:56|420:56|457:81|497:73,1,164.999999790192,8|0,1:0|0:0,0:0:0:0:
470,203,219348,1,0,3:0:0:0:
470,203,219436,1,0,3:0:0:0:
470,203,219524,5,10,0:0:0:0:
358,108,219700,1,0,3:0:0:0:
298,288,219877,5,10,0:0:0:0:
371,213,220053,1,2,0:0:0:0:
191,289,220230,5,8,1:0:0:0:
98,234,220406,1,2,0:0:0:0:
98,234,220583,6,0,P|86:196|96:152,1,82.4999998950959,8|0,0:0|0:0,0:0:0:0:
94,155,220936,6,0,L|176:143,1,82.4999998950959,14|0,0:0|0:0,0:0:0:0:
219,49,221289,2,0,L|301:60,1,82.4999998950959,2|0,0:0|0:0,0:0:0:0:
471,163,221642,2,0,B|442:192|384:206|384:206|348:191|325:173,1,164.999999790192,8|0,1:0|0:0,0:0:0:0:
227,57,222171,1,0,3:0:0:0:
227,57,222259,1,0,3:0:0:0:
227,57,222348,5,10,0:0:0:0:
120,147,222524,1,0,3:0:0:0:
25,106,222700,2,0,P|3:71|5:30,1,82.4999998950959,10|0,0:0|0:0,0:0:0:0:
120,147,223053,2,0,P|121:187|100:222,1,82.4999998950959,8|0,1:0|0:0,0:0:0:0:
20,362,223406,2,0,P|-1:327|0:286,1,82.4999998950959,2|0,0:0|0:0,0:0:0:0:
120,147,223759,6,0,P|178:136|249:134,1,123.749999842644,6|0,0:0|0:0,0:0:0:0:
286,141,224112,5,8,1:0:0:0:
334,50,224289,1,8,1:0:0:0:
512,172,224465,5,10,0:0:0:0:
440,250,224642,1,8,3:0:0:0:
440,250,224818,6,0,B|363:302|273:284|221:233|221:233|280:218|333:289,1,356.249988675118,6|0,0:0|0:0,0:0:0:0:
323,277,226583,5,2,0:0:0:0:
256,192,226671,12,0,233642,0:0:0:0:
