osu file format v14

[General]
AudioFilename: audio.mp3
AudioLeadIn: 0
PreviewTime: 194112
Countdown: 0
SampleSet: None
StackLeniency: 0.7
Mode: 0
LetterboxInBreaks: 0
WidescreenStoryboard: 1

[Editor]
Bookmarks: 11995,23289,34583,45877,57171,62818,82583,93877,105171,116465,127759,133406,153171,164465,175759,187053,195524,215289,226583
DistanceSpacing: 1.5
BeatDivisor: 4
GridSize: 4
TimelineZoom: 1.3

[Metadata]
Title:Higashi no Sora kara Hajimaru Sekai
TitleUnicode:東の空から始まる世界
Artist:Primary
ArtistUnicode:Primary
Creator:Lafayla
Version:Hinsvar's Hard
Source:恋×シンアイ彼女
Tags:Lasse Laurier Hinsvar ゆいこんぬ yuikonnu japanese video game pop meis clauson yuiko shutter * girl azuma eroge vn visual novel koi-kakeru shin-ai kanojo school girls stories us:track ed ending koikake
BeatmapID:2439145
BeatmapSetID:1096746

[Difficulty]
HPDrainRate:5
CircleSize:3.5
OverallDifficulty:6.5
ApproachRate:8
SliderMultiplier:2.88
SliderTickRate:1

[Events]
//Background and Video events
0,0,"primarybg.jpg",0,0
//Break Periods
2,82783,90303
2,175959,186303
//Storyboard Layer 0 (Background)
//Storyboard Layer 1 (Fail)
//Storyboard Layer 2 (Pass)
//Storyboard Layer 3 (Foreground)
//Storyboard Layer 4 (Overlay)
//Storyboard Sound Samples

[TimingPoints]
701,705.882352941176,4,2,1,65,1,0
701,-133.333333333333,4,2,1,65,0,0
11995,-100,4,2,1,65,0,0
23200,-100,4,2,1,25,0,0
23289,-133.333333333333,4,2,1,45,0,0
45877,-114.942528735632,4,2,1,55,0,0
59995,-114.942528735632,4,2,1,60,0,0
60348,-114.942528735632,4,2,1,63,0,0
60700,-114.942528735632,4,2,1,66,0,0
61053,-114.942528735632,4,2,1,69,0,0
61406,-114.942528735632,4,2,1,72,0,0
62818,-88.4955752212389,4,2,1,75,0,1
82583,-100,4,2,1,65,0,0
93789,-100,4,2,1,25,0,0
93877,-161.290322580645,4,2,1,40,0,0
104112,-161.290322580645,4,2,1,43,0,0
104465,-133.333333333333,4,2,1,43,0,0
105171,-133.333333333333,4,2,1,45,0,0
116465,-114.942528735632,4,2,1,55,0,0
130583,-114.942528735632,4,2,1,60,0,0
130936,-114.942528735632,4,2,1,64,0,0
131289,-114.942528735632,4,2,1,68,0,0
131642,-114.942528735632,4,2,1,70,0,0
133406,-88.4955752212389,4,2,1,75,0,1
153171,-100,4,2,1,65,0,0
172936,-200,4,2,1,65,0,0
175053,-200,4,2,1,25,0,0
175759,-200,4,2,1,40,0,0
187053,-161.290322580645,4,2,1,45,0,0
194642,-114.942528735632,4,2,1,70,0,0
195524,-88.4955752212389,4,2,1,75,0,1
215289,-100,4,2,1,65,0,0
224818,-200,4,2,1,65,0,0
226495,-200,4,2,1,25,0,0
226583,-200,4,2,1,40,0,0
227995,-200,4,2,1,37,0,0
229406,-200,4,2,1,34,0,0
230818,-200,4,2,1,31,0,0
232230,-200,4,2,1,28,0,0
233642,-200,4,2,1,25,0,0

[Colours]
Combo1 : 250,190,230
Combo2 : 130,200,230
Combo3 : 255,230,140
Combo4 : 170,245,170

[HitObjects]
0,56,701,6,0,P|29:90|38:165,1,108.000004119873,2|0,0:0|0:0,0:0:0:0:
105,299,1406,2,0,P|140:259|218:257,1,108.000004119873,2|0,0:0|0:0,0:0:0:0:
317,354,2112,1,2,0:0:0:0:
317,354,2465,1,0,0:0:0:0:
463,316,2818,1,2,0:0:0:0:
422,170,3171,1,0,0:0:0:0:
286,102,3524,6,0,P|259:48|253:-8,2,108.000004119873,2|0|0,0:0|0:0|0:0,0:0:0:0:
209,233,4583,1,0,0:0:0:0:
78,157,4936,1,2,0:0:0:0:
162,31,5289,2,0,P|189:44|220:46,1,54.0000020599365,2|0,0:0|0:0,0:0:0:0:
269,112,5642,1,0,0:0:0:0:
269,112,5818,2,0,P|322:84|384:72,1,108.000004119873,2|0,0:0|0:0,0:0:0:0:
438,115,6348,5,2,0:0:0:0:
510,259,6700,1,0,0:0:0:0:
389,367,7053,2,0,P|374:314|342:268,1,108.000004119873,2|0,0:0|0:0,0:0:0:0:
196,338,7759,1,2,0:0:0:0:
84,220,8112,1,0,0:0:0:0:
175,86,8465,2,0,P|221:115|298:110,1,108.000004119873,2|0,0:0|0:0,0:0:0:0:
420,187,9171,6,0,P|436:133|464:75,2,108.000004119873,2|0|0,0:0|0:0|0:0,0:0:0:0:
325,358,10230,1,2,0:0:0:0:
237,236,10583,5,8,0:0:0:0:
419,294,10936,1,6,0:0:0:0:
326,160,11289,5,8,1:0:0:0:
284,62,11465,1,8,1:0:0:0:
399,105,11642,1,10,0:0:0:0:
438,14,11818,1,8,3:0:0:0:
491,129,11995,6,0,P|466:181|458:270,1,144,14|2,0:0|0:0,0:0:0:0:
403,343,12524,1,0,0:0:0:0:
310,355,12700,2,0,B|272:325|263:298|263:298|244:330|192:339,1,144,8|0,1:0|0:0,0:0:0:0:
89,174,13406,2,0,P|53:194|12:193,1,72,10|0,0:0|3:0,0:0:0:0:
90,270,13759,1,10,0:0:0:0:
172,97,14112,2,0,B|146:33|146:33|58:4,1,144,8|2,1:0|0:0,0:0:0:0:
14,187,14818,6,0,P|35:250|100:317,1,144,10|0,0:0|0:0,0:0:0:0:
174,276,15348,1,0,0:0:0:0:
267,353,15524,2,0,B|259:269|259:269|297:220,1,144,8|0,1:0|0:0,0:0:0:0:
446,343,16230,2,0,P|482:362|507:337,1,72,10|0,0:0|3:0,0:0:0:0:
502,255,16583,1,10,0:0:0:0:
502,255,16759,2,0,P|462:185|455:117,1,144,2|2,0:0|0:0,0:0:0:0:
497,38,17289,1,8,0:0:0:0:
310,17,17642,6,0,B|262:13|242:37|242:37|215:60|168:51,2,144,14|2|8,0:0|0:0|1:0,0:0:0:0:
437,153,18700,2,0,P|417:186|410:231,1,72,0|0,0:0|3:0,0:0:0:0:
341,282,19053,1,10,0:0:0:0:
259,236,19230,1,0,3:0:0:0:
286,146,19406,1,10,0:0:0:0:
142,26,19759,2,0,B|83:-7|83:-7|1:14,1,144,8|2,1:0|0:0,0:0:0:0:
118,194,20465,5,6,0:0:0:0:
269,83,20818,1,8,1:0:0:0:
353,42,20995,1,8,1:0:0:0:
420,106,21171,2,0,P|454:118|498:122,1,72,10|8,0:0|3:0,0:0:0:0:
436,224,21524,5,6,0:0:0:0:
256,192,21700,12,0,22936,0:0:0:0:
110,346,23289,6,0,P|84:305|95:239,1,108.000004119873,14|0,0:0|0:0,0:0:0:0:
147,191,23818,1,2,0:0:0:0:
147,191,23995,2,0,B|117:144|117:144|56:116,1,108.000004119873,0|0,1:0|0:0,0:0:0:0:
20,57,24524,2,0,P|95:74|156:13,1,162.00000617981,10|10,0:0|0:0,0:0:0:0:
223,62,25230,2,0,B|248:46|248:46|287:47,1,54.0000020599366,2|0,0:0|1:0,0:0:0:0:
418,117,25759,1,0,0:0:0:0:
278,198,26112,6,0,P|256:247|255:313,1,108.000004119873,10|0,0:0|0:0,0:0:0:0:
317,350,26642,2,0,P|339:301|340:235,1,108.000004119873,2|0,0:0|0:0,0:0:0:0:
417,219,27171,1,2,0:0:0:0:
327,84,27524,2,0,B|311:59|311:59|318:26,2,54.0000020599366,0|0|10,0:0|3:0|0:0,0:0:0:0:
221,207,28230,2,0,B|186:166|186:166|122:172,1,108.000004119873,0|0,1:0|0:0,0:0:0:0:
13,325,28936,6,0,P|63:298|119:297,1,108.000004119873,10|2,0:0|0:0,0:0:0:0:
261,361,29642,2,0,B|286:312|286:312|274:249,1,108.000004119873,0|0,1:0|0:0,0:0:0:0:
142,167,30348,2,0,P|119:118|123:59,1,108.000004119873,10|10,0:0|0:0,0:0:0:0:
187,18,30877,2,0,B|230:54|230:54|286:40,1,108.000004119873,2|0,0:0|0:0,0:0:0:0:
357,66,31406,2,0,P|372:88|381:125,1,54.0000020599366,2|0,0:0|3:0,0:0:0:0:
342,185,31759,5,10,0:0:0:0:
448,307,32112,1,0,0:0:0:0:
296,365,32465,2,0,B|259:322|259:322|199:313,1,108.000004119873,0|10,1:0|0:0,0:0:0:0:
48,345,33171,2,0,P|43:313|54:286,1,54.0000020599366,0|0,0:0|3:0,0:0:0:0:
111,240,33524,2,0,B|140:189|140:189|133:131,1,108.000004119873,10|0,0:0|1:0,0:0:0:0:
17,27,34230,1,8,3:0:0:0:
22,32,34406,1,8,3:0:0:0:
99,9,34583,6,0,P|153:11|210:34,1,108.000004119873,14|0,0:0|0:0,0:0:0:0:
250,95,35112,1,2,0:0:0:0:
335,152,35289,2,0,B|331:95|331:95|368:34,1,108.000004119873,0|0,1:0|0:0,0:0:0:0:
429,3,35818,2,0,P|427:77|501:121,1,162.00000617981,10|10,0:0|0:0,0:0:0:0:
457,193,36524,2,0,B|469:217|469:217|460:249,1,54.0000020599366,2|0,0:0|1:0,0:0:0:0:
358,367,37053,1,0,0:0:0:0:
218,247,37406,6,0,P|172:220|106:226,1,108.000004119873,10|0,0:0|0:0,0:0:0:0:
43,274,37936,2,0,P|89:301|155:295,1,108.000004119873,2|0,0:0|0:0,0:0:0:0:
209,345,38465,1,2,0:0:0:0:
244,271,38642,1,10,0:0:0:0:
323,316,38818,6,0,P|351:326|383:323,1,54.0000020599366,0|0,0:0|3:0,0:0:0:0:
463,299,39171,1,10,0:0:0:0:
508,143,39524,1,0,1:0:0:0:
391,30,39877,1,0,0:0:0:0:
250,151,40230,6,0,P|201:174|137:173,1,108.000004119873,10|2,0:0|0:0,0:0:0:0:
56,40,40936,2,0,B|113:31|113:31|158:69,1,108.000004119873,0|0,1:0|0:0,0:0:0:0:
261,182,41642,2,0,P|279:132|292:67,1,108.000004119873,10|10,0:0|0:0,0:0:0:0:
352,25,42171,2,0,P|410:90|504:89,1,162.00000617981,2|0,0:0|0:0,0:0:0:0:
505,19,42877,1,0,3:0:0:0:
468,108,43053,6,0,P|468:163|486:229,1,108.000004119873,10|0,0:0|0:0,0:0:0:0:
377,367,43759,1,0,1:0:0:0:
221,268,44112,1,10,0:0:0:0:
303,128,44465,1,0,0:0:0:0:
361,184,44642,1,0,3:0:0:0:
437,159,44818,2,0,P|463:160|492:171,1,54.0000020599366,10|0,0:0|3:0,0:0:0:0:
462,69,45171,5,0,1:0:0:0:
372,17,45348,1,0,1:0:0:0:
276,52,45524,1,8,3:0:0:0:
276,52,45877,6,0,P|224:55|154:28,1,125.280001051392,14|0,0:0|0:0,0:0:0:0:
68,64,46406,2,0,P|151:84|165:182,1,187.920001577087,10|10,0:0|0:0,0:0:0:0:
96,335,47289,2,0,P|92:308|78:276,1,62.6400005256958,0|0,0:0|3:0,0:0:0:0:
7,216,47642,1,10,0:0:0:0:
107,71,47995,2,0,B|170:41|170:41|243:59,1,125.280001051392,0|10,1:0|0:0,0:0:0:0:
323,213,48700,6,0,P|367:165|378:90,1,125.280001051392,10|0,0:0|0:0,0:0:0:0:
451,179,49230,2,0,P|457:254|472:310,1,125.280001051392,10|0,0:0|0:0,0:0:0:0:
410,367,49759,1,10,0:0:0:0:
249,295,50112,2,0,L|182:306,1,62.6400005256958,0|0,0:0|3:0,0:0:0:0:
116,252,50465,1,10,0:0:0:0:
210,104,50818,2,0,B|248:155|248:155|314:135,1,125.280001051392,0|10,1:0|0:0,0:0:0:0:
476,245,51524,6,0,P|452:189|453:122,1,125.280001051392,10|0,0:0|0:0,0:0:0:0:
498,29,52053,2,0,B|440:77|440:77|365:61,1,125.280001051392,10|0,0:0|0:0,0:0:0:0:
323,9,52583,1,10,0:0:0:0:
163,81,52936,2,0,P|154:108|148:147,1,62.6400005256958,0|0,0:0|3:0,0:0:0:0:
95,211,53289,1,10,0:0:0:0:
27,22,53642,1,0,1:0:0:0:
216,88,53995,2,0,P|250:93|288:80,1,62.6400005256958,10|0,0:0|3:0,0:0:0:0:
355,33,54348,6,0,P|413:45|420:104,1,125.280001051392,10|0,0:0|0:0,0:0:0:0:
490,171,54877,2,0,P|439:182|364:225,1,125.280001051392,10|0,0:0|0:0,0:0:0:0:
333,293,55406,1,10,0:0:0:0:
219,127,55759,1,0,0:0:0:0:
144,173,55936,2,0,B|124:149|124:149|134:109,1,62.6400005256958,0|10,3:0|0:0,0:0:0:0:
3,272,56465,2,0,B|32:223|32:223|15:149,1,125.280001051392,0|8,1:0|3:0,0:0:0:0:
42,71,56995,1,8,3:0:0:0:
160,30,57171,6,0,P|141:82|173:150,1,125.280001051392,14|0,0:0|0:0,0:0:0:0:
123,234,57700,2,0,P|182:192|249:201,1,125.280001051392,10|0,0:0|0:0,0:0:0:0:
308,239,58230,2,0,B|292:227|266:229|266:229|246:262|243:323,1,125.280001051392,10|0,0:0|0:0,0:0:0:0:
310,368,58759,1,0,3:0:0:0:
395,345,58936,1,10,0:0:0:0:
491,183,59289,2,0,B|436:209|436:209|390:151,1,125.280001051392,0|10,1:0|0:0,0:0:0:0:
440,82,59818,1,8,0:0:0:0:
378,19,59995,5,10,0:0:0:0:
239,126,60348,1,10,0:0:0:0:
63,60,60700,1,10,0:0:0:0:
10,253,61053,1,10,0:0:0:0:
214,347,61406,5,0,1:0:0:0:
241,340,61936,1,0,3:0:0:0:
241,340,62024,1,0,3:0:0:0:
241,340,62112,1,8,1:0:0:0:
173,255,62289,2,0,B|162:219|162:219|180:181,1,62.6400005256958,8|8,1:0|3:0,0:0:0:0:
255,138,62642,1,0,1:0:0:0:
150,48,62818,6,0,P|114:72|63:77,1,81.360000248291,14|0,0:0|0:0,0:0:0:0:
3,139,63171,2,0,P|61:188|77:285,1,162.720000496582,2|8,0:0|1:0,0:0:0:0:
256,354,63877,2,0,P|304:344|337:306,1,81.360000248291,0|0,0:0|0:0,0:0:0:0:
280,210,64230,2,0,B|315:205|315:205|351:233,1,81.360000248291,10|0,0:0|3:0,0:0:0:0:
421,307,64583,1,10,0:0:0:0:
421,307,64759,2,0,P|478:281|465:189,1,162.720000496582,2|0,0:0|0:0,0:0:0:0:
471,77,65289,2,0,P|438:100|394:108,1,81.360000248291,2|0,0:0|3:0,0:0:0:0:
305,188,65642,6,0,P|279:112|289:25,1,162.720000496582,10|0,0:0|0:0,0:0:0:0:
191,120,66171,2,0,P|294:130|378:19,1,244.080000744873,2|0,0:0|0:0,0:0:0:0:
467,65,66877,1,2,0:0:0:0:
493,158,67053,2,0,P|449:232|425:315,1,162.720000496582,10|10,0:0|0:0,0:0:0:0:
233,339,67759,2,0,P|228:293|207:251,2,81.360000248291,8|2|10,1:0|0:0|0:0,0:0:0:0:
141,374,68289,1,2,0:0:0:0:
63,314,68465,6,0,P|80:279|91:228,1,81.360000248291,14|0,0:0|0:0,0:0:0:0:
15,174,68818,1,0,0:0:0:0:
169,6,69171,1,8,1:0:0:0:
325,122,69524,2,0,B|384:114|407:90|400:85|423:71|477:64,2,162.720000496582,2|10|10,0:0|0:0|0:0,0:0:0:0:
268,26,70406,2,0,P|303:78|191:186,1,244.080000744873,2|0,0:0|0:0,0:0:0:0:
224,282,71112,1,2,0:0:0:0:
314,314,71289,5,10,0:0:0:0:
471,197,71642,2,0,P|445:160|448:113,1,81.360000248291,0|0,0:0|0:0,0:0:0:0:
374,55,71995,2,0,B|298:66|298:66|286:75|286:75|212:89,2,162.720000496582,8|2|10,1:0|0:0|0:0,0:0:0:0:
416,143,72877,1,0,3:0:0:0:
494,85,73053,1,10,0:0:0:0:
428,320,73406,2,0,P|389:256|315:196,1,162.720000496582,8|10,1:0|0:0,0:0:0:0:
231,161,73936,1,8,3:0:0:0:
156,277,74112,6,0,B|234:325|308:254|301:238|383:159|448:185,1,325.440000993164,14|8,0:0|1:0,0:0:0:0:
325,30,75171,2,0,P|291:48|263:97,1,81.360000248291,0|0,0:0|0:0,0:0:0:0:
224,170,75524,2,0,P|157:214|71:224,1,162.720000496582,10|10,0:0|0:0,0:0:0:0:
62,127,76053,2,0,B|129:141|167:176|146:197|186:236|268:251,1,244.080000744873,2|0,0:0|0:0,0:0:0:0:
415,374,76936,6,0,P|417:295|471:217,1,162.720000496582,10|0,0:0|0:0,0:0:0:0:
332,202,77465,2,0,P|404:228|475:100,1,244.080000744873,2|0,0:0|0:0,0:0:0:0:
412,33,78171,1,2,0:0:0:0:
325,79,78348,2,0,P|247:98|161:98,1,162.720000496582,10|10,0:0|0:0,0:0:0:0:
22,235,79053,2,0,B|41:176|41:176|13:145,2,81.360000248291,8|2|10,1:0|0:0|0:0,0:0:0:0:
56,327,79583,1,2,0:0:0:0:
133,267,79759,6,0,P|165:244|218:241,1,81.360000248291,14|0,0:0|0:0,0:0:0:0:
306,293,80112,2,0,P|237:321|169:380,1,162.720000496582,2|8,0:0|1:0,0:0:0:0:
305,173,80818,2,0,P|314:133|316:80,1,81.360000248291,2|0,0:0|0:0,0:0:0:0:
257,14,81171,1,10,0:0:0:0:
476,154,81524,1,6,0:0:0:0:
370,355,81877,1,8,1:0:0:0:
289,275,82053,1,8,1:0:0:0:
191,335,82230,2,0,B|155:353|155:353|112:346,1,81.360000248291,10|8,0:0|3:0,0:0:0:0:
34,262,82583,5,14,0:0:0:0:
64,197,91053,6,0,P|64:127|122:52,1,144,6|8,0:0|1:0,0:0:0:0:
182,115,91583,1,8,1:0:0:0:
274,89,91759,1,10,0:0:0:0:
274,89,91936,1,8,3:0:0:0:
385,120,92112,5,6,0:0:0:0:
256,192,92289,12,0,93524,0:0:0:0:
179,86,93877,5,6,0:0:0:0:
320,163,94230,2,0,P|295:168|266:194,1,44.639998229004,2|0,0:0|0:0,0:0:0:0:
232,243,94583,2,0,P|270:285|284:335,1,89.279996458008,2|0,0:0|0:0,0:0:0:0:
359,367,95112,2,0,P|381:284|417:244,1,133.919994687012,2|0,0:0|0:0,0:0:0:0:
436,174,95818,1,0,0:0:0:0:
436,174,95995,2,0,P|391:144|332:133,1,89.279996458008,2|0,0:0|0:0,0:0:0:0:
228,244,96700,6,0,P|204:197|200:132,1,89.279996458008,2|0,0:0|0:0,0:0:0:0:
145,99,97230,2,0,P|99:101|67:148,1,89.279996458008,2|0,0:0|0:0,0:0:0:0:
12,215,97759,2,0,B|57:195|97:231|91:244|125:286|175:263,1,178.559992916016,2|0,0:0|0:0,0:0:0:0:
313,189,98818,1,2,0:0:0:0:
425,304,99171,1,0,0:0:0:0:
263,381,99524,6,0,P|230:337|170:330,2,89.279996458008,2|0|0,0:0|0:0|0:0,0:0:0:0:
217,226,100583,1,0,0:0:0:0:
89,356,100936,2,0,P|64:321|67:257,1,89.279996458008,2|0,0:0|0:0,0:0:0:0:
3,201,101465,2,0,P|68:151|53:93,1,133.919994687012,2|0,0:0|0:0,0:0:0:0:
104,39,102171,1,0,0:0:0:0:
104,39,102348,6,0,P|159:41|193:56,1,89.279996458008,2|0,0:0|0:0,0:0:0:0:
281,186,103053,1,0,0:0:0:0:
444,77,103406,2,0,B|403:46|357:73|363:85|319:108|267:81,1,178.559992916016,2|4,0:0|3:0,0:0:0:0:
123,24,104465,6,0,B|110:44|110:44|124:89,1,54.0000020599366,8|8,1:0|1:0,0:0:0:0:
69,136,104818,1,8,3:0:0:0:
194,298,105171,5,14,0:0:0:0:
318,194,105524,2,0,P|340:180|379:180,1,54.0000020599366,2|2,0:0|0:0,0:0:0:0:
446,196,105877,2,0,B|411:167|411:167|424:88,1,108.000004119873,0|0,1:0|0:0,0:0:0:0:
371,41,106406,2,0,B|353:32|322:29|322:29|292:71|215:97,1,162.00000617981,10|10,0:0|0:0,0:0:0:0:
177,151,107112,2,0,B|154:136|154:136|122:139,1,54.0000020599366,2|0,0:0|1:0,0:0:0:0:
33,271,107642,2,0,P|67:284|84:313,1,54.0000020599366,0|0,0:0|0:0,0:0:0:0:
157,366,107995,6,0,P|166:307|196:251,1,108.000004119873,10|0,0:0|0:0,0:0:0:0:
260,230,108524,2,0,P|211:227|201:170,1,108.000004119873,2|0,0:0|0:0,0:0:0:0:
157,105,109053,2,0,P|130:98|103:96,1,54.0000020599366,2|10,0:0|0:0,0:0:0:0:
178,25,109406,2,0,P|204:22|249:8,1,54.0000020599366,0|0,0:0|3:0,0:0:0:0:
296,63,109759,2,0,B|351:81|351:81|392:123,2,108.000004119873,10|0|0,0:0|1:0|0:0,0:0:0:0:
397,254,110818,5,10,0:0:0:0:
272,358,111171,2,0,B|227:325|227:325|172:335,2,108.000004119873,2|0|0,0:0|1:0|0:0,0:0:0:0:
167,233,112230,2,0,P|147:178|152:106,1,108.000004119873,10|10,0:0|0:0,0:0:0:0:
219,89,112759,1,2,0:0:0:0:
219,89,112936,2,0,B|257:129|257:129|320:131,1,108.000004119873,0|0,1:0|0:0,0:0:0:0:
354,64,113465,1,0,3:0:0:0:
354,64,113642,5,10,0:0:0:0:
204,1,113995,1,0,0:0:0:0:
34,72,114348,2,0,B|68:106|68:106|46:172,1,108.000004119873,0|10,1:0|0:0,0:0:0:0:
93,318,115053,2,0,P|124:324|153:340,1,54.0000020599366,0|0,0:0|3:0,0:0:0:0:
190,270,115406,2,0,B|233:250|233:250|240:244|240:244|306:216,1,108.000004119873,10|0,0:0|1:0,0:0:0:0:
365,273,115936,1,0,1:0:0:0:
454,252,116112,1,8,3:0:0:0:
380,25,116465,6,0,P|346:84|343:156,1,125.280001051392,14|0,0:0|0:0,0:0:0:0:
322,245,116995,2,0,P|282:203|203:181,1,125.280001051392,10|0,0:0|0:0,0:0:0:0:
157,244,117524,1,10,0:0:0:0:
72,90,117877,2,0,B|83:60|83:60|80:23,2,62.6400005256958,0|0|10,0:0|3:0|0:0,0:0:0:0:
218,161,118583,2,0,B|262:115|262:115|322:131,1,125.280001051392,0|10,1:0|0:0,0:0:0:0:
349,220,119112,1,0,3:0:0:0:
442,240,119289,6,0,P|480:200|499:125,1,125.280001051392,10|0,0:0|0:0,0:0:0:0:
418,80,119818,2,0,P|409:130|482:144,1,125.280001051392,10|0,0:0|0:0,0:0:0:0:
354,188,120348,1,10,0:0:0:0:
445,351,120700,1,0,0:0:0:0:
445,351,120877,2,0,B|423:331|423:331|376:322,1,62.6400005256958,0|10,3:0|0:0,0:0:0:0:
235,242,121406,2,0,B|198:293|198:293|126:306,1,125.280001051392,0|10,1:0|0:0,0:0:0:0:
21,139,122112,6,0,P|83:142|120:193,1,125.280001051392,10|0,0:0|0:0,0:0:0:0:
195,133,122642,2,0,P|203:62|225:3,1,125.280001051392,10|0,0:0|0:0,0:0:0:0:
119,44,123171,1,10,0:0:0:0:
313,130,123524,1,0,0:0:0:0:
313,130,123700,2,0,B|326:93|326:93|321:66,1,62.6400005256958,0|10,3:0|0:0,0:0:0:0:
476,153,124230,2,0,B|431:190|431:190|452:259,1,125.280001051392,0|10,1:0|0:0,0:0:0:0:
396,323,124759,1,0,3:0:0:0:
274,328,124936,6,0,P|318:275|315:202,1,125.280001051392,10|0,0:0|0:0,0:0:0:0:
396,158,125465,2,0,P|333:128|305:61,1,125.280001051392,10|0,0:0|0:0,0:0:0:0:
235,30,125995,1,10,0:0:0:0:
77,107,126348,2,0,B|53:88|53:88|17:96,2,62.6400005256958,0|0|10,0:0|3:0|0:0,0:0:0:0:
161,260,127053,2,0,P|224:268|286:244,1,125.280001051392,0|8,1:0|3:0,0:0:0:0:
330,151,127583,1,8,3:0:0:0:
404,227,127759,6,0,B|422:274|422:274|390:357,1,125.280001051392,14|0,0:0|0:0,0:0:0:0:
309,366,128289,2,0,B|282:296|282:296|300:249,1,125.280001051392,10|0,0:0|0:0,0:0:0:0:
237,187,128818,1,10,0:0:0:0:
105,303,129171,2,0,P|75:285|46:280,1,62.6400005256958,0|0,0:0|3:0,0:0:0:0:
11,199,129524,1,10,0:0:0:0:
180,154,129877,2,0,B|206:102|206:102|187:34,1,125.280001051392,0|10,1:0|0:0,0:0:0:0:
107,1,130406,1,8,0:0:0:0:
37,54,130583,5,10,0:0:0:0:
112,212,130936,1,10,0:0:0:0:
282,132,131289,1,10,0:0:0:0:
467,208,131642,2,0,B|453:241|453:241|392:264,1,93.9600007885437,0|0,1:0|3:0,0:0:0:0:
387,291,131995,5,0,1:0:0:0:
338,196,132171,2,0,B|357:167|357:167|349:131,1,62.6400005256958,8|10,1:0|0:0,0:0:0:0:
302,44,132524,1,8,3:0:0:0:
226,118,132700,2,0,B|199:135|199:135|160:130,1,62.6400005256958,8|8,1:0|3:0,0:0:0:0:
86,62,133053,1,8,1:0:0:0:
10,137,133230,1,8,1:0:0:0:
87,259,133406,6,0,P|119:234|169:223,1,81.360000248291,14|0,0:0|0:0,0:0:0:0:
210,112,133759,2,0,P|197:186|267:266,1,162.720000496582,2|8,0:0|1:0,0:0:0:0:
432,352,134465,2,0,P|442:311|446:268,1,81.360000248291,2|0,0:0|0:0,0:0:0:0:
431,175,134818,2,0,B|453:137|453:137|498:120,1,81.360000248291,10|0,0:0|3:0,0:0:0:0:
423,50,135171,1,10,0:0:0:0:
423,50,135348,1,2,0:0:0:0:
338,99,135524,2,0,B|234:80|234:80|278:35,1,162.720000496582,8|0,1:0|0:0,0:0:0:0:
142,184,136230,6,0,P|73:258|94:334,1,162.720000496582,10|0,0:0|0:0,0:0:0:0:
177,299,136759,2,0,B|237:274|293:314|290:326|343:364|414:336,1,244.080000744873,2|0,0:0|0:0,0:0:0:0:
480,272,137465,1,2,0:0:0:0:
434,184,137642,2,0,P|373:211|261:204,1,162.720000496582,10|10,0:0|0:0,0:0:0:0:
130,81,138348,2,0,B|114:46|114:46|63:17,2,81.360000248291,8|2|10,1:0|0:0|0:0,0:0:0:0:
208,22,138877,1,2,0:0:0:0:
262,131,139053,6,0,P|276:94|318:67,1,81.360000248291,14|0,0:0|0:0,0:0:0:0:
403,21,139406,2,0,B|397:78|397:78|436:193,1,162.720000496582,2|8,0:0|1:0,0:0:0:0:
302,325,140112,2,0,P|261:329|236:300,1,81.360000248291,2|0,0:0|0:0,0:0:0:0:
209,210,140465,2,0,P|125:214|48:248,1,162.720000496582,10|8,0:0|0:0,0:0:0:0:
34,355,140995,2,0,B|82:311|61:232|45:245|22:164|82:119,1,244.080000744873,2|0,0:0|0:0,0:0:0:0:
40,35,141700,1,2,0:0:0:0:
134,59,141877,6,0,P|204:29|298:15,1,162.720000496582,10|0,0:0|0:0,0:0:0:0:
472,152,142583,2,0,B|404:133|404:133|386:141|386:141|304:118,2,162.720000496582,8|2|10,1:0|0:0|0:0,0:0:0:0:
389,230,143465,1,0,3:0:0:0:
457,321,143642,2,0,P|382:324|298:369,1,162.720000496582,10|8,0:0|1:0,0:0:0:0:
285,168,144348,2,0,P|332:164|363:132,1,81.360000248291,10|8,0:0|3:0,0:0:0:0:
439,64,144700,6,0,B|371:52|333:30|333:30|264:36|228:68|228:68|184:72|139:2,1,325.440000993164,14|8,0:0|1:0,0:0:0:0:
34,194,145759,2,0,P|65:224|68:279,1,81.360000248291,2|0,0:0|0:0,0:0:0:0:
149,322,146112,2,0,P|180:247|189:158,1,162.720000496582,10|10,0:0|0:0,0:0:0:0:
263,101,146642,2,0,B|335:134|357:169|346:179|370:219|452:250,1,244.080000744873,2|0,0:0|0:0,0:0:0:0:
497,26,147524,6,0,P|432:58|342:48,1,162.720000496582,10|0,0:0|0:0,0:0:0:0:
271,114,148053,2,0,B|215:96|203:47|203:47|157:124|55:100,1,244.080000744873,2|0,0:0|0:0,0:0:0:0:
52,198,148759,1,2,0:0:0:0:
97,284,148936,1,10,0:0:0:0:
244,155,149289,2,0,P|282:132|320:153,1,81.360000248291,10|0,0:0|0:0,0:0:0:0:
384,214,149642,2,0,B|402:176|402:176|402:122,1,81.360000248291,8|2,1:0|0:0,0:0:0:0:
491,203,149995,1,10,0:0:0:0:
491,203,150171,1,2,0:0:0:0:
451,310,150348,6,0,P|420:331|365:338,1,81.360000248291,14|0,0:0|0:0,0:0:0:0:
292,289,150700,2,0,B|280:189|280:189|242:136,1,162.720000496582,2|8,0:0|1:0,0:0:0:0:
75,43,151406,2,0,P|53:76|41:127,1,81.360000248291,2|0,0:0|0:0,0:0:0:0:
39,213,151759,1,10,0:0:0:0:
255,330,152112,5,6,0:0:0:0:
299,242,152289,2,0,P|218:246|134:296,1,162.720000496582,0|8,3:0|1:0,0:0:0:0:
57,200,152818,1,10,0:0:0:0:
131,102,152995,1,8,3:0:0:0:
242,149,153171,6,0,P|281:76|278:2,1,144,14|0,0:0|0:0,0:0:0:0:
465,132,153877,2,0,B|502:176|502:176|484:274,1,144,8|0,1:0|0:0,0:0:0:0:
440,340,154406,1,0,3:0:0:0:
354,355,154583,2,0,P|301:306|216:292,1,144,10|10,0:0|0:0,0:0:0:0:
148,249,155112,2,0,P|223:241|235:158,1,144,2|0,0:0|0:0,0:0:0:0:
235,89,155642,1,2,0:0:0:0:
46,222,155995,6,0,P|73:292|117:361,1,144,10|2,0:0|0:0,0:0:0:0:
166,285,156524,1,0,0:0:0:0:
246,315,156700,2,0,B|291:301|306:276|306:276|323:300|388:311,1,144,8|2,1:0|0:0,0:0:0:0:
462,106,157406,2,0,B|395:88|395:88|333:141,1,144,10|10,0:0|0:0,0:0:0:0:
256,206,157936,2,0,P|250:125|228:63,1,144,2|0,0:0|0:0,0:0:0:0:
154,19,158465,1,10,0:0:0:0:
349,72,158818,6,0,P|421:66|491:38,1,144,14|0,0:0|0:0,0:0:0:0:
383,213,159524,2,0,B|352:254|352:254|340:352,1,144,8|0,1:0|0:0,0:0:0:0:
253,282,160053,1,0,3:0:0:0:
223,198,160230,2,0,P|177:144|104:124,1,144,10|10,0:0|0:0,0:0:0:0:
35,54,160759,2,0,P|113:27|172:-1,1,144,2|0,0:0|0:0,0:0:0:0:
240,61,161289,1,2,0:0:0:0:
451,18,161642,6,0,P|474:45|484:91,1,72,10|0,0:0|0:0,0:0:0:0:
462,163,161995,1,2,0:0:0:0:
371,310,162348,2,0,B|324:230|324:230|341:169,1,144,8|2,1:0|0:0,0:0:0:0:
308,99,162877,1,0,3:0:0:0:
221,101,163053,1,10,0:0:0:0:
44,211,163406,2,0,P|89:232|106:268,1,72,10|0,0:0|3:0,0:0:0:0:
180,237,163759,6,0,P|186:207|200:182,2,48,4|8|8,3:0|3:0|3:0,0:0:0:0:
218,273,164112,2,0,P|246:263|275:262,2,48,4|8|8,3:0|3:0|3:0,0:0:0:0:
203,324,164465,6,0,B|250:361|250:361|345:369,1,144,14|0,0:0|0:0,0:0:0:0:
482,231,165171,2,0,B|463:199|431:179|431:179|456:153|473:116,1,144,8|2,1:0|0:0,0:0:0:0:
369,120,165700,1,0,3:0:0:0:
321,47,165877,2,0,P|259:36|227:104,1,144,10|10,0:0|0:0,0:0:0:0:
129,128,166406,2,0,P|187:182|205:260,1,144,2|0,0:0|0:0,0:0:0:0:
129,298,166936,1,2,0:0:0:0:
27,83,167289,6,0,P|58:21|143:23,1,144,10|0,0:0|0:0,0:0:0:0:
313,8,167995,2,0,B|378:56|378:56|441:34,1,144,8|2,1:0|0:0,0:0:0:0:
468,116,168524,1,0,3:0:0:0:
422,188,168700,2,0,P|362:195|290:245,1,144,10|10,0:0|0:0,0:0:0:0:
304,327,169230,2,0,B|348:311|374:332|366:342|397:373|447:358,1,144,2|0,0:0|0:0,0:0:0:0:
484,290,169759,1,10,0:0:0:0:
336,174,170112,6,0,P|316:104|313:20,1,144,10|0,0:0|0:0,0:0:0:0:
126,4,170818,2,0,B|70:22|70:22|51:42|51:42|-7:70,1,144,8|0,1:0|0:0,0:0:0:0:
15,152,171348,1,0,3:0:0:0:
68,245,171524,2,0,P|123:209|104:140,1,144,10|10,0:0|0:0,0:0:0:0:
224,199,172053,1,0,1:0:0:0:
193,110,172230,2,0,B|194:70|194:70|221:34,1,72,8|10,1:0|0:0,0:0:0:0:
302,16,172583,1,8,3:0:0:0:
473,81,172936,6,0,B|496:163|423:200|433:212|360:252|397:342,1,288,6|0,0:0|0:0,0:0:0:0:
325,376,175759,1,2,0:0:0:0:
136,334,187053,6,0,P|118:298|128:247,1,89.279996458008,2|0,0:0|0:0,0:0:0:0:
78,69,187759,2,0,P|66:106|20:144,1,89.279996458008,2|0,0:0|0:0,0:0:0:0:
192,187,188465,2,0,P|228:165|276:157,1,89.279996458008,2|0,0:0|0:0,0:0:0:0:
277,55,188995,1,0,0:0:0:0:
277,55,189171,2,0,P|304:75|386:78,1,89.279996458008,2|0,0:0|0:0,0:0:0:0:
473,218,189877,6,0,P|458:169|408:166,1,89.279996458008,2|0,0:0|0:0,0:0:0:0:
355,207,190406,1,0,0:0:0:0:
355,207,190583,2,0,P|353:257|343:297,1,89.279996458008,2|0,0:0|0:0,0:0:0:0:
280,353,191112,2,0,P|261:365|230:373,1,44.639998229004,0|2,0:0|0:0,0:0:0:0:
130,254,191642,1,0,0:0:0:0:
253,154,191995,2,0,P|252:129|247:104,2,44.639998229004,2|0|0,0:0|0:0|0:0,0:0:0:0:
305,215,192524,1,0,0:0:0:0:
305,215,192700,6,0,P|325:203|358:203,1,44.639998229004,2|0,0:0|0:0,0:0:0:0:
414,242,193053,1,0,0:0:0:0:
488,99,193406,1,2,0:0:0:0:
342,30,193759,1,0,0:0:0:0:
279,176,194112,2,0,P|244:192|187:196,1,89.279996458008,2|8,0:0|3:0,0:0:0:0:
129,145,194642,5,0,3:0:0:0:
129,145,194730,1,0,3:0:0:0:
129,145,194818,1,8,1:0:0:0:
65,43,194995,2,0,B|102:55|102:55|132:50,1,62.6400005256958,8|8,1:0|3:0,0:0:0:0:
236,6,195348,1,0,1:0:0:0:
357,70,195524,6,0,P|379:110|373:151,1,81.360000248291,14|0,0:0|0:0,0:0:0:0:
474,182,195877,2,0,P|415:244|376:331,1,162.720000496582,2|8,0:0|1:0,0:0:0:0:
189,351,196583,2,0,P|165:316|164:263,1,81.360000248291,0|0,0:0|0:0,0:0:0:0:
258,268,196936,2,0,P|286:185|216:162,1,162.720000496582,10|10,0:0|0:0,0:0:0:0:
231,55,197465,1,2,0:0:0:0:
231,55,197642,2,0,B|182:70|162:98|162:98|153:65|114:31,1,162.720000496582,8|0,1:0|0:0,0:0:0:0:
18,222,198348,6,0,P|25:303|118:364,1,162.720000496582,10|0,0:0|0:0,0:0:0:0:
160,297,198877,2,0,B|215:274|276:316|271:325|339:367|400:337,1,244.080000744873,2|0,0:0|0:0,0:0:0:0:
438,255,199583,1,2,0:0:0:0:
383,174,199759,1,10,0:0:0:0:
206,256,200112,2,0,P|164:260|127:239,1,81.360000248291,10|0,0:0|0:0,0:0:0:0:
73,160,200465,2,0,B|69:120|69:120|35:77,2,81.360000248291,8|2|10,1:0|0:0|0:0,0:0:0:0:
160,114,200995,1,2,0:0:0:0:
160,114,201171,6,0,P|163:65|199:26,1,81.360000248291,14|0,0:0|0:0,0:0:0:0:
274,11,201524,1,0,0:0:0:0:
489,85,201877,2,0,P|477:123|473:174,1,81.360000248291,8|0,1:0|0:0,0:0:0:0:
390,243,202230,2,0,P|384:167|364:74,2,162.720000496582,2|10|10,0:0|0:0|0:0,0:0:0:0:
339,327,203112,1,0,0:0:0:0:
250,285,203289,2,0,B|201:306|189:338|189:338|166:315|95:317,1,162.720000496582,8|0,1:0|0:0,0:0:0:0:
36,241,203818,1,2,0:0:0:0:
36,241,203995,6,0,P|96:183|35:158,1,162.720000496582,10|0,0:0|0:0,0:0:0:0:
228,35,204700,2,0,B|214:120|214:120|269:198,1,162.720000496582,8|2,1:0|0:0,0:0:0:0:
373,341,205406,2,0,P|411:317|454:314,1,81.360000248291,10|0,0:0|3:0,0:0:0:0:
367,241,205759,2,0,B|299:224|299:224|280:207|280:207|207:189,1,162.720000496582,10|8,0:0|1:0,0:0:0:0:
41,282,206465,2,0,B|24:309|24:309|19:372,1,81.360000248291,10|8,0:0|3:0,0:0:0:0:
133,278,206818,6,0,P|122:191|103:115,1,162.720000496582,14|2,0:0|0:0,0:0:0:0:
162,38,207348,1,0,0:0:0:0:
249,80,207524,1,8,1:0:0:0:
402,212,207877,2,0,P|434:183|480:175,1,81.360000248291,0|0,0:0|0:0,0:0:0:0:
502,55,208230,2,0,P|438:94|350:106,1,162.720000496582,10|10,0:0|0:0,0:0:0:0:
268,157,208759,2,0,B|330:177|376:212|360:220|413:265|482:278,1,244.080000744873,2|0,0:0|0:0,0:0:0:0:
265,362,209642,6,0,P|274:296|198:235,1,162.720000496582,10|0,0:0|0:0,0:0:0:0:
306,178,210171,2,0,B|251:142|168:157|168:157|196:116|183:50,1,244.080000744873,2|0,0:0|0:0,0:0:0:0:
98,14,210877,1,2,0:0:0:0:
28,81,211053,1,10,0:0:0:0:
142,239,211406,2,0,P|179:239|231:221,1,81.360000248291,10|0,0:0|0:0,0:0:0:0:
278,144,211759,2,0,B|319:143|319:143|362:164,2,81.360000248291,8|2|10,1:0|0:0|0:0,0:0:0:0:
219,64,212289,1,2,0:0:0:0:
148,131,212465,6,0,B|131:157|131:157|154:219,1,81.360000248291,14|0,0:0|0:0,0:0:0:0:
76,270,212818,2,0,B|151:296|151:296|197:370,1,162.720000496582,2|8,0:0|1:0,0:0:0:0:
374,288,213524,2,0,P|412:302|458:306,1,81.360000248291,2|2,0:0|0:0,0:0:0:0:
505,223,213877,1,10,0:0:0:0:
358,27,214230,2,0,B|383:54|383:54|371:104,1,81.360000248291,6|0,0:0|3:0,0:0:0:0:
294,191,214583,1,8,1:0:0:0:
180,147,214759,1,8,1:0:0:0:
83,222,214936,2,0,P|124:227|150:262,1,81.360000248291,10|8,0:0|3:0,0:0:0:0:
250,348,215289,6,0,B|302:349|320:328|312:320|334:299|394:308,1,144,14|2,0:0|0:0,0:0:0:0:
482,130,215995,2,0,B|410:67|410:67|451:28,1,144,8|0,1:0|0:0,0:0:0:0:
295,146,216700,2,0,P|287:106|262:69,1,72,10|0,0:0|3:0,0:0:0:0:
183,46,217053,2,0,B|160:98|160:98|144:112|144:112|124:175,2,144,10|8|2,0:0|1:0|0:0,0:0:0:0:
82,4,217936,1,0,0:0:0:0:
4,78,218112,6,0,P|28:147|35:223,1,144,10|0,0:0|0:0,0:0:0:0:
206,349,218818,2,0,B|214:309|190:274|190:274|223:278|258:249,1,144,8|0,1:0|0:0,0:0:0:0:
368,109,219524,2,0,P|433:109|494:169,1,144,10|10,0:0|0:0,0:0:0:0:
448,231,220053,2,0,B|393:257|393:257|381:275|381:275|320:315,1,144,2|0,0:0|0:0,0:0:0:0:
257,247,220583,2,0,P|272:210|271:168,1,72,8|0,0:0|0:0,0:0:0:0:
218,102,220936,5,14,0:0:0:0:
32,212,221289,2,0,P|69:215|109:234,1,72,2|0,0:0|0:0,0:0:0:0:
151,332,221642,2,0,B|187:280|187:280|199:182,1,144,8|0,1:0|0:0,0:0:0:0:
75,20,222348,2,0,P|49:49|33:89,1,72,10|0,0:0|3:0,0:0:0:0:
76,162,222700,1,10,0:0:0:0:
241,73,223053,2,0,B|302:80|302:80|318:96|318:96|393:104,1,144,8|2,1:0|0:0,0:0:0:0:
486,304,223759,6,0,B|422:291|422:291|410:372,1,144,6|8,0:0|1:0,0:0:0:0:
314,291,224289,1,8,1:0:0:0:
204,347,224465,2,0,B|184:337|175:323|175:323|159:333|134:331,1,72,10|8,0:0|3:0,0:0:0:0:
43,244,224818,6,0,B|147:249|212:184|199:67|119:50|55:82|73:155,1,360,6|2,0:0|0:0,0:0:0:0:
