osu file format v14

[General]
AudioFilename: audio.mp3
AudioLeadIn: 0
PreviewTime: 62895
Countdown: 0
SampleSet: Soft
StackLeniency: 0.7
Mode: 0
LetterboxInBreaks: 0
WidescreenStoryboard: 0

[Editor]
Bookmarks: 85947
DistanceSpacing: 1.5
BeatDivisor: 4
GridSize: 4
TimelineZoom: 1.1

[Metadata]
Title:Fix
TitleUnicode:Fix
Artist:Primary
ArtistUnicode:Primary
Creator:riptiondesc
Version:Advanced
Source:
Tags:yuiko yuikonnu Meis Clauson Rotate
BeatmapID:1725426
BeatmapSetID:823310

[Difficulty]
HPDrainRate:2.5
CircleSize:3
OverallDifficulty:3.5
ApproachRate:5.5
SliderMultiplier:1.4
SliderTickRate:1

[Events]
//Background and Video events
0,0,"fix.png",0,0
//Break Periods
//Storyboard Layer 0 (Background)
//Storyboard Layer 1 (Fail)
//Storyboard Layer 2 (Pass)
//Storyboard Layer 3 (Foreground)
//Storyboard Sound Samples

[TimingPoints]
53,631.578947368421,4,1,1,30,1,0
53,-100,4,1,1,30,0,0
368,-100,4,1,1,5,0,0
684,-100,4,1,1,30,0,0
1000,-100,4,1,1,5,0,0
1158,-100,4,1,1,30,0,0
1474,-100,4,1,1,5,0,0
1631,-100,4,1,1,30,0,0
1947,-100,4,1,1,5,0,0
2105,-100,4,1,1,30,0,0
3210,-100,4,1,1,30,0,0
3526,-100,4,1,1,5,0,0
3684,-100,4,1,1,30,0,0
4000,-100,4,1,1,5,0,0
4158,-100,4,1,1,30,0,0
4474,-100,4,1,1,5,0,0
4631,-100,4,1,1,30,0,0
5737,-100,4,1,1,30,0,0
6052,-100,4,1,1,5,0,0
6210,-100,4,1,1,30,0,0
6526,-100,4,1,1,5,0,0
6684,-100,4,1,1,30,0,0
7000,-100,4,1,1,5,0,0
7158,-100,4,1,1,30,0,0
7474,-100,4,1,1,5,0,0
7631,-100,4,1,1,30,0,0
7947,-100,4,1,1,5,0,0
8263,-100,4,1,1,30,0,0
8579,-100,4,1,1,5,0,0
8737,-100,4,1,1,30,0,0
9053,-100,4,1,1,5,0,0
9210,-100,4,1,1,30,0,0
9526,-100,4,1,1,5,0,0
9684,-100,4,1,1,30,0,0
10474,-100,4,2,6,80,0,0
16789,-100,4,2,1,50,0,0
17421,-100,4,2,6,80,0,0
19474,-100,4,1,1,70,0,0
20263,-100,4,3,1,70,0,0
20579,-100,4,2,6,90,0,0
26895,-100,4,3,1,50,0,0
27210,-100,4,1,1,50,0,0
27526,-100,4,2,6,90,0,0
30368,-100,4,2,1,60,0,0
30684,-100,4,2,6,90,0,0
32895,-100,4,2,1,70,0,0
33210,-100,4,2,6,90,0,0
37000,-100,4,3,1,50,0,0
37316,-100,4,1,1,50,0,0
37631,-100,4,2,6,90,0,0
39526,-100,4,1,1,50,0,0
39842,-100,4,3,1,50,0,0
40158,-100,4,1,1,50,0,0
40474,-100,4,2,6,90,0,0
44895,-100,4,1,1,50,0,0
45210,-100,4,2,6,90,0,0
47737,-100,4,2,5,100,0,0
49789,-100,4,1,1,55,0,0
50579,-100,4,2,1,100,0,0
50895,-100,4,2,3,100,0,0
52474,-100,4,1,1,60,0,0
52789,-100,4,2,3,100,0,0
55000,-100,4,1,1,60,0,0
55316,-100,4,2,3,100,0,0
57526,-100,4,1,1,60,0,0
57842,-100,4,2,3,100,0,0
60210,-100,4,3,1,60,0,0
60684,-100,4,2,1,100,0,0
61000,-100,4,2,3,100,0,0
62579,-100,4,1,1,60,0,0
62895,-100,4,2,3,100,0,0
65105,-100,4,1,1,60,0,0
65421,-100,4,2,3,100,0,0
67631,-100,4,1,1,60,0,0
67947,-100,4,2,3,100,0,0
70316,-100,4,3,1,60,0,0
70789,-100,4,2,3,85,0,0
73316,-100,4,2,2,85,0,0
75052,-100,4,1,1,50,0,0
75842,-100,4,1,1,35,0,0
82210,-100,4,3,1,85,0,0
82526,-100,4,1,1,35,0,0
85500,-100,4,2,1,100,0,0
85947,-100,4,2,4,100,0,0

[HitObjects]
17,260,53,6,0,L|101:209,1,70
153,174,684,6,0,L|237:123,1,70
258,130,1158,2,0,L|344:177,1,70
347,200,1632,2,0,L|349:298,1,70
331,312,2105,6,0,L|242:366,1,105
397,272,3211,6,0,L|479:218,1,70
483,197,3685,2,0,L|478:98,1,70
455,88,4159,2,0,L|367:42,1,70
347,53,4632,6,0,L|352:156,1,105
197,253,5737,6,0,L|114:305,1,70
97,309,6211,2,0,L|11:258,1,70
29,233,6685,2,0,L|30:134,1,70
74,164,7158,6,0,L|172:164,1,70
147,209,7632,2,0,L|146:278,1,70
227,238,8263,6,0,L|309:184,1,70
327,183,8737,2,0,L|410:232,1,70
395,258,9211,2,0,L|393:355,1,70
350,328,9684,6,0,L|245:325,1,105
231,235,10474,5,0,0:0:0:0:
189,154,10790,2,0,P|161:119|126:103,2,70
231,234,11737,1,0,0:0:0:0:
284,160,12053,2,0,P|314:127|350:115,2,70
231,234,13000,5,0,0:0:0:0:
178,308,13316,2,0,P|147:340|111:352,2,70
100,260,14263,2,0,P|130:227|166:215,2,70
183,297,15210,6,0,B|256:274|242:231|263:174|189:141|189:141|190:68,1,280
282,73,16789,1,0,0:0:0:0:
336,146,17105,1,0,0:0:0:0:
381,67,17421,6,0,B|454:90|440:133|461:190|387:223|387:223|387:294,1,280
342,297,18842,2,0,L|271:296,1,70
180,297,19474,6,0,L|214:297,4,35
127,296,20263,5,0,0:0:0:0:
104,207,20579,5,0,0:0:0:0:
180,157,20895,2,0,P|226:146|276:157,1,70
300,156,21369,2,0,P|345:169|383:204,1,70
330,222,21842,2,0,P|296:229|266:248,1,70
189,320,22474,1,0,0:0:0:0:
189,320,22790,1,0,0:0:0:0:
291,296,23105,5,0,0:0:0:0:
386,252,23421,2,0,P|426:227|453:184,1,70
471,168,23895,2,0,P|493:126|495:75,1,70
446,100,24368,2,0,P|416:118|382:126,1,70
277,130,25000,1,0,0:0:0:0:
176,98,25316,6,0,B|142:88|94:100|65:143|67:192|107:231|165:223|206:196|224:160|206:133,1,280
210,157,26895,1,0,0:0:0:0:
210,157,27211,1,0,0:0:0:0:
268,69,27526,5,0,0:0:0:0:
331,152,27842,2,0,P|348:181|356:215,2,70
303,197,28632,6,0,P|267:252|251:324,1,140
260,273,29421,2,0,P|193:252|124:256,1,140
124,256,30369,1,0,0:0:0:0:
179,344,30684,5,0,0:0:0:0:
204,241,31000,2,0,P|234:204|280:183,1,70
299,168,31474,2,0,P|342:151|394:156,1,70
364,203,31947,2,0,P|341:229|328:262,1,70
308,367,32579,1,0,0:0:0:0:
308,367,32895,1,0,0:0:0:0:
376,286,33210,5,0,0:0:0:0:
425,193,33526,2,0,P|441:148|437:98,1,70
443,75,34000,2,0,P|435:28|406:-13,1,70
382,36,34473,2,0,P|368:68|346:95,1,70
265,161,35105,1,0,0:0:0:0:
165,197,35421,6,0,B|131:209|100:247|103:299|134:337|189:344|231:303|247:257|240:217|210:206,1,280
227,224,37000,1,0,0:0:0:0:
227,224,37316,1,0,0:0:0:0:
221,119,37631,5,0,0:0:0:0:
322,146,37947,2,0,P|353:158|379:181,2,70
327,199,38737,1,0,0:0:0:0:
336,251,38895,2,0,P|339:285|352:317,1,70
352,317,39526,1,0,0:0:0:0:
352,317,39842,1,0,0:0:0:0:
360,212,40158,2,0,L|360:173,1,35
355,122,40474,6,0,B|355:84|355:84|333:48,1,70
286,50,40947,2,0,B|246:49|246:49|212:72,1,70
216,119,41421,2,0,B|218:224|218:224|314:283,1,210
400,328,42684,6,0,B|420:260|420:260|273:23|273:23|175:14,1,420
204,17,44895,1,0,0:0:0:0:
109,63,45211,5,0,0:0:0:0:
188,131,45526,2,0,L|127:165,2,70
220,231,46474,6,0,B|282:190|282:190|347:194|347:194|409:159,1,210
413,54,47737,6,0,B|267:135|267:135|262:318|262:318|336:275,1,420
368,257,49790,6,0,L|416:229,3,35
510,279,50579,5,0,0:0:0:0:
421,358,50895,1,0,0:0:0:0:
361,360,51053,2,0,P|333:341|303:363,1,70
245,360,51526,2,0,P|195:321|142:371,1,140
143,362,52474,1,0,0:0:0:0:
146,242,52790,6,0,P|127:214|149:184,1,70
142,66,53421,1,0,0:0:0:0:
202,68,53579,2,0,P|229:49|260:71,1,70
318,69,54052,2,0,P|368:29|421:79,1,140
420,70,55000,1,0,0:0:0:0:
372,179,55316,1,0,0:0:0:0:
252,181,55632,5,0,0:0:0:0:
133,182,55947,1,0,0:0:0:0:
73,182,56105,2,0,P|44:165|17:184,1,70
49,234,56579,2,0,P|78:300|145:352,1,140
128,343,57526,1,0,0:0:0:0:
246,348,57842,1,0,0:0:0:0:
365,346,58158,6,0,B|446:346|446:346,2,70
363,226,59105,2,0,P|379:197|360:170,1,70
352,51,59737,2,0,P|371:78|354:106,1,70
300,80,60211,2,0,L|265:79,2,35
285,22,60684,5,0,0:0:0:0:
193,99,61000,1,0,0:0:0:0:
147,137,61158,2,0,P|128:165|150:195,1,70
147,252,61631,2,0,P|108:302|158:355,1,140
149,353,62579,1,0,0:0:0:0:
267,358,62895,6,0,P|295:375|322:356,1,70
441,356,63526,1,0,0:0:0:0:
441,296,63684,2,0,P|460:269|438:238,1,70
437,181,64157,2,0,P|477:131|427:78,1,140
436,79,65105,1,0,0:0:0:0:
331,134,65421,1,0,0:0:0:0:
332,253,65737,5,0,0:0:0:0:
213,253,66052,1,0,0:0:0:0:
153,253,66210,2,0,P|124:270|97:251,1,70
130,201,66684,2,0,P|159:135|226:83,1,140
209,91,67631,1,0,0:0:0:0:
327,96,67947,1,0,0:0:0:0:
446,96,68263,6,0,B|446:15|446:15,2,70
326,96,69210,2,0,P|297:80|270:99,1,70
150,100,69842,2,0,P|177:81|205:98,1,70
176,151,70316,2,0,L|174:186,2,35
241,175,70789,5,0,0:0:0:0:
184,263,71105,2,0,L|164:292,1,35
260,337,71579,2,0,L|230:356,1,35
321,303,72052,1,0,0:0:0:0:
365,275,72210,2,0,L|426:235,1,70
461,200,72684,2,0,L|456:127,1,70
365,181,73316,6,0,P|251:115|382:106,1,350
409,151,75052,2,0,L|456:165,4,35
358,136,75842,5,0,0:0:0:0:
358,136,76158,1,0,0:0:0:0:
258,103,76474,2,0,L|182:76,1,70
139,83,76947,2,0,L|77:135,1,70
67,177,77421,2,0,L|81:256,1,70
102,293,77895,2,0,L|214:330,1,105
201,326,78684,1,0,0:0:0:0:
301,356,79000,6,0,L|377:381,1,70
420,374,79473,2,0,L|480:320,1,70
491,279,79947,2,0,L|475:199,1,70
446,167,80421,2,0,L|401:216,1,35
347,267,80895,1,0,0:0:0:0:
347,267,81210,1,0,0:0:0:0:
290,178,81526,6,0,L|250:107,1,70
248,64,81999,2,0,L|288:-5,1,70
336,1,82473,2,0,L|416:1,1,70
410,54,82947,2,0,L|409:134,1,70
356,125,83421,2,0,L|275:124,1,70
222,208,84052,6,0,L|262:277,1,70
299,301,84525,2,0,L|379:300,1,70
411,269,84999,2,0,L|444:209,2,35
407,322,85474,2,0,L|423:355,2,35
358,300,85947,1,0,0:0:0:0:
