osu file format v14

[General]
AudioFilename: audio.mp3
AudioLeadIn: 0
PreviewTime: 198020
Countdown: 1
SampleSet: Soft
StackLeniency: 0.5
Mode: 0
LetterboxInBreaks: 0
WidescreenStoryboard: 1

[Editor]
Bookmarks: 13962,27114,40264,53414,66565,79716,86291,99442,112592,125743,152044,165195,171770,184921,198072,211222,224373,230948,244099,257250,263825,276976,283551,286839
DistanceSpacing: 0.4
BeatDivisor: 4
GridSize: 32
TimelineZoom: 1.8

[Metadata]
Title:Depressing
TitleUnicode:Depressing
Artist:Primary
ArtistUnicode:Primary
Creator:Lasse
Version:Regret
Source:
Tags:11th single イノセンス innocence yuiko meis clauson yuikonnu ゆいこんぬ
BeatmapID:1724066
BeatmapSetID:822603

[Difficulty]
HPDrainRate:6
CircleSize:4
OverallDifficulty:7.8
ApproachRate:8.4
SliderMultiplier:2.4
SliderTickRate:1

[Events]
//Background and Video events
0,0,"e22324.jpg",0,0
//Break Periods
2,198272,208889
//Storyboard Layer 0 (Background)
//Storyboard Layer 1 (Fail)
//Storyboard Layer 2 (Pass)
//Storyboard Layer 3 (Foreground)
//Storyboard Sound Samples

[TimingPoints]
812,821.917808219178,4,2,1,30,1,0
812,-200,4,2,1,30,0,0
1428,-200,4,2,1,18,0,0
2455,-200,4,2,1,30,0,0
3072,-200,4,2,1,18,0,0
4099,-200,4,2,1,30,0,0
4716,-200,4,2,1,18,0,0
5743,-200,4,2,1,30,0,0
6359,-200,4,2,1,18,0,0
7387,-200,4,2,1,30,0,0
8003,-200,4,2,1,18,0,0
9031,-200,4,2,1,30,0,0
9647,-200,4,2,1,18,0,0
10675,-200,4,2,1,30,0,0
11291,-200,4,2,1,18,0,0
12318,-200,4,2,1,30,0,0
12935,-200,4,2,1,18,0,0
13962,-133.333333333333,4,2,1,35,0,0
27113,-99.9999999999999,4,2,1,45,0,0
39442,-99.9999999999999,4,2,2,50,0,0
39647,-99.9999999999999,4,2,1,50,0,0
39853,-99.9999999999999,4,2,1,55,0,0
40264,-83.3333333333333,4,2,1,60,0,0
50127,-83.3333333333333,4,2,1,62,0,0
51770,-71.4285714285714,4,2,1,65,0,0
53414,-62.5,4,2,1,70,0,1
79716,-71.4285714285714,4,2,1,65,0,0
82387,-62.5,4,2,1,70,0,0
83003,-50,4,2,1,70,0,0
83414,-45.4545454545455,4,2,1,70,0,0
83825,-41.6666666666667,4,2,1,70,0,0
84236,-38.4615384615385,4,2,1,70,0,0
84647,-125,4,2,1,50,0,0
84853,-125,4,2,1,5,0,0
85880,-125,4,2,1,40,0,0
86291,-100,4,2,1,55,0,0
99442,-90.9090909090909,4,2,1,50,0,0
112592,-83.3333333333333,4,2,1,55,0,0
124921,-83.3333333333333,4,2,2,57,0,0
125127,-83.3333333333333,4,2,1,58,0,0
125743,-76.9230769230769,4,2,1,60,0,0
135606,-76.9230769230769,4,2,1,62,0,0
137250,-66.6666666666667,4,2,1,65,0,0
138894,-58.8235294117647,4,2,1,70,0,1
165195,-66.6666666666667,4,2,1,65,0,0
167866,-58.8235294117647,4,2,1,70,0,0
168483,-47.6190476190476,4,2,1,70,0,0
168894,-43.4782608695652,4,2,1,70,0,0
169305,-40,4,2,1,70,0,0
169716,-37.037037037037,4,2,1,70,0,0
170127,-142.857142857143,4,2,1,50,0,0
170332,-142.857142857143,4,2,1,5,0,0
171359,-142.857142857143,4,2,1,40,0,0
171770,-80,4,2,1,60,0,0
184099,-80,4,2,2,60,0,0
184305,-80,4,2,1,55,0,0
184510,-80,4,2,2,55,0,0
184716,-80,4,2,1,50,0,0
184921,-80,4,2,1,60,0,0
197250,-80,4,2,2,58,0,0
197455,-80,4,2,2,56,0,0
197661,-80,4,2,2,54,0,0
197866,-80,4,2,2,52,0,0
198072,-80,4,2,1,56,0,0
209579,-80,4,2,1,55,0,0
210401,-80,4,2,1,60,0,0
210811,-80,4,2,2,65,0,0
211222,-55.5555555555556,4,2,1,70,0,1
224373,-62.5,4,2,1,65,0,0
227044,-55.5555555555556,4,2,1,70,0,0
227661,-45.4545454545455,4,2,1,70,0,0
228072,-41.6666666666667,4,2,1,70,0,0
228483,-38.4615384615385,4,2,1,70,0,0
228894,-35.7142857142857,4,2,1,70,0,0
229305,-58.8235294117647,4,2,1,70,0,0
230127,-58.8235294117647,4,2,1,65,0,0
230538,-66.6666666666667,4,2,1,65,0,0
230948,-52.6315789473684,4,2,1,70,0,1
243277,-52.6315789473684,4,2,2,70,0,1
243483,-52.6315789473684,4,2,1,70,0,1
257250,-58.8235294117647,4,2,1,65,0,0
259921,-52.6315789473684,4,2,1,70,0,0
260538,-43.4782608695652,4,2,1,70,0,0
260948,-40,4,2,1,70,0,0
261359,-37.037037037037,4,2,1,70,0,0
261770,-34.4827586206897,4,2,1,70,0,0
262181,-166.666666666667,4,2,1,50,0,0
262387,-166.666666666667,4,2,1,5,0,0
263414,-166.666666666667,4,2,1,40,0,0
263825,-100,4,2,1,55,0,0
276565,-100,4,2,2,55,0,0
276976,-200,4,2,1,55,0,0
277027,-200,4,2,99,50,0,0
277798,-200,4,2,98,45,0,0
278620,-200,4,2,99,40,0,0
279442,-200,4,2,98,35,0,0
280264,-200,4,2,99,30,0,0
281085,-200,4,2,98,25,0,0
281907,-200,4,2,99,20,0,0
282318,-200,4,2,98,15,0,0
282729,-200,4,2,99,10,0,0
283140,-200,4,2,98,5,0,0
283551,-200,4,2,98,8,0,0

[Colours]
Combo1 : 255,160,190
Combo2 : 150,210,240
Combo3 : 255,140,140
Combo4 : 150,170,255

[HitObjects]
122,40,675,5,2,0:0:0:0:
122,40,743,1,2,0:0:0:0:
122,40,812,2,0,P|162:57|198:106,1,90,2|2,0:0|0:0,0:0:0:0:
113,127,2455,2,0,P|108:82|122:40,1,90,2|2,0:0|0:0,0:0:0:0:
347,143,4099,6,0,P|387:125|423:76,1,90,2|2,0:0|0:0,0:0:0:0:
338,56,5743,2,0,P|333:100|347:142,1,90,2|2,0:0|0:0,0:0:0:0:
454,346,7387,6,0,P|449:302|414:252,1,90,2|2,0:0|0:0,0:0:0:0:
369,330,9031,2,0,P|409:348|454:347,1,90,2|2,0:0|0:0,0:0:0:0:
305,159,10675,6,0,P|267:135|207:132,1,90,2|2,0:0|0:0,0:0:0:0:
240,216,12318,2,0,P|279:195|306:159,1,90,2|2,0:0|0:0,0:0:0:0:
111,82,13962,6,0,P|89:120|89:165,1,90.0000034332277,2|0,0:0|0:0,0:0:0:0:
148,214,14579,1,2,0:0:0:0:
172,142,14784,2,0,P|149:103|110:81,1,90.0000034332277,2|0,0:0|0:0,0:0:0:0:
66,325,15606,6,0,P|109:319|145:292,1,90.0000034332277,2|0,0:0|0:0,0:0:0:0:
148,214,16222,1,2,0:0:0:0:
75,239,16428,2,0,P|57:280|63:325,1,90.0000034332277,2|0,0:0|0:0,0:0:0:0:
145,292,17044,1,2,0:0:0:0:
75,239,17250,6,0,B|57:200|86:158|86:158|81:136|58:117,1,135.000005149841,2|2,0:0|0:0,0:0:0:0:
59,117,18483,1,2,0:0:0:0:
87,157,18688,1,2,0:0:0:0:
136,162,18894,2,0,P|179:141|275:157,1,135.000005149841,2|2,0:0|0:0,0:0:0:0:
321,308,19921,1,2,0:0:0:0:
365,329,20127,1,2,0:0:0:0:
415,323,20332,1,2,0:0:0:0:
454,292,20538,6,0,P|467:250|458:206,1,90.0000034332277,2|0,0:0|0:0,0:0:0:0:
390,170,21154,1,2,0:0:0:0:
382,246,21359,2,0,P|412:279|455:292,1,90.0000034332277,2|0,0:0|0:0,0:0:0:0:
464,54,22181,6,0,P|421:63|387:93,1,90.0000034332277,2|0,0:0|0:0,0:0:0:0:
390,170,22798,1,2,0:0:0:0:
460,139,23003,2,0,P|473:96|463:52,1,90.0000034332277,2|0,0:0|0:0,0:0:0:0:
387,93,23620,1,2,0:0:0:0:
322,35,23825,6,0,B|276:22|243:51|243:51|218:51|201:26,1,135.000005149841,2|2,0:0|0:0,0:0:0:0:
201,27,25058,1,2,0:0:0:0:
243,51,25264,1,2,0:0:0:0:
266,94,25469,2,0,P|259:138|231:172,1,90.0000034332277,2|0,0:0|0:0,0:0:0:0:
34,95,26291,5,2,0:0:0:0:
39,85,26394,1,2,0:0:0:0:
49,80,26496,2,0,P|82:87|117:113,1,45.0000017166138,2|2,0:0|0:0,0:0:0:0:
195,296,27113,5,14,2:3:0:0:
195,296,27524,2,0,P|168:320|131:325,1,60,2|0,0:0|0:0,0:0:0:0:
149,175,27935,2,0,P|183:186|206:215,1,60,10|0,0:0|0:0,0:0:0:0:
68,276,28346,2,0,P|60:240|74:206,1,60,2|8,0:0|0:3,0:0:0:0:
148,117,28757,6,0,P|155:152|141:186,1,60,2|8,0:0|0:3,0:0:0:0:
67,218,29168,1,10,0:3:0:0:
35,143,29373,2,0,P|50:110|82:91,1,60,2|8,0:0|0:0,0:0:0:0:
69,96,29990,5,2,0:0:0:0:
148,117,30195,1,2,0:0:0:0:
217,71,30401,2,0,P|259:34|345:35,1,120,10|0,0:3|0:0,0:0:0:0:
412,151,31017,1,2,0:3:0:0:
329,162,31222,2,0,P|309:139|298:111,1,60,10|0,0:0|0:0,0:0:0:0:
453,73,31633,5,2,0:0:0:0:
412,151,31839,1,10,0:3:0:0:
320,26,32044,5,2,0:0:0:0:
402,7,32250,1,10,0:3:0:0:
453,73,32455,1,10,0:3:0:0:
343,303,32866,5,10,0:0:0:0:
290,236,33072,1,10,0:3:0:0:
329,162,33277,1,2,0:0:0:0:
381,229,33483,1,8,0:0:0:0:
392,238,33585,1,8,0:0:0:0:
403,247,33688,5,14,0:3:0:0:
403,247,34099,2,0,P|439:246|469:225,1,60,2|0,0:0|0:0,0:0:0:0:
346,106,34510,2,0,P|344:136|328:162,1,60,10|0,0:0|0:0,0:0:0:0:
217,183,34921,2,0,P|202:156|178:140,1,60,2|8,0:0|0:3,0:0:0:0:
58,240,35332,6,0,P|72:266|96:282,1,60,2|8,0:0|0:3,0:0:0:0:
182,263,35743,1,10,0:3:0:0:
217,183,35948,2,0,P|202:156|178:140,1,60,2|8,0:0|0:0,0:0:0:0:
178,140,36565,5,2,0:0:0:0:
94,165,36770,1,2,0:0:0:0:
19,118,36976,2,0,B|-3:76|28:31|28:31|47:50,1,120,8|0,0:3|0:0,0:0:0:0:
94,165,37592,1,2,0:0:0:0:
59,245,37798,2,0,P|32:230|14:207,1,60,10|0,0:0|0:0,0:0:0:0:
178,140,38209,5,2,0:0:0:0:
158,226,38414,1,10,0:3:0:0:
114,79,38620,5,6,0:0:0:0:
242,201,38825,1,8,0:0:0:0:
198,54,39031,1,8,0:0:0:0:
158,226,39236,1,8,0:3:0:0:
262,115,39442,5,10,0:3:0:0:
266,119,39493,2,0,L|319:105,1,45,8|10,0:3|0:3,0:0:0:0:
469,26,39853,5,10,0:0:0:0:
305,2,40058,1,10,0:0:0:0:
512,191,40264,5,14,0:3:0:0:
512,191,40675,2,0,P|487:164|441:153,1,71.9999978027344,10|8,0:3|0:3,0:0:0:0:
371,76,41085,2,0,P|335:84|302:118,1,71.9999978027344,10|8,0:0|0:3,0:0:0:0:
200,140,41496,2,0,P|189:175|202:220,1,71.9999978027344,10|8,0:3|0:3,0:0:0:0:
337,324,41907,6,0,P|347:288|334:243,1,71.9999978027344,10|8,0:3|0:3,0:0:0:0:
366,144,42318,2,0,P|340:117|295:105,1,71.9999978027344,10|8,0:3|0:3,0:0:0:0:
225,28,42729,2,0,P|189:36|156:70,1,71.9999978027344,10|8,0:0|0:3,0:0:0:0:
54,93,43140,2,0,P|43:128|56:173,1,71.9999978027344,10|8,0:3|0:3,0:0:0:0:
60,176,43448,1,8,0:3:0:0:
71,187,43551,6,0,L|160:166,1,71.9999978027344,14|0,0:3|0:0,0:0:0:0:
308,106,43962,1,8,0:3:0:0:
163,58,44168,1,8,0:3:0:0:
207,230,44373,2,0,P|226:196|228:141,1,71.9999978027344,8|0,0:0|0:0,0:0:0:0:
90,26,44784,5,10,0:3:0:0:
142,171,44990,1,10,0:3:0:0:
163,58,45195,1,8,0:3:0:0:
99,105,45401,1,8,0:3:0:0:
142,171,45606,1,8,0:3:0:0:
206,124,45812,1,8,0:3:0:0:
89,25,46017,6,0,P|56:9|20:6,1,71.9999978027344,14|0,0:0|0:0,0:0:0:0:
206,124,46428,2,0,P|238:139|274:142,1,71.9999978027344,10|0,0:3|0:0,0:0:0:0:
291,138,46736,1,8,0:3:0:0:
307,130,46839,5,14,0:3:0:0:
307,130,47250,2,0,P|283:95|282:61,1,71.9999978027344,10|8,0:3|0:3,0:0:0:0:
209,193,47661,2,0,P|166:196|136:180,1,71.9999978027344,10|8,0:0|0:3,0:0:0:0:
214,309,48072,2,0,P|195:347|166:365,1,71.9999978027344,10|8,0:3|0:3,0:0:0:0:
25,344,48483,6,0,P|1:309|0:275,1,71.9999978027344,10|8,0:3|0:3,0:0:0:0:
56,165,48894,2,0,P|74:126|103:108,1,71.9999978027344,10|8,0:3|0:3,0:0:0:0:
226,102,49305,2,0,P|268:98|298:114,1,71.9999978027344,10|8,0:0|0:3,0:0:0:0:
365,217,49716,2,0,P|388:252|390:286,1,71.9999978027344,10|0,0:3|0:0,0:0:0:0:
382,296,50024,1,8,0:3:0:0:
368,307,50127,5,14,0:3:0:0:
209,320,50332,1,10,0:3:0:0:
280,189,50538,1,10,0:3:0:0:
294,359,50743,1,10,0:3:0:0:
193,220,50948,1,10,0:3:0:0:
365,217,51154,1,10,0:3:0:0:
209,320,51359,1,10,0:3:0:0:
209,133,51565,1,10,0:3:0:0:
365,217,51770,5,10,0:0:0:0:
369,221,51822,2,0,P|402:221|439:192,1,62.9999980773926,8|8,0:0|0:3,0:0:0:0:
212,54,52181,2,0,P|179:54|136:98,1,83.9999974365235,10|8,0:3|0:3,0:0:0:0:
78,312,52592,5,10,0:0:0:0:
280,189,52798,1,8,0:0:0:0:
42,199,53003,1,10,0:0:0:0:
241,300,53209,1,8,0:0:0:0:
272,103,53414,6,0,P|214:33|123:47,1,192,14|0,2:3|0:0,0:0:0:0:
42,199,54031,1,8,0:3:0:0:
140,202,54236,2,0,P|173:168|180:121,1,96,10|0,0:0|0:0,0:0:0:0:
42,199,54647,2,0,P|48:245|81:279,1,96,2|8,0:0|0:3,0:0:0:0:
298,312,55058,5,2,0:0:0:0:
218,238,55264,1,8,0:3:0:0:
194,345,55469,1,8,0:3:0:0:
298,312,55675,2,0,L|408:297,1,96,2|8,0:0|0:0,0:0:0:0:
507,136,56085,5,10,0:3:0:0:
430,210,56291,2,0,L|387:312,1,96,2|0,0:0|0:0,0:0:0:0:
507,136,56702,6,0,B|475:87|406:106|406:106|382:141|342:144,1,192,10|0,2:3|0:0,0:0:0:0:
23,92,57524,5,10,0:0:0:0:
111,17,57729,1,2,0:0:0:0:
192,99,57935,2,0,P|211:142|212:189,1,96,2|8,0:0|0:3,0:0:0:0:
70,274,58346,6,0,P|50:230|49:183,1,96,2|8,0:0|0:3,0:0:0:0:
192,99,58757,1,10,0:3:0:0:
303,250,58962,2,0,P|275:288|234:312,1,96,2|8,0:0|0:0,0:0:0:0:
192,99,59373,5,2,0:3:0:0:
291,142,59579,1,8,0:3:0:0:
204,207,59784,1,8,0:2:0:0:
279,34,59990,6,0,B|338:26|380:67|380:67|423:75|465:38,1,192,14|0,0:3|0:0,0:0:0:0:
456,45,60811,5,10,0:0:0:0:
448,190,61017,1,2,0:0:0:0:
316,233,61222,2,0,P|296:189|291:142,1,96,2|8,0:0|0:3,0:0:0:0:
485,287,61633,6,0,P|479:334|459:378,1,96,2|8,0:0|0:3,0:0:0:0:
289,359,62044,1,10,0:3:0:0:
316,233,62250,2,0,P|359:214|407:210,1,96,2|8,0:0|0:0,0:0:0:0:
166,103,62661,5,2,0:0:0:0:
203,211,62866,1,8,0:3:0:0:
279,125,63072,1,8,0:0:0:0:
90,189,63277,5,10,0:3:0:0:
396,123,63688,6,0,P|390:80|349:33,1,96,10|8,0:0|0:3,0:0:0:0:
181,13,64099,1,10,0:0:0:0:
279,125,64305,1,10,0:3:0:0:
274,0,64510,1,10,0:0:0:0:
166,103,64716,1,8,0:3:0:0:
282,231,64921,1,8,0:0:0:0:
279,125,65127,1,8,0:3:0:0:
150,244,65332,6,0,P|157:301|188:335,1,96,10|0,0:3|0:0,0:0:0:0:
398,369,65743,1,8,0:0:0:0:
402,373,65794,2,0,L|414:291,1,72,8|12,0:0|0:3,0:0:0:0:
507,13,66359,1,8,0:0:0:0:
498,50,66462,1,8,0:0:0:0:
485,86,66565,6,0,B|431:88|396:49|396:49|345:24|298:58,1,192,14|0,0:3|0:0,0:0:0:0:
204,224,67181,1,8,0:3:0:0:
325,220,67387,2,0,P|351:180|354:133,1,96,10|0,0:0|0:0,0:0:0:0:
163,141,67798,2,0,P|172:187|203:223,1,96,2|8,0:0|0:3,0:0:0:0:
308,52,68209,5,2,0:0:0:0:
260,154,68414,1,8,0:3:0:0:
194,61,68620,1,8,0:3:0:0:
308,52,68825,2,0,L|418:37,1,96,2|8,0:0|0:0,0:0:0:0:
488,233,69236,5,10,0:3:0:0:
440,127,69442,2,0,L|397:24,1,96,2|0,0:0|0:0,0:0:0:0:
260,154,69853,6,0,B|254:207|289:241|289:241|330:215|335:161,1,192,10|0,0:3|0:0,0:0:0:0:
97,13,70675,5,10,0:0:0:0:
23,103,70880,1,2,0:0:0:0:
138,122,71085,2,0,P|162:163|168:210,1,96,2|8,0:0|0:3,0:0:0:0:
59,371,71496,6,0,P|34:329|28:282,1,96,2|8,0:0|0:3,0:0:0:0:
138,122,71907,1,10,0:3:0:0:
258,227,72113,2,0,P|234:269|196:297,1,96,2|8,0:0|0:0,0:0:0:0:
243,83,72524,5,2,0:3:0:0:
371,180,72729,1,8,0:3:0:0:
391,18,72935,1,8,0:2:0:0:
258,227,73140,6,0,B|231:273|183:280|183:280|165:235|191:188,1,192,14|0,0:3|0:0,0:0:0:0:
512,242,73962,5,10,0:0:0:0:
440,134,74168,1,2,0:0:0:0:
412,257,74373,2,0,L|401:357,1,96,2|8,0:0|0:3,0:0:0:0:
206,322,74784,6,0,L|195:226,1,96,2|8,0:0|0:3,0:0:0:0:
270,67,75195,1,10,0:3:0:0:
354,174,75401,2,0,P|306:182|262:163,1,96,2|8,0:0|0:0,0:0:0:0:
80,36,75812,5,2,0:0:0:0:
166,111,76017,1,8,0:3:0:0:
188,0,76222,1,8,0:0:0:0:
58,147,76428,5,10,0:3:0:0:
309,351,76839,6,0,P|324:306|316:259,1,96,10|8,0:0|0:3,0:0:0:0:
128,199,77250,1,10,0:0:0:0:
195,313,77455,1,10,0:3:0:0:
243,193,77661,1,10,0:0:0:0:
103,289,77866,1,8,0:3:0:0:
195,313,78072,1,8,0:0:0:0:
177,125,78277,1,8,0:3:0:0:
10,250,78483,6,0,L|28:355,1,96,10|0,0:3|0:0,0:0:0:0:
73,121,78894,1,10,0:0:0:0:
77,125,78945,2,0,L|93:47,1,72,8|8,0:0|0:3,0:0:0:0:
180,237,79305,1,10,0:0:0:0:
184,241,79356,2,0,L|197:328,1,72,8|8,0:0|0:3,0:0:0:0:
343,151,79716,6,0,B|302:132|263:161|263:161|208:164|188:117,1,167.999994873047,14|0,0:3|0:0,0:0:0:0:
278,59,80332,1,8,0:3:0:0:
343,151,80538,2,0,P|349:194|316:245,1,83.9999974365235,10|0,0:0|0:0,0:0:0:0:
390,48,80948,2,0,P|424:21|484:24,1,83.9999974365235,2|8,0:0|0:3,0:0:0:0:
396,278,81359,2,0,P|355:261|328:207,1,83.9999974365235,10|0,0:3|0:0,0:0:0:0:
214,9,81770,2,0,P|253:24|277:58,1,83.9999974365235,10|0,0:3|0:0,0:0:0:0:
167,259,82181,5,10,0:2:0:0:
49,129,82387,2,0,B|43:76|78:42|78:42|119:68|124:122,1,192,14|0,0:3|0:0,0:0:0:0:
143,335,83003,6,0,B|155:301|144:267|133:285|113:227|169:202|192:264|163:301|143:266,1,120,14|0,0:3|0:0,0:0:0:0:
393,332,83414,6,0,B|380:296|391:261|403:280|423:220|366:194|342:258|372:296|393:260,1,132.00000402832,2|0,0:0|0:0,0:0:0:0:
210,146,83825,6,0,B|222:109|211:73|199:92|178:31|237:4|264:65|239:93|210:72,1,143.999995605469,10|0,0:0|0:0,0:0:0:0:
480,115,84236,6,0,B|463:73|474:44|485:59|507:-5|448:-31|422:30|441:51|474:44,1,155.999992858887,2|8,0:0|0:3,0:0:0:0:
340,358,84647,6,0,B|375:297|349:236|324:260|287:193|315:144|362:129|398:183|391:214|359:232,1,288,14|0,0:3|0:0,0:0:0:0:
366,227,86291,6,0,L|228:234,2,120,14|0|10,0:3|2:0|0:0,0:0:0:0:
366,227,87318,1,2,0:0:0:0:
445,279,87524,1,2,0:0:0:0:
445,279,87729,1,10,0:3:0:0:
501,215,87935,2,0,L|506:140,1,60,2|8,0:0|0:3,0:0:0:0:
435,74,88346,2,0,L|417:131,1,60,10|0,2:3|0:0,0:0:0:0:
363,19,88757,2,0,B|302:5|310:46|233:32,1,120,10|0,0:2|0:0,0:0:0:0:
102,26,89373,5,0,3:2:0:0:
102,26,89476,1,0,3:2:0:0:
102,26,89579,2,0,P|136:64|133:141,2,120,10|0|10,0:3|2:0|0:0,0:0:0:0:
102,26,90606,1,2,0:0:0:0:
52,103,90812,1,2,0:0:0:0:
52,103,91017,1,10,0:3:0:0:
138,130,91222,2,0,P|166:146|186:169,1,60,2|8,0:0|0:3,0:0:0:0:
194,285,91633,2,0,P|168:270|148:249,1,60,10|0,0:3|0:0,0:0:0:0:
316,162,92044,5,10,0:0:0:0:
306,291,92250,1,10,0:3:0:0:
247,222,92455,1,2,0:0:0:0:
375,231,92661,1,8,0:0:0:0:
389,235,92764,1,8,0:0:0:0:
403,236,92866,6,0,P|431:185|417:108,2,120,14|0|10,0:3|2:0|0:0,0:0:0:0:
403,236,93894,1,2,0:0:0:0:
456,316,94099,1,2,0:0:0:0:
456,316,94305,1,10,0:3:0:0:
380,356,94510,2,0,L|310:364,1,60,2|8,0:0|0:3,0:0:0:0:
254,301,94921,2,0,P|264:272|264:243,1,60,10|0,2:3|0:0,0:0:0:0:
213,168,95332,2,0,B|145:159|160:203|93:198,1,120,10|0,0:2|0:0,0:0:0:0:
0,39,95948,5,0,3:2:0:0:
0,39,96051,1,0,3:2:0:0:
0,39,96154,2,0,P|45:75|48:133,2,120,10|0|10,0:3|2:0|0:0,0:0:0:0:
0,39,97181,1,2,0:0:0:0:
90,67,97387,1,2,0:0:0:0:
90,67,97592,1,10,0:3:0:0:
168,31,97798,2,0,P|195:21|232:24,1,60,2|8,0:0|0:3,0:0:0:0:
291,81,98209,2,0,P|314:97|351:104,1,60,10|0,0:3|3:0,0:0:0:0:
360,103,98517,1,0,3:0:0:0:
374,100,98620,5,10,0:0:0:0:
453,47,98825,1,8,0:0:0:0:
512,169,99031,1,8,0:3:0:0:
420,297,99236,1,8,0:3:0:0:
236,250,99442,5,14,0:3:0:0:
236,250,99853,2,0,P|231:284|211:313,1,66.0000020141602,2|0,0:0|0:0,0:0:0:0:
114,182,100264,2,0,P|145:169|181:172,1,66.0000020141602,10|0,0:0|0:0,0:0:0:0:
117,322,100675,2,0,P|90:300|74:268,1,66.0000020141602,2|8,0:0|0:3,0:0:0:0:
136,121,101085,6,0,P|162:142|178:174,1,66.0000020141602,2|8,0:0|0:3,0:0:0:0:
75,272,101496,1,10,0:3:0:0:
24,192,101702,2,0,P|29:158|48:129,1,66.0000020141602,2|8,0:0|0:0,0:0:0:0:
46,131,102318,5,2,0:0:0:0:
136,121,102524,1,2,0:0:0:0:
193,194,102729,2,0,P|243:213|323:179,1,132.00000402832,10|0,0:3|0:0,0:0:0:0:
383,126,103346,1,10,0:3:0:0:
295,96,103551,2,0,P|277:69|274:24,1,66.0000020141602,10|0,0:0|0:0,0:0:0:0:
448,67,103962,5,2,0:0:0:0:
383,126,104168,1,10,0:3:0:0:
272,36,104373,2,0,L|311:27,1,33.0000010070801,2|0,0:0|0:0,0:0:0:0:
383,13,104579,1,10,0:3:0:0:
383,13,104681,1,10,0:3:0:0:
383,13,104784,1,10,0:3:0:0:
448,67,104990,1,10,0:3:0:0:
312,164,105195,5,10,0:0:0:0:
272,36,105401,1,10,0:3:0:0:
204,122,105606,1,2,0:0:0:0:
133,31,105812,1,10,0:0:0:0:
118,23,105914,1,10,0:0:0:0:
103,15,106017,5,14,0:3:0:0:
103,15,106428,2,0,P|65:18|25:-2,1,66.0000020141602,2|0,0:0|0:0,0:0:0:0:
113,132,106839,2,0,P|100:162|76:184,1,66.0000020141602,10|0,0:0|0:0,0:0:0:0:
220,180,107250,2,0,P|241:211|244:256,1,66.0000020141602,2|8,0:0|0:3,0:0:0:0:
84,364,107661,6,0,P|62:332|59:287,1,66.0000020141602,2|8,0:0|0:3,0:0:0:0:
76,184,108072,1,10,0:3:0:0:
165,240,108277,2,0,P|158:272|138:298,1,66.0000020141602,2|8,0:0|0:0,0:0:0:0:
138,298,108894,5,2,0:0:0:0:
206,369,109099,1,2,0:0:0:0:
294,323,109305,2,0,B|363:311|349:359|419:347,1,132.00000402832,10|0,0:3|0:0,0:0:0:0:
499,288,109921,1,10,0:3:0:0:
407,249,110127,2,0,P|393:219|393:170,1,66.0000020141602,10|0,0:0|0:0,0:0:0:0:
428,37,110538,5,2,0:0:0:0:
486,130,110743,1,10,0:3:0:0:
322,103,110948,5,6,0:0:0:0:
428,37,111154,1,8,0:0:0:0:
390,186,111359,1,8,0:0:0:0:
349,0,111565,1,8,0:3:0:0:
192,133,111770,5,10,0:0:0:0:
405,111,111976,1,10,0:3:0:0:
240,19,112181,1,10,0:0:0:0:
306,198,112387,1,10,0:0:0:0:
349,0,112592,5,14,0:3:0:0:
349,0,113003,2,0,P|385:8|417:39,1,71.9999978027344,2|0,0:0|0:0,0:0:0:0:
255,120,113414,2,0,P|243:84|254:41,1,71.9999978027344,8|0,0:0|0:0,0:0:0:0:
408,143,113825,2,0,P|383:170|340:182,1,71.9999978027344,2|8,0:0|0:3,0:0:0:0:
192,91,114236,6,0,P|216:63|259:51,1,71.9999978027344,2|8,0:0|0:3,0:0:0:0:
350,181,114647,1,10,0:3:0:0:
198,159,114853,2,0,P|186:123|197:80,1,71.9999978027344,2|8,0:0|0:0,0:0:0:0:
192,90,115469,5,2,0:0:0:0:
113,15,115675,1,2,0:0:0:0:
36,94,115880,2,0,P|27:166|61:244,1,143.999995605469,10|0,0:3|0:0,0:0:0:0:
129,310,116496,1,10,0:3:0:0:
221,255,116702,2,0,P|200:227|169:210,1,71.9999978027344,10|0,0:0|0:0,0:0:0:0:
25,319,117113,5,2,0:0:0:0:
129,310,117318,1,10,0:3:0:0:
13,166,117524,5,2,0:0:0:0:
71,238,117729,1,10,0:3:0:0:
117,157,117935,1,10,0:3:0:0:
59,85,118140,5,2,0:0:0:0:
59,85,118243,1,2,0:0:0:0:
59,85,118346,1,10,0:0:0:0:
71,238,118551,1,10,0:3:0:0:
203,146,118757,1,2,0:0:0:0:
268,241,118962,1,8,0:0:0:0:
285,246,119065,1,8,0:0:0:0:
302,250,119168,5,14,0:3:0:0:
302,250,119579,2,0,P|340:251|383:227,1,71.9999978027344,2|0,0:0|0:0,0:0:0:0:
341,74,119990,2,0,P|336:109|318:139,1,71.9999978027344,10|0,0:0|0:0,0:0:0:0:
230,69,120401,2,0,P|213:37|185:16,1,71.9999978027344,2|8,0:0|0:3,0:0:0:0:
39,122,120811,6,0,P|55:153|84:175,1,71.9999978027344,2|8,0:0|0:3,0:0:0:0:
184,15,121222,1,10,0:3:0:0:
63,57,121428,2,0,P|43:87|39:122,1,71.9999978027344,2|8,0:0|0:0,0:0:0:0:
39,122,122044,5,2,0:0:0:0:
79,220,122250,1,2,0:0:0:0:
177,174,122455,2,0,P|246:166|304:206,1,143.999995605469,10|0,0:3|0:0,0:0:0:0:
336,299,123072,1,10,0:3:0:0:
249,339,123277,2,0,P|227:311|221:276,1,71.9999978027344,10|0,0:0|0:0,0:0:0:0:
277,119,123688,5,2,0:0:0:0:
392,218,123894,1,10,0:3:0:0:
367,30,124099,5,6,0:3:0:0:
304,206,124305,1,8,0:0:0:0:
456,71,124510,1,8,0:0:0:0:
277,119,124716,1,8,0:3:0:0:
446,235,124921,5,10,0:3:0:0:
450,239,124972,2,0,L|514:239,1,53.9999983520508,8|10,0:3|0:3,0:0:0:0:
363,115,125332,1,10,0:0:0:0:
333,348,125538,1,10,0:0:0:0:
128,120,125743,5,14,0:3:0:0:
128,120,126154,2,0,P|98:94|61:87,1,77.9999964294435,10|8,0:3|0:3,0:0:0:0:
254,82,126565,2,0,P|261:44|249:7,1,77.9999964294435,10|8,0:0|0:3,0:0:0:0:
349,172,126976,2,0,P|385:159|410:130,1,77.9999964294435,10|8,0:3|0:3,0:0:0:0:
249,7,127387,6,0,P|212:20|187:49,1,77.9999964294435,10|8,0:3|0:3,0:0:0:0:
61,86,127798,2,0,P|62:124|82:157,1,77.9999964294435,10|8,0:3|0:3,0:0:0:0:
78,289,128209,2,0,P|115:299|152:290,1,77.9999964294435,10|8,0:0|0:3,0:0:0:0:
276,334,128620,2,0,P|297:302|300:263,1,77.9999964294435,10|8,0:3|0:3,0:0:0:0:
291,246,128928,1,8,0:3:0:0:
278,230,129031,6,0,P|256:198|253:159,1,77.9999964294435,14|0,0:3|0:0,0:0:0:0:
403,47,129442,1,8,0:3:0:0:
394,193,129647,1,8,0:3:0:0:
274,61,129853,2,0,P|290:25|322:3,1,77.9999964294435,8|8,0:0|0:3,0:0:0:0:
484,88,130264,5,10,0:3:0:0:
331,125,130469,1,10,0:3:0:0:
476,6,130675,1,8,0:3:0:0:
394,193,130880,1,8,0:3:0:0:
403,47,131085,1,8,0:3:0:0:
488,224,131291,1,8,0:3:0:0:
248,153,131496,6,0,L|148:140,1,77.9999964294435,14|0,0:0|0:0,0:0:0:0:
321,333,131907,2,0,L|420:345,1,77.9999964294435,10|0,0:3|0:0,0:0:0:0:
417,346,132216,1,8,0:3:0:0:
436,348,132318,5,14,0:3:0:0:
436,348,132729,2,0,P|422:311|426:273,1,77.9999964294435,10|8,0:3|0:3,0:0:0:0:
254,265,133140,2,0,P|278:235|314:220,1,77.9999964294435,10|8,0:0|0:3,0:0:0:0:
234,67,133551,2,0,P|272:73|303:96,1,77.9999964294435,10|8,0:3|0:3,0:0:0:0:
251,363,133962,6,0,P|212:356|181:333,1,77.9999964294435,10|8,0:3|0:3,0:0:0:0:
64,269,134373,2,0,P|58:230|70:194,1,77.9999964294435,10|8,0:3|0:3,0:0:0:0:
95,62,134784,2,0,P|129:44|168:45,1,77.9999964294435,10|8,0:0|0:3,0:0:0:0:
301,28,135195,2,0,P|328:55|339:92,1,77.9999964294435,10|0,0:3|0:0,0:0:0:0:
338,111,135503,1,8,0:3:0:0:
332,129,135606,5,14,0:3:0:0:
151,229,135812,1,10,0:3:0:0:
168,45,136017,1,10,0:3:0:0:
298,208,136222,1,10,0:3:0:0:
76,132,136428,1,10,0:3:0:0:
272,30,136633,1,10,0:3:0:0:
233,255,136839,1,10,0:3:0:0:
159,18,137044,1,10,0:3:0:0:
373,192,137250,5,10,0:0:0:0:
377,196,137301,2,0,P|414:203|456:185,1,67.5000025749207,8|8,0:0|0:3,0:0:0:0:
159,18,137661,2,0,P|122:11|65:40,1,90.0000034332277,10|8,0:3|0:3,0:0:0:0:
8,318,138072,5,10,0:0:0:0:
199,121,138277,1,8,0:0:0:0:
0,162,138483,1,10,0:0:0:0:
267,255,138688,1,8,0:0:0:0:
160,18,138894,6,0,P|93:89|110:187,1,204.000003890991,14|0,0:3|0:0,0:0:0:0:
226,279,139510,1,8,0:3:0:0:
274,172,139716,2,0,P|247:131|199:120,1,102.000001945496,10|0,0:0|0:0,0:0:0:0:
49,243,140127,2,0,P|90:272|139:264,1,102.000001945496,2|8,0:0|0:3,0:0:0:0:
97,76,140538,5,2,0:0:0:0:
109,186,140743,1,8,0:3:0:0:
199,120,140948,1,8,0:3:0:0:
97,76,141154,2,0,L|-3:59,1,102.000001945496,2|8,0:0|0:0,0:0:0:0:
211,230,141565,5,10,0:3:0:0:
300,164,141770,2,0,L|364:85,1,102.000001945496,2|0,0:0|0:0,0:0:0:0:
408,272,142181,6,0,B|413:329|456:357|456:357|494:320|487:264,1,204.000003890991,10|0,0:3|0:0,0:0:0:0:
463,13,143003,5,10,0:0:0:0:
365,85,143209,1,2,0:0:0:0:
252,36,143414,2,0,P|203:20|153:25,1,102.000001945496,2|8,0:0|0:3,0:0:0:0:
83,242,143825,6,0,P|131:257|181:252,1,102.000001945496,2|8,0:0|0:3,0:0:0:0:
153,25,144236,1,10,0:3:0:0:
42,151,144442,2,0,P|52:200|82:241,1,102.000001945496,2|8,0:0|0:0,0:0:0:0:
307,288,144853,5,2,0:3:0:0:
271,180,145058,1,8,0:3:0:0:
195,265,145264,1,8,0:2:0:0:
383,203,145469,6,0,B|413:149|377:84|377:84|406:45|458:83,1,204.000003890991,14|0,0:3|0:0,0:0:0:0:
447,75,146291,5,10,0:0:0:0:
383,203,146496,1,2,0:0:0:0:
261,128,146702,2,0,P|297:103|374:114,1,102.000001945496,2|8,0:0|0:3,0:0:0:0:
271,333,147113,6,0,P|220:335|178:308,1,102.000001945496,2|8,0:0|0:3,0:0:0:0:
261,128,147524,1,10,0:3:0:0:
338,265,147729,2,0,P|314:309|270:332,1,102.000001945496,2|8,0:0|0:0,0:0:0:0:
45,269,148140,5,2,0:0:0:0:
159,213,148346,1,8,0:3:0:0:
148,340,148551,1,8,0:0:0:0:
56,142,148757,5,10,0:3:0:0:
270,332,149168,6,0,P|316:341|369:325,1,102.000001945496,10|8,0:2|0:3,0:0:0:0:
512,148,149579,1,10,0:0:0:0:
372,132,149784,1,10,0:3:0:0:
499,251,149990,1,10,0:0:0:0:
512,148,150195,1,8,0:3:0:0:
355,226,150401,1,8,0:0:0:0:
447,336,150606,1,8,0:3:0:0:
512,148,150812,6,0,P|512:89|486:45,1,102.000001945496,10|0,0:3|0:0,0:0:0:0:
266,11,151222,1,8,0:0:0:0:
270,15,151274,2,0,L|256:103,1,76.5000014591217,8|12,0:0|0:3,0:0:0:0:
0,312,151839,1,8,0:0:0:0:
9,274,151942,1,8,0:0:0:0:
22,237,152044,6,0,B|79:229|106:279|106:279|154:307|217:259,1,204.000003890991,14|0,0:3|0:0,0:0:0:0:
332,164,152661,1,8,0:3:0:0:
257,90,152866,2,0,P|231:130|229:183,1,102.000001945496,10|0,0:0|0:0,0:0:0:0:
407,238,153277,2,0,P|433:198|435:145,1,102.000001945496,2|8,0:0|0:3,0:0:0:0:
254,72,153688,5,2,0:0:0:0:
376,48,153894,1,8,0:3:0:0:
332,164,154099,1,8,0:3:0:0:
254,72,154305,2,0,L|142:51,1,102.000001945496,2|8,0:0|0:0,0:0:0:0:
0,184,154716,5,10,0:3:0:0:
119,149,154921,2,0,L|153:53,1,102.000001945496,2|0,0:0|0:0,0:0:0:0:
249,318,155332,6,0,B|269:266|259:217|210:186|210:186|201:215|214:240,1,204.000003890991,10|0,0:3|0:0,0:0:0:0:
464,372,156154,5,10,0:0:0:0:
387,277,156359,1,2,0:0:0:0:
485,204,156565,2,0,P|497:162|481:104,1,102.000001945496,2|8,0:0|0:3,0:0:0:0:
209,89,156976,6,0,P|197:131|213:189,1,102.000001945496,2|8,0:0|0:3,0:0:0:0:
394,159,157387,1,10,0:3:0:0:
293,38,157592,2,0,P|244:53|209:89,1,102.000001945496,2|8,0:0|0:0,0:0:0:0:
485,204,158003,5,2,0:3:0:0:
296,134,158209,1,8,0:3:0:0:
330,333,158414,1,8,0:2:0:0:
455,123,158620,6,0,B|473:69|445:25|445:25|396:42|376:96,1,204.000003890991,14|0,0:3|0:0,0:0:0:0:
505,376,159442,5,10,0:0:0:0:
421,272,159647,1,2,0:0:0:0:
313,348,159853,2,0,P|269:360|209:336,1,102.000001945496,2|8,0:0|0:3,0:0:0:0:
105,119,160264,6,0,P|149:107|209:131,1,102.000001945496,2|8,0:0|0:3,0:0:0:0:
142,308,160675,1,10,0:3:0:0:
54,200,160880,2,0,P|65:155|116:115,1,102.000001945496,2|8,0:0|0:0,0:0:0:0:
331,172,161291,5,2,0:0:0:0:
218,226,161496,1,8,0:3:0:0:
225,102,161702,1,8,0:2:0:0:
322,296,161907,5,10,0:3:0:0:
284,32,162318,6,0,P|237:12|187:17,1,102.000001945496,10|8,0:0|0:3,0:0:0:0:
52,199,162729,1,10,0:0:0:0:
225,102,162935,1,10,0:3:0:0:
79,0,163140,1,10,0:0:0:0:
170,210,163346,1,8,0:3:0:0:
187,17,163551,1,8,0:0:0:0:
52,199,163757,1,8,0:3:0:0:
273,285,163962,6,0,L|383:264,1,102.000001945496,10|0,0:3|0:0,0:0:0:0:
258,27,164373,1,10,0:0:0:0:
262,31,164425,2,0,L|186:16,1,76.5000014591217,8|8,0:0|0:3,0:0:0:0:
430,120,164784,1,10,0:0:0:0:
434,124,164835,2,0,L|510:109,1,76.5000014591217,8|8,0:0|0:3,0:0:0:0:
329,348,165195,6,0,B|297:312|329:252|329:252|320:208|275:206,1,180.000006866455,14|0,0:3|0:0,0:0:0:0:
170,276,165812,1,8,0:3:0:0:
246,366,166017,2,0,P|290:370|328:348,1,90.0000034332277,10|0,0:0|0:0,0:0:0:0:
196,195,166428,2,0,P|170:230|169:275,1,90.0000034332277,2|8,0:0|0:3,0:0:0:0:
368,236,166839,2,0,P|349:195|311:172,1,90.0000034332277,10|0,0:3|0:0,0:0:0:0:
169,275,167250,2,0,P|187:315|225:338,1,90.0000034332277,10|0,0:3|0:0,0:0:0:0:
101,72,167661,5,10,0:2:0:0:
11,228,167866,2,0,B|-3:283|30:323|30:323|77:301|89:245,1,204.000003890991,14|0,0:3|0:0,0:0:0:0:
412,95,168483,6,0,B|429:99|444:83|440:67|420:61|381:68|394:78|369:88|340:82,1,125.999996154785,14|0,0:3|0:0,0:0:0:0:
127,139,168894,6,0,B|106:149|90:129|96:111|120:107|162:120|147:129|161:140|204:139,1,138.000002632141,2|0,0:0|0:0,0:0:0:0:
437,244,169305,6,0,B|458:256|478:236|472:217|447:210|400:218|421:233|395:245|351:235,1,150,10|0,0:0|0:0,0:0:0:0:
134,333,169716,6,0,B|109:344|90:320|99:300|126:295|175:309|152:323|178:338|225:333,1,162.000000617981,2|8,0:0|0:3,0:0:0:0:
490,260,170127,6,0,B|430:238|374:252|398:272|344:322|295:291|277:250|322:213|348:223|366:246,1,251.999992309571,14|0,0:3|0:0,0:0:0:0:
355,236,171770,6,0,P|457:238|504:180,1,150,14|0,0:3|0:0,0:0:0:0:
489,209,172592,6,0,L|482:115,1,75,10|0,0:0|0:0,0:0:0:0:
315,35,173003,1,2,0:0:0:0:
246,124,173209,2,0,L|235:198,2,75,10|2|8,0:3|0:0|0:3,0:0:0:0:
429,35,173825,1,2,0:0:0:0:
483,134,174031,2,0,L|494:224,1,75,2|8,0:0|0:0,0:0:0:0:
492,208,174647,5,2,0:0:0:0:
372,190,174853,1,2,0:0:0:0:
311,293,175058,2,0,P|248:329|180:302,1,150,10|0,0:3|0:0,0:0:0:0:
181,303,175880,6,0,L|171:228,1,75,10|0,0:0|0:0,0:0:0:0:
66,64,176291,1,2,0:0:0:0:
12,167,176496,2,0,L|3:241,2,75,10|2|8,0:3|0:0|0:3,0:0:0:0:
227,64,177113,1,2,0:0:0:0:
271,160,177318,2,0,L|280:234,1,75,2|8,0:0|0:0,0:0:0:0:
280,234,177935,5,2,0:0:0:0:
386,292,178140,1,2,0:0:0:0:
481,149,178346,2,0,B|506:83|464:4|464:4|397:63|398:134,1,300,14|8,0:3|0:0,0:0:0:0:
398,132,179579,5,2,0:0:0:0:
478,239,179784,1,10,0:3:0:0:
345,254,179990,2,0,L|270:260,1,75,2|8,0:0|0:3,0:0:0:0:
354,70,180401,2,0,L|397:131,1,75,10|0,0:3|0:0,0:0:0:0:
191,155,180812,2,0,L|222:86,1,75,10|0,0:0|0:0,0:0:0:0:
397,131,181222,5,2,0:0:0:0:
345,254,181428,1,10,0:3:0:0:
191,155,181633,6,0,P|110:144|56:200,1,150,10|2,0:3|0:0,0:0:0:0:
146,301,182250,1,10,0:3:0:0:
219,222,182455,2,0,P|212:185|191:155,1,75,10|0,0:0|0:0,0:0:0:0:
6,74,182866,5,10,0:3:0:0:
62,185,183072,1,10,0:3:0:0:
131,81,183277,1,10,0:3:0:0:
26,284,183483,5,10,0:0:0:0:
6,74,183688,1,10,0:0:0:0:
190,154,183894,1,10,0:3:0:0:
26,284,184099,5,10,0:3:0:0:
30,288,184151,2,0,P|5:262|-5:233,1,56.25,8|8,0:3|0:3,0:0:0:0:
93,21,184510,5,6,0:3:0:0:
97,25,184562,2,0,P|122:51|132:80,1,56.25,4|8,0:3|0:3,0:0:0:0:
127,315,184921,6,0,L|119:155,1,150,14|0,0:3|0:0,0:0:0:0:
119,165,185743,6,0,P|150:183|205:183,1,75,10|0,0:0|0:0,0:0:0:0:
320,68,186154,1,2,0:0:0:0:
184,36,186359,2,0,P|146:39|114:57,2,75,10|2|8,0:3|0:0|0:3,0:0:0:0:
303,194,186976,1,10,0:3:0:0:
175,271,187181,2,0,P|137:267|105:249,1,75,2|8,0:0|0:0,0:0:0:0:
105,249,187798,5,2,0:0:0:0:
222,154,188003,1,2,0:0:0:0:
270,295,188209,2,0,P|333:331|401:304,1,150,10|0,0:3|0:0,0:0:0:0:
400,304,189031,6,0,P|368:274|359:238,1,75,10|0,0:0|0:0,0:0:0:0:
358,63,189442,1,2,0:0:0:0:
471,104,189647,2,0,P|500:129|512:163,2,75,10|2|8,0:3|0:0|0:3,0:0:0:0:
250,133,190264,5,10,0:3:0:0:
423,177,190469,1,2,0:0:0:0:
267,46,190675,2,0,P|229:44|196:59,1,75,10|8,0:0|0:3,0:0:0:0:
112,216,191085,5,10,0:3:0:0:
286,239,191291,1,10,0:0:0:0:
196,59,191496,2,0,B|142:12|53:25|53:25|86:108|153:131,1,300,14|8,0:3|0:0,0:0:0:0:
151,130,192729,5,2,0:0:0:0:
205,9,192935,1,10,0:3:0:0:
284,118,193140,2,0,L|325:180,1,75,2|8,0:0|0:3,0:0:0:0:
119,198,193551,2,0,L|151:130,1,75,10|0,0:3|0:0,0:0:0:0:
272,300,193962,2,0,L|196:306,1,75,10|0,0:0|0:0,0:0:0:0:
227,204,194373,5,2,0:0:0:0:
227,204,194579,1,2,0:0:0:0:
356,335,194784,6,0,B|383:366|421:363|421:363|427:326|399:295,1,150,10|0,0:3|0:0,0:0:0:0:
227,204,195401,1,10,0:3:0:0:
197,306,195606,2,0,P|202:343|235:384,1,75,10|0,0:0|0:0,0:0:0:0:
396,174,196017,5,2,0:0:0:0:
227,204,196222,1,8,0:0:0:0:
397,293,196428,1,2,0:0:0:0:
295,99,196633,1,10,0:3:0:0:
284,315,196839,1,8,0:0:0:0:
396,174,197044,5,10,0:3:0:0:
399,136,197147,1,8,0:3:0:0:
387,100,197250,1,8,0:3:0:0:
241,1,197455,1,8,0:3:0:0:
79,32,197661,1,4,0:3:0:0:
9,149,197866,1,4,0:3:0:0:
36,247,198072,5,14,1:3:0:0:
0,195,209579,5,10,0:3:0:0:
109,43,209784,1,12,0:0:0:0:
186,213,209990,2,0,L|207:303,1,75,10|0,0:0|0:0,0:0:0:0:
349,49,210401,5,8,0:0:0:0:
295,36,210538,1,8,0:0:0:0:
252,71,210675,1,8,0:0:0:0:
252,126,210812,5,8,0:3:0:0:
295,160,210948,1,8,0:3:0:0:
349,148,211085,1,8,0:3:0:0:
372,98,211222,6,0,B|395:42|448:28|448:28|474:77|448:131,1,215.999993408203,14|0,0:3|0:0,0:0:0:0:
334,240,211839,1,8,0:3:0:0:
251,125,212044,2,0,P|246:72|268:24,1,107.999996704102,10|0,0:0|0:0,0:0:0:0:
448,132,212455,2,0,P|453:185|431:233,1,107.999996704102,2|8,0:0|0:3,0:0:0:0:
186,223,212866,5,2,0:0:0:0:
320,196,213072,1,8,0:3:0:0:
271,324,213277,1,8,0:3:0:0:
186,223,213483,2,0,P|164:168|177:111,1,107.999996704102,2|8,0:0|0:0,0:0:0:0:
244,1,213894,5,10,0:3:0:0:
249,143,214099,2,0,P|225:197|175:227,1,107.999996704102,2|0,0:0|0:0,0:0:0:0:
30,70,214510,6,0,B|13:46|25:18|25:18|56:36|46:94|35:85|17:132|42:171,1,215.999993408203,10|0,0:3|0:0,0:0:0:0:
307,294,215332,5,10,0:0:0:0:
185,223,215538,1,2,0:0:0:0:
91,332,215743,2,0,P|124:363|194:367,1,107.999996704102,2|8,0:0|0:3,0:0:0:0:
265,162,216154,6,0,P|221:175|183:233,1,107.999996704102,2|8,0:0|0:3,0:0:0:0:
184,370,216565,1,10,0:3:0:0:
295,259,216770,2,0,P|295:205|264:161,1,107.999996704102,2|8,0:0|0:0,0:0:0:0:
54,175,217181,5,2,0:3:0:0:
173,243,217387,1,8,0:3:0:0:
173,105,217592,1,8,0:2:0:0:
82,304,217798,6,0,B|76:340|88:363|88:363|138:346|169:295|174:241,1,215.999993408203,14|0,0:3|0:0,0:0:0:0:
4,0,218620,5,10,0:0:0:0:
54,131,218825,1,2,0:0:0:0:
164,44,219031,2,0,P|209:27|279:43,1,107.999996704102,2|8,0:0|0:3,0:0:0:0:
390,243,219442,6,0,P|339:260|287:250,1,107.999996704102,2|8,0:0|0:3,0:0:0:0:
404,85,219853,1,10,0:3:0:0:
488,231,220058,2,0,P|477:283|443:324,1,107.999996704102,2|8,0:0|0:0,0:0:0:0:
193,251,220469,5,2,0:0:0:0:
334,182,220675,1,8,0:3:0:0:
324,337,220880,1,8,0:0:0:0:
203,92,221085,5,10,0:3:0:0:
324,337,221496,6,0,P|376:350|427:335,1,107.999996704102,10|8,0:2|0:3,0:0:0:0:
482,80,221907,1,10,0:0:0:0:
373,252,222113,1,10,0:3:0:0:
512,216,222318,1,10,0:0:0:0:
348,95,222524,1,8,0:3:0:0:
373,252,222729,1,8,0:0:0:0:
482,80,222935,1,8,0:3:0:0:
262,55,223140,6,0,L|139:33,1,107.999996704102,10|0,0:3|0:0,0:0:0:0:
249,261,223551,1,10,0:0:0:0:
253,265,223603,2,0,L|319:185,1,80.9999975280763,8|8,0:0|0:3,0:0:0:0:
52,153,223962,1,10,0:0:0:0:
56,157,224014,2,0,L|85:237,1,80.9999975280763,8|8,0:0|0:3,0:0:0:0:
253,265,224373,6,0,B|279:254|285:229|285:229|242:226|210:298|247:347,1,192,14|0,0:3|0:0,0:0:0:0:
381,378,224990,1,8,0:3:0:0:
369,261,225195,2,0,P|331:232|283:229,1,96,10|0,0:0|0:0,0:0:0:0:
157,309,225606,2,0,P|194:337|242:340,1,96,2|8,0:0|0:3,0:0:0:0:
222,102,226017,2,0,P|178:120|152:160,1,96,10|0,0:3|0:0,0:0:0:0:
369,261,226428,2,0,P|374:213|353:171,1,96,10|0,0:3|0:0,0:0:0:0:
157,309,226839,5,10,0:2:0:0:
369,261,227044,2,0,B|389:209|348:162|348:162|287:186|288:243,1,215.999993408203,14|0,0:3|0:0,0:0:0:0:
61,365,227661,6,0,B|48:330|59:295|71:313|91:253|34:228|10:292|40:314|61:294,1,132.00000402832,14|0,0:3|0:0,0:0:0:0:
266,314,228072,6,0,B|279:274|268:239|256:257|236:197|293:172|317:236|288:268|267:238,1,143.999995605469,2|0,0:0|0:0,0:0:0:0:
19,167,228483,6,0,B|2:128|16:86|28:105|49:43|-9:17|-33:83|-7:108|17:85,1,155.999992858887,10|0,0:0|0:0,0:0:0:0:
339,155,228894,6,0,B|357:112|341:67|328:87|305:20|369:-7|396:64|364:92|340:66,1,167.999994873047,2|8,0:0|0:3,0:0:0:0:
173,262,229305,5,14,0:3:0:0:
163,65,229510,1,8,0:0:0:0:
339,155,229716,2,0,P|392:155|443:127,1,102.000001945496,10|0,0:0|0:0,0:0:0:0:
454,117,230024,1,8,0:3:0:0:
460,92,230127,5,10,0:3:0:0:
287,29,230332,1,8,0:3:0:0:
286,254,230538,1,10,0:0:0:0:
290,258,230589,2,0,L|299:340,1,67.5000025749207,8|8,0:0|0:3,0:0:0:0:
512,285,230948,6,0,B|394:255|413:352|295:324,1,227.999993911743,14|0,0:3|0:0,0:0:0:0:
209,203,231565,1,8,0:3:0:0:
292,113,231770,2,0,P|327:156|331:212,1,113.999996955872,10|0,0:0|0:0,0:0:0:0:
126,293,232181,2,0,P|90:249|86:193,1,113.999996955872,2|8,0:0|0:3,0:0:0:0:
221,49,232592,5,2,0:0:0:0:
209,203,232798,1,8,0:3:0:0:
81,114,233003,1,8,0:3:0:0:
221,49,233209,2,0,L|333:12,1,113.999996955872,2|8,0:0|0:0,0:0:0:0:
433,213,233620,5,10,0:3:0:0:
306,124,233825,2,0,L|217:45,1,113.999996955872,2|0,0:0|0:0,0:0:0:0:
25,246,234236,6,0,B|1:304|31:355|31:355|86:337|107:277,1,227.999993911743,10|0,0:3|0:0,0:0:0:0:
0,18,235058,5,10,0:0:0:0:
76,130,235264,1,2,0:0:0:0:
189,53,235469,2,0,P|235:29|309:40,1,113.999996955872,2|8,0:0|0:3,0:0:0:0:
446,241,235880,6,0,P|389:235|345:201,1,113.999996955872,2|8,0:0|0:3,0:0:0:0:
295,33,236291,1,10,0:3:0:0:
429,133,236496,2,0,P|452:184|445:240,1,113.999996955872,2|8,0:0|0:0,0:0:0:0:
225,282,236907,5,2,0:3:0:0:
215,138,237113,1,8,0:3:0:0:
345,201,237318,1,8,0:2:0:0:
95,219,237524,6,0,B|52:159|96:86|96:86|51:51|16:81,1,227.999993911743,14|0,0:3|0:0,0:0:0:0:
114,363,238346,5,10,0:0:0:0:
196,239,238551,1,2,0:0:0:0:
288,356,238757,2,0,P|336:368|402:329,1,113.999996955872,2|8,0:0|0:3,0:0:0:0:
236,142,239168,6,0,P|201:177|202:254,1,113.999996955872,2|8,0:0|0:3,0:0:0:0:
392,341,239579,1,10,0:3:0:0:
447,203,239784,2,0,P|433:155|366:117,1,113.999996955872,2|8,0:0|0:0,0:0:0:0:
185,70,240195,5,2,0:0:0:0:
320,175,240401,1,8,0:3:0:0:
340,2,240606,1,8,0:0:0:0:
162,239,240811,5,10,0:3:0:0:
498,111,241222,6,0,P|449:83|393:91,1,113.999996955872,10|8,0:0|0:3,0:0:0:0:
247,318,241633,1,10,0:0:0:0:
433,181,241839,1,10,0:3:0:0:
162,239,242044,1,10,0:0:0:0:
403,291,242250,1,8,0:3:0:0:
284,143,242455,1,8,0:0:0:0:
331,342,242661,1,8,0:3:0:0:
512,122,242866,6,0,P|454:85|390:94,1,113.999996955872,12|0,0:3|0:0,0:0:0:0:
388,104,243175,1,8,0:3:0:0:
373,128,243277,1,8,0:3:0:0:
162,239,243483,1,8,0:3:0:0:
207,7,243688,1,10,0:0:0:0:
211,11,243740,2,0,L|223:107,1,85.4999977169037,8|0,0:0|0:0,0:0:0:0:
416,263,244099,6,0,B|463:218|456:161|456:161|398:154|353:200,1,227.999993911743,14|0,0:3|0:0,0:0:0:0:
259,300,244716,1,8,0:3:0:0:
382,367,244921,2,0,P|436:370|490:342,1,113.999996955872,10|0,0:0|0:0,0:0:0:0:
385,122,245332,2,0,P|330:118|276:146,1,113.999996955872,2|8,0:0|0:3,0:0:0:0:
149,330,245743,5,2,0:0:0:0:
7,290,245948,1,8,0:3:0:0:
117,182,246154,1,8,0:3:0:0:
149,330,246359,2,0,P|202:350|257:338,1,113.999996955872,2|8,0:0|0:0,0:0:0:0:
396,210,246770,5,10,0:3:0:0:
211,241,246976,2,0,P|167:277|150:330,1,113.999996955872,2|0,0:0|0:0,0:0:0:0:
453,384,247387,6,0,B|472:324|448:267|404:241|404:241|389:259|395:291|414:304,1,227.999993911743,10|0,0:3|0:0,0:0:0:0:
512,61,248209,5,10,0:0:0:0:
374,6,248414,1,2,0:0:0:0:
293,130,248620,2,0,L|283:249,1,113.999996955872,2|8,0:0|0:3,0:0:0:0:
34,178,249031,6,0,L|24:59,1,113.999996955872,2|8,0:0|0:3,0:0:0:0:
217,11,249442,1,10,0:3:0:0:
108,129,249647,2,0,P|59:114|24:64,1,113.999996955872,2|8,0:0|0:0,0:0:0:0:
293,130,250058,5,2,0:3:0:0:
122,21,250264,1,8,0:3:0:0:
113,223,250469,1,8,0:2:0:0:
254,57,250675,6,0,B|269:31|255:10|255:10|212:18|183:70|187:121|214:164,1,227.999993911743,14|0,0:3|0:0,0:0:0:0:
512,279,251496,5,10,0:0:0:0:
386,201,251702,1,2,0:0:0:0:
328,337,251907,2,0,P|283:361|219:349,1,113.999996955872,2|8,0:0|0:3,0:0:0:0:
321,117,252318,6,0,P|363:143|385:205,1,113.999996955872,2|8,0:0|0:3,0:0:0:0:
223,351,252729,1,10,0:3:0:0:
134,234,252935,2,0,P|135:183|178:133,1,113.999996955872,2|8,0:0|0:0,0:0:0:0:
403,63,253346,5,2,0:0:0:0:
266,217,253551,1,8,0:3:0:0:
198,22,253757,1,8,0:0:0:0:
470,256,253962,5,10,0:3:0:0:
58,296,254373,6,0,P|29:249|37:194,1,113.999996955872,10|8,0:2|0:3,0:0:0:0:
263,173,254784,1,10,0:0:0:0:
53,105,254990,1,10,0:3:0:0:
211,18,255195,1,10,0:0:0:0:
127,243,255401,1,8,0:3:0:0:
96,3,255606,1,8,0:0:0:0:
305,74,255811,1,8,0:3:0:0:
14,113,256017,5,10,0:3:0:0:
281,197,256222,1,8,0:0:0:0:
96,3,256428,1,8,0:0:0:0:
129,276,256633,1,8,0:3:0:0:
325,58,256839,5,10,0:0:0:0:
28,220,257044,1,8,0:0:0:0:
320,354,257250,6,0,B|376:328|429:367|429:367|483:377|497:327,1,204.000003890991,14|0,0:3|0:0,0:0:0:0:
410,180,257866,1,8,0:3:0:0:
300,258,258072,2,0,P|299:309|321:354,1,102.000001945496,10|0,0:0|0:0,0:0:0:0:
494,217,258483,2,0,P|494:165|472:120,1,102.000001945496,2|8,0:0|0:3,0:0:0:0:
300,258,258894,2,0,P|344:284|394:287,1,102.000001945496,10|0,0:3|0:0,0:0:0:0:
361,68,259305,2,0,P|316:93|288:135,1,102.000001945496,10|0,0:3|0:0,0:0:0:0:
473,296,259716,5,10,0:2:0:0:
361,68,259921,2,0,B|323:27|258:28|258:28|250:93|288:134,1,227.999993911743,14|0,0:3|0:0,0:0:0:0:
473,296,260538,6,0,B|491:300|507:282|503:265|481:259|439:266|450:275|436:286|391:279,1,138.000002632141,14|0,0:3|0:0,0:0:0:0:
109,256,260948,6,0,B|88:260|70:241|74:221|99:214|142:222|127:237|150:246|195:240,1,150,2|0,0:0|0:0,0:0:0:0:
476,145,261359,6,0,B|500:149|519:128|514:107|488:99|443:108|455:119|433:134|386:126,1,162.000000617981,10|0,0:0|0:0,0:0:0:0:
93,59,261770,6,0,B|68:64|46:41|52:18|81:9|138:19|119:34|146:47|193:41,1,174.000005310059,2|8,0:0|0:3,0:0:0:0:
511,153,262181,6,0,B|464:134|409:142|429:160|383:203|340:176|325:141|364:109|386:117|402:137,1,215.999993408203,14|0,0:3|0:0,0:0:0:0:
390,127,263825,6,0,L|403:253,2,120,14|0|10,0:3|2:0|0:0,0:0:0:0:
390,127,264853,1,2,0:0:0:0:
331,73,265058,1,2,0:0:0:0:
331,73,265264,1,10,0:3:0:0:
247,108,265469,2,0,P|218:113|191:102,1,60,2|8,0:0|0:3,0:0:0:0:
71,31,265880,2,0,P|100:26|128:37,1,60,10|0,2:3|0:0,0:0:0:0:
191,102,266291,2,0,B|201:135|190:163|190:163|192:198|225:217,1,120,10|0,0:2|0:0,0:0:0:0:
354,241,266907,5,0,3:2:0:0:
354,241,267010,1,0,3:2:0:0:
354,241,267113,2,0,P|303:246|254:305,2,120,10|0|10,0:3|2:0|0:0,0:0:0:0:
354,241,268140,1,2,0:0:0:0:
430,307,268346,1,2,0:0:0:0:
430,307,268551,1,10,0:3:0:0:
480,233,268757,2,0,L|465:161,1,60,2|8,0:0|0:3,0:0:0:0:
395,81,269168,2,0,L|383:140,1,60,10|0,0:3|0:0,0:0:0:0:
293,26,269579,5,10,0:0:0:0:
242,159,269784,1,10,0:3:0:0:
186,65,269990,1,2,0:0:0:0:
149,217,270195,1,8,0:0:0:0:
139,228,270298,1,8,0:0:0:0:
128,238,270401,6,0,P|69:241|27:200,2,120,14|0|10,0:3|2:0|0:0,0:0:0:0:
128,238,271428,1,2,0:0:0:0:
212,199,271633,1,2,0:0:0:0:
212,199,271839,1,10,0:3:0:0:
262,273,272044,2,0,P|289:289|329:290,1,60,2|8,0:0|0:3,0:0:0:0:
446,260,272455,2,0,P|420:244|391:241,1,60,10|0,2:3|0:0,0:0:0:0:
403,353,272866,2,0,P|448:317|445:259,1,120,10|0,0:2|0:0,0:0:0:0:
373,186,273483,5,0,3:2:0:0:
373,186,273585,1,0,3:2:0:0:
373,186,273688,2,0,P|390:241|444:259,2,120,10|0|10,0:3|2:0|0:0,0:0:0:0:
373,186,274716,1,2,0:0:0:0:
436,122,274921,1,2,0:0:0:0:
436,122,275127,1,10,0:3:0:0:
376,53,275332,2,0,P|352:40|314:36,1,60,2|8,0:0|0:3,0:0:0:0:
259,102,275743,2,0,P|235:115|197:119,1,60,10|0,0:3|3:0,0:0:0:0:
188,114,276051,1,0,3:0:0:0:
174,107,276154,5,10,0:0:0:0:
44,43,276359,1,8,0:0:0:0:
40,240,276565,1,8,0:3:0:0:
229,354,276770,1,8,0:3:0:0:
336,115,276976,6,0,B|382:61|458:81|497:149|468:222|425:268|375:296|308:276|229:354|229:354|199:249|132:230|105:182|88:120|99:43|168:3|244:23|258:92,1,960,14|0,1:3|2:0,0:0:0:0:
