osu file format v14

[General]
AudioFilename: audio.mp3
AudioLeadIn: 0
PreviewTime: 54710
Countdown: 0
SampleSet: Soft
StackLeniency: 0.7
Mode: 0
LetterboxInBreaks: 0
WidescreenStoryboard: 1

[Editor]
Bookmarks: 6757,6850,18757,30757,41257,42757,51757,54757,66757,78757,90757,101257,102757,113257,114757,123757,126757,138757,150757,162757,165757,177757,189757,199507,201757,213757,225757
DistanceSpacing: 1.3
BeatDivisor: 4
GridSize: 32
TimelineZoom: 1.600006

[Metadata]
Title:Brand-new color!!
TitleUnicode:Brand-new color!!
Artist:Primary
ArtistUnicode:Primary
Creator:Lasse
Version:Hard
Source:
Tags:yuiko -1 minus one meis clauson japanese pop rock yuikonnu ゆいこんぬ
BeatmapID:3063123
BeatmapSetID:1486843

[Difficulty]
HPDrainRate:5
CircleSize:3.8
OverallDifficulty:6.7
ApproachRate:7.6
SliderMultiplier:1.45
SliderTickRate:1

[Events]
//Background and Video events
0,0,"1.jpg",0,0
//Break Periods
2,90957,100447
2,165957,167947
2,168957,170947
2,171957,173947
2,174957,176947
//Storyboard Layer 0 (Background)
//Storyboard Layer 1 (Fail)
//Storyboard Layer 2 (Pass)
//Storyboard Layer 3 (Foreground)
//Storyboard Layer 4 (Overlay)
//Storyboard Sound Samples

[TimingPoints]
757,375,4,2,1,60,1,0
757,-142.857142857143,4,2,1,60,0,0
6757,-100,4,2,1,60,0,0
18757,-133.333333333333,4,2,1,45,0,0
29257,-111.111111111111,4,2,1,48,0,0
30194,-111.111111111111,4,2,1,48,0,0
30757,-111.111111111111,4,2,1,50,0,0
41632,-111.111111111111,4,2,1,55,0,0
42007,-111.111111111111,4,2,1,50,0,0
42382,-111.111111111111,4,2,1,55,0,0
42757,-133.333333333333,4,2,1,50,0,0
48194,-133.333333333333,4,2,1,45,0,0
48757,-133.333333333333,4,2,1,50,0,0
51569,-100,4,2,1,50,0,0
51757,-100,4,2,1,55,0,0
53257,-100,4,2,1,60,0,0
54757,-100,4,2,1,65,0,1
66710,-100,4,2,1,65,0,0
66757,-100,4,2,1,65,0,1
78757,-100,4,2,1,60,0,0
90757,-166.666666666667,4,2,1,45,0,0
101257,-133.333333333333,4,2,1,45,0,0
102757,-111.111111111111,4,2,1,50,0,0
113632,-111.111111111111,4,2,1,55,0,0
114007,-111.111111111111,4,2,1,50,0,0
114382,-111.111111111111,4,2,1,55,0,0
114757,-133.333333333333,4,2,1,50,0,0
120194,-133.333333333333,4,2,1,45,0,0
120757,-133.333333333333,4,2,1,50,0,0
123569,-100,4,2,1,50,0,0
123757,-100,4,2,1,55,0,0
125257,-100,4,2,1,60,0,0
126757,-100,4,2,1,65,0,1
138710,-100,4,2,1,65,0,0
138757,-100,4,2,1,65,0,1
150757,-100,4,2,1,60,0,0
156007,-100,4,2,1,50,0,0
156382,-100,4,2,1,55,0,0
156757,-100,4,2,1,62,0,0
162507,-100,4,2,1,50,0,0
163507,-100,4,2,1,40,0,0
164257,-100,4,2,1,30,0,0
165007,-100,4,2,1,20,0,0
165382,-100,4,2,1,10,0,0
165757,-100,4,2,99,45,0,0
168757,-100,4,2,1,45,0,0
177757,-133.333333333333,4,2,1,45,0,0
188632,-111.111111111111,4,2,1,50,0,0
189007,-111.111111111111,4,2,1,54,0,0
189100,-111.111111111111,4,2,1,55,0,0
189194,-133.333333333333,4,2,1,56,0,0
189288,-133.333333333333,4,2,1,57,0,0
189382,-133.333333333333,4,2,1,58,0,0
189757,-95.2380952380952,4,2,1,65,0,1
201710,-95.2380952380952,4,2,1,65,0,0
201757,-95.2380952380952,4,2,1,65,0,1
213757,-100,4,2,1,60,0,0
225757,-100,4,2,1,40,0,0
225850,-100,4,2,1,30,0,0
227257,-100,4,2,1,25,0,0
228757,-100,4,2,1,20,0,0
229507,-100,4,2,1,15,0,0
230257,-100,4,2,1,10,0,0
230632,-100,4,2,99,15,0,0

[Colours]
Combo1 : 250,180,240
Combo2 : 120,200,230
Combo3 : 255,230,130
Combo4 : 160,230,150

[HitObjects]
244,11,4132,5,8,0:2:0:0:
189,102,4882,5,8,0:2:0:0:
250,193,5632,5,8,0:2:0:0:
130,296,6007,5,8,0:2:0:0:
130,296,6100,1,8,0:2:0:0:
130,296,6194,1,8,0:3:0:0:
130,296,6288,1,8,0:3:0:0:
130,296,6382,2,0,L|68:290,1,50.749998451233,12|0,0:2|3:2,0:0:0:0:
5,234,6757,6,0,P|-5:180|33:98,1,145,4|8,3:1|0:2,0:0:0:0:
84,41,7319,1,0,3:2:0:0:
104,134,7507,2,0,B|181:141|164:88|256:93,1,145,2|8,3:2|0:2,0:0:0:0:
301,42,8069,1,0,3:2:0:0:
347,120,8257,2,0,P|354:190|321:253,1,145,2|8,3:2|0:2,0:0:0:0:
329,332,8819,1,0,3:2:0:0:
428,372,9007,2,0,L|519:362,1,72.5,2|0,3:2|3:2,0:0:0:0:
407,288,9382,2,0,L|498:278,1,72.5,8|0,0:2|3:2,0:0:0:0:
407,197,9757,6,0,P|425:154|378:41,1,145,2|8,3:2|0:2,0:0:0:0:
342,8,10319,1,0,3:2:0:0:
289,69,10507,1,2,3:2:0:0:
289,69,10694,1,0,3:2:0:0:
215,37,10882,2,0,P|173:22|134:17,1,72.5,8|0,0:2|3:2,0:0:0:0:
79,90,11257,2,0,P|27:139|16:209,1,145,2|8,3:2|0:2,0:0:0:0:
0,287,11819,1,0,3:2:0:0:
67,350,12007,2,0,B|226:334,1,145,2|8,3:2|0:2,0:0:0:0:
310,378,12569,5,0,1:2:0:0:
310,378,12663,1,0,1:2:0:0:
310,378,12757,2,0,B|286:305|331:313|300:216,1,145,2|8,3:2|0:2,0:0:0:0:
260,169,13319,1,0,3:2:0:0:
228,258,13507,2,0,P|175:268|92:197,1,145,2|8,3:2|0:2,0:0:0:0:
32,259,14069,1,0,3:2:0:0:
0,177,14257,2,0,L|33:32,1,145,2|8,3:2|0:2,0:0:0:0:
109,15,14819,1,0,3:2:0:0:
168,84,15007,2,0,P|218:78|245:64,1,72.5,2|0,3:2|3:2,0:0:0:0:
311,12,15382,2,0,P|361:18|388:32,1,72.5,8|0,0:2|3:2,0:0:0:0:
461,112,15757,6,0,B|473:164|473:164|458:199|458:199|468:253,1,145,2|8,3:2|0:2,0:0:0:0:
489,328,16319,1,0,3:2:0:0:
407,372,16507,2,0,B|250:352,1,145,2|8,3:2|0:2,0:0:0:0:
156,374,17069,5,0,3:2:0:0:
156,374,17163,1,0,3:2:0:0:
156,374,17257,2,0,P|160:336|180:289,1,72.5,10|0,0:2|3:2,0:0:0:0:
233,241,17632,2,0,L|305:236,1,72.5,0|8,3:2|2:3,0:0:0:0:
195,162,18007,1,0,3:3:0:0:
114,194,18194,1,0,3:3:0:0:
57,127,18382,2,0,B|34:87|46:32|46:32|20:54|23:93,1,145,4|4,0:2|0:1,0:0:0:0:
118,199,19132,5,8,0:2:0:0:
118,199,19319,2,0,P|180:172|241:173,1,108.750004148483,2|0,2:2|3:2,0:0:0:0:
292,208,19882,1,8,0:2:0:0:
292,208,20069,2,0,L|267:337,1,108.750004148483,2|0,0:2|3:2,0:0:0:0:
325,375,20632,1,8,0:2:0:0:
325,375,20819,2,0,P|350:373|384:359,1,54.3750020742417,2|0,0:2|3:2,0:0:0:0:
453,372,21194,2,0,P|451:347|437:313,1,54.3750020742417,2|8,3:2|0:2,0:0:0:0:
450,244,21569,2,0,P|425:246|391:260,1,54.3750020742417,2|0,0:2|3:2,0:0:0:0:
295,188,22132,5,8,0:2:0:0:
295,188,22319,2,0,P|238:198|184:158,1,108.750004148483,2|0,0:2|3:2,0:0:0:0:
136,220,22882,1,8,0:2:0:0:
136,220,23069,2,0,L|150:93,1,108.750004148483,2|0,0:2|3:2,0:0:0:0:
98,53,23632,1,8,0:2:0:0:
98,53,23819,2,0,P|149:62|214:31,1,108.750004148483,2|0,0:2|3:2,0:0:0:0:
268,6,24382,1,8,0:2:0:0:
333,45,24569,2,0,P|356:98|340:161,1,108.750004148483,2|0,0:2|0:2,0:0:0:0:
290,196,25132,2,0,L|167:201,2,108.750004148483,10|0|8,0:2|3:2|0:2,0:0:0:0:
349,244,26069,2,0,P|375:250|410:241,1,54.3750020742417,2|0,0:2|3:2,0:0:0:0:
499,150,26632,5,8,0:2:0:0:
499,150,26819,2,0,L|479:34,1,108.750004148483,2|0,0:2|3:2,0:0:0:0:
408,18,27382,1,8,0:2:0:0:
408,18,27569,2,0,P|373:46|297:33,1,108.750004148483,2|0,0:2|0:2,0:0:0:0:
244,79,28132,2,0,P|200:48|147:54,2,108.750004148483,10|0|8,0:2|3:2|0:2,0:0:0:0:
282,211,29257,5,2,3:2:0:0:
282,211,29444,1,0,3:2:0:0:
223,272,29632,2,0,B|193:285|162:278|162:278|135:253|88:241,1,130.499996017456,12|2,0:2|3:2,0:0:0:0:
31,190,30194,2,0,L|-8:202,2,32.624999004364,8|8|8,0:2|0:2|0:3,0:0:0:0:
93,130,30569,1,8,0:2:0:0:
93,130,30663,1,8,0:2:0:0:
93,130,30757,2,0,B|85:111|85:111|88:93|88:93|80:51,1,65.2499980087281,4|0,3:2|2:2,0:0:0:0:
168,2,31132,5,8,0:2:0:0:
221,59,31319,2,0,B|253:85|297:71|297:71|312:48|349:32,1,130.499996017456,2|0,0:2|3:2,0:0:0:0:
427,4,31882,1,8,0:2:0:0:
478,62,32069,2,0,P|495:129|472:195,1,130.499996017456,2|0,0:2|3:2,0:0:0:0:
421,259,32632,1,8,0:2:0:0:
356,215,32819,2,0,P|286:189|208:193,1,130.499996017456,2|0,0:2|3:2,0:0:0:0:
133,212,33382,1,8,0:2:0:0:
165,145,33569,1,2,2:2:0:0:
165,145,33663,1,2,2:2:0:0:
165,145,33757,1,0,3:2:0:0:
195,302,34132,5,8,0:2:0:0:
264,338,34319,2,0,P|328:335|389:311,1,130.499996017456,2|0,0:2|3:2,0:0:0:0:
465,369,34882,1,8,0:2:0:0:
507,303,35069,2,0,P|510:256|492:155,1,130.499996017456,2|0,0:2|3:2,0:0:0:0:
502,86,35632,2,0,P|472:98|440:104,1,65.2499980087281,10|0,0:2|0:2,0:0:0:0:
367,57,36007,1,2,3:2:0:0:
367,57,36194,1,0,3:2:0:0:
335,144,36382,1,8,0:2:0:0:
267,62,36569,6,0,P|223:45|144:80,1,130.499996017456,2|0,0:2|0:2,0:0:0:0:
118,178,37132,2,0,P|74:195|-5:160,2,130.499996017456,10|0|8,0:2|3:2|0:2,0:0:0:0:
163,113,38069,2,0,P|165:72|183:28,1,65.2499980087281,2|0,0:2|3:2,0:0:0:0:
327,8,38632,5,8,0:2:0:0:
377,71,38819,2,0,P|387:107|366:214,1,130.499996017456,2|0,0:2|3:2,0:0:0:0:
301,266,39382,1,8,0:2:0:0:
239,218,39569,2,0,P|201:203|105:213,1,130.499996017456,2|0,0:2|2:2,0:0:0:0:
109,303,40132,2,0,P|147:318|243:308,1,130.499996017456,10|0,0:2|3:2,0:0:0:0:
301,266,40694,1,0,3:2:0:0:
317,358,40882,1,8,0:2:0:0:
464,247,41257,5,0,3:2:0:0:
464,247,41444,1,0,3:2:0:0:
443,336,41632,1,12,0:2:0:0:
352,181,42007,5,0,3:2:0:0:
352,181,42194,1,0,3:2:0:0:
362,272,42382,1,12,0:2:0:0:
256,192,42757,6,0,P|176:175|87:182,2,163.125006222725,6|4|8,3:2|3:2|0:2,0:0:0:0:
256,192,44257,2,0,P|336:209|425:202,1,163.125006222725,6|4,3:2|3:2,0:0:0:0:
417,203,45194,2,0,L|430:128,1,54.3750020742417,8|4,0:3|0:3,0:0:0:0:
381,63,45569,5,8,0:3:0:0:
381,63,45663,1,8,0:3:0:0:
381,63,45757,2,0,B|294:57|332:-1|235:4,2,163.125006222725,6|4|8,3:2|3:2|0:2,0:0:0:0:
452,38,47069,1,0,3:2:0:0:
504,124,47257,6,0,P|511:173|493:239,1,108.750004148483,6|0,3:2|0:2,0:0:0:0:
409,266,47819,2,0,P|365:248|288:243,1,108.750004148483,4|0,3:2|1:2,0:0:0:0:
302,249,48288,1,0,1:2:0:0:
300,257,48382,2,0,B|285:327,1,54.3750020742417,8|0,0:2|0:2,0:0:0:0:
188,352,48757,6,0,P|121:362|19:324,2,163.125006222725,6|4|8,3:2|3:2|0:2,0:0:0:0:
188,352,50257,2,0,P|268:343|344:370,1,163.125006222725,6|4,3:2|3:2,0:0:0:0:
344,370,51194,2,0,L|361:292,1,54.3750020742417,8|4,0:2|0:3,0:0:0:0:
445,249,51569,5,8,0:3:0:0:
445,249,51663,1,8,0:3:0:0:
445,249,51757,2,0,B|480:253|480:253|529:226,1,72.5,6|0,3:2|3:2,0:0:0:0:
438,159,52132,2,0,B|452:126|452:126|442:72,1,72.5,10|0,0:2|3:2,0:0:0:0:
350,137,52507,2,0,B|324:113|324:113|268:106,1,72.5,2|0,3:2|3:2,0:0:0:0:
301,213,52882,2,0,B|270:230|270:230|246:280,1,72.5,10|0,0:2|3:2,0:0:0:0:
184,169,53257,6,0,B|184:133|184:133|152:87,1,72.5,14|0,0:2|3:2,0:0:0:0:
86,205,53632,2,0,B|85:240|85:240|117:286,1,72.5,14|0,0:2|3:2,0:0:0:0:
171,349,54007,1,14,0:2:0:0:
258,297,54194,1,0,3:2:0:0:
258,297,54288,1,0,3:2:0:0:
258,297,54382,2,0,B|295:284|295:284|347:299,1,72.5,8|0,0:2|3:2,0:0:0:0:
400,368,54757,6,0,P|431:304|414:233,1,145,4|8,3:1|2:2,0:0:0:0:
348,178,55319,2,0,L|263:189,1,72.5,2|0,3:2|3:2,0:0:0:0:
206,240,55694,2,0,L|134:230,1,72.5,2|8,3:2|0:2,0:0:0:0:
47,282,56069,5,2,3:2:0:0:
0,207,56257,1,0,3:2:0:0:
66,151,56444,2,0,P|80:101|74:51,1,72.5,2|8,3:2|0:2,0:0:0:0:
165,151,56819,2,0,B|250:146|214:98|318:98,1,145,2|0,3:2|3:2,0:0:0:0:
318,184,57382,2,0,P|356:195|398:189,1,72.5,8|0,0:2|3:2,0:0:0:0:
470,116,57757,6,0,B|507:144|507:144|483:271,1,145,2|8,3:2|0:2,0:0:0:0:
430,342,58319,2,0,P|471:330|520:329,1,72.5,2|0,3:2|3:2,0:0:0:0:
403,259,58694,2,0,P|362:242|329:240,1,72.5,2|8,3:2|0:2,0:0:0:0:
245,298,59069,5,2,3:2:0:0:
200,224,59257,1,0,3:2:0:0:
246,153,59444,2,0,P|279:143|337:140,1,72.5,2|8,3:2|0:2,0:0:0:0:
363,65,59819,2,0,P|355:98|328:150,1,72.5,2|0,3:2|3:2,0:0:0:0:
380,210,60194,2,0,P|354:186|323:137,1,72.5,2|8,3:2|2:2,0:0:0:0:
271,60,60569,5,0,3:2:0:0:
271,60,60663,1,8,3:2:0:0:
271,60,60757,2,0,P|249:30|223:5,1,72.5,2|0,3:2|3:2,0:0:0:0:
178,84,61132,2,0,P|143:70|107:64,1,72.5,10|0,0:2|3:2,0:0:0:0:
113,154,61507,2,0,P|76:161|43:175,1,72.5,2|0,3:2|3:2,0:0:0:0:
96,248,61882,2,0,P|69:274|33:383,1,145,10|2,0:2|3:2,0:0:0:0:
208,291,62632,5,8,0:2:0:0:
270,351,62819,2,0,P|305:349|354:337,1,72.5,2|0,3:2|3:2,0:0:0:0:
423,310,63194,2,0,L|440:402,2,72.5,2|8|0,3:2|0:2|3:2,0:0:0:0:
442,217,63757,6,0,P|474:226|523:231,1,72.5,2|0,3:2|3:2,0:0:0:0:
468,133,64132,2,0,P|477:101|482:52,1,72.5,10|0,0:2|3:2,0:0:0:0:
384,107,64507,2,0,P|352:98|303:93,1,72.5,2|0,3:2|3:2,0:0:0:0:
358,191,64882,2,0,B|325:252|377:263|347:332,1,145,10|2,0:2|3:2,0:0:0:0:
168,384,65632,5,10,0:2:0:0:
117,316,65819,1,0,3:2:0:0:
188,269,66007,1,12,0:2:0:0:
136,206,66194,1,0,1:2:0:0:
136,206,66288,1,0,1:2:0:0:
136,206,66382,2,0,L|60:189,1,72.5,0|0,1:2|1:2,0:0:0:0:
194,136,66757,6,0,P|221:85|325:86,1,145,6|8,3:2|0:2,0:0:0:0:
399,97,67319,2,0,P|393:60|390:16,1,72.5,2|0,3:2|3:2,0:0:0:0:
302,92,67694,2,0,P|299:128|293:163,1,72.5,2|8,3:2|0:2,0:0:0:0:
211,226,68069,5,2,3:2:0:0:
130,190,68257,1,0,3:2:0:0:
52,231,68444,2,0,P|46:266|43:302,1,72.5,2|8,3:2|0:2,0:0:0:0:
100,368,68819,2,0,P|180:352|263:355,1,145,2|0,3:2|3:2,0:0:0:0:
327,373,69382,2,0,P|367:378|401:377,1,72.5,8|0,0:2|3:2,0:0:0:0:
498,316,69757,5,2,3:2:0:0:
498,316,69944,2,0,L|488:230,1,72.5,0|8,3:2|0:2,0:0:0:0:
403,206,70319,2,0,L|394:278,1,72.5,2|0,3:2|3:2,0:0:0:0:
315,324,70694,2,0,L|306:251,1,72.5,2|8,3:2|0:2,0:0:0:0:
234,175,71069,5,2,3:2:0:0:
154,210,71257,1,0,3:2:0:0:
87,154,71444,2,0,L|95:81,1,72.5,2|8,3:2|2:2,0:0:0:0:
176,21,71819,2,0,L|184:93,1,72.5,2|0,3:2|3:2,0:0:0:0:
263,154,72194,2,0,L|271:81,1,72.5,2|8,3:2|0:2,0:0:0:0:
363,16,72569,5,0,3:2:0:0:
363,16,72663,1,8,3:2:0:0:
363,16,72757,2,0,P|413:13|443:-5,1,72.5,2|0,3:2|3:2,0:0:0:0:
497,61,73132,2,0,P|500:111|518:141,1,72.5,10|0,0:2|3:2,0:0:0:0:
452,195,73507,2,0,P|402:198|372:216,1,72.5,2|0,3:2|3:2,0:0:0:0:
318,150,73882,2,0,P|315:100|219:55,1,145,10|2,0:2|3:2,0:0:0:0:
79,5,74632,5,8,0:2:0:0:
22,70,74819,2,0,P|13:122|24:153,1,72.5,2|0,3:2|3:2,0:0:0:0:
89,206,75194,2,0,P|45:221|9:251,2,72.5,2|8|2,3:2|0:2|3:2,0:0:0:0:
161,289,75757,6,0,L|172:368,1,72.5,2|0,3:2|3:2,0:0:0:0:
267,377,76132,2,0,L|256:298,1,72.5,10|0,0:2|3:2,0:0:0:0:
344,265,76507,2,0,L|355:344,1,72.5,2|0,3:2|3:2,0:0:0:0:
450,353,76882,2,0,L|439:274,1,72.5,10|0,2:2|3:2,0:0:0:0:
512,212,77257,5,6,3:2:0:0:
427,191,77444,1,8,0:2:0:0:
459,110,77632,2,0,B|466:76|466:76|451:35,1,72.5,10|0,0:2|3:2,0:0:0:0:
363,2,78007,1,12,0:2:0:0:
307,78,78194,1,8,0:3:0:0:
307,78,78288,1,8,0:3:0:0:
307,78,78382,2,0,B|273:85|273:85|230:66,1,72.5,8|4,0:2|0:3,0:0:0:0:
141,19,78757,6,0,P|79:28|59:120,1,145,4|8,3:1|0:2,0:0:0:0:
6,162,79319,1,0,3:2:0:0:
85,206,79507,2,0,B|244:189,1,145,2|8,3:2|0:2,0:0:0:0:
284,245,80069,1,0,3:2:0:0:
349,184,80257,2,0,B|368:110|315:111|334:38,1,145,2|8,3:2|0:2,0:0:0:0:
399,2,80819,1,0,3:2:0:0:
440,84,81007,2,0,L|531:74,1,72.5,2|0,3:2|3:2,0:0:0:0:
440,166,81382,2,0,L|512:158,1,72.5,8|0,0:2|3:2,0:0:0:0:
450,250,81757,6,0,P|438:298|351:315,1,145,2|8,3:2|0:2,0:0:0:0:
289,268,82319,1,0,3:2:0:0:
235,327,82507,1,2,3:2:0:0:
235,327,82694,1,0,3:2:0:0:
171,278,82882,2,0,P|163:243|169:193,1,72.5,8|0,0:2|3:2,0:0:0:0:
238,134,83257,2,0,L|400:117,1,145,2|8,3:2|0:2,0:0:0:0:
447,74,83819,1,0,3:2:0:0:
379,9,84007,2,0,L|217:26,1,145,2|8,3:2|0:2,0:0:0:0:
150,97,84569,5,0,1:2:0:0:
150,97,84663,1,0,1:2:0:0:
150,97,84757,2,0,P|60:98|29:160,1,145,2|8,3:2|0:2,0:0:0:0:
3,209,85319,1,0,3:2:0:0:
71,273,85507,2,0,L|233:245,1,145,2|8,3:2|0:2,0:0:0:0:
278,205,86069,1,0,3:2:0:0:
279,293,86257,2,0,L|441:321,1,145,2|8,3:2|0:2,0:0:0:0:
472,376,86819,1,0,3:2:0:0:
512,286,87007,2,0,P|510:253|495:208,1,72.5,2|0,3:2|3:2,0:0:0:0:
410,231,87382,2,0,P|399:199|373:160,1,72.5,8|0,0:2|3:2,0:0:0:0:
270,153,87757,6,0,P|202:177|113:146,1,145,2|8,3:2|0:2,0:0:0:0:
68,117,88319,1,0,3:2:0:0:
123,40,88507,2,0,P|191:16|280:47,1,145,2|8,3:2|0:2,0:0:0:0:
354,100,89069,5,0,3:2:0:0:
354,100,89163,1,0,3:2:0:0:
354,100,89257,2,0,L|431:87,1,72.5,10|0,0:2|3:2,0:0:0:0:
338,197,89632,2,0,L|409:184,1,72.5,0|8,3:2|2:3,0:0:0:0:
269,136,90007,1,0,3:3:0:0:
231,214,90194,1,0,3:3:0:0:
159,163,90382,2,0,B|117:116|47:140|47:140|86:163,1,145,4|4,0:2|0:1,0:0:0:0:
201,356,101257,6,0,P|207:307|164:259,1,108.750004148483,2|0,3:2|3:2,0:0:0:0:
97,228,101819,2,0,B|27:236,1,54.3750020742417,2|8,0:2|0:2,0:0:0:0:
85,147,102194,1,8,0:2:0:0:
85,147,102288,1,8,0:2:0:0:
85,147,102382,2,0,P|80:94|114:53,1,108.750004148483,8|4,0:3|3:2,0:0:0:0:
259,7,103132,5,8,0:2:0:0:
279,82,103319,2,0,B|286:136|286:136|275:159|275:159|282:208,1,130.499996017456,2|0,0:2|3:2,0:0:0:0:
249,294,103882,1,8,0:2:0:0:
307,345,104069,2,0,P|363:357|442:324,1,130.499996017456,2|0,0:2|3:2,0:0:0:0:
498,271,104632,1,8,0:2:0:0:
457,204,104819,2,0,B|450:155|450:155|461:127|461:127|453:77,1,130.499996017456,2|0,0:2|3:2,0:0:0:0:
379,3,105382,1,8,0:2:0:0:
376,87,105569,1,2,2:2:0:0:
376,87,105663,1,2,2:2:0:0:
376,87,105757,1,0,3:2:0:0:
236,16,106132,5,8,0:2:0:0:
179,69,106319,2,0,P|161:113|176:212,1,130.499996017456,2|0,0:2|3:2,0:0:0:0:
242,254,106882,1,8,0:2:0:0:
312,221,107069,2,0,P|377:206|444:216,1,130.499996017456,2|0,0:2|3:2,0:0:0:0:
499,287,107632,1,8,0:2:0:0:
450,348,107819,2,0,P|385:363|318:353,1,130.499996017456,2|0,0:2|3:2,0:0:0:0:
256,288,108382,5,8,0:2:0:0:
300,224,108569,2,0,P|316:163|290:89,1,130.499996017456,2|0,0:2|0:2,0:0:0:0:
230,59,109132,2,0,L|99:67,2,130.499996017456,10|0|8,0:2|3:2|0:2,0:0:0:0:
297,99,110069,2,0,L|369:107,1,65.2499980087281,2|0,0:2|3:2,0:0:0:0:
481,33,110632,5,8,0:2:0:0:
505,106,110819,2,0,P|513:151|484:238,1,130.499996017456,2|0,0:2|3:2,0:0:0:0:
428,301,111382,1,8,0:2:0:0:
358,264,111569,2,0,P|319:247|228:249,1,130.499996017456,2|0,0:2|2:2,0:0:0:0:
187,342,112132,2,0,P|122:347|61:325,1,130.499996017456,10|0,0:2|3:2,0:0:0:0:
0,266,112694,1,0,3:2:0:0:
58,204,112882,1,8,0:2:0:0:
235,252,113257,5,0,3:2:0:0:
235,252,113444,1,0,3:2:0:0:
212,163,113632,1,12,0:2:0:0:
352,217,114007,5,0,3:2:0:0:
352,217,114194,1,0,3:2:0:0:
375,128,114382,1,12,0:2:0:0:
256,56,114757,6,0,P|190:39|87:46,2,163.125006222725,6|4|8,3:2|3:2|0:2,0:0:0:0:
256,56,116257,2,0,P|322:73|425:66,1,163.125006222725,6|4,3:2|3:2,0:0:0:0:
416,68,117194,2,0,L|403:127,1,54.3750020742417,8|4,0:3|0:3,0:0:0:0:
337,184,117569,5,8,0:3:0:0:
337,184,117663,1,8,0:3:0:0:
337,184,117757,2,0,B|270:169|270:169|243:179|243:179|158:176,2,163.125006222725,6|4|8,3:2|3:2|0:2,0:0:0:0:
414,160,119069,1,0,3:2:0:0:
479,229,119257,6,0,P|486:278|468:344,1,108.750004148483,6|0,3:2|0:2,0:0:0:0:
405,371,119819,2,0,L|278:354,1,108.750004148483,4|0,3:2|1:2,0:0:0:0:
288,356,120288,1,0,1:2:0:0:
279,357,120382,2,0,L|264:286,1,54.3750020742417,8|0,0:2|0:2,0:0:0:0:
191,227,120757,6,0,P|121:237|22:199,2,163.125006222725,6|4|8,3:2|3:2|0:2,0:0:0:0:
191,227,122257,2,0,P|261:217|360:255,1,163.125006222725,6|4,3:2|3:2,0:0:0:0:
347,245,123194,2,0,P|371:247|405:234,1,54.3750020742417,8|4,0:2|0:3,0:0:0:0:
479,163,123569,5,8,0:3:0:0:
479,163,123663,1,8,0:3:0:0:
479,163,123757,2,0,L|463:72,1,72.5,6|0,3:2|3:2,0:0:0:0:
390,35,124132,2,0,L|374:126,1,72.5,10|0,0:2|3:2,0:0:0:0:
300,179,124507,2,0,L|284:88,1,72.5,2|0,3:2|3:2,0:0:0:0:
206,57,124882,2,0,L|190:148,1,72.5,10|0,0:2|3:2,0:0:0:0:
106,196,125257,6,0,P|71:206|35:207,1,72.5,14|0,0:2|3:2,0:0:0:0:
135,287,125632,2,0,P|171:287|205:298,1,72.5,14|0,0:2|3:2,0:0:0:0:
280,361,126007,1,14,0:2:0:0:
365,314,126194,1,0,3:2:0:0:
365,314,126288,1,0,3:2:0:0:
365,314,126382,2,0,P|376:279|372:236,1,72.5,8|0,0:2|3:2,0:0:0:0:
313,163,126757,6,0,B|245:193|245:193|179:164,1,145,4|8,3:1|0:0,0:0:0:0:
126,233,127319,2,0,P|92:233|41:244,1,72.5,2|0,3:2|3:2,0:0:0:0:
1,170,127694,2,0,P|6:131|19:96,1,72.5,2|8,3:2|0:2,0:0:0:0:
99,15,128069,5,2,3:2:0:0:
156,80,128257,1,0,3:2:0:0:
234,43,128444,2,0,P|272:31|309:30,1,72.5,2|8,3:2|0:2,0:0:0:0:
386,60,128819,2,0,B|373:130|429:133|413:198,1,145,2|0,3:2|3:2,0:0:0:0:
343,250,129382,2,0,P|308:239|269:235,1,72.5,8|0,0:2|3:2,0:0:0:0:
175,287,129757,6,0,L|104:301,2,72.5,2|0|8,3:2|3:0|0:0,0:0:0:0:
230,353,130319,2,0,P|264:363|304:368,1,72.5,2|0,3:2|3:2,0:0:0:0:
387,379,130694,2,0,P|391:342|406:294,1,72.5,2|8,3:2|0:2,0:0:0:0:
495,248,131069,5,2,3:2:0:0:
431,188,131257,1,0,3:2:0:0:
350,220,131444,2,0,P|314:215|279:205,1,72.5,2|8,3:2|0:2,0:0:0:0:
231,132,131819,2,0,P|235:96|245:61,1,72.5,2|0,3:2|3:2,0:0:0:0:
315,9,132194,2,0,P|350:13|385:23,1,72.5,2|8,3:2|2:2,0:0:0:0:
442,121,132569,5,0,3:2:0:0:
442,121,132663,1,8,3:2:0:0:
442,121,132757,2,0,P|477:116|512:106,1,72.5,2|0,3:2|3:2,0:0:0:0:
477,205,133132,2,0,P|442:210|407:220,1,72.5,10|0,0:2|3:2,0:0:0:0:
341,142,133507,2,0,P|306:137|271:127,1,72.5,2|0,3:2|3:2,0:0:0:0:
180,161,133882,2,0,P|123:159|23:209,1,145,10|2,0:2|3:2,0:0:0:0:
0,350,134632,5,8,0:2:0:0:
83,372,134819,2,0,P|118:370|167:350,1,72.5,2|0,3:2|3:2,0:0:0:0:
229,314,135194,2,0,L|248:404,2,72.5,2|8|0,3:2|0:2|3:2,0:0:0:0:
277,230,135757,6,0,P|240:227|206:216,1,72.5,2|0,3:2|3:2,0:0:0:0:
134,264,136132,2,0,P|124:229|125:192,1,72.5,10|0,0:2|3:2,0:0:0:0:
57,138,136507,2,0,P|87:118|122:108,1,72.5,2|0,3:2|3:2,0:0:0:0:
153,26,136882,2,0,B|184:39|204:76|204:76|236:53|273:53,1,145,10|2,0:2|3:2,0:0:0:0:
350,121,137444,6,0,L|335:170,2,36.25,0|0|0,1:0|1:0|1:2,0:0:0:0:
415,63,137819,2,0,L|430:14,2,36.25,0|0|0,1:0|1:0|1:2,0:0:0:0:
444,154,138194,1,0,1:2:0:0:
444,154,138288,1,0,1:2:0:0:
444,154,138382,2,0,P|488:170|527:155,1,72.5,0|0,1:2|1:2,0:0:0:0:
415,240,138757,6,0,B|341:211|342:261|273:232,1,145,6|8,3:2|0:2,0:0:0:0:
199,186,139319,2,0,P|199:159|188:113,1,72.5,2|0,3:2|3:2,0:0:0:0:
105,182,139694,2,0,P|105:209|116:255,1,72.5,2|8,3:2|0:2,0:0:0:0:
183,329,140069,5,2,3:2:0:0:
262,293,140257,1,0,3:2:0:0:
325,352,140444,2,0,B|359:359|359:359|395:348,1,72.5,2|8,3:2|0:2,0:0:0:0:
478,373,140819,2,0,B|457:304|500:310|480:230,1,145,2|0,3:2|3:2,0:0:0:0:
507,147,141382,2,0,B|470:155|470:155|437:143,1,72.5,8|0,0:2|3:2,0:0:0:0:
336,94,141757,5,2,3:2:0:0:
306,175,141944,2,0,L|316:261,1,72.5,0|8,3:2|0:2,0:0:0:0:
272,323,142319,2,0,P|235:332|191:326,1,72.5,2|0,3:2|3:2,0:0:0:0:
124,286,142694,2,0,L|114:200,1,72.5,2|8,3:2|0:2,0:0:0:0:
34,152,143069,5,2,3:2:0:0:
101,97,143257,1,0,3:2:0:0:
180,131,143444,2,0,P|215:133|250:125,1,72.5,2|8,3:2|2:2,0:0:0:0:
329,87,143819,2,0,L|321:15,1,72.5,2|0,3:2|3:2,0:0:0:0:
406,42,144194,2,0,P|441:39|476:47,1,72.5,2|8,3:2|0:2,0:0:0:0:
512,148,144569,5,0,3:2:0:0:
512,148,144663,1,8,3:2:0:0:
512,148,144757,2,0,L|504:220,1,72.5,2|0,3:2|3:2,0:0:0:0:
416,272,145132,2,0,L|408:200,1,72.5,10|0,0:2|3:2,0:0:0:0:
318,150,145507,2,0,L|310:222,1,72.5,2|0,3:2|3:2,0:0:0:0:
232,262,145882,2,0,B|156:268|186:220|89:225,1,145,10|2,0:2|3:2,0:0:0:0:
0,358,146632,5,8,0:2:0:0:
0,358,146819,2,0,L|82:342,1,72.5,2|0,3:2|3:2,0:0:0:0:
163,361,147194,2,0,L|234:348,1,72.5,2|8,3:2|0:2,0:0:0:0:
322,383,147569,1,2,3:2:0:0:
400,308,147757,6,0,P|410:271|401:228,1,72.5,2|0,3:2|3:2,0:0:0:0:
328,182,148132,2,0,L|248:170,1,72.5,10|0,0:2|3:2,0:0:0:0:
172,219,148507,2,0,L|92:207,1,72.5,2|0,3:2|3:2,0:0:0:0:
35,149,148882,2,0,P|30:113|40:78,1,72.5,10|0,2:2|3:2,0:0:0:0:
132,10,149257,5,6,3:2:0:0:
180,81,149444,1,8,0:2:0:0:
255,37,149632,2,0,B|290:27|290:27|335:32,1,72.5,10|0,0:2|3:2,0:0:0:0:
401,87,150007,1,12,0:2:0:0:
346,165,150194,1,8,0:3:0:0:
346,165,150288,1,8,0:3:0:0:
346,165,150382,2,0,B|311:175|311:175|266:170,1,72.5,8|4,0:2|0:3,0:0:0:0:
184,117,150757,6,0,P|126:126|108:226,2,145,4|4|8,3:1|3:2|0:2,0:0:0:0:
243,190,151694,2,0,B|248:274,1,72.5,2|4,3:2|0:2,0:0:0:0:
194,341,152069,1,2,3:2:0:0:
281,376,152257,2,0,L|433:367,2,145,4|4|8,0:2|3:2|0:2,0:0:0:0:
194,341,153194,1,0,3:2:0:0:
247,262,153382,2,0,P|253:238|258:200,3,36.25,0|0|0|0,3:2|3:2|3:2|3:2,0:0:0:0:
246,195,153757,6,0,P|189:177|84:182,2,145,4|4|8,3:1|3:2|0:2,0:0:0:0:
311,262,154694,2,0,P|355:261|399:249,1,72.5,2|4,3:2|0:2,0:0:0:0:
469,293,155069,1,2,3:2:0:0:
512,210,155257,2,0,P|508:158|498:135,1,72.5,4|0,3:2|0:2,0:0:0:0:
413,102,155632,2,0,L|246:90,1,145,4|0,3:2|0:2,0:0:0:0:
268,91,156382,2,0,B|258:67|258:67|260:54|260:54|246:14,1,72.5,4|0,3:2|0:2,0:0:0:0:
159,60,156757,6,0,P|105:38|5:56,2,145,4|4|8,3:1|3:2|0:2,0:0:0:0:
185,150,157694,2,0,B|165:237,1,72.5,2|4,3:2|0:2,0:0:0:0:
217,301,158069,1,2,3:2:0:0:
306,269,158257,2,0,P|376:257|444:281,2,145,4|4|8,3:2|3:2|0:2,0:0:0:0:
217,301,159194,1,0,3:2:0:0:
168,220,159382,2,0,P|165:198|170:170,3,36.25,0|0|0|0,3:2|3:2|3:2|3:2,0:0:0:0:
188,142,159757,6,0,P|210:73|197:3,2,145,4|4|8,3:1|3:2|0:2,0:0:0:0:
102,181,160694,2,0,P|65:165|11:158,1,72.5,2|4,3:2|0:2,0:0:0:0:
57,256,161069,1,2,3:2:0:0:
57,256,161257,2,0,P|41:293|34:347,1,72.5,4|0,3:2|0:2,0:0:0:0:
132,301,161632,2,0,P|169:317|223:324,1,72.5,4|0,3:2|0:2,0:0:0:0:
282,280,162007,6,0,B|280:252|280:252|271:228|271:228|278:208|278:208|271:189|271:189|278:128,1,145,8|8,0:2|0:2,0:0:0:0:
256,192,162507,12,6,165757,3:2:0:0:
256,192,168757,5,4,3:2:0:0:
256,192,171757,5,4,3:2:0:0:
256,192,174757,5,4,3:2:0:0:
155,356,177757,6,0,P|92:358|43:328,1,108.750004148483,2|0,3:2|3:2,0:0:0:0:
12,272,178319,2,0,L|45:159,1,108.750004148483,2|2,0:2|0:2,0:0:0:0:
158,97,179069,1,2,0:2:0:0:
158,97,179257,2,0,P|206:119|260:115,1,108.750004148483,0|0,3:2|3:2,0:0:0:0:
323,71,179819,2,0,P|323:35|330:-6,1,54.3750020742417,2|0,0:2|3:2,0:0:0:0:
401,20,180194,2,0,P|401:56|394:97,1,54.3750020742417,2|0,0:2|3:2,0:0:0:0:
265,147,180757,5,2,3:2:0:0:
265,147,180944,2,0,P|229:132|195:129,1,54.3750020742417,0|0,0:2|3:2,0:0:0:0:
141,152,181319,2,0,P|116:206|121:273,1,108.750004148483,2|2,0:2|0:2,0:0:0:0:
214,361,182069,1,2,0:2:0:0:
214,361,182257,2,0,L|327:347,1,108.750004148483,0|0,3:2|3:2,0:0:0:0:
394,368,182819,2,0,L|454:375,1,54.3750020742417,2|0,0:2|3:2,0:0:0:0:
500,318,183194,2,0,P|505:274|502:250,1,54.3750020742417,2|0,0:2|3:2,0:0:0:0:
406,146,183757,6,0,B|400:107|400:107|409:86|409:86|400:30,1,108.750004148483,2|0,3:2|3:2,0:0:0:0:
271,118,184507,2,0,B|265:79|265:79|274:58|274:58|265:2,2,108.750004148483,0|0|0,3:2|3:2|3:2,0:0:0:0:
175,237,185632,5,2,3:2:0:0:
175,237,185819,2,0,B|104:225,1,54.3750020742417,0|0,0:2|3:2,0:0:0:0:
55,189,186194,2,0,P|44:145|71:78,1,108.750004148483,2|2,0:2|0:2,0:0:0:0:
119,34,186757,2,0,L|231:26,1,108.750004148483,0|0,3:2|3:2,0:0:0:0:
363,95,187507,2,0,L|475:103,2,108.750004148483,0|0|0,3:2|3:2|3:2,0:0:0:0:
189,37,188632,5,2,3:2:0:0:
156,108,188819,1,2,0:2:0:0:
110,43,189007,2,0,P|96:36|76:32,4,32.624999004364,0|0|0|0|0,1:2|1:2|1:2|1:2|1:2,0:0:0:0:
280,108,189757,6,0,B|359:106|330:68|423:61,1,152.249995353699,4|8,3:1|0:0,0:0:0:0:
437,147,190319,2,0,P|482:150|524:160,1,76.1249976768494,2|0,3:2|3:2,0:0:0:0:
502,246,190694,2,0,P|457:243|415:233,1,76.1249976768494,2|8,3:2|0:2,0:0:0:0:
345,287,191069,5,2,3:2:0:0:
287,220,191257,1,0,3:2:0:0:
242,295,191444,2,0,L|246:375,1,76.1249976768494,2|8,3:2|0:2,0:0:0:0:
159,305,191819,2,0,B|65:277|108:334|-3:306,1,152.249995353699,2|0,3:2|3:2,0:0:0:0:
4,221,192382,2,0,L|21:135,1,76.1249976768494,8|0,0:2|3:2,0:0:0:0:
88,66,192757,6,0,B|103:89|129:100|129:100|178:67|235:73,1,152.249995353699,2|8,3:2|0:0,0:0:0:0:
301,108,193319,2,0,P|312:74|303:24,1,76.1249976768494,2|0,3:2|3:2,0:0:0:0:
221,72,193694,2,0,P|209:108|214:145,1,76.1249976768494,2|8,3:2|0:2,0:0:0:0:
306,201,194069,5,2,3:2:0:0:
387,168,194257,1,0,3:2:0:0:
449,228,194444,2,0,P|460:264|455:301,1,76.1249976768494,2|8,3:2|0:2,0:0:0:0:
390,360,194819,2,0,L|308:349,1,76.1249976768494,2|0,3:2|3:2,0:0:0:0:
232,382,195194,2,0,P|227:344|238:308,1,76.1249976768494,2|8,3:2|2:2,0:0:0:0:
310,209,195569,5,0,3:2:0:0:
310,209,195663,1,8,3:2:0:0:
310,209,195757,2,0,L|395:201,1,76.1249976768494,2|0,3:2|3:2,0:0:0:0:
446,138,196132,2,0,L|438:62,1,76.1249976768494,10|0,0:2|3:2,0:0:0:0:
375,2,196507,2,0,L|299:9,1,76.1249976768494,2|0,3:2|3:2,0:0:0:0:
239,73,196882,2,0,B|247:149|247:149|148:160,1,152.249995353699,10|2,0:2|3:2,0:0:0:0:
57,48,197632,5,8,0:2:0:0:
16,125,197819,2,0,P|9:172|16:210,1,76.1249976768494,2|0,3:2|3:2,0:0:0:0:
54,277,198194,2,0,L|41:370,2,76.1249976768494,2|8|0,3:2|0:2|3:2,0:0:0:0:
127,211,198757,6,0,P|160:201|210:201,1,76.1249976768494,2|0,3:2|3:2,0:0:0:0:
265,270,199132,2,0,P|239:246|214:203,1,76.1249976768494,10|0,0:2|3:2,0:0:0:0:
248,121,199507,2,0,P|240:154|215:197,1,76.1249976768494,2|0,3:2|3:2,0:0:0:0:
109,212,199882,2,0,B|71:169|4:190|4:190|16:213|42:222,1,152.249995353699,10|2,0:2|3:2,0:0:0:0:
226,210,200632,5,10,0:2:0:0:
276,281,200819,1,0,3:2:0:0:
331,213,201007,1,12,0:2:0:0:
382,295,201194,1,0,1:2:0:0:
382,295,201288,1,0,1:2:0:0:
382,295,201382,2,0,B|419:305|419:305|454:292,1,76.1249976768494,0|0,1:2|1:2,0:0:0:0:
507,203,201757,6,0,B|493:150|493:150|501:121|501:121|481:35,1,152.249995353699,6|8,3:2|0:2,0:0:0:0:
410,100,202319,2,0,P|368:98|333:86,1,76.1249976768494,2|0,3:2|3:2,0:0:0:0:
292,11,202694,2,0,P|250:13|215:25,1,76.1249976768494,2|8,3:2|0:2,0:0:0:0:
141,85,203069,5,2,3:2:0:0:
63,43,203257,1,0,3:2:0:0:
8,111,203444,2,0,L|15:193,1,76.1249976768494,2|8,3:2|0:2,0:0:0:0:
87,234,203819,2,0,B|154:219|154:219|189:240|234:235,1,152.249995353699,2|0,3:2|3:2,0:0:0:0:
300,176,204382,2,0,L|306:100,1,76.1249976768494,8|0,0:2|3:2,0:0:0:0:
393,24,204757,6,0,P|460:29|488:111,1,152.249995353699,2|8,3:2|0:2,0:0:0:0:
512,196,205319,2,0,P|472:182|425:176,1,76.1249976768494,2|0,3:2|3:2,0:0:0:0:
409,259,205694,2,0,P|371:265|335:278,1,76.1249976768494,2|8,3:2|0:2,0:0:0:0:
262,352,206069,5,2,3:2:0:0:
215,277,206257,1,0,3:2:0:0:
265,205,206444,2,0,P|270:168|267:130,1,76.1249976768494,2|8,3:2|2:2,0:0:0:0:
215,58,206819,2,0,P|181:41|144:32,1,76.1249976768494,2|0,3:2|3:2,0:0:0:0:
59,60,207194,2,0,P|33:86|13:119,1,76.1249976768494,2|8,3:2|0:2,0:0:0:0:
6,229,207569,5,0,3:2:0:0:
6,229,207663,1,8,3:2:0:0:
6,229,207757,2,0,L|13:317,1,76.1249976768494,2|0,3:2|3:2,0:0:0:0:
98,348,208132,2,0,L|104:272,1,76.1249976768494,10|0,0:2|3:2,0:0:0:0:
191,230,208507,2,0,L|198:318,1,76.1249976768494,2|0,3:2|3:2,0:0:0:0:
275,364,208882,2,0,P|355:376|433:346,1,152.249995353699,10|2,0:2|3:2,0:0:0:0:
501,197,209632,5,8,0:2:0:0:
420,164,209819,2,0,L|408:87,1,76.1249976768494,2|0,3:2|3:2,0:0:0:0:
321,74,210194,2,0,L|309:-1,2,76.1249976768494,2|8|2,3:2|0:2|3:2,0:0:0:0:
236,139,210757,6,0,P|198:140|153:123,1,76.1249976768494,2|0,3:2|3:2,0:0:0:0:
86,172,211132,2,0,P|87:209|70:255,1,76.1249976768494,10|0,0:2|3:2,0:0:0:0:
119,321,211507,2,0,P|157:320|202:337,1,76.1249976768494,2|0,3:2|3:2,0:0:0:0:
269,288,211882,2,0,P|268:250|285:205,1,76.1249976768494,10|0,2:2|3:2,0:0:0:0:
365,157,212257,5,6,3:2:0:0:
438,222,212444,1,8,0:2:0:0:
508,151,212632,2,0,B|519:115|519:115|506:73,1,76.1249976768494,10|0,0:2|3:2,0:0:0:0:
430,15,213007,1,12,0:2:0:0:
349,67,213194,1,8,0:3:0:0:
349,67,213288,1,8,0:3:0:0:
349,67,213382,2,0,B|310:78|310:78|270:65,1,76.1249976768494,8|4,0:2|0:3,0:0:0:0:
181,16,213757,6,0,B|132:33|132:33|148:135,1,145,4|8,3:1|0:2,0:0:0:0:
96,186,214319,1,0,3:2:0:0:
183,242,214507,2,0,B|231:240|264:196|264:196|317:191,1,145,2|8,3:2|0:2,0:0:0:0:
370,137,215069,1,0,3:2:0:0:
449,201,215257,2,0,P|465:241|442:344,1,145,2|8,3:2|0:2,0:0:0:0:
378,380,215819,1,0,3:2:0:0:
304,319,216007,2,0,L|294:241,1,72.5,2|0,3:2|3:2,0:0:0:0:
208,204,216382,2,0,L|198:275,1,72.5,8|0,0:2|3:2,0:0:0:0:
118,350,216757,6,0,P|48:352|10:286,1,145,2|8,3:2|0:2,0:0:0:0:
13,214,217319,1,0,3:2:0:0:
102,172,217507,2,0,L|255:156,1,145,2|8,3:2|0:2,0:0:0:0:
315,224,218069,2,0,B|302:310,2,72.5,2|0|0,3:2|3:0|3:0,0:0:0:0:
385,154,218632,1,8,0:0:0:0:
385,154,218819,2,0,P|393:113|377:64,1,72.5,2|0,3:2|3:0,0:0:0:0:
301,27,219194,1,2,3:2:0:0:
301,27,219382,2,0,L|210:36,1,72.5,8|0,0:2|0:0,0:0:0:0:
224,44,219663,1,0,1:2:0:0:
218,53,219757,6,0,B|138:66|158:12|61:28,1,145,2|8,3:2|0:2,0:0:0:0:
18,77,220319,1,0,3:2:0:0:
42,163,220507,2,0,B|50:222|50:222|41:246|41:246|51:304,1,145,2|8,3:2|0:2,0:0:0:0:
96,370,221069,1,0,3:2:0:0:
154,290,221257,2,0,B|164:231|164:231|155:207|155:207|163:148,1,145,2|8,3:2|0:2,0:0:0:0:
210,84,221819,1,0,3:2:0:0:
249,166,222007,2,0,P|287:174|322:171,1,72.5,2|0,3:2|3:2,0:0:0:0:
376,114,222382,2,0,L|393:30,1,72.5,8|0,0:2|3:2,0:0:0:0:
487,6,222757,6,0,P|512:72|497:142,1,145,2|8,3:2|0:2,0:0:0:0:
502,222,223319,1,0,3:2:0:0:
424,268,223507,2,0,B|281:237,1,145,2|8,3:2|0:2,0:0:0:0:
195,156,224069,5,0,3:2:0:0:
195,156,224163,1,0,3:2:0:0:
195,156,224257,2,0,P|194:109|175:72,1,72.5,10|0,0:2|3:2,0:0:0:0:
93,145,224632,2,0,P|94:192|113:229,1,72.5,0|8,3:2|2:3,0:0:0:0:
171,281,225007,1,0,3:3:0:0:
257,243,225194,1,0,3:3:0:0:
304,324,225382,2,0,B|323:353|366:350|366:350|403:324|445:330,1,145,4|6,0:2|0:2,0:0:0:0:
256,192,225850,12,2,230632,0:2:0:0:
