osu file format v14

[General]
AudioFilename: audio.mp3
AudioLeadIn: 0
PreviewTime: 54710
Countdown: 0
SampleSet: Soft
StackLeniency: 0.7
Mode: 0
LetterboxInBreaks: 0
WidescreenStoryboard: 1

[Editor]
Bookmarks: 6757,6850,18757,30757,41257,42757,51757,54757,66757,78757,90757,101257,102757,113257,114757,123757,126757,138757,150757,162757,165757,177757,189757,199507,201757,213757,225757
DistanceSpacing: 1
BeatDivisor: 4
GridSize: 32
TimelineZoom: 1.8

[Metadata]
Title:Brand-new color!!
TitleUnicode:Brand-new color!!
Artist:Primary
ArtistUnicode:Primary
Creator:Lasse
Version:Affection
Source:
Tags:yuiko -1 minus one meis clauson japanese pop rock yuikonnu ゆいこんぬ
BeatmapID:3048496
BeatmapSetID:1486843

[Difficulty]
HPDrainRate:6
CircleSize:4
OverallDifficulty:8
ApproachRate:8
SliderMultiplier:1.8
SliderTickRate:1

[Events]
//Background and Video events
0,0,"1.jpg",0,0
//Break Periods
2,90957,100507
2,165957,168007
2,168957,171007
2,171957,174007
2,174957,177007
//Storyboard Layer 0 (Background)
//Storyboard Layer 1 (Fail)
//Storyboard Layer 2 (Pass)
//Storyboard Layer 3 (Foreground)
//Storyboard Layer 4 (Overlay)
//Storyboard Sound Samples

[TimingPoints]
757,375,4,2,1,60,1,0
757,-142.857142857143,4,2,1,60,0,0
6757,-100,4,2,1,60,0,0
18757,-133.333333333333,4,2,1,45,0,0
29257,-133.333333333333,4,2,1,48,0,0
30757,-111.111111111111,4,2,1,50,0,0
41632,-111.111111111111,4,2,1,55,0,0
42007,-111.111111111111,4,2,1,50,0,0
42382,-111.111111111111,4,2,1,55,0,0
42757,-133.333333333333,4,2,1,50,0,0
48194,-133.333333333333,4,2,1,45,0,0
48757,-133.333333333333,4,2,1,50,0,0
51569,-100,4,2,1,50,0,0
51757,-100,4,2,1,55,0,0
53257,-100,4,2,1,60,0,0
54757,-100,4,2,1,65,0,1
66710,-100,4,2,1,65,0,0
66757,-100,4,2,1,65,0,1
78757,-100,4,2,1,60,0,0
90757,-166.666666666667,4,2,1,45,0,0
101257,-133.333333333333,4,2,1,45,0,0
102757,-111.111111111111,4,2,1,50,0,0
113632,-111.111111111111,4,2,1,55,0,0
114007,-111.111111111111,4,2,1,50,0,0
114382,-111.111111111111,4,2,1,55,0,0
114757,-133.333333333333,4,2,1,50,0,0
120194,-133.333333333333,4,2,1,45,0,0
120757,-133.333333333333,4,2,1,50,0,0
123569,-100,4,2,1,50,0,0
123757,-100,4,2,1,55,0,0
125257,-100,4,2,1,60,0,0
126757,-100,4,2,1,65,0,1
138710,-100,4,2,1,65,0,0
138757,-100,4,2,1,65,0,1
150757,-100,4,2,1,60,0,0
156007,-100,4,2,1,50,0,0
156382,-100,4,2,1,55,0,0
156757,-100,4,2,1,62,0,0
162507,-100,4,2,1,50,0,0
163507,-100,4,2,1,40,0,0
164257,-100,4,2,1,30,0,0
165007,-100,4,2,1,20,0,0
165382,-100,4,2,1,10,0,0
165757,-100,4,2,99,45,0,0
168757,-100,4,2,1,45,0,0
177757,-133.333333333333,4,2,1,45,0,0
188632,-133.333333333333,4,2,1,50,0,0
189007,-133.333333333333,4,2,1,54,0,0
189100,-133.333333333333,4,2,1,55,0,0
189194,-133.333333333333,4,2,1,56,0,0
189288,-133.333333333333,4,2,1,57,0,0
189382,-133.333333333333,4,2,1,58,0,0
189757,-90.9090909090909,4,2,1,65,0,1
201710,-90.9090909090909,4,2,1,65,0,0
201757,-90.9090909090909,4,2,1,65,0,1
213757,-100,4,2,1,60,0,0
225757,-100,4,2,1,40,0,0
225850,-100,4,2,1,30,0,0
227257,-100,4,2,1,25,0,0
228757,-100,4,2,1,20,0,0
229507,-100,4,2,1,15,0,0
230257,-100,4,2,1,10,0,0
230632,-100,4,2,99,15,0,0

[Colours]
Combo1 : 250,180,240
Combo2 : 120,200,230
Combo3 : 255,230,130
Combo4 : 160,230,150

[HitObjects]
68,39,4132,5,8,0:2:0:0:
64,56,4882,5,8,0:2:0:0:
61,74,5632,5,8,0:2:0:0:
0,195,6007,5,8,0:2:0:0:
23,186,6100,1,8,0:2:0:0:
48,184,6194,1,8,0:3:0:0:
72,190,6288,1,8,0:3:0:0:
93,202,6382,2,0,B|125:205|163:194,1,62.9999980773926,12|0,0:2|3:2,0:2:0:0:
255,231,6757,6,0,B|346:206|461:213,1,180,4|8,3:1|0:2,0:2:0:0:
383,342,7319,1,0,3:2:0:0:
461,293,7507,2,0,B|518:284|545:197|494:147,1,180,2|8,3:2|0:2,0:2:0:0:
396,20,8069,1,0,3:2:0:0:
315,50,8257,2,0,B|224:25|109:32,1,180,2|8,3:2|0:2,0:2:0:0:
51,110,8819,5,0,3:2:0:0:
137,135,9007,1,2,3:2:0:0:
139,224,9194,1,0,3:2:0:0:
54,254,9382,1,8,0:2:0:0:
0,183,9569,1,0,3:2:0:0:
155,241,9757,6,0,B|262:243|210:185|321:183,1,180,2|8,3:2|0:2,0:2:0:0:
391,130,10319,1,0,3:2:0:0:
469,175,10507,1,2,3:2:0:0:
395,227,10694,1,0,3:2:0:0:
319,183,10882,1,8,0:2:0:0:
383,316,11069,5,0,3:2:0:0:
306,363,11257,2,0,B|197:376|127:339,1,180,2|8,3:2|0:2,0:2:0:0:
25,204,11819,1,0,3:2:0:0:
0,301,12007,2,0,B|36:356|133:328|116:251,1,180,2|8,3:2|0:2,0:2:0:0:
234,107,12569,5,0,1:2:0:0:
234,107,12663,1,0,1:2:0:0:
234,107,12757,2,0,B|197:162|101:134|117:57,1,180,2|8,3:2|0:2,0:2:0:0:
296,9,13319,1,0,3:2:0:0:
360,71,13507,2,0,B|380:142|366:253,1,180,2|8,3:2|0:2,0:2:0:0:
243,364,14069,1,0,3:2:0:0:
179,302,14257,2,0,B|159:231|173:120,1,180,2|8,3:2|0:2,0:2:0:0:
228,54,14819,5,0,3:2:0:0:
95,89,15007,1,2,3:2:0:0:
262,161,15194,1,0,3:2:0:0:
87,221,15382,1,8,0:2:0:0:
179,302,15569,1,0,3:2:0:0:
281,257,15757,6,0,B|324:232|376:244|407:297|384:347,1,180,2|8,3:2|0:2,0:2:0:0:
466,383,16319,1,0,3:2:0:0:
499,299,16507,1,2,3:2:0:0:
466,215,16694,1,0,3:2:0:0:
500,131,16882,1,8,0:2:0:0:
475,38,17069,5,0,3:2:0:0:
475,38,17163,1,0,3:2:0:0:
475,38,17257,1,10,0:2:0:0:
379,126,17444,1,0,3:2:0:0:
300,2,17632,1,0,3:2:0:0:
191,121,17819,1,8,2:3:0:0:
300,89,18007,1,0,3:3:0:0:
201,219,18194,1,0,3:3:0:0:
127,45,18382,2,0,B|93:20|32:29|0:72|13:125,1,180,4|4,0:2|0:1,0:2:0:0:
129,346,19132,5,8,0:2:0:0:
129,346,19319,2,0,B|55:342|-4:379,1,135.000005149842,2|0,2:2|3:2,2:2:0:0:
55,269,19882,1,8,0:2:0:0:
129,218,20069,2,0,B|156:168|157:87,1,135.000005149842,2|0,0:2|3:2,0:2:0:0:
288,187,20632,1,8,0:2:0:0:
288,187,20819,2,0,B|252:187|223:203,1,67.5000025749208,2|0,0:2|3:2,0:2:0:0:
239,113,21194,2,0,B|256:81|257:48,1,67.5000025749208,2|8,3:2|0:2,0:2:0:0:
327,107,21569,2,0,B|345:137|373:155,1,67.5000025749208,2|0,0:2|3:2,0:2:0:0:
512,325,22132,5,8,0:2:0:0:
512,325,22319,2,0,B|473:304|420:321|416:383,1,135.000005149842,2|0,0:2|3:2,0:2:0:0:
337,358,22882,1,8,0:2:0:0:
367,282,23069,2,0,L|343:133,1,135.000005149842,2|0,0:2|3:2,0:2:0:0:
238,70,23632,1,8,0:2:0:0:
190,137,23819,2,0,B|128:160|56:148,1,135.000005149842,2|0,0:2|3:2,0:2:0:0:
57,148,24382,1,8,0:2:0:0:
143,244,24569,6,0,B|102:275|98:324|121:364,1,135.000005149842,2|0,0:2|0:2,0:2:0:0:
224,262,25132,2,0,B|248:303|244:352|203:383,2,135.000005149842,10|0|8,0:2|3:2|0:2,0:2:0:0:
150,223,26069,2,0,B|71:208,1,67.5000025749208,2|0,0:2|3:2,0:2:0:0:
249,61,26632,5,8,0:2:0:0:
249,61,26819,2,0,B|319:78|379:40,1,135.000005149842,2|0,0:2|3:2,0:2:0:0:
457,0,27382,1,8,0:2:0:0:
508,72,27569,2,0,B|526:135|514:205,1,135.000005149842,2|0,0:2|0:2,0:2:0:0:
432,265,28132,2,0,B|414:202|426:132,2,135.000005149842,10|0|8,0:2|3:2|0:2,0:2:0:0:
274,384,29257,5,2,3:2:0:0:
320,309,29444,1,0,3:2:0:0:
253,251,29632,2,0,B|221:244|172:238,1,67.5000025749208,12|0,0:2|0:2,0:2:0:0:
83,185,30007,5,2,3:2:0:0:
190,137,30194,1,8,0:2:0:0:
190,137,30288,1,8,0:2:0:0:
190,137,30382,1,8,0:3:0:0:
93,79,30569,1,8,0:2:0:0:
93,79,30663,1,8,0:2:0:0:
93,79,30757,2,0,B|95:36|108:0,1,80.9999975280763,4|0,3:2|2:2,0:2:0:0:
231,62,31132,5,8,0:2:0:0:
307,101,31319,2,0,B|398:107|369:53|464:60,1,161.999995056153,2|0,0:2|3:2,0:2:0:0:
512,155,31882,1,8,0:2:0:0:
457,225,32069,2,0,L|491:389,1,161.999995056153,2|0,0:2|3:2,0:2:0:0:
375,274,32632,1,8,0:2:0:0:
309,334,32819,2,0,B|229:371|151:326,1,161.999995056153,2|0,0:2|3:2,0:2:0:0:
75,284,33382,1,8,0:2:0:0:
29,363,33569,1,2,2:2:0:0:
29,363,33663,1,2,2:2:0:0:
29,363,33757,1,0,3:2:0:0:
164,242,34132,5,8,0:2:0:0:
116,151,34319,2,0,B|66:110|-7:149|0:209,1,161.999995056153,2|0,0:2|3:2,0:2:0:0:
164,242,34882,1,8,0:2:0:0:
235,180,35069,2,0,B|279:108|249:22,1,161.999995056153,2|0,0:2|3:2,0:2:0:0:
167,0,35632,5,10,0:2:0:0:
340,44,35819,1,0,0:2:0:0:
178,85,36007,1,2,3:2:0:0:
317,129,36194,1,0,3:2:0:0:
191,171,36382,1,8,0:2:0:0:
279,207,36569,6,0,B|337:234|345:301|300:359,1,161.999995056153,2|0,0:2|0:2,0:2:0:0:
131,242,37132,2,0,B|96:286|104:353|162:380,2,161.999995056153,10|0|8,0:2|3:2|0:2,0:2:0:0:
181,150,38069,2,0,L|171:64,1,80.9999975280763,2|0,0:2|3:2,0:2:0:0:
370,0,38632,5,8,0:2:0:0:
403,88,38819,2,0,B|454:126|527:83|510:4,1,161.999995056153,2|0,0:2|3:2,0:2:0:0:
370,0,39382,1,8,0:2:0:0:
321,106,39569,2,0,B|294:194|338:263,1,161.999995056153,2|0,0:2|2:2,0:2:0:0:
222,166,40132,2,0,B|171:204|98:161|115:82,1,161.999995056153,10|0,0:2|3:2,0:2:0:0:
110,10,40694,1,0,3:2:0:0:
20,12,40882,1,8,0:2:0:0:
150,217,41257,5,0,3:2:0:0:
150,217,41444,1,0,3:2:0:0:
0,274,41632,1,12,0:2:0:0:
296,367,42007,5,0,3:2:0:0:
296,367,42194,1,0,3:2:0:0:
124,320,42382,1,12,0:2:0:0:
256,256,42757,6,0,B|348:215|464:236,2,202.500007724762,6|4|8,3:2|3:2|0:2,0:2:0:0:
256,256,44257,2,0,B|164:297|48:276,1,202.500007724762,6|4,3:2|3:2,0:2:0:0:
223,182,45194,5,8,0:3:0:0:
258,97,45382,1,4,0:3:0:0:
190,36,45569,1,8,0:3:0:0:
190,36,45663,1,8,0:3:0:0:
190,36,45757,2,0,B|142:97|50:90|24:14,2,202.500007724762,6|4|8,3:2|3:2|0:2,0:2:0:0:
190,36,47069,1,0,3:2:0:0:
239,119,47257,6,0,L|226:254,1,135.000005149842,6|0,3:2|0:2,0:2:0:0:
311,327,47819,2,0,L|324:192,1,135.000005149842,4|0,3:2|1:2,0:2:0:0:
323,192,48288,1,0,1:2:0:0:
323,192,48382,2,0,B|357:196|407:194,1,67.5000025749208,8|0,0:2|0:2,0:2:0:0:
390,88,48757,6,0,B|464:68|528:125|512:201,2,202.500007724762,6|4|8,3:2|3:2|0:2,0:2:0:0:
274,9,50257,2,0,B|199:-10|135:46|151:122,1,202.500007724762,6|4,3:2|3:2,0:2:0:0:
59,323,51194,5,8,0:2:0:0:
139,374,51382,1,4,0:3:0:0:
226,321,51569,1,8,0:3:0:0:
226,321,51663,1,8,0:3:0:0:
226,321,51757,2,0,B|277:323|314:336,1,90,6|0,3:2|3:2,0:2:0:0:
286,63,52132,2,0,B|235:61|198:48,1,90,10|0,0:2|3:2,0:2:0:0:
385,223,52507,2,0,B|385:175|401:132,1,90,2|0,3:2|3:2,0:2:0:0:
127,161,52882,2,0,B|127:209|111:252,1,90,10|0,0:2|3:2,0:2:0:0:
310,350,53257,5,14,0:2:0:0:
209,383,53444,1,0,3:2:0:0:
299,253,53632,5,14,0:2:0:0:
403,349,53819,1,0,3:2:0:0:
327,164,54007,5,14,0:2:0:0:
209,270,54194,1,0,3:2:0:0:
209,270,54288,1,0,3:2:0:0:
209,270,54382,1,8,0:2:0:0:
175,114,54569,1,0,3:2:0:0:
103,58,54757,6,0,B|38:35|-20:109|19:174,1,180,4|8,3:1|2:2,0:2:0:0:
86,273,55319,2,0,B|37:271|-7:297,1,90,2|0,3:2|3:2,0:2:0:0:
190,218,55694,2,0,B|169:179|169:131,1,90,2|8,3:2|0:2,0:2:0:0:
311,36,56069,5,2,3:2:0:0:
371,108,56257,1,0,3:2:0:0:
460,86,56444,2,0,B|481:47|480:0,1,90,2|8,3:2|0:2,0:2:0:0:
360,130,56819,2,0,L|378:313,1,180,2|0,3:2|3:2,0:2:0:0:
315,377,57382,2,0,B|272:362|227:363,1,90,8|0,0:2|3:2,0:2:0:0:
113,229,57757,6,0,B|52:196|-17:243|0:312,1,180,2|8,3:2|0:2,0:2:0:0:
200,279,58319,2,0,L|209:181,1,90,2|0,3:2|3:2,0:2:0:0:
294,344,58694,2,0,L|303:246,1,90,2|8,3:2|0:2,0:2:0:0:
383,155,59069,5,2,3:2:0:0:
476,199,59257,1,0,3:2:0:0:
424,66,59444,2,0,B|468:66|516:51,1,90,2|8,3:2|0:2,0:2:0:0:
297,116,59819,2,0,B|252:102|208:102,1,90,2|0,3:2|3:2,0:2:0:0:
385,203,60194,2,0,B|398:291,1,90,2|8,3:2|2:2,0:2:0:0:
210,370,60569,5,0,3:2:0:0:
210,370,60663,1,8,3:2:0:0:
210,370,60757,2,0,B|166:370|121:356,1,90,2|0,3:2|3:2,0:2:0:0:
186,257,61132,2,0,B|230:257|275:271,1,90,10|0,0:2|3:2,0:2:0:0:
125,168,61507,2,0,B|80:182|36:182,1,90,2|0,3:2|3:2,0:2:0:0:
168,64,61882,2,0,B|242:-1|350:30,2,180,10|2|8,0:2|3:2|0:2,0:2:0:0:
46,101,62819,6,0,L|26:3,1,90,2|0,3:2|3:2,0:2:0:0:
113,213,63194,2,0,L|24:230,1,90,2|8,3:2|0:2,0:2:0:0:
0,316,63569,1,0,3:2:0:0:
122,369,63757,6,0,B|163:366|210:351,1,90,2|0,3:2|3:2,0:2:0:0:
243,223,64132,2,0,B|228:176|225:135,1,90,10|0,0:2|3:2,0:2:0:0:
362,53,64507,2,0,B|377:100|380:141,1,90,2|0,3:2|3:2,0:2:0:0:
425,274,64882,2,0,B|466:271|513:256,1,90,10|0,0:2|3:2,0:2:0:0:
454,378,65257,5,2,3:2:0:0:
454,378,65444,1,0,3:2:0:0:
318,219,65632,5,10,0:2:0:0:
264,358,65819,1,0,3:2:0:0:
124,304,66007,1,12,0:2:0:0:
54,362,66194,5,0,1:2:0:0:
39,339,66288,1,0,1:2:0:0:
32,312,66382,1,0,1:2:0:0:
35,285,66475,1,0,1:2:0:0:
45,260,66569,1,0,1:2:0:0:
62,240,66663,1,0,1:2:0:0:
85,223,66757,1,6,3:2:0:0:
11,160,66944,5,0,3:2:0:0:
103,123,67132,1,8,0:2:0:0:
177,186,67319,2,0,B|186:229|188:275,1,90,2|0,3:2|3:2,0:2:0:0:
335,198,67694,2,0,B|326:155|323:108,1,90,2|8,3:2|0:2,0:2:0:0:
447,203,68069,5,2,3:2:0:0:
510,127,68257,1,0,3:2:0:0:
460,41,68444,2,0,B|416:36|370:16,1,90,2|8,3:2|0:2,0:2:0:0:
240,155,68819,2,0,B|313:108|414:117,1,180,2|0,3:2|3:2,0:2:0:0:
351,226,69382,2,0,L|374:328,1,90,8|0,0:2|3:2,0:2:0:0:
180,377,69757,5,2,3:2:0:0:
251,314,69944,1,0,3:2:0:0:
160,284,70132,1,8,0:2:0:0:
231,220,70319,2,0,L|208:118,1,90,2|0,3:2|3:2,0:2:0:0:
43,217,70694,2,0,B|88:218|129:197,1,90,2|8,3:2|0:2,0:2:0:0:
266,28,71069,5,2,3:2:0:0:
229,120,71257,1,0,3:2:0:0:
321,155,71444,2,0,B|342:196|341:241,1,90,2|8,3:2|2:2,0:2:0:0:
254,307,71819,2,0,B|208:294|165:290,1,90,2|0,3:2|3:2,0:2:0:0:
346,366,72194,2,0,B|388:362|434:349,1,90,2|8,3:2|0:2,0:2:0:0:
512,224,72569,5,0,3:2:0:0:
512,224,72663,1,8,3:2:0:0:
512,224,72757,2,0,L|488:116,1,90,2|0,3:2|3:2,0:2:0:0:
343,81,73132,2,0,L|362:168,1,90,10|0,0:2|3:2,0:2:0:0:
260,291,73507,2,0,L|240:203,1,90,2|0,3:2|3:2,0:2:0:0:
159,95,73882,2,0,B|59:137|-1:56,2,180,10|2|8,0:2|3:2|0:2,0:2:0:0:
250,38,74819,6,0,B|287:18|341:16,1,90,2|0,3:2|3:2,0:2:0:0:
249,153,75194,2,0,B|269:190|271:244,1,90,2|8,3:2|0:2,0:2:0:0:
242,331,75569,1,2,3:2:0:0:
156,239,75757,6,0,L|34:225,1,90,2|0,3:2|3:2,0:2:0:0:
229,358,76132,2,0,L|107:344,1,90,10|0,0:2|3:2,0:2:0:0:
338,163,76507,2,0,L|216:149,1,90,2|0,3:2|3:2,0:2:0:0:
414,335,76882,2,0,L|292:321,1,90,10|0,2:2|3:2,0:2:0:0:
512,209,77257,5,6,3:2:0:0:
416,235,77444,1,8,0:2:0:0:
460,119,77632,1,10,0:2:0:0:
416,235,77819,1,0,3:2:0:0:
392,53,78007,1,12,0:2:0:0:
294,12,78194,5,8,0:3:0:0:
284,40,78287,1,8,0:3:0:0:
264,62,78381,1,8,0:2:0:0:
238,76,78475,1,8,0:2:0:0:
208,80,78569,1,4,0:3:0:0:
180,72,78662,1,4,0:3:0:0:
156,54,78757,2,0,B|94:23|28:69|47:143,1,180,4|8,3:1|0:2,0:2:0:0:
229,186,79319,5,0,3:2:0:0:
179,263,79507,2,0,B|93:260|0:279,1,180,2|8,3:2|0:2,0:2:0:0:
207,349,80069,1,0,3:2:0:0:
291,384,80257,2,0,B|377:387|469:367,1,180,2|8,3:2|0:2,0:2:0:0:
401,222,80819,5,0,3:2:0:0:
500,125,81007,1,2,3:2:0:0:
362,143,81194,1,0,3:2:0:0:
484,210,81382,1,8,0:2:0:0:
424,84,81569,1,0,3:2:0:0:
343,157,81757,6,0,B|238:145|289:97|181:91,1,180,2|8,3:2|0:2,0:2:0:0:
95,42,82319,1,0,3:2:0:0:
23,108,82507,1,2,3:2:0:0:
64,197,82694,1,0,3:2:0:0:
161,186,82882,1,8,0:2:0:0:
45,293,83069,5,0,3:2:0:0:
131,341,83257,2,0,B|216:370|305:317,1,180,2|8,3:2|0:2,0:2:0:0:
316,139,83819,1,0,3:2:0:0:
230,91,84007,2,0,B|145:62|56:115,1,180,2|8,3:2|0:2,0:2:0:0:
245,221,84569,5,0,1:2:0:0:
245,221,84663,1,0,1:2:0:0:
245,221,84757,2,0,B|330:250|419:197,1,180,2|8,3:2|0:2,0:2:0:0:
455,57,85319,1,0,3:2:0:0:
512,135,85507,2,0,B|490:332,1,180,2|8,3:2|0:2,0:2:0:0:
361,384,86069,1,0,3:2:0:0:
304,306,86257,2,0,B|326:109,1,180,2|8,3:2|0:2,0:2:0:0:
180,0,86819,5,0,3:2:0:0:
56,64,87007,1,2,3:2:0:0:
198,170,87194,1,0,3:2:0:0:
150,85,87382,1,8,0:2:0:0:
133,248,87569,1,0,3:2:0:0:
249,297,87757,6,0,B|326:271|442:287,1,180,2|8,3:2|0:2,0:2:0:0:
510,227,88319,1,0,3:2:0:0:
484,370,88507,1,2,3:2:0:0:
412,188,88694,1,0,3:2:0:0:
379,371,88882,1,8,0:2:0:0:
435,293,89069,5,0,3:2:0:0:
435,293,89163,1,0,3:2:0:0:
435,293,89257,1,10,0:2:0:0:
296,340,89444,1,0,3:2:0:0:
241,157,89632,1,0,3:2:0:0:
380,110,89819,1,8,2:3:0:0:
330,224,90007,1,0,3:3:0:0:
248,50,90194,1,0,3:3:0:0:
157,220,90382,2,0,B|123:245|62:236|30:193|43:140,1,180,4|4,0:2|0:1,0:2:0:0:
220,372,101257,6,0,B|238:315|187:303|212:234,1,135.000005149842,2|0,3:2|3:2,0:2:0:0:
139,344,101819,2,0,B|100:342|56:323,1,67.5000025749208,2|8,0:2|0:2,0:2:0:0:
286,271,102194,1,8,0:2:0:0:
309,266,102288,1,8,0:2:0:0:
332,268,102382,1,8,0:3:0:0:
354,274,102475,1,8,0:3:0:0:
370,291,102569,1,4,0:3:0:0:
389,304,102663,1,4,0:3:0:0:
415,314,102757,2,0,B|458:312|493:275,1,80.9999975280763,4|0,3:2|2:2,0:2:0:0:
512,151,103132,5,8,0:2:0:0:
445,82,103319,2,0,B|375:46|288:41,1,161.999995056153,2|0,0:2|3:2,0:2:0:0:
194,103,103882,1,8,0:2:0:0:
194,198,104069,2,0,L|228:362,1,161.999995056153,2|0,0:2|3:2,0:2:0:0:
284,228,104632,1,8,0:2:0:0:
130,297,104819,2,0,B|66:312|24:256|45:197,1,161.999995056153,2|0,0:2|3:2,0:2:0:0:
1,120,105382,1,8,0:2:0:0:
65,59,105569,1,2,2:2:0:0:
65,59,105663,1,2,2:2:0:0:
65,59,105757,1,0,3:2:0:0:
252,11,106132,5,8,0:2:0:0:
337,59,106319,2,0,B|425:70|506:22,1,161.999995056153,2|0,0:2|3:2,0:2:0:0:
426,140,106882,1,8,0:2:0:0:
511,183,107069,2,0,B|519:235|458:291|402:246,1,161.999995056153,2|0,0:2|3:2,0:2:0:0:
329,325,107632,5,8,0:2:0:0:
308,195,107819,1,2,0:2:0:0:
308,195,107913,1,2,0:0:0:0:
308,195,108007,1,0,3:2:0:0:
235,274,108194,1,0,3:2:0:0:
403,247,108382,1,8,0:2:0:0:
308,195,108569,6,0,B|275:116|337:113|297:16,1,161.999995056153,2|0,0:2|0:2,0:2:0:0:
213,152,109132,2,0,B|167:191|99:184|69:132,2,161.999995056153,10|0|8,0:2|3:2|0:2,0:2:0:0:
304,36,110069,2,0,B|343:23|384:14,1,80.9999975280763,2|0,0:2|3:2,0:2:0:0:
512,184,110632,5,8,0:2:0:0:
449,253,110819,2,0,B|367:269|296:215,1,161.999995056153,2|0,0:2|3:2,0:2:0:0:
206,125,111382,1,8,0:2:0:0:
175,223,111569,2,0,B|193:398,1,161.999995056153,2|0,0:2|2:2,0:2:0:0:
71,322,112132,2,0,B|14:339|-33:278|1:219,1,161.999995056153,10|0,0:2|3:2,0:2:0:0:
44,142,112694,1,0,3:2:0:0:
20,55,112882,1,8,0:2:0:0:
208,180,113257,5,0,3:2:0:0:
208,180,113444,1,0,3:2:0:0:
251,3,113632,1,12,0:2:0:0:
303,272,114007,5,0,3:2:0:0:
303,272,114194,1,0,3:2:0:0:
266,104,114382,1,12,0:2:0:0:
328,174,114757,6,0,B|441:212|513:130,2,202.500007724762,6|4|8,3:2|3:2|0:2,0:2:0:0:
184,210,116257,2,0,B|71:172|-1:254,1,202.500007724762,6|4,3:2|3:2,0:2:0:0:
187,298,117194,5,8,0:3:0:0:
151,379,117382,1,4,0:3:0:0:
280,337,117569,1,8,0:3:0:0:
280,337,117663,1,8,0:3:0:0:
280,337,117757,2,0,B|385:378|469:303,2,202.500007724762,6|4|8,3:2|3:2|0:2,0:2:0:0:
280,337,119069,1,0,3:2:0:0:
204,276,119257,6,0,L|217:141,1,135.000005149842,6|0,3:2|0:2,0:2:0:0:
314,259,119819,2,0,L|327:124,1,135.000005149842,4|0,3:2|1:2,0:2:0:0:
326,124,120288,1,0,1:2:0:0:
326,124,120382,2,0,B|361:136|411:122,1,67.5000025749208,8|0,0:2|0:2,0:2:0:0:
240,37,120757,6,0,B|113:9|157:77|34:42,2,202.500007724762,6|4|8,3:2|3:2|0:2,0:2:0:0:
315,228,122257,2,0,B|442:200|398:268|521:233,1,202.500007724762,6|4,3:2|3:2,0:2:0:0:
404,56,123194,5,8,0:2:0:0:
324,121,123382,1,4,0:3:0:0:
233,76,123569,1,8,0:3:0:0:
233,76,123663,1,8,0:3:0:0:
233,76,123757,2,0,B|190:59|145:59,1,90,6|0,3:2|3:2,0:2:0:0:
279,308,124132,2,0,B|322:325|366:324,1,90,10|0,0:2|3:2,0:2:0:0:
152,219,124507,2,0,B|152:263|135:306,1,90,2|0,3:2|3:2,0:2:0:0:
360,165,124882,2,0,B|359:120|376:77,1,90,10|0,0:2|3:2,0:2:0:0:
142,11,125257,5,14,0:2:0:0:
254,107,125444,1,0,3:2:0:0:
113,114,125632,5,14,0:2:0:0:
311,21,125819,1,0,3:2:0:0:
37,41,126007,5,14,0:2:0:0:
197,185,126194,1,0,3:2:0:0:
197,185,126288,1,0,3:2:0:0:
197,185,126382,2,0,B|212:231|209:273,1,90,8|0,0:2|3:2,0:0:0:0:
153,334,126757,5,4,3:1:0:0:
290,280,126944,1,0,3:0:0:0:
113,213,127132,1,8,0:0:0:0:
259,130,127319,2,0,B|262:88|247:42,1,90,2|0,3:2|3:2,0:2:0:0:
81,113,127694,2,0,L|172:99,1,90,2|8,3:2|0:2,0:2:0:0:
376,7,128069,5,2,3:2:0:0:
348,139,128257,1,0,3:2:0:0:
479,93,128444,2,0,B|482:135|467:181,1,90,2|8,3:2|0:2,0:2:0:0:
359,275,128819,2,0,B|408:329|476:320|515:263,1,180,2|0,3:2|3:2,0:2:0:0:
289,205,129382,2,0,B|337:181|383:177,1,90,8|0,0:2|3:2,0:2:0:0:
274,380,129757,5,2,3:2:0:0:
274,380,129944,2,0,B|267:330|244:295,1,90,0|8,3:0|0:0,0:0:0:0:
151,213,130319,2,0,B|105:208|65:185,1,90,2|0,3:2|3:2,0:2:0:0:
252,122,130694,2,0,B|267:82|265:33,1,90,2|8,3:2|0:2,0:2:0:0:
351,22,131069,5,2,3:2:0:0:
178,69,131257,1,0,3:2:0:0:
339,139,131444,2,0,B|381:126|428:128,1,90,2|8,3:2|0:2,0:2:0:0:
287,246,131819,2,0,B|240:244|197:256,1,90,2|0,3:2|3:2,0:2:0:0:
379,339,132194,2,0,B|426:341|468:328,1,90,2|8,3:2|2:2,0:2:0:0:
407,206,132569,5,0,3:2:0:0:
407,206,132663,1,8,3:2:0:0:
407,206,132757,2,0,B|398:117,1,90,2|0,3:2|3:2,0:2:0:0:
220,271,133132,2,0,B|268:273|316:288,1,90,10|0,0:2|3:2,0:2:0:0:
223,64,133507,2,0,B|271:62|319:47,1,90,2|0,3:2|3:2,0:2:0:0:
178,167,133882,2,0,B|87:130|95:198|-11:154,2,180,10|2|8,0:2|3:2|0:2,0:2:0:0:
228,268,134819,6,0,B|212:311|209:355,1,90,2|0,3:2|3:2,0:2:0:0:
284,116,135194,2,0,B|300:73|302:28,1,90,2|8,3:2|0:2,0:2:0:0:
256,192,135569,1,0,3:2:0:0:
331,249,135757,6,0,B|377:245|419:231,1,90,2|0,3:2|3:2,0:2:0:0:
181,135,136132,2,0,B|135:139|93:153,1,90,10|0,0:2|3:2,0:2:0:0:
319,116,136507,2,0,B|317:71|302:27,1,90,2|0,3:2|3:2,0:2:0:0:
193,268,136882,2,0,B|195:313|209:356,2,90,10|0|2,0:2|3:2|3:2,0:2:0:0:
256,192,137444,5,0,1:0:0:0:
256,192,137538,1,0,1:0:0:0:
256,192,137632,1,0,1:2:0:0:
118,108,137819,5,0,1:0:0:0:
118,108,137913,1,0,1:0:0:0:
118,108,138007,1,0,1:2:0:0:
266,24,138194,5,0,1:2:0:0:
293,37,138287,1,0,1:2:0:0:
322,44,138381,1,0,1:2:0:0:
352,45,138475,1,0,1:2:0:0:
382,40,138569,1,0,1:2:0:0:
409,29,138662,1,0,1:2:0:0:
434,12,138756,1,6,3:2:0:0:
394,123,138944,5,0,3:2:0:0:
499,146,139132,1,8,0:2:0:0:
426,225,139319,2,0,L|412:332,1,90,2|0,3:2|3:2,0:2:0:0:
323,194,139694,2,0,B|283:176|235:177,1,90,2|8,3:2|0:2,0:2:0:0:
99,132,140069,5,2,3:2:0:0:
54,220,140257,1,0,3:2:0:0:
115,297,140444,2,0,B|163:298|203:280,1,90,2|8,3:2|0:2,0:2:0:0:
361,172,140819,2,0,B|428:152|488:211|459:289,1,180,2|0,3:2|3:2,0:2:0:0:
511,381,141382,2,0,B|469:359|422:356,1,90,8|0,0:2|3:2,0:2:0:0:
254,279,141757,5,2,3:2:0:0:
198,362,141944,1,0,3:2:0:0:
104,322,142132,1,8,0:2:0:0:
160,239,142319,2,0,B|171:198|173:145,1,90,2|0,3:2|3:2,0:2:0:0:
323,341,142694,2,0,B|281:351|235:376,1,90,2|8,3:2|0:2,0:2:0:0:
387,211,143069,5,2,3:2:0:0:
469,266,143257,1,0,3:2:0:0:
505,174,143444,2,0,B|503:126|492:85,1,90,2|8,3:2|2:2,0:2:0:0:
361,13,143819,2,0,B|362:60|373:101,1,90,2|0,3:2|3:2,0:2:0:0:
280,233,144194,2,0,B|278:185|267:144,1,90,2|8,3:2|0:2,0:2:0:0:
174,69,144569,5,0,3:2:0:0:
174,69,144663,1,8,3:2:0:0:
174,69,144757,2,0,L|57:61,1,90,2|0,3:2|3:2,0:2:0:0:
267,144,145132,2,0,L|384:152,1,90,10|0,0:2|3:2,0:2:0:0:
145,229,145507,2,0,B|97:230|59:255,1,90,2|0,3:2|3:2,0:2:0:0:
262,341,145882,2,0,B|343:388|434:358,2,180,10|2|8,0:2|3:2|0:2,0:2:0:0:
145,274,146819,6,0,B|131:318|134:363,1,90,2|0,3:2|3:2,0:2:0:0:
247,230,147194,2,0,B|261:186|258:141,1,90,2|8,3:2|0:2,0:2:0:0:
214,50,147569,1,2,3:2:0:0:
150,190,147757,6,0,B|100:193|50:165,1,90,2|0,3:2|3:2,0:2:0:0:
275,134,148132,2,0,B|325:131|362:152,1,90,10|0,0:2|3:2,0:2:0:0:
129,88,148507,2,0,B|79:84|42:47,1,90,2|0,3:2|3:2,0:2:0:0:
292,20,148882,2,0,B|329:-1|379:2,1,90,10|0,2:2|3:2,0:2:0:0:
512,128,149257,5,6,3:2:0:0:
342,181,149444,1,8,0:2:0:0:
509,237,149632,1,10,0:2:0:0:
406,92,149819,1,0,3:2:0:0:
404,270,150007,1,12,0:2:0:0:
258,136,150194,5,8,0:3:0:0:
237,157,150287,1,8,0:3:0:0:
212,174,150381,1,8,0:2:0:0:
184,183,150475,1,8,0:2:0:0:
154,185,150569,1,4,0:3:0:0:
124,179,150662,1,4,0:3:0:0:
97,167,150757,2,0,B|37:141|-30:206|3:273,2,180,4|4|8,3:1|3:2|0:2,0:2:0:0:
145,345,151694,2,0,B|93:348|49:375,1,90,2|4,3:2|0:2,0:2:0:0:
272,200,152069,5,2,3:2:0:0:
359,267,152257,2,0,B|413:309|492:268|475:193,2,180,4|4|8,0:2|3:2|0:2,0:2:0:0:
272,200,153194,1,0,3:2:0:0:
329,106,153382,5,0,3:2:0:0:
334,93,153475,1,0,3:2:0:0:
339,80,153569,1,0,3:2:0:0:
344,67,153663,1,0,3:2:0:0:
349,54,153757,2,0,B|411:100|490:74|504:6,2,180,4|4|8,3:1|3:2|0:2,0:2:0:0:
246,190,154694,2,0,B|285:173|333:172,1,90,2|4,3:2|0:2,0:2:0:0:
198,14,155069,5,2,3:2:0:0:
87,73,155257,2,0,B|37:62|9:26,1,90,4|0,3:2|0:2,0:2:0:0:
152,190,155632,2,0,B|183:271|160:367,1,180,4|0,3:2|0:2,0:2:0:0:
160,367,156382,2,0,B|107:367|59:382,1,90,4|0,3:2|0:2,0:2:0:0:
222,273,156757,6,0,B|275:320|352:304|364:230,2,180,4|4|8,3:1|3:2|0:2,0:2:0:0:
310,160,157694,2,0,B|355:146|398:146,1,90,2|4,3:2|0:2,0:2:0:0:
232,28,158069,5,2,3:2:0:0:
140,107,158257,2,0,B|87:154|10:138|-2:64,2,180,4|4|8,3:2|3:2|0:2,0:2:0:0:
232,28,159194,1,0,3:2:0:0:
300,134,159382,5,0,3:2:0:0:
305,147,159475,1,0,3:2:0:0:
310,160,159569,1,0,3:2:0:0:
315,173,159663,1,0,3:2:0:0:
320,186,159757,2,0,B|422:228|494:150,2,180,4|4|8,3:1|3:2|0:2,0:2:0:0:
268,324,160694,2,0,B|306:302|359:301,1,90,2|4,3:2|0:2,0:2:0:0:
187,171,161069,5,2,3:2:0:0:
94,243,161257,2,0,B|40:249|9:224,1,90,4|0,3:2|0:2,0:2:0:0:
187,171,161632,2,0,B|182:125|204:79,1,90,4|0,3:2|0:2,0:2:0:0:
296,32,162007,5,8,0:2:0:0:
323,63,162132,1,8,0:3:0:0:
362,74,162257,1,4,0:3:0:0:
400,61,162382,1,8,0:2:0:0:
256,192,162507,12,6,165757,3:2:0:0:
425,251,168757,5,4,3:2:0:0:
300,337,171757,5,4,3:2:0:0:
216,196,174757,5,4,3:2:0:0:
163,337,177757,6,0,B|92:322|31:354,1,135.000005149842,2|0,3:2|3:2,0:2:0:0:
110,255,178319,2,0,B|129:225|134:186,1,67.5000025749208,2|0,0:2|3:2,0:2:0:0:
199,251,178694,2,0,B|215:282|246:306,1,67.5000025749208,2|0,0:2|3:2,0:2:0:0:
318,372,179069,1,2,0:2:0:0:
318,372,179257,2,0,B|379:339|449:354,1,135.000005149842,0|0,3:2|3:2,0:2:0:0:
512,290,179819,2,0,B|493:262|487:227,1,67.5000025749208,2|0,0:2|3:2,0:2:0:0:
437,148,180194,2,0,B|442:112|461:85,1,67.5000025749208,2|0,0:2|3:2,0:2:0:0:
258,41,180757,5,2,3:2:0:0:
258,41,180944,2,0,B|222:36|195:17,1,67.5000025749208,0|0,0:2|3:2,0:2:0:0:
130,70,181319,2,0,B|94:75|67:94,1,67.5000025749208,2|0,0:2|3:2,0:2:0:0:
199,127,181694,2,0,B|235:132|262:151,1,67.5000025749208,2|0,0:2|3:2,0:2:0:0:
134,185,182069,1,2,0:2:0:0:
134,185,182257,2,0,B|93:244|110:314,1,135.000005149842,0|0,3:2|3:2,0:2:0:0:
171,378,182819,2,0,B|204:361|248:363,1,67.5000025749208,2|0,0:2|3:2,0:2:0:0:
322,348,183194,2,0,B|354:346|387:363,1,67.5000025749208,2|0,0:2|3:2,0:2:0:0:
510,225,183757,6,0,B|527:155|486:96,2,135.000005149842,2|0|0,3:2|3:2|3:2,0:2:0:0:
454,287,184694,1,2,0:2:0:0:
371,307,184882,2,0,L|224:279,1,135.000005149842,0|0,3:2|3:2,0:2:0:0:
100,372,185632,5,2,3:2:0:0:
100,372,185819,2,0,B|97:339|114:299,1,67.5000025749208,0|0,0:2|3:2,0:2:0:0:
153,228,186194,2,0,B|156:195|141:162,1,67.5000025749208,2|0,0:2|3:2,0:2:0:0:
89,91,186569,1,2,0:2:0:0:
151,29,186757,2,0,B|219:11|285:20,1,135.000005149842,0|0,3:2|3:2,0:2:0:0:
355,73,187319,1,2,0:2:0:0:
300,141,187507,2,0,B|232:159|165:149,2,135.000005149842,0|0|0,3:2|3:2|3:2,0:2:0:0:
461,0,188632,5,2,3:2:0:0:
402,90,188819,1,2,0:2:0:0:
493,148,189007,1,0,1:2:0:0:
508,177,189100,1,0,1:2:0:0:
512,211,189194,1,0,1:2:0:0:
507,244,189288,1,0,1:2:0:0:
490,273,189382,1,0,1:2:0:0:
256,192,189757,5,4,3:1:0:0:
300,277,189944,1,0,3:0:0:0:
158,186,190132,1,8,0:0:0:0:
308,108,190319,2,0,B|340:71|338:14,1,99.0000030212403,2|0,3:2|3:2,0:2:0:0:
181,86,190694,2,0,B|127:80|76:117,1,99.0000030212403,2|8,3:2|0:2,0:2:0:0:
0,269,191069,5,2,3:2:0:0:
103,248,191257,1,0,3:2:0:0:
162,335,191444,2,0,B|217:342|267:304,1,99.0000030212403,2|8,3:2|0:2,0:2:0:0:
383,384,191819,2,0,L|362:181,1,198.000006042481,2|0,3:2|3:2,0:2:0:0:
421,109,192382,2,0,B|476:107|523:149,1,99.0000030212403,8|0,0:2|3:2,0:2:0:0:
342,201,192757,6,0,B|231:194|297:125|165:118,1,198.000006042481,2|8,3:2|0:0,0:0:0:0:
93,203,193319,2,0,B|41:202|-5:232,1,99.0000030212403,2|0,3:2|3:2,0:2:0:0:
202,347,193694,2,0,B|162:315|110:312,1,99.0000030212403,2|8,3:2|0:2,0:2:0:0:
306,237,194069,5,2,3:2:0:0:
358,376,194257,1,0,3:2:0:0:
476,286,194444,2,0,B|501:329|491:385,1,99.0000030212403,2|8,3:2|0:2,0:2:0:0:
403,215,194819,2,0,B|393:162|418:119,1,99.0000030212403,2|0,3:2|3:2,0:2:0:0:
300,260,195194,2,0,B|246:268|202:242,1,99.0000030212403,2|8,3:2|2:2,0:2:0:0:
126,148,195569,5,0,3:2:0:0:
126,148,195663,1,8,3:2:0:0:
126,148,195757,2,0,B|135:95|110:52,1,99.0000030212403,2|0,3:2|3:2,0:2:0:0:
279,181,196132,2,0,B|228:199|203:242,1,99.0000030212403,10|0,0:2|3:2,0:2:0:0:
232,32,196507,2,0,B|273:66|323:66,1,99.0000030212403,2|0,3:2|3:2,0:2:0:0:
208,122,196882,2,0,B|93:83|125:155|16:123,2,198.000006042481,10|2|8,0:2|3:2|0:2,0:2:0:0:
339,104,197819,6,0,B|340:54|360:8,1,99.0000030212403,2|0,3:2|3:2,0:2:0:0:
407,208,198194,2,0,B|459:209|503:228,1,99.0000030212403,2|8,3:2|0:2,0:2:0:0:
512,324,198569,1,0,3:2:0:0:
386,384,198757,6,0,B|331:382|289:354,1,99.0000030212403,2|0,3:2|3:2,0:2:0:0:
187,268,199132,2,0,B|132:270|90:298,1,99.0000030212403,10|0,0:2|3:2,0:2:0:0:
279,165,199507,2,0,B|334:163|376:135,1,99.0000030212403,2|0,3:2|3:2,0:2:0:0:
217,46,199882,2,0,B|178:20|123:18,1,99.0000030212403,10|0,0:2|3:2,0:2:0:0:
0,98,200257,5,2,3:2:0:0:
0,98,200444,1,0,3:2:0:0:
135,189,200632,5,10,0:2:0:0:
0,262,200819,1,0,3:2:0:0:
131,343,201007,1,12,0:2:0:0:
226,272,201194,5,0,1:2:0:0:
249,295,201287,1,0,1:2:0:0:
277,312,201381,1,0,1:2:0:0:
308,323,201475,1,0,1:2:0:0:
341,326,201569,1,0,1:2:0:0:
373,323,201662,1,0,1:2:0:0:
404,312,201756,1,6,3:2:0:0:
401,208,201944,5,0,3:2:0:0:
505,255,202132,1,8,0:2:0:0:
494,142,202319,2,0,B|516:35,1,99.0000030212403,2|0,3:2|3:2,0:2:0:0:
364,96,202694,2,0,B|319:73|259:75,1,99.0000030212403,2|8,3:2|0:2,0:2:0:0:
109,16,203069,5,2,3:2:0:0:
52,114,203257,1,0,3:2:0:0:
131,195,203444,2,0,B|182:197|227:177,1,99.0000030212403,2|8,3:2|0:2,0:2:0:0:
389,263,203819,2,0,B|437:244|488:264|514:329|476:378,1,198.000006042481,2|0,3:2|3:2,0:2:0:0:
286,323,204382,2,0,B|301:209,1,99.0000030212403,8|0,0:2|3:2,0:2:0:0:
396,63,204757,5,2,3:2:0:0:
428,156,204944,1,0,3:2:0:0:
493,82,205132,1,8,0:2:0:0:
331,137,205319,2,0,B|274:136|231:108,1,99.0000030212403,2|0,3:2|3:2,0:2:0:0:
83,116,205694,2,0,B|84:59|108:21,1,99.0000030212403,2|8,3:2|0:2,0:2:0:0:
178,200,206069,5,2,3:2:0:0:
77,242,206257,1,0,3:2:0:0:
162,308,206444,2,0,B|204:291|259:290,1,99.0000030212403,2|8,3:2|2:2,0:2:0:0:
437,287,206819,2,0,B|452:332|454:384,1,99.0000030212403,2|0,3:2|3:2,0:2:0:0:
316,215,207194,2,0,B|320:166|333:117,1,99.0000030212403,2|8,3:2|0:2,0:2:0:0:
409,43,207569,5,0,3:2:0:0:
409,43,207663,1,8,3:2:0:0:
409,43,207757,2,0,B|461:47|514:29,1,99.0000030212403,2|0,3:2|3:2,0:2:0:0:
332,117,208132,2,0,B|280:113|227:131,1,99.0000030212403,10|0,0:2|3:2,0:2:0:0:
406,226,208507,2,0,B|451:241|503:237,1,99.0000030212403,2|0,3:2|3:2,0:2:0:0:
319,319,208882,2,0,B|205:293|143:383,2,198.000006042481,10|2|8,0:2|3:2|0:2,0:2:0:0:
473,287,209819,6,0,B|460:335|461:385,1,99.0000030212403,2|0,3:2|3:2,0:2:0:0:
336,200,210194,2,0,B|385:201|433:189,1,99.0000030212403,2|8,3:2|0:2,0:2:0:0:
512,121,210569,1,2,3:2:0:0:
366,23,210757,6,0,B|316:22|268:35,1,99.0000030212403,2|0,3:2|3:2,0:2:0:0:
87,82,211132,2,0,B|86:132|99:180,1,99.0000030212403,10|0,0:2|3:2,0:2:0:0:
146,361,211507,2,0,B|196:362|244:349,1,99.0000030212403,2|0,3:2|3:2,0:2:0:0:
425,302,211882,2,0,B|426:252|413:204,1,99.0000030212403,10|0,2:2|3:2,0:2:0:0:
181,66,212257,5,6,3:2:0:0:
128,270,212444,1,8,0:2:0:0:
386,118,212632,1,10,0:2:0:0:
332,323,212819,1,0,3:2:0:0:
181,66,213007,1,12,0:2:0:0:
287,3,213194,5,8,0:3:0:0:
298,33,213287,1,8,0:3:0:0:
320,58,213381,1,8,0:2:0:0:
349,73,213475,1,8,0:2:0:0:
382,77,213569,1,4,0:3:0:0:
414,69,213662,1,4,0:3:0:0:
441,51,213757,2,0,B|502:35|555:109|512:170,1,180,4|8,3:1|0:2,0:2:0:0:
432,273,214319,5,0,3:2:0:0:
354,215,214507,2,0,B|269:181|174:198,1,180,2|8,3:2|0:2,0:2:0:0:
65,108,215069,1,0,3:2:0:0:
8,202,215257,2,0,B|-16:290|1:381,1,180,2|8,3:2|0:2,0:2:0:0:
129,328,215819,5,0,3:2:0:0:
225,233,216007,1,2,3:2:0:0:
259,364,216194,1,0,3:2:0:0:
225,233,216382,1,8,0:2:0:0:
259,364,216569,1,0,3:2:0:0:
347,281,216757,6,0,B|329:191|380:200|358:104,1,180,2|8,3:2|0:2,0:2:0:0:
305,21,217319,1,0,3:2:0:0:
269,149,217507,1,2,3:2:0:0:
216,66,217694,1,0,3:2:0:0:
359,104,217882,1,8,0:2:0:0:
216,66,218069,6,0,B|165:66|110:92,2,90,2|0|0,3:2|3:0|3:0,0:0:0:0:
359,104,218632,1,8,0:0:0:0:
420,172,218819,2,0,B|471:172|526:146,1,90,2|0,3:2|3:0,0:0:0:0:
269,149,219194,1,2,3:2:0:0:
246,236,219382,2,0,B|246:287|272:342,1,90,8|0,0:2|0:0,0:0:0:0:
274,338,219663,1,0,1:2:0:0:
288,348,219757,2,0,B|381:378|462:324,1,180,2|8,3:2|0:2,0:2:0:0:
512,166,220319,5,0,3:2:0:0:
419,114,220507,2,0,B|326:84|245:138,1,180,2|8,3:2|0:2,0:2:0:0:
161,237,221069,1,0,3:2:0:0:
91,178,221257,2,0,B|113:-19,1,180,2|8,3:2|0:2,0:2:0:0:
186,36,221819,5,0,3:2:0:0:
16,90,222007,1,2,3:2:0:0:
174,184,222194,1,0,3:2:0:0:
8,251,222382,1,8,0:2:0:0:
8,251,222569,1,0,3:2:0:0:
80,329,222757,6,0,B|164:301|258:310,1,180,2|8,3:2|0:2,0:2:0:0:
384,248,223319,1,0,3:2:0:0:
373,384,223507,1,2,3:2:0:0:
384,248,223694,1,0,3:2:0:0:
496,339,223882,1,8,0:2:0:0:
454,175,224069,5,0,3:2:0:0:
454,175,224163,1,0,3:2:0:0:
454,175,224257,1,10,0:2:0:0:
279,268,224444,1,0,3:2:0:0:
281,57,224632,1,0,3:2:0:0:
335,164,224819,5,8,2:3:0:0:
168,52,225007,1,0,3:3:0:0:
56,219,225194,1,0,3:3:0:0:
223,331,225382,2,0,B|294:318|336:315|427:315,1,180,4|6,0:2|0:2,0:2:0:0:
256,192,225850,12,2,230632,0:2:0:0:
