osu file format v14

[General]
AudioFilename: audio.mp3
AudioLeadIn: 0
PreviewTime: 63737
Countdown: 0
SampleSet: Soft
StackLeniency: 0.4
Mode: 0
LetterboxInBreaks: 0
WidescreenStoryboard: 0

[Editor]
DistanceSpacing: 1.1
BeatDivisor: 4
GridSize: 8
TimelineZoom: 1.999999

[Metadata]
Title:All your reasons
TitleUnicode:All your reasons
Artist:Primary
ArtistUnicode:Primary
Creator:keeVY
Version:Regret
Source:
Tags:japanese pop rock ゆいこんぬ female meis clauson yuikonnu yuiko from garden 11th album nao tomori naotoshi
BeatmapID:2835512
BeatmapSetID:1371427

[Difficulty]
HPDrainRate:6
CircleSize:4.2
OverallDifficulty:8
ApproachRate:8.7
SliderMultiplier:3.59999990463257
SliderTickRate:1

[Events]
//Background and Video events
0,0,"bg.jpg",0,0
//Break Periods
//Storyboard Layer 0 (Background)
//Storyboard Layer 1 (Fail)
//Storyboard Layer 2 (Pass)
//Storyboard Layer 3 (Foreground)
//Storyboard Layer 4 (Overlay)
//Storyboard Sound Samples

[TimingPoints]
-8584,714.285714285714,4,2,1,45,1,0
1416,-133.333333333333,4,2,1,45,0,0
2844,-100,4,2,1,85,0,1
13915,-100,4,2,1,90,0,0
14273,-100,4,2,1,85,0,1
24273,-100,4,2,2,85,0,1
24362,-100,4,2,1,85,0,1
25032,-100,4,2,1,55,0,1
25165,-100,4,2,1,85,0,1
25389,-100,4,2,1,55,0,1
25523,-100,4,2,1,85,0,1
25701,-100,4,2,1,85,0,0
27308,-100,4,2,1,5,0,0
27665,-100,4,2,1,60,0,0
28558,-117.647058823529,4,2,1,65,0,0
51415,-100,4,2,1,75,0,0
63915,-250,4,2,1,65,0,0
65344,-166.666666666667,4,2,1,45,0,0
65701,-83.3333333333333,4,2,1,85,0,1
76773,-100,4,2,1,90,0,0
77130,-83.3333333333333,4,2,1,85,0,1
88558,-100,4,2,1,75,0,0
89630,-100,4,2,1,5,0,0
89987,-100,4,2,1,70,0,0
91415,-133.333333333333,4,2,1,55,0,0
96415,-105.263157894737,4,2,1,75,0,0
97130,-117.647058823529,4,2,1,65,0,0
114273,-100,4,2,1,75,0,0
128558,-83.3333333333333,4,2,1,85,0,1
139630,-100,4,2,1,95,0,0
139987,-83.3333333333333,4,2,1,85,0,1
151415,-100,4,2,1,85,0,0
152487,-100,4,2,1,5,0,0
152665,-100,4,2,1,50,0,0
153380,-100,4,2,1,50,0,0
153558,-100,4,2,1,60,0,0
154273,-133.333333333333,4,2,1,50,0,0
165344,-133.333333333333,4,2,1,35,0,0
165701,-117.647058823529,4,2,1,60,0,0
174273,-250,4,2,1,55,0,0
178112,-250,4,2,1,5,0,0
178201,-250,4,2,1,55,0,0
179987,-181.818181818182,4,2,1,55,0,0
185344,-181.818181818182,4,2,1,65,0,0
185612,-181.818181818182,4,2,1,5,0,0
185701,-83.3333333333333,4,2,1,85,0,1
191058,-100,4,2,1,90,0,0
191415,-83.3333333333333,4,2,1,85,0,1
198826,-83.3333333333333,4,2,1,5,0,1
198915,-83.3333333333333,4,2,1,85,0,1
202487,-100,4,2,1,60,0,0
202576,-95.2380952380952,4,2,1,60,0,0
202665,-86.9565217391304,4,2,1,60,0,0
202844,-76.9230769230769,4,2,1,90,0,1
210255,-76.9230769230769,4,2,1,5,0,1
210344,-76.9230769230769,4,2,1,90,0,1
213915,-100,4,2,1,95,0,0
214273,-76.9230769230769,4,2,1,90,0,1
215969,-76.9230769230769,4,2,1,5,0,1
216058,-76.9230769230769,4,2,1,90,0,1
221683,-76.9230769230769,4,2,1,5,0,1
221773,-76.9230769230769,4,2,1,90,0,1
225701,-100,4,2,1,75,0,0
227487,-100,4,2,1,5,0,0
228469,-200,4,2,1,40,0,0
231415,-200,4,2,1,20,0,0

[Colours]
Combo1 : 201,209,224
Combo2 : 255,106,106
Combo3 : 155,214,249
Combo4 : 254,140,107

[HitObjects]
204,195,1058,5,2,0:0:0:0:
293,38,1416,2,0,P|307:88|316:179,1,135.000005149842,2|2,0:0|0:0,0:0:0:0:
316,170,1951,2,0,P|341:139|427:192,1,135.000005149842,2|2,0:0|0:0,0:0:0:0:
421,163,2487,2,0,B|417:187|417:187|419:195|419:195|411:238,1,67.5000025749208,2|0,0:0|0:0,0:0:0:0:
351,352,2844,6,0,B|301:322|253:372|253:372|211:380|180:319,2,180,14|8|8,0:1|0:1|0:0,0:0:0:0:
351,352,3915,1,10,0:1:0:0:
406,284,4094,1,8,0:0:0:0:
406,284,4183,1,8,0:0:0:0:
406,284,4273,2,0,P|416:238|403:184,1,90,10|8,0:1|0:0,0:0:0:0:
323,0,4630,5,10,0:1:0:0:
247,44,4808,2,0,P|181:57|135:50,1,90,2|8,0:0|0:0,0:0:0:0:
408,196,5165,5,2,0:0:0:0:
332,152,5344,2,0,P|266:139|220:146,1,90,2|8,0:0|0:0,0:0:0:0:
394,368,5701,6,0,B|416:375|438:353|438:353|371:319|317:375,1,180,8|10,0:1|0:1,0:0:0:0:
318,373,6237,1,0,0:0:0:0:
178,265,6415,2,0,B|156:272|134:250|134:250|201:216|255:272,1,180,8|2,0:0|0:0,0:0:0:0:
361,305,6951,5,8,0:0:0:0:
361,305,7040,1,8,0:0:0:0:
361,305,7130,1,8,0:1:0:0:
438,353,7308,1,8,0:0:0:0:
467,227,7487,2,0,P|462:156|470:113,1,90,10|0,0:1|0:0,0:0:0:0:
354,78,7844,2,0,P|290:46|256:18,1,90,8|0,0:0|0:0,0:0:0:0:
151,52,8201,1,2,0:0:0:0:
80,256,8380,5,8,0:0:0:0:
80,256,8469,1,8,0:0:0:0:
80,256,8558,2,0,B|79:207|37:181|37:181|20:139|64:82,1,180,8|10,0:1|0:1,0:0:0:0:
53,96,9094,1,0,0:0:0:0:
150,173,9273,2,0,P|191:187|247:179,1,90,10|0,0:0|0:0,0:0:0:0:
80,256,9630,5,2,0:0:0:0:
181,265,9808,1,8,0:0:0:0:
237,183,9987,2,0,P|278:169|334:177,1,90,10|8,0:1|0:0,0:0:0:0:
211,102,10344,5,2,0:0:0:0:
324,173,10523,2,0,P|365:187|421:179,1,90,2|8,0:0|0:0,0:0:0:0:
297,251,10880,5,2,0:0:0:0:
411,183,11058,2,0,P|452:169|508:177,1,90,2|8,0:0|0:0,0:0:0:0:
300,350,11415,6,0,B|236:333|236:333|206:299|206:299|115:276,1,180,8|10,0:1|0:1,0:0:0:0:
304,258,11951,1,2,0:0:0:0:
304,258,12040,1,2,0:0:0:0:
304,258,12130,2,0,P|322:216|327:155,1,90,8|0,0:0|0:0,0:0:0:0:
150,207,12487,2,0,P|195:201|250:175,1,90,10|8,0:1|0:0,0:0:0:0:
49,18,12844,6,0,B|86:39|81:89|81:89|32:110|17:171,1,180,10|10,0:1|0:1,0:0:0:0:
38,263,13380,1,10,0:0:0:0:
38,263,13469,1,8,0:0:0:0:
38,263,13558,5,8,0:0:0:0:
169,186,13737,1,10,0:0:0:0:
311,325,13915,5,10,0:3:0:0:
163,364,14094,1,8,0:3:0:0:
163,364,14273,6,0,B|127:334|127:334|106:275|137:187,1,180,12|8,0:1|0:1,0:0:0:0:
131,203,14808,1,0,0:0:0:0:
225,312,14987,6,0,P|277:329|324:321,1,90,8|0,0:0|0:0,0:0:0:0:
135,207,15344,2,0,P|83:190|36:198,1,90,2|8,0:0|0:0,0:0:0:0:
248,15,15701,6,0,B|274:127|192:74|232:200,1,180,10|10,0:1|0:1,0:0:0:0:
323,248,16237,1,2,0:0:0:0:
323,248,16326,1,2,0:0:0:0:
323,248,16415,2,0,P|372:236|420:238,1,90,10|2,0:0|0:0,0:0:0:0:
183,299,16773,2,0,P|134:287|86:289,1,90,2|8,0:0|0:0,0:0:0:0:
295,384,17130,6,0,P|284:318|320:174,1,180,10|2,0:1|0:0,0:0:0:0:
481,70,17844,2,0,P|480:139|381:132,1,180,8|2,0:0|0:0,0:0:0:0:
320,71,18380,1,8,0:0:0:0:
320,71,18469,1,8,0:0:0:0:
320,71,18558,2,0,P|261:58|207:77,1,90,8|8,0:1|0:0,0:0:0:0:
120,13,18915,2,0,P|75:18|32:5,1,90,10|0,0:1|0:0,0:0:0:0:
197,164,19273,2,0,B|250:226|213:283|213:283|191:248|210:222,1,180,8|2,0:0|0:0,0:0:0:0:
342,160,19808,5,8,0:0:0:0:
342,160,19898,1,8,0:0:0:0:
342,160,19987,2,0,P|389:138|516:158,1,180,8|10,0:1|0:1,0:0:0:0:
512,155,20523,1,0,0:0:0:0:
512,341,20701,6,0,P|457:308|411:308,1,90,10|0,0:0|0:0,0:0:0:0:
328,254,21058,2,0,P|271:285|248:324,1,90,2|8,0:0|0:0,0:0:0:0:
81,290,21415,6,0,P|90:242|70:185,1,90,10|8,0:1|0:0,0:0:0:0:
161,335,21773,1,10,0:1:0:0:
80,202,21951,2,0,P|70:158|79:114,1,90,2|8,0:0|0:0,0:0:0:0:
0,251,22309,1,2,0:0:0:0:
79,114,22487,2,0,P|88:70|78:26,1,90,10|8,0:1|0:0,0:0:0:0:
407,104,22844,6,0,B|309:61|326:149|226:92,1,180,8|10,0:1|0:1,0:0:0:0:
104,293,23558,2,0,B|202:250|185:338|285:281,1,180,8|2,0:0|0:0,0:0:0:0:
377,223,24094,5,8,0:0:0:0:
377,223,24183,1,8,0:0:0:0:
377,223,24273,2,0,L|388:151,1,45,14|8,0:1|0:1,0:0:0:0:
281,36,24451,5,8,0:0:0:0:
224,49,24540,1,8,0:0:0:0:
193,87,24630,1,10,0:0:0:0:
195,133,24719,1,8,0:0:0:0:
213,151,24808,1,10,0:3:0:0:
227,158,24898,1,8,0:3:0:0:
235,155,24987,6,0,L|240:122,1,22.4999994039536,8|8,0:0|0:0,0:0:0:0:
116,345,25165,1,10,0:1:0:0:
122,168,25344,2,0,L|121:135,1,22.5,10|8,0:0|0:0,0:0:0:0:
231,360,25523,1,8,0:1:0:0:
309,254,25701,5,12,0:1:0:0:
256,192,25790,12,0,27308,0:0:0:0:
92,301,27665,5,8,0:1:0:0:
92,301,27755,1,8,0:1:0:0:
92,301,27844,1,8,0:0:0:0:
70,201,28023,1,8,0:3:0:0:
167,243,28201,1,4,0:3:0:0:
1,263,28380,1,4,0:3:0:0:
177,338,28558,6,0,P|218:327|270:327,2,76.5000014591217,12|0|0,0:1|0:0|0:0,0:0:0:0:
36,335,29273,1,10,0:0:0:0:
1,263,29451,2,0,P|2:221|1:171,1,76.5000014591217,2|0,0:0|0:0,0:0:0:0:
81,86,29808,6,0,B|153:71|140:129|230:123,1,153.000002918243,10|10,0:1|0:1,0:0:0:0:
224,123,30344,1,8,0:1:0:0:
300,83,30523,2,0,P|345:49|381:37,1,76.5000014591217,2|8,0:0|0:0,0:0:0:0:
463,145,30880,2,0,P|407:129|374:134,1,76.5000014591217,2|0,0:0|0:0,0:0:0:0:
316,232,31237,5,2,3:2:0:0:
316,232,31326,1,0,3:2:0:0:
316,232,31415,2,0,P|324:287|394:368,1,153.000002918243,8|10,0:1|0:1,0:0:0:0:
383,361,31951,1,0,0:0:0:0:
268,343,32130,2,0,P|224:350|185:367,1,76.5000014591217,8|0,0:0|0:0,0:0:0:0:
268,343,32487,1,2,0:0:0:0:
163,279,32665,6,0,P|119:272|80:255,1,76.5000014591217,10|0,0:1|0:0,0:0:0:0:
163,279,33023,1,10,0:0:0:0:
73,345,33201,2,0,P|29:352|-10:369,1,76.5000014591217,10|10,0:1|0:1,0:0:0:0:
163,279,33558,2,0,P|164:209|184:114,1,153.000002918243,10|2,0:0|0:0,0:0:0:0:
291,94,34094,5,0,3:2:0:0:
291,94,34183,1,0,3:2:0:0:
291,94,34273,2,0,B|347:83|347:83|374:52|374:52|442:37,1,153.000002918243,10|0,0:1|0:0,0:0:0:0:
427,40,34808,1,0,0:0:0:0:
286,8,34987,2,0,L|190:0,1,76.5000014591217,10|0,0:0|0:0,0:0:0:0:
18,208,35523,6,0,P|25:142|115:122,1,153.000002918243,10|10,0:1|0:1,0:0:0:0:
204,155,36058,2,0,L|213:236,1,76.5000014591217,8|2,0:1|0:0,0:0:0:0:
93,331,36415,2,0,L|84:250,1,76.5000014591217,8|2,0:0|0:0,0:0:0:0:
213,351,36773,1,0,0:0:0:0:
306,238,36951,5,2,3:2:0:0:
306,238,37040,1,0,3:2:0:0:
306,238,37130,2,0,B|313:263|335:273|335:273|345:210|393:188,1,152.999998865128,8|10,0:1|0:1,0:0:0:0:
391,188,37665,1,0,0:0:0:0:
325,119,37844,6,0,B|265:87|293:21|293:21|310:36|303:55,1,153.000002918243,8|2,0:0|0:0,0:0:0:0:
210,94,38380,2,0,P|165:81|134:59,1,76.5000014591217,10|0,0:1|0:0,0:0:0:0:
210,94,38737,1,10,0:0:0:0:
87,136,38915,2,0,P|42:149|11:171,1,76.5000014591217,2|8,0:0|0:1,0:0:0:0:
240,212,39273,2,0,P|283:219|328:242,1,76.5000014591217,8|0,0:0|0:0,0:0:0:0:
235,384,39630,5,8,0:1:0:0:
89,319,39808,1,8,0:0:0:0:
89,319,39987,6,0,P|53:292|4:278,2,76.5000014591217,12|0|0,0:1|0:0|0:0,0:0:0:0:
235,384,40701,1,10,0:0:0:0:
300,338,40880,2,0,P|305:299|320:247,1,76.5000014591217,2|0,0:0|0:0,0:0:0:0:
471,219,41237,6,0,P|434:234|382:247,1,76.5000014591217,10|0,0:1|0:0,0:0:0:0:
201,148,41594,2,0,P|232:171|269:210,1,76.5000014591217,10|8,0:1|0:1,0:0:0:0:
300,338,41951,2,0,P|305:299|320:247,1,76.5000014591217,2|8,0:0|0:0,0:0:0:0:
356,99,42308,2,0,P|351:138|336:190,1,76.5000014591217,2|0,0:0|0:0,0:0:0:0:
200,148,42665,5,2,3:2:0:0:
200,148,42755,1,0,3:2:0:0:
200,148,42844,2,0,P|188:73|149:-11,1,153.000002918243,8|10,0:1|0:1,0:0:0:0:
157,2,43380,1,0,0:0:0:0:
88,89,43558,2,0,L|76:174,1,76.5000014591217,8|0,0:0|0:0,0:0:0:0:
88,89,43915,1,2,0:0:0:0:
155,208,44094,2,0,L|167:293,1,76.5000014591217,10|0,0:1|0:0,0:0:0:0:
155,208,44451,1,10,0:0:0:0:
77,309,44630,2,0,L|65:394,1,76.5000014591217,10|2,0:1|0:0,0:0:0:0:
202,363,44987,2,0,B|259:329|259:329|358:347,1,153.000002918243,10|2,0:0|0:0,0:0:0:0:
461,384,45523,5,2,3:2:0:0:
461,384,45612,1,0,3:2:0:0:
461,384,45701,2,0,P|424:329|437:222,1,153.000002918243,8|0,0:1|0:0,0:0:0:0:
425,244,46237,1,0,0:0:0:0:
344,344,46415,2,0,P|300:363|247:363,1,76.5000014591217,10|2,0:0|0:0,0:0:0:0:
139,186,46951,6,0,P|139:141|155:97,1,76.5000014591217,10|0,0:1|0:0,0:0:0:0:
282,215,47308,2,0,P|282:170|266:126,1,76.5000014591217,10|8,0:1|0:1,0:0:0:0:
282,215,47665,1,2,0:0:0:0:
377,48,47844,2,0,P|377:93|393:137,1,76.5000014591217,8|2,0:0|0:0,0:0:0:0:
453,168,48201,1,0,0:0:0:0:
390,310,48380,5,2,3:2:0:0:
390,310,48469,1,0,3:2:0:0:
390,310,48558,2,0,B|335:328|286:291|286:291|302:328|300:358,1,153.000002918243,8|10,0:1|0:1,0:0:0:0:
298,331,49094,1,0,0:0:0:0:
230,211,49273,2,0,P|223:140|242:46,1,153.000002918243,8|2,0:0|0:0,0:0:0:0:
236,60,49808,1,10,0:1:0:0:
144,162,49987,2,0,P|94:176|46:162,1,76.5000014591217,0|10,0:0|0:0,0:0:0:0:
230,211,50344,1,2,0:0:0:0:
311,132,50523,5,8,0:1:0:0:
311,132,50612,1,8,0:1:0:0:
311,132,50701,1,8,0:0:0:0:
405,240,50880,1,8,0:0:0:0:
489,63,51058,1,10,0:3:0:0:
202,188,51415,6,0,B|116:191|147:263|51:274,1,180,14|0,0:1|0:0,0:0:0:0:
51,273,51951,1,8,0:1:0:0:
323,142,52130,5,10,0:0:0:0:
323,142,52308,1,8,0:0:0:0:
323,142,52487,2,0,P|291:198|276:320,1,180,14|0,0:1|0:0,0:0:0:0:
193,371,53023,2,0,P|174:311|179:260,1,90,10|0,0:0|0:0,0:0:0:0:
89,201,53380,1,10,0:1:0:0:
51,273,53558,2,0,P|32:333|37:384,1,90,8|2,0:0|0:0,0:0:0:0:
185,200,53915,2,0,P|193:151|216:110,1,90,8|10,0:1|0:0,0:0:0:0:
459,158,54273,6,0,P|427:231|328:196,1,180,12|2,0:1|0:0,0:0:0:0:
310,138,54808,1,8,0:1:0:0:
310,138,54898,1,8,0:1:0:0:
310,138,54987,2,0,B|311:106|311:106|316:92|316:92|318:43,1,90,8|0,0:0|0:0,0:0:0:0:
208,290,55344,6,0,B|141:275|141:275|108:244|108:244|35:227,1,180,14|0,0:1|0:0,0:0:0:0:
129,161,55880,2,0,P|145:112|143:72,1,90,8|0,0:0|0:0,0:0:0:0:
143,74,56237,1,10,0:1:0:0:
84,329,56415,5,8,0:0:0:0:
212,280,56594,1,10,0:1:0:0:
288,331,56773,5,12,0:0:0:0:
435,356,56951,1,8,0:0:0:0:
435,356,57130,6,0,B|406:251|490:309|462:183,1,180,14|0,0:1|0:0,0:0:0:0:
463,188,57665,1,8,0:1:0:0:
294,163,57844,5,10,0:0:0:0:
294,163,58023,1,10,0:0:0:0:
294,163,58201,2,0,B|291:187|320:207|320:207|318:131|376:92,1,180,14|0,0:1|0:0,0:0:0:0:
476,0,58737,6,0,P|426:19|381:17,1,90,10|0,0:0|0:0,0:0:0:0:
284,75,59094,2,0,P|234:56|189:58,1,90,10|8,0:1|0:0,0:0:0:0:
284,75,59451,1,2,0:0:0:0:
110,11,59630,2,0,P|60:30|15:28,1,90,8|10,0:1|0:0,0:0:0:0:
21,222,59987,6,0,P|86:178|216:178,1,180,14|2,0:1|0:0,0:0:0:0:
282,224,60523,1,8,0:1:0:0:
282,224,60612,1,8,0:1:0:0:
282,224,60701,2,0,P|304:174|337:145,1,90,8|0,0:0|0:0,0:0:0:0:
509,89,61058,6,0,B|451:78|408:120|408:120|391:84|347:70,1,180,14|0,0:1|0:0,0:0:0:0:
357,73,61594,1,10,0:0:0:0:
401,204,61773,2,0,P|393:260|380:295,1,90,0|10,0:0|0:1,0:0:0:0:
178,365,62130,5,8,0:3:0:0:
128,302,62249,1,8,0:3:0:0:
155,227,62368,1,8,0:3:0:0:
223,162,62487,5,4,0:3:0:0:
258,100,62606,1,4,0:3:0:0:
238,32,62725,1,4,0:3:0:0:
163,7,62844,6,0,B|143:45|102:50|102:50|67:4|-3:13,1,180,14|0,0:1|0:0,0:0:0:0:
12,11,63380,1,8,0:1:0:0:
54,155,63558,5,10,0:0:0:0:
54,155,63737,1,10,0:0:0:0:
54,155,63915,2,0,B|118:96|193:140|193:140|160:171|124:157,1,216,14|2,0:1|0:0,0:0:0:0:
135,160,65344,2,0,P|130:131|134:98,1,53.9999983520508,2|2,0:0|0:0,0:0:0:0:
367,111,65701,6,0,B|286:92|286:92|253:50|253:50|135:25,2,215.999993408203,14|8|8,0:1|0:1|0:0,0:0:0:0:
507,235,66773,1,10,0:1:0:0:
418,286,66951,1,8,0:0:0:0:
418,286,67040,1,8,0:0:0:0:
418,286,67130,2,0,P|331:250|205:251,1,215.999993408203,10|10,0:1|0:1,0:0:0:0:
210,249,67665,1,2,0:0:0:0:
30,319,67844,5,8,0:0:0:0:
152,202,68023,1,2,0:0:0:0:
51,65,68201,5,2,0:0:0:0:
51,65,68380,1,8,0:0:0:0:
3,148,68558,6,0,B|120:113|101:198|245:161,1,215.999987686158,8|10,0:1|0:1,0:0:0:0:
212,167,69094,1,0,0:0:0:0:
293,104,69273,2,0,B|297:70|297:70|305:59|305:59|312:-3,1,107.999996704102,8|0,0:0|0:0,0:0:0:0:
312,232,69630,1,2,0:0:0:0:
198,65,69808,5,8,0:0:0:0:
198,65,69898,1,8,0:0:0:0:
198,65,69987,2,0,B|158:116|91:99|91:99|65:47|12:43,1,215.999993408203,8|10,0:1|0:1,0:0:0:0:
17,43,70523,1,0,0:0:0:0:
130,192,70701,2,0,P|142:246|134:316,1,107.999996704102,8|0,0:0|0:0,0:0:0:0:
108,379,71058,5,2,0:0:0:0:
305,352,71237,1,8,0:0:0:0:
305,352,71326,1,8,0:0:0:0:
305,352,71415,2,0,B|350:330|350:330|257:288|191:376,1,215.999993408203,8|10,0:1|0:1,0:0:0:0:
200,363,71951,1,0,0:0:0:0:
268,242,72130,2,0,P|290:170|274:122,1,107.999996704102,10|0,0:0|0:0,0:0:0:0:
213,74,72487,2,0,P|161:18|112:8,1,107.999996704102,2|8,0:0|0:0,0:0:0:0:
17,226,72844,6,0,B|93:209|93:209|122:169|122:169|225:147,1,215.999993408203,10|10,0:1|0:1,0:0:0:0:
297,68,73380,1,2,0:0:0:0:
297,68,73469,1,2,0:0:0:0:
297,68,73558,2,0,B|350:59|350:59|405:93,1,107.999996704102,8|2,0:0|0:0,0:0:0:0:
494,226,73915,1,10,0:1:0:0:
395,356,74094,5,8,0:0:0:0:
395,356,74183,1,8,0:0:0:0:
395,356,74273,2,0,B|336:329|271:363|271:363|218:351|205:311,1,215.999993408203,8|10,0:1|0:1,0:0:0:0:
205,312,74808,1,0,0:0:0:0:
277,224,74987,2,0,P|297:182|289:113,1,107.999996704102,8|0,0:0|0:0,0:0:0:0:
97,260,75344,2,0,P|77:302|85:371,1,107.999996704102,2|8,0:0|0:0,0:0:0:0:
187,119,75701,6,0,P|165:63|117:39,1,107.999996704102,10|8,0:1|0:0,0:0:0:0:
19,81,76058,1,10,0:1:0:0:
236,22,76237,5,8,0:0:0:0:
236,22,76326,1,10,0:0:0:0:
236,22,76415,1,8,0:0:0:0:
378,87,76594,1,10,0:0:0:0:
312,229,76773,1,6,0:3:0:0:
170,164,76951,1,4,0:3:0:0:
275,129,77130,6,0,P|247:197|210:344,2,215.999993408203,12|8|8,0:1|0:1|0:0,0:0:0:0:
275,129,78201,1,2,0:0:0:0:
131,49,78380,1,8,0:0:0:0:
126,64,78469,1,8,0:0:0:0:
121,79,78558,1,10,0:1:0:0:
255,21,78737,1,8,0:0:0:0:
355,145,78915,2,0,P|408:170|486:154,1,107.999996704102,10|2,0:1|0:0,0:0:0:0:
342,38,79273,5,8,0:0:0:0:
196,125,79451,1,2,0:0:0:0:
311,248,79630,5,2,0:0:0:0:
311,248,79808,1,8,0:0:0:0:
360,328,79987,6,0,B|301:299|240:364|240:364|210:329|167:333,1,215.999993408203,8|10,0:1|0:1,0:0:0:0:
169,332,80523,1,0,0:0:0:0:
218,241,80701,2,0,P|229:178|217:110,1,107.999996704102,8|0,0:0|0:0,0:0:0:0:
313,29,81058,1,2,0:0:0:0:
457,154,81237,5,8,0:0:0:0:
457,154,81326,1,8,0:0:0:0:
457,154,81415,2,0,B|385:113|316:171|316:171|340:200|383:190,2,215.999993408203,8|10|8,0:1|0:1|0:0,0:0:0:0:
457,154,82487,1,2,0:0:0:0:
365,316,82665,1,8,0:0:0:0:
359,300,82755,1,8,0:0:0:0:
354,284,82844,5,8,0:1:0:0:
255,356,83023,1,0,0:0:0:0:
157,234,83201,2,0,P|154:174|143:116,1,107.999996704102,10|0,0:1|0:0,0:0:0:0:
323,15,83558,2,0,P|326:75|337:133,1,107.999996704102,10|0,0:0|0:0,0:0:0:0:
356,210,83915,1,2,0:0:0:0:
214,45,84094,5,8,0:0:0:0:
214,45,84183,1,8,0:0:0:0:
214,45,84273,2,0,P|128:39|-7:56,1,215.999993408203,10|10,0:1|0:1,0:0:0:0:
0,55,84808,1,2,0:0:0:0:
95,162,84987,2,0,P|155:163|205:198,1,107.999996704102,10|0,0:0|0:0,0:0:0:0:
279,104,85344,2,0,P|339:103|389:68,1,107.999996704102,2|8,0:0|0:0,0:0:0:0:
439,300,85701,6,0,B|456:337|508:347|508:347|537:260|459:217,1,215.999993408203,8|10,0:1|0:1,0:0:0:0:
388,200,86237,1,2,0:0:0:0:
388,200,86326,1,2,0:0:0:0:
388,200,86415,2,0,P|325:218|267:222,1,107.999996704102,8|0,0:0|0:0,0:0:0:0:
95,312,86773,5,2,0:0:0:0:
58,194,86951,1,8,0:1:0:0:
58,194,87040,1,8,0:1:0:0:
58,194,87130,2,0,P|50:128|37:69,1,107.999996704102,14|0,0:0|0:0,0:0:0:0:
226,340,87487,5,10,0:3:0:0:
283,222,87665,2,0,P|291:156|304:97,1,107.999996704102,14|0,0:0|0:0,0:0:0:0:
443,310,88023,5,10,0:1:0:0:
443,310,88112,1,8,0:1:0:0:
443,310,88201,2,0,B|397:302|397:302|378:310|378:310|298:298,1,107.999996704102,10|8,0:0|0:1,0:0:0:0:
58,194,88558,5,14,0:1:0:0:
256,192,88648,12,0,89630,0:0:0:0:
119,184,89987,5,8,0:0:0:0:
344,32,90225,5,8,0:0:0:0:
310,106,90344,5,8,0:3:0:0:
334,173,90463,5,8,0:3:0:0:
384,200,90582,5,8,0:3:0:0:
410,197,90701,5,4,0:3:0:0:
314,304,90880,1,4,0:3:0:0:
210,79,91058,1,12,0:0:0:0:
78,318,91415,6,0,P|46:322|3:338,2,67.5000025749208,14|2|0,0:1|0:0|0:0,0:0:0:0:
167,354,91951,1,2,0:0:0:0:
167,354,92130,2,0,P|197:322|240:306,1,67.5000025749208,2|2,0:0|0:0,0:0:0:0:
443,328,92665,6,0,B|418:348|377:332|377:332|373:287|330:254,1,135.000005149842,2|2,0:0|0:0,0:0:0:0:
364,362,93201,1,0,0:0:0:0:
351,273,93380,2,0,P|318:242|280:228,1,67.5000025749208,2|0,0:0|0:0,0:0:0:0:
391,118,93737,2,0,P|404:172|400:208,1,67.5000025749208,2|0,0:0|0:0,0:0:0:0:
294,54,94094,5,0,0:0:0:0:
294,54,94183,1,0,0:0:0:0:
294,54,94273,2,0,P|214:54|138:85,2,135.000005149842,2|2|0,0:0|0:0|0:0,0:0:0:0:
294,54,95344,5,2,0:0:0:0:
363,109,95523,2,0,P|414:121|461:116,1,67.5000025749208,2|0,0:0|0:0,0:0:0:0:
345,183,95880,5,2,0:0:0:0:
428,121,96058,2,0,P|479:109|526:114,1,67.5000025749208,2|2,0:0|0:0,0:0:0:0:
349,187,96415,5,10,0:0:0:0:
349,187,96505,2,0,P|323:229|318:279,1,85.4999977169037,8|8,0:1|0:0,0:0:0:0:
428,121,96773,2,0,P|421:79|388:28,1,85.4999977169037,10|10,0:1|0:0,0:0:0:0:
293,27,97130,5,14,0:1:0:0:
233,95,97308,1,0,0:0:0:0:
200,17,97487,1,2,0:0:0:0:
147,85,97665,1,2,0:0:0:0:
110,6,97844,1,10,0:0:0:0:
182,162,98023,2,0,P|191:212|186:255,1,76.5000014591217,2|0,0:0|0:0,0:0:0:0:
86,368,98380,6,0,B|112:319|162:313|162:313|131:301|116:266,1,153.000002918243,10|10,0:1|0:1,0:0:0:0:
257,270,98915,2,0,P|214:243|157:237,1,76.5000014591217,8|2,0:1|0:0,0:0:0:0:
380,163,99273,2,0,P|337:190|280:196,1,76.5000014591217,8|2,0:0|0:0,0:0:0:0:
439,269,99630,1,0,0:0:0:0:
293,381,99808,5,2,3:2:0:0:
293,381,99898,1,0,3:2:0:0:
293,381,99987,2,0,P|259:313|248:216,1,153.000002918243,8|10,0:1|0:1,0:0:0:0:
247,237,100523,1,0,0:0:0:0:
337,306,100701,2,0,P|377:326|441:328,1,76.5000014591217,8|0,0:0|0:0,0:0:0:0:
485,224,101058,5,2,0:0:0:0:
401,153,101237,2,0,P|354:153|314:171,1,76.5000014591217,10|0,0:1|0:0,0:0:0:0:
404,76,101594,5,10,0:0:0:0:
327,163,101773,2,0,P|280:163|240:145,1,76.5000014591217,2|8,0:0|0:1,0:0:0:0:
224,312,102130,2,0,P|236:251|253:225,1,76.5000014591217,8|0,0:0|0:0,0:0:0:0:
327,163,102487,5,8,0:1:0:0:
177,187,102665,1,8,0:0:0:0:
58,73,102844,6,0,P|49:22|34:-12,2,76.5000014591217,12|0|0,0:1|0:0|0:0,0:0:0:0:
35,171,103380,1,0,0:0:0:0:
146,114,103558,1,10,0:0:0:0:
146,114,103737,2,0,P|188:101|238:101,1,76.5000014591217,2|0,0:0|0:0,0:0:0:0:
376,205,104094,6,0,L|392:287,1,76.5000014591217,10|0,0:1|0:0,0:0:0:0:
214,180,104451,2,0,L|296:164,1,76.5000014591217,10|8,0:1|0:1,0:0:0:0:
189,342,104808,2,0,L|173:260,1,76.5000014591217,2|8,0:0|0:0,0:0:0:0:
351,367,105165,2,0,L|269:383,1,76.5000014591217,2|0,0:0|0:0,0:0:0:0:
430,290,105523,5,2,3:2:0:0:
430,290,105612,1,0,3:2:0:0:
430,290,105701,2,0,B|472:292|472:292|500:230|449:181,1,153.000002918243,8|10,0:1|0:1,0:0:0:0:
512,312,106237,1,0,0:0:0:0:
461,193,106415,2,0,P|417:175|378:180,1,76.5000014591217,8|0,0:0|0:0,0:0:0:0:
461,193,106773,1,2,0:0:0:0:
309,115,106951,2,0,P|265:132|226:127,1,76.5000014591217,10|0,0:1|0:0,0:0:0:0:
309,115,107308,1,10,0:0:0:0:
153,178,107487,2,0,P|109:160|70:165,1,76.5000014591217,10|8,0:1|0:1,0:0:0:0:
245,264,107844,6,0,B|298:250|298:250|321:225|321:225|400:208,1,153.000002918243,10|2,0:0|0:0,0:0:0:0:
235,173,108380,5,2,3:2:0:0:
235,173,108469,1,0,3:2:0:0:
235,173,108558,2,0,P|208:128|199:17,1,153.000002918243,8|0,0:1|0:0,0:0:0:0:
196,29,109094,1,0,0:0:0:0:
102,100,109273,2,0,L|14:110,1,76.5000014591217,10|2,0:0|0:0,0:0:0:0:
25,108,109630,1,0,0:0:0:0:
145,192,109808,6,0,B|168:290|94:240|122:345,1,153.000002918243,10|10,0:1|0:1,0:0:0:0:
119,334,110344,1,8,0:1:0:0:
208,290,110523,2,0,P|255:289|306:298,1,76.5000014591217,2|8,0:0|0:0,0:0:0:0:
76,254,110880,2,0,P|29:253|-22:262,1,76.5000014591217,2|0,0:0|0:0,0:0:0:0:
226,159,111237,5,2,3:2:0:0:
226,159,111326,1,0,3:2:0:0:
226,159,111415,2,0,B|282:158|310:204|310:204|349:206|368:175,1,153.000002918243,8|10,0:1|0:1,0:0:0:0:
358,187,111951,1,0,0:0:0:0:
223,252,112130,2,0,P|163:232|50:228,1,153.000002918243,8|2,0:0|0:0,0:0:0:0:
224,149,112665,6,0,P|250:116|251:61,1,76.5000014591217,10|0,0:1|0:0,0:0:0:0:
132,31,113023,1,10,0:0:0:0:
132,31,113112,1,8,0:0:0:0:
132,31,113201,2,0,P|106:64|105:119,1,76.5000014591217,10|8,0:1|0:1,0:0:0:0:
224,149,113558,5,8,0:0:0:0:
37,275,113737,1,8,0:0:0:0:
326,352,113915,5,10,0:3:0:0:
205,250,114094,1,4,0:3:0:0:
123,334,114273,6,0,B|74:378|74:378|-48:329|6:178,1,270,12|8,0:1|0:1,0:0:0:0:
124,137,114987,5,10,0:0:0:0:
124,137,115165,1,10,0:0:0:0:
124,137,115344,2,0,B|181:184|153:252|153:252|129:230|140:201,1,180,14|0,0:1|0:0,0:0:0:0:
242,111,115880,6,0,P|287:90|337:112,1,90,10|0,0:0|0:0,0:0:0:0:
390,238,116237,2,0,P|349:209|343:155,1,90,10|8,0:1|0:0,0:0:0:0:
431,44,116594,2,0,P|426:93|382:125,1,90,2|8,0:0|0:1,0:0:0:0:
214,47,116951,5,2,3:2:0:0:
214,47,117040,1,0,3:2:0:0:
214,47,117130,2,0,B|134:63|109:145|109:145|16:134|16:43,1,270,14|8,0:1|0:1,0:0:0:0:
132,223,117844,2,0,P|151:276|154:319,1,90,8|0,0:0|0:0,0:0:0:0:
342,230,118201,6,0,B|352:336|234:357|234:357|259:311|234:248,1,270,14|10,0:1|0:0,0:0:0:0:
215,189,118915,2,0,B|211:158|211:158|202:149|202:149|190:84,1,90,8|10,0:1|0:1,0:0:0:0:
454,40,119273,5,8,0:0:0:0:
281,139,119451,1,10,0:1:0:0:
319,29,119630,5,12,0:0:0:0:
491,185,119808,1,8,0:0:0:0:
491,185,119987,6,0,B|473:258|381:248|381:248|378:166|307:127,1,270,12|8,0:1|0:1,0:0:0:0:
201,244,120701,5,10,0:0:0:0:
201,244,120880,1,10,0:0:0:0:
201,244,121058,2,0,B|181:258|156:248|156:248|206:186|283:232,1,180,14|0,0:1|0:0,0:0:0:0:
342,311,121594,6,0,B|373:309|373:309|389:318|389:318|447:317,1,90,10|0,0:0|0:0,0:0:0:0:
342,311,121951,1,10,0:1:0:0:
411,237,122130,2,0,P|435:190|434:142,1,90,8|2,0:0|0:0,0:0:0:0:
463,64,122487,2,0,P|435:19|392:-3,1,90,12|2,0:1|0:0,0:0:0:0:
207,216,122844,6,0,B|136:199|136:199|109:170|109:170|16:149,1,180,12|2,0:1|0:0,0:0:0:0:
43,155,123380,1,8,0:1:0:0:
146,85,123558,2,0,P|165:38|164:-1,1,90,8|0,0:0|0:0,0:0:0:0:
186,300,123915,6,0,B|251:318|301:267|301:267|289:293|295:326,1,180,14|0,0:1|0:0,0:0:0:0:
192,225,124451,2,0,P|146:209|86:207,1,90,8|2,0:0|0:0,0:0:0:0:
105,205,124808,1,0,0:0:0:0:
385,157,124987,5,8,0:3:0:0:
416,86,125106,1,8,0:3:0:0:
378,19,125225,1,8,0:3:0:0:
284,44,125344,5,4,0:3:0:0:
257,110,125463,1,4,0:3:0:0:
293,170,125582,1,4,0:3:0:0:
306,186,125701,6,0,B|333:263|302:360|212:342|196:302|230:222|313:281,1,270,12|8,0:1|0:1,0:0:0:0:
391,314,126415,5,8,0:0:0:0:
391,314,126594,1,8,0:0:0:0:
391,314,126773,2,0,B|430:326|452:359|452:359|420:252|508:171,1,269.999992847443,14|8,0:1|0:0,0:0:0:0:
414,89,127487,1,10,0:1:0:0:
295,251,127665,5,10,0:1:0:0:
295,251,127755,1,8,0:1:0:0:
295,251,127844,1,8,0:0:0:0:
270,141,128023,5,10,0:0:0:0:
164,72,128201,5,10,0:3:0:0:
37,105,128380,5,8,0:3:0:0:
70,292,128558,6,0,B|152:270|152:270|189:229|189:229|281:207,1,215.999993408203,12|8,0:1|0:1,0:0:0:0:
262,211,129094,1,0,0:0:0:0:
144,152,129273,2,0,P|106:138|24:134,1,107.999996704102,8|0,0:0|0:0,0:0:0:0:
333,336,129630,5,2,0:0:0:0:
387,239,129808,1,8,0:0:0:0:
387,239,129898,1,8,0:0:0:0:
387,239,129987,2,0,P|399:174|375:19,1,215.999993408203,10|10,0:1|0:1,0:0:0:0:
378,26,130523,1,2,0:0:0:0:
302,108,130701,5,8,0:0:0:0:
480,158,130880,1,2,0:0:0:0:
270,249,131058,5,2,0:0:0:0:
270,249,131237,1,8,0:0:0:0:
183,128,131415,6,0,B|113:118|73:177|73:177|45:133|-23:134,1,215.999993408203,8|10,0:1|0:1,0:0:0:0:
0,134,131951,1,0,0:0:0:0:
107,249,132130,2,0,B|125:273|130:302|130:302|154:280|149:258,1,107.999996704102,8|0,0:0|0:0,0:0:0:0:
183,128,132487,1,2,0:0:0:0:
270,196,132665,5,8,0:0:0:0:
270,196,132755,1,8,0:0:0:0:
270,196,132844,2,0,P|278:273|358:386,1,215.999993408203,8|10,0:1|0:1,0:0:0:0:
355,384,133380,1,0,0:0:0:0:
483,369,133558,2,0,B|484:330|484:330|494:318|494:318|502:248,1,107.999996704102,8|0,0:0|0:0,0:0:0:0:
512,159,133915,1,2,0:0:0:0:
377,88,134094,5,8,0:0:0:0:
377,88,134183,1,8,0:0:0:0:
377,88,134273,2,0,B|407:172|333:215|333:215|272:189|301:120,1,215.999993408203,8|10,0:1|0:1,0:0:0:0:
336,265,134808,1,0,0:0:0:0:
292,166,134987,2,0,P|243:129|177:119,1,107.999996704102,10|0,0:0|0:0,0:0:0:0:
119,68,135344,2,0,P|62:91|20:144,1,107.999996704102,2|8,0:0|0:0,0:0:0:0:
139,332,135701,6,0,B|217:317|217:317|253:279|253:279|359:261,1,215.999993408203,10|10,0:1|0:1,0:0:0:0:
165,237,136237,1,2,0:0:0:0:
165,237,136326,1,2,0:0:0:0:
165,237,136415,2,0,P|139:180|141:124,1,107.999996704102,10|2,0:0|0:0,0:0:0:0:
48,283,136773,2,0,P|22:340|24:396,1,107.999996704102,2|8,0:0|0:0,0:0:0:0:
213,330,137130,6,0,B|344:305|279:395|427:371,1,215.999993408203,8|10,0:1|0:1,0:0:0:0:
499,333,137665,1,2,0:0:0:0:
499,333,137755,1,2,0:0:0:0:
499,333,137844,2,0,P|502:274|476:224,1,107.999993843079,10|0,0:0|0:0,0:0:0:0:
382,291,138201,1,2,0:0:0:0:
274,116,138380,5,8,0:0:0:0:
274,116,138469,1,8,0:0:0:0:
274,116,138558,2,0,P|219:135|158:124,1,107.999996704102,10|0,0:1|0:0,0:0:0:0:
170,129,138915,1,10,0:1:0:0:
253,222,139094,5,10,0:0:0:0:
253,222,139183,1,8,0:0:0:0:
253,222,139273,1,8,0:0:0:0:
257,380,139451,1,10,0:0:0:0:
98,384,139630,1,6,0:3:0:0:
94,226,139808,1,4,0:3:0:0:
294,304,139987,6,0,P|387:314|494:387,1,215.999993408203,12|8,0:1|0:1,0:0:0:0:
487,379,140523,1,0,0:0:0:0:
439,233,140701,6,0,P|432:178|444:127,1,107.999996704102,8|0,0:0|0:0,0:0:0:0:
318,170,141058,2,0,P|266:148|226:110,1,107.999996704102,2|8,0:0|0:0,0:0:0:0:
120,257,141415,6,0,B|88:266|65:254|65:254|115:179|233:226,1,215.999993408203,10|10,0:1|0:1,0:0:0:0:
276,347,141951,5,2,0:0:0:0:
272,331,142040,1,2,0:0:0:0:
267,316,142130,1,10,0:0:0:0:
318,170,142308,1,2,0:0:0:0:
149,63,142487,5,2,0:0:0:0:
149,63,142665,1,8,0:0:0:0:
0,143,142844,6,0,B|15:210|94:206|94:206|106:157|157:140,1,215.999993408203,8|10,0:1|0:1,0:0:0:0:
195,241,143380,1,2,0:0:0:0:
195,241,143469,1,2,0:0:0:0:
195,241,143558,2,0,B|226:246|233:282|233:282|203:286|189:256,1,107.999996704102,10|0,0:0|0:0,0:0:0:0:
38,244,143915,2,0,B|6:249|0:285|0:285|29:289|43:259,1,107.999996704102,2|8,0:0|0:0,0:0:0:0:
152,142,144273,6,0,B|204:90|288:126|288:126|290:167|248:182,2,215.999987686158,8|10|8,0:1|0:1|0:0,0:0:0:0:
152,142,145344,1,2,0:0:0:0:
38,244,145523,1,8,0:0:0:0:
33,228,145612,1,8,0:0:0:0:
29,212,145701,5,8,0:1:0:0:
152,142,145880,1,0,0:0:0:0:
267,224,146058,2,0,P|314:248|392:242,1,107.999996704102,10|0,0:1|0:0,0:0:0:0:
139,284,146415,2,0,P|94:312|60:383,1,107.999996704102,10|0,0:0|0:0,0:0:0:0:
152,142,146773,2,0,P|149:89|105:24,1,107.999996704102,2|8,0:0|0:0,0:0:0:0:
267,224,147130,6,0,B|310:261|369:249|369:249|368:195|411:153,1,215.999993408203,10|10,0:1|0:1,0:0:0:0:
394,294,147665,1,2,0:0:0:0:
414,157,147844,2,0,P|456:115|509:92,1,107.999996704102,8|2,0:0|0:0,0:0:0:0:
414,157,148201,1,2,0:0:0:0:
327,51,148380,5,8,0:0:0:0:
327,51,148469,1,8,0:0:0:0:
327,51,148558,2,0,B|257:27|179:64|179:64|198:18|257:16,1,215.999993408203,8|10,0:1|0:1,0:0:0:0:
223,22,149094,1,0,0:0:0:0:
303,134,149273,2,0,P|337:192|340:248,1,107.999996704102,8|0,0:0|0:0,0:0:0:0:
305,323,149630,1,2,0:0:0:0:
204,231,149808,5,8,0:1:0:0:
204,231,149898,1,8,0:1:0:0:
204,231,149987,2,0,P|132:211|90:221,1,107.999996704102,14|8,0:0|0:1,0:0:0:0:
0,336,150344,1,8,0:1:0:0:
300,377,150523,6,0,P|281:304|251:273,1,107.999996704102,14|8,0:0|0:1,0:0:0:0:
100,216,150880,1,8,0:1:0:0:
336,119,151058,2,0,B|377:115|377:115|394:125|394:125|454:120,1,107.999996704102,10|8,0:3|0:1,0:0:0:0:
115,65,151415,5,12,0:1:0:0:
256,192,151505,12,0,152665,0:0:0:0:
415,130,153380,5,8,0:3:0:0:
418,138,153469,1,8,0:3:0:0:
422,147,153558,1,8,0:3:0:0:
501,71,153737,1,8,0:3:0:0:
406,34,153915,1,4,0:3:0:0:
265,80,154273,6,0,P|217:94|182:93,2,67.5000025749208,2|0|2,0:0|0:0|0:0,0:0:0:0:
340,19,154808,1,2,0:0:0:0:
340,19,154987,2,0,P|373:22|405:33,1,67.5000025749208,2|0,0:0|0:0,0:0:0:0:
340,19,155344,1,2,0:0:0:0:
399,110,155523,2,0,P|412:140|418:173,1,67.5000025749208,2|0,0:0|0:0,0:0:0:0:
349,206,155880,2,0,P|329:233|303:255,1,67.5000025749208,2|0,0:0|0:0,0:0:0:0:
349,206,156237,1,2,0:0:0:0:
275,164,156415,2,0,P|237:151|195:159,1,67.5000025749208,0|2,0:0|0:0,0:0:0:0:
149,217,156773,2,0,P|111:230|69:222,1,67.5000025749208,0|2,0:0|0:0,0:0:0:0:
20,161,157130,6,0,L|8:78,2,67.5000025749208,2|0|0,0:0|0:0|0:0,0:0:0:0:
84,227,157665,2,0,L|72:310,2,67.5000025749208,2|0|0,0:0|0:0|0:0,0:0:0:0:
147,155,158201,6,0,L|135:72,2,67.5000025749208,2|0|0,0:0|0:0|0:0,0:0:0:0:
211,221,158736,2,0,L|199:304,2,67.5000025749208,2|0|0,0:0|0:0|0:0,0:0:0:0:
268,144,159273,6,0,L|256:61,1,67.5000025749208,2|0,0:0|0:0,0:0:0:0:
330,218,159630,2,0,L|318:301,1,67.5000025749208,2|0,0:0|0:0,0:0:0:0:
417,167,159987,6,0,P|461:160|488:168,1,67.5000025749208,2|0,0:0|0:0,0:0:0:0:
330,218,160344,2,0,P|286:225|259:217,1,67.5000025749208,2|2,0:0|0:0,0:0:0:0:
449,249,160701,6,0,L|461:332,1,67.5000025749208,2|0,0:0|0:0,0:0:0:0:
449,249,161058,1,2,0:0:0:0:
356,318,161237,2,0,L|344:401,1,67.5000025749208,2|0,0:0|0:0,0:0:0:0:
242,295,161594,2,0,L|254:378,1,67.5000025749208,2|0,0:0|0:0,0:0:0:0:
242,295,161951,1,2,0:0:0:0:
140,304,162130,6,0,L|128:387,1,67.5000025749208,0|2,0:0|0:0,0:0:0:0:
26,281,162487,2,0,L|38:364,1,67.5000025749208,0|2,0:0|0:0,0:0:0:0:
49,133,162844,6,0,P|33:93|0:71,2,67.5000025749208,2|2|2,0:0|0:0|0:0,0:0:0:0:
131,172,163380,2,0,P|173:178|209:160,2,67.5000025749208,2|0|0,0:0|0:0|0:0,0:0:0:0:
56,223,163915,2,0,P|29:256|26:296,2,67.5000025749208,2|0|0,0:0|0:0|0:0,0:0:0:0:
107,288,164451,5,2,0:0:0:0:
119,292,164630,1,0,0:0:0:0:
131,297,164808,1,0,0:0:0:0:
143,301,164987,2,0,L|231:303,1,67.5000025749208,2|2,0:0|0:0,0:0:0:0:
291,268,165344,6,0,L|296:236,5,22.5000008583069,0|0|0|0|0|0,3:0|3:0|3:0|3:0|3:0|3:0,0:0:0:0:
293,229,165701,5,8,0:1:0:0:
225,185,165880,1,0,0:0:0:0:
245,107,166058,1,2,0:0:0:0:
324,104,166237,1,10,0:0:0:0:
356,177,166415,2,0,P|389:198|433:198,1,76.5000014591217,10|0,0:1|0:0,0:0:0:0:
293,229,166773,1,10,0:0:0:0:
225,185,166951,6,0,P|188:181|128:212,1,76.5000014591217,2|8,0:0|0:1,0:0:0:0:
66,184,167308,2,0,P|44:214|40:281,1,76.5000014591217,10|0,0:0|0:0,0:0:0:0:
195,106,167665,5,2,3:2:0:0:
195,106,167755,1,2,3:2:0:0:
195,106,167844,2,0,B|197:79|197:79|202:68|202:68|204:26,1,76.5000014591217,8|2,0:1|0:0,0:0:0:0:
329,22,168201,5,0,3:2:0:0:
329,22,168290,1,0,3:2:0:0:
329,22,168380,1,2,3:2:0:0:
329,22,168469,1,0,3:2:0:0:
329,22,168558,2,0,P|369:40|401:78,1,76.5000014591217,8|2,0:1|0:0,0:0:0:0:
415,145,168915,1,2,0:0:0:0:
499,115,169094,6,0,P|503:158|486:205,1,76.5000014591217,8|8,0:0|0:1,0:0:0:0:
435,250,169451,1,0,0:0:0:0:
503,308,169630,6,0,P|467:333|418:342,1,76.5000014591217,8|0,0:0|0:0,0:0:0:0:
354,320,169987,1,8,0:1:0:0:
346,201,170165,6,0,P|381:175|430:166,1,76.5000014591217,8|0,0:0|0:0,0:0:0:0:
495,189,170522,1,0,0:0:0:0:
354,320,170701,2,0,P|311:322|275:306,1,76.5000014591217,8|0,0:0|0:0,0:0:0:0:
170,328,171058,5,0,3:0:0:0:
170,328,171148,1,0,3:0:0:0:
170,328,171237,1,0,3:0:0:0:
170,328,171326,1,0,3:0:0:0:
170,328,171415,2,0,L|162:250,1,76.5000014591217,10|0,0:1|0:0,0:0:0:0:
152,177,171773,1,2,0:0:0:0:
281,310,171951,6,0,L|289:232,1,76.5000014591217,10|10,0:0|0:1,0:0:0:0:
297,158,172309,1,0,0:0:0:0:
434,325,172487,6,0,L|426:247,1,76.5000014591217,10|2,0:0|0:0,0:0:0:0:
418,173,172844,1,8,0:1:0:0:
297,158,173023,6,0,L|289:236,1,76.5000014591217,10|0,0:0|0:0,0:0:0:0:
281,310,173381,1,2,0:0:0:0:
162,251,173558,2,0,P|111:243|55:258,1,76.5000014591217,8|2,0:0|0:0,0:0:0:0:
296,324,173915,5,0,3:2:0:0:
296,324,174005,1,0,3:2:0:0:
296,324,174094,1,2,3:2:0:0:
296,324,174183,1,0,3:2:0:0:
296,324,174273,2,0,B|302:229|210:214|210:214|83:172|90:53|207:3|318:94|210:214|210:214|128:229|102:310|185:352|215:296,1,774,12|0,0:1|0:0,0:0:0:0:
213,298,178201,1,2,0:0:0:0:
325,172,178558,6,0,P|353:167|402:180,1,72,2|2,0:0|0:0,0:0:0:0:
465,223,179094,2,0,L|459:303,1,72,2|2,0:0|0:0,0:0:0:0:
450,378,179630,1,2,0:0:0:0:
450,378,179808,1,2,0:0:0:0:
339,328,179987,6,0,P|299:329|247:356,2,99.0000030212403,2|2|2,0:0|0:0|0:0,0:0:0:0:
464,298,181058,1,2,0:0:0:0:
464,298,181415,2,0,B|483:273|483:273|488:237|462:198,1,99.0000030212403,2|2,0:0|0:0,0:0:0:0:
378,190,181951,2,0,P|341:201|272:200,1,99.0000030212403,2|2,0:0|0:0,0:0:0:0:
212,158,182487,1,2,0:0:0:0:
212,158,182665,1,2,0:0:0:0:
153,243,182844,6,0,P|171:298|175:359,2,99.0000030212403,2|2|0,0:0|0:0|0:0,0:0:0:0:
22,107,183915,1,2,0:0:0:0:
22,107,184094,2,0,P|15:55|37:1,1,99.0000030212403,2|0,0:0|0:0,0:0:0:0:
29,11,184630,1,2,0:0:0:0:
54,197,185344,6,0,B|38:218|15:204|15:204|22:182|50:184,1,74.2500002989769,2|0,0:0|0:0,0:0:0:0:
54,197,185701,6,0,B|29:280|97:331|97:331|143:321|151:264,1,215.999993408203,12|10,0:1|0:1,0:0:0:0:
94,384,186237,1,0,0:0:0:0:
144,291,186415,2,0,P|191:251|247:241,1,107.999996704102,10|0,0:0|0:0,0:0:0:0:
351,313,186773,1,2,0:0:0:0:
228,133,186951,5,8,0:0:0:0:
228,133,187040,1,8,0:0:0:0:
228,133,187130,2,0,B|176:121|127:155|127:155|99:98|37:84,1,215.999993408203,10|10,0:1|0:1,0:0:0:0:
46,86,187665,1,2,0:0:0:0:
181,41,187844,2,0,P|239:36|288:-14,1,107.999996704102,8|0,0:0|0:0,0:0:0:0:
374,95,188201,2,0,P|432:100|481:150,1,107.999996704102,2|8,0:0|0:0,0:0:0:0:
372,256,188469,5,8,0:0:0:0:
372,256,188558,2,0,P|317:204|376:95,1,215.999993408203,8|10,0:1|0:1,0:0:0:0:
373,95,189094,1,0,0:0:0:0:
244,219,189273,2,0,P|182:233|126:216,1,107.999996704102,8|0,0:0|0:0,0:0:0:0:
439,191,189630,5,2,0:0:0:0:
409,322,189808,1,8,0:0:0:0:
404,330,189898,1,8,0:0:0:0:
398,339,189987,2,0,P|347:369|279:352,1,107.999996704102,10|0,0:1|0:0,0:0:0:0:
497,279,190344,1,10,0:1:0:0:
326,281,190523,5,10,0:0:0:0:
326,281,190612,1,8,0:0:0:0:
326,281,190701,1,8,0:0:0:0:
439,191,190880,1,10,0:0:0:0:
263,32,191058,5,6,0:3:0:0:
263,32,191237,1,4,0:3:0:0:
168,172,191415,6,0,B|136:189|114:178|114:178|164:99|265:165,1,215.999993408203,12|8,0:1|0:1,0:0:0:0:
252,157,191951,1,0,0:0:0:0:
323,235,192130,2,0,P|343:266|326:334,1,107.999996704102,8|0,0:0|0:0,0:0:0:0:
150,354,192487,2,0,P|170:324|154:255,1,107.999996704102,2|8,0:0|0:0,0:0:0:0:
43,259,192755,5,8,0:0:0:0:
43,259,192844,2,0,P|56:360|165:332,1,215.999993408203,10|10,0:1|0:1,0:0:0:0:
149,353,193380,1,2,0:0:0:0:
108,192,193558,5,8,0:0:0:0:
218,52,193737,1,10,0:0:0:0:
342,154,193915,5,6,0:3:0:0:
207,156,194094,1,4,0:3:0:0:
207,156,194273,6,0,B|174:298|279:222|223:397,1,215.999993408203,10|10,0:1|0:1,0:0:0:0:
233,361,194808,1,0,0:0:0:0:
318,219,194987,2,0,P|366:201|439:221,1,107.999996704102,8|0,0:0|0:0,0:0:0:0:
502,289,195344,1,2,0:0:0:0:
512,117,195523,5,8,0:0:0:0:
512,117,195612,1,8,0:0:0:0:
512,117,195701,2,0,B|429:103|429:103|390:69|390:69|306:53,2,215.999993408203,8|10|8,0:1|0:1|0:0,0:0:0:0:
512,117,196773,1,2,0:0:0:0:
441,227,196951,5,8,0:0:0:0:
441,227,197040,1,8,0:0:0:0:
441,227,197130,2,0,P|378:202|225:221,1,215.999993408203,8|10,0:1|0:1,0:0:0:0:
233,216,197665,1,0,0:0:0:0:
139,278,197844,6,0,P|129:318|127:398,1,107.999996704102,10|0,0:0|0:0,0:0:0:0:
27,212,198201,2,0,P|17:172|15:92,1,107.999996704102,2|8,0:0|0:0,0:0:0:0:
194,62,198558,6,0,B|249:49|286:92|286:92|318:91|329:55,1,161.999995056153,10|0,0:1|0:0,0:0:0:0:
328,56,198915,1,10,0:1:0:0:
215,148,199094,6,0,P|152:140|95:165,1,107.999996704102,2|8,0:0|0:0,0:0:0:0:
27,212,199451,1,2,0:0:0:0:
309,312,199630,6,0,P|246:320|189:295,1,107.999996704102,2|8,0:0|0:0,0:0:0:0:
31,216,199898,5,8,0:0:0:0:
31,216,199987,2,0,B|36:284|111:280|111:280|128:222|182:210,1,215.999993408203,8|10,0:1|0:1,0:0:0:0:
93,332,200523,1,0,0:0:0:0:
176,211,200701,2,0,P|236:203|301:242,1,107.999996704102,8|0,0:0|0:0,0:0:0:0:
348,280,201058,2,0,P|412:296|481:261,1,107.999996704102,2|8,0:0|0:1,0:0:0:0:
502,218,201326,5,8,0:1:0:0:
502,218,201415,2,0,L|518:69,1,143.999991790772,14|8,0:1|0:0,0:0:0:0:
437,4,201773,5,10,0:3:0:0:
377,0,201892,5,8,0:3:0:0:
331,33,202011,5,8,0:3:0:0:
314,77,202130,5,4,0:3:0:0:
321,96,202249,6,0,P|332:131|336:173,1,71.9999978027344,4|4,0:3|0:3,0:0:0:0:
152,309,202487,6,0,L|117:329,1,22.5,10|2,0:0|0:0,0:0:0:0:
138,294,202576,2,0,L|100:305,1,23.6249992790222,2|2,0:0|0:0,0:0:0:0:
129,276,202665,2,0,L|89:276,1,25.8750004935265,2|2,0:0|0:0,0:0:0:0:
124,256,202755,2,0,L|86:246,1,25.8750004935265,2|2,0:0|0:0,0:0:0:0:
126,236,202844,6,0,B|272:252|187:147|358:168,2,233.999989288331,12|8|8,0:1|0:1|0:0,0:0:0:0:
126,236,203737,1,0,0:0:0:0:
37,122,203915,1,2,0:0:0:0:
219,32,204094,5,8,0:0:0:0:
219,32,204183,1,8,0:0:0:0:
219,32,204273,2,0,B|256:64|259:108|231:151|231:151|202:118|235:77,1,175.499991966248,10|0,0:1|0:0,0:0:0:0:
325,52,204630,2,0,P|379:47|445:73,1,116.999994644165,10|2,0:1|0:0,0:0:0:0:
497,273,204987,5,8,0:0:0:0:
315,214,205165,1,10,0:0:0:0:
472,175,205344,5,10,0:3:0:0:
394,322,205523,1,8,0:0:0:0:
394,322,205612,1,8,0:0:0:0:
394,322,205701,6,0,B|332:291|272:344|272:344|214:328|211:254,1,233.999989288331,8|10,0:1|0:1,0:0:0:0:
212,270,206237,1,0,0:0:0:0:
113,364,206415,2,0,P|63:376|-14:354,1,116.999994644165,8|0,0:0|0:0,0:0:0:0:
113,364,206773,1,2,0:0:0:0:
236,233,206951,5,8,0:0:0:0:
236,233,207040,1,8,0:0:0:0:
236,233,207130,1,8,0:1:0:0:
19,205,207308,1,0,0:0:0:0:
140,64,207487,2,0,B|148:104|148:104|141:131|141:131|154:203,1,116.999994644165,10|0,0:1|0:0,0:0:0:0:
269,340,207844,2,0,B|277:299|277:299|270:272|270:272|283:200,1,116.999994644165,8|0,0:0|0:0,0:0:0:0:
466,148,208201,5,2,0:0:0:0:
375,21,208380,1,8,0:0:0:0:
375,21,208469,1,8,0:0:0:0:
375,21,208558,2,0,B|303:32|303:32|277:65|277:65|181:87,1,175.499991966248,8|0,0:1|0:0,0:0:0:0:
193,66,208915,6,0,P|151:27|63:30,1,116.999994644165,10|0,0:1|0:0,0:0:0:0:
105,233,209273,2,0,P|159:216|201:138,1,116.999994644165,10|0,0:0|0:0,0:0:0:0:
4,73,209630,2,0,P|-8:128|37:203,1,116.999994644165,2|8,0:0|0:0,0:0:0:0:
186,323,209987,6,0,P|254:294|401:304,1,175.499991966248,10|0,0:1|0:0,0:0:0:0:
354,290,210344,1,10,0:1:0:0:
303,167,210523,2,0,P|286:122|297:42,1,116.999994644165,2|8,0:0|0:0,0:0:0:0:
291,54,210880,1,2,0:0:0:0:
445,181,211058,2,0,P|462:226|451:306,1,116.999994644165,2|8,0:0|0:0,0:0:0:0:
248,236,211415,6,0,B|199:320|248:397|329:395|353:323|303:286,2,233.999989288331,8|10|8,0:1|0:1|0:0,0:0:0:0:
248,236,212308,1,0,0:0:0:0:
355,152,212487,2,0,B|398:146|398:146|419:158|419:158|500:150,1,116.999991544724,2|8,0:0|0:0,0:0:0:0:
184,101,212844,2,0,B|141:95|141:95|120:107|120:107|40:96,1,116.999991544724,10|8,0:1|0:0,0:0:0:0:
261,27,213201,1,10,0:1:0:0:
351,278,213380,5,10,0:0:0:0:
351,278,213469,1,8,0:0:0:0:
351,278,213558,1,8,0:0:0:0:
174,366,213737,1,10,0:0:0:0:
102,189,213915,1,6,0:3:0:0:
294,356,214094,1,4,0:3:0:0:
294,356,214273,6,0,P|353:362|516:298,1,233.999989288331,12|8,0:1|0:1,0:0:0:0:
512,300,214808,1,0,0:0:0:0:
424,220,214987,2,0,P|362:192|308:190,1,116.999994644165,8|0,0:0|0:0,0:0:0:0:
180,153,215344,2,0,P|123:195|96:238,1,116.999994644165,2|8,0:0|0:0,0:0:0:0:
294,57,215701,6,0,B|351:52|392:98|392:98|418:67|482:62,1,175.499991966248,10|0,0:1|0:0,0:0:0:0:
447,67,216058,1,10,0:1:0:0:
309,149,216237,1,10,0:1:0:0:
112,63,216415,5,8,0:0:0:0:
112,63,216594,1,2,0:0:0:0:
132,305,216773,5,10,0:3:0:0:
179,188,216951,1,8,0:0:0:0:
187,180,217040,1,8,0:0:0:0:
198,174,217130,2,0,P|240:154|320:150,1,116.999994644165,8|0,0:1|0:0,0:0:0:0:
355,338,217487,2,0,P|316:311|273:243,1,116.999994644165,10|0,0:1|0:0,0:0:0:0:
418,120,217844,2,0,P|414:166|376:238,1,116.999994644165,8|0,0:0|0:0,0:0:0:0:
278,254,218201,1,2,0:0:0:0:
190,93,218380,5,8,0:0:0:0:
190,93,218469,1,8,0:0:0:0:
190,93,218558,1,8,0:1:0:0:
76,168,218737,1,0,0:0:0:0:
11,2,218915,1,10,0:1:0:0:
11,2,219094,1,0,0:0:0:0:
184,188,219273,6,0,B|191:267|119:290|119:290|103:262|111:226,1,175.499991966248,8|0,0:0|0:0,0:0:0:0:
184,188,219630,2,0,P|229:168|313:205,1,116.999994644165,2|8,0:0|0:0,0:0:0:0:
369,337,219987,6,0,P|291:317|301:178,1,233.999989288331,8|10,0:1|0:1,0:0:0:0:
392,157,220523,1,2,0:0:0:0:
392,157,220612,1,2,0:0:0:0:
392,157,220701,2,0,B|450:199|541:162|494:61|423:96,1,175.499987317086,10|0,0:0|0:0,0:0:0:0:
316,118,221058,2,0,B|301:144|260:139|260:139|277:107|309:105,1,116.999994644165,2|8,0:0|0:0,0:0:0:0:
430,253,221415,6,0,P|394:335|297:385,1,175.499991966248,10|0,0:1|0:0,0:0:0:0:
323,379,221773,1,10,0:1:0:0:
228,314,221951,6,0,P|208:256|170:203,1,116.999994644165,2|8,0:0|0:0,0:0:0:0:
228,314,222308,1,2,0:0:0:0:
296,159,222487,2,0,P|315:101|353:48,1,116.999994644165,2|8,0:0|0:0,0:0:0:0:
51,277,222844,6,0,B|-11:229|7:155|7:155|61:151|88:100,2,233.999989288331,8|10|8,0:1|0:1|0:0,0:0:0:0:
51,277,223737,1,0,0:0:0:0:
155,355,223915,1,2,0:0:0:0:
281,198,224094,5,8,0:1:0:0:
290,190,224183,1,8,0:1:0:0:
300,185,224273,2,0,P|365:181|433:214,1,116.999994644165,14|8,0:0|0:1,0:0:0:0:
497,275,224630,1,10,0:1:0:0:
174,193,224808,6,0,P|190:129|242:75,1,116.999994644165,14|8,0:0|0:1,0:0:0:0:
319,33,225165,1,10,0:1:0:0:
142,318,225344,5,10,0:0:0:0:
34,129,225523,1,8,0:1:0:0:
256,197,225701,5,12,0:1:0:0:
256,192,225790,12,0,227487,0:0:0:0:
299,308,228469,5,2,0:0:0:0:
299,308,228558,2,0,B|159:229|166:87|247:44|328:44|358:122|358:122|429:70|513:151|468:261|365:292,1,719.999980926514,2|0,0:0|0:0,0:0:0:0:
