osu file format v14

[General]
AudioFilename: audio.mp3
AudioLeadIn: 0
PreviewTime: 63737
Countdown: 0
SampleSet: Soft
StackLeniency: 0.7
Mode: 0
LetterboxInBreaks: 0
WidescreenStoryboard: 1

[Editor]
DistanceSpacing: 1.1
BeatDivisor: 4
GridSize: 8
TimelineZoom: 2.599998

[Metadata]
Title:All your reasons
TitleUnicode:All your reasons
Artist:Primary
ArtistUnicode:Primary
Creator:keeVY
Version:Normal
Source:
Tags:japanese pop rock ゆいこんぬ female meis clauson yuikonnu yuiko from garden 11th album nao tomori naotoshi
BeatmapID:2836713
BeatmapSetID:1371427

[Difficulty]
HPDrainRate:4
CircleSize:3.5
OverallDifficulty:5
ApproachRate:6
SliderMultiplier:1.79999990463257
SliderTickRate:1

[Events]
//Background and Video events
0,0,"bg.jpg",0,0
//Break Periods
2,91615,95701
2,154472,164273
2,180187,184294
//Storyboard Layer 0 (Background)
//Storyboard Layer 1 (Fail)
//Storyboard Layer 2 (Pass)
//Storyboard Layer 3 (Foreground)
//Storyboard Layer 4 (Overlay)
//Storyboard Sound Samples

[TimingPoints]
-8584,714.285714285714,4,2,1,45,1,0
1416,-100,4,2,1,45,0,0
2844,-100,4,2,1,85,0,1
13915,-100,4,2,1,90,0,0
14273,-100,4,2,1,85,0,1
24273,-100,4,2,2,85,0,1
24630,-100,4,2,1,85,0,1
25032,-100,4,2,1,55,0,1
25165,-100,4,2,1,85,0,1
25389,-100,4,2,1,55,0,1
25523,-100,4,2,1,85,0,1
25701,-100,4,2,1,85,0,0
27308,-100,4,2,1,5,0,0
27665,-100,4,2,1,60,0,0
28558,-100,4,2,1,65,0,0
51415,-100,4,2,1,75,0,0
63915,-100,4,2,1,65,0,0
65344,-100,4,2,1,65,0,0
65701,-100,4,2,1,85,0,1
76773,-100,4,2,1,90,0,0
77130,-100,4,2,1,85,0,1
88558,-100,4,2,1,75,0,0
89630,-100,4,2,1,5,0,0
89987,-100,4,2,1,70,0,0
91415,-100,4,2,1,55,0,0
96415,-100,4,2,1,75,0,0
97130,-100,4,2,1,65,0,0
114273,-100,4,2,1,75,0,0
128558,-100,4,2,1,85,0,1
139630,-100,4,2,1,95,0,0
139987,-100,4,2,1,85,0,1
151415,-117.647058823529,4,2,1,85,0,0
152487,-117.647058823529,4,2,1,5,0,0
152665,-117.647058823529,4,2,1,50,0,0
153380,-100,4,2,1,50,0,0
153558,-100,4,2,1,60,0,0
154273,-100,4,2,1,50,0,0
165344,-100,4,2,1,35,0,0
165701,-100,4,2,1,60,0,0
174273,-100,4,2,1,55,0,0
174630,-153.846153846154,4,2,1,55,0,0
178112,-100,4,2,1,5,0,0
178201,-100,4,2,1,55,0,0
179987,-100,4,2,1,55,0,0
185344,-100,4,2,1,65,0,0
185612,-100,4,2,1,5,0,0
185701,-100,4,2,1,85,0,1
191058,-100,4,2,1,90,0,0
191415,-100,4,2,1,85,0,1
198826,-100,4,2,1,5,0,1
198915,-100,4,2,1,85,0,1
202487,-100,4,2,1,60,0,0
202576,-100,4,2,1,60,0,0
202665,-100,4,2,1,60,0,0
202844,-100,4,2,1,90,0,1
210255,-100,4,2,1,5,0,1
210344,-100,4,2,1,90,0,1
213915,-100,4,2,1,95,0,0
214273,-100,4,2,1,90,0,1
215969,-100,4,2,1,5,0,1
216058,-100,4,2,1,90,0,1
221683,-100,4,2,1,5,0,1
221773,-100,4,2,1,90,0,1
225701,-100,4,2,1,75,0,0
227487,-100,4,2,1,5,0,0
228469,-100,4,2,1,40,0,0
231415,-100,4,2,1,20,0,0

[Colours]
Combo1 : 201,209,224
Combo2 : 255,106,106
Combo3 : 155,214,249
Combo4 : 254,140,107

[HitObjects]
322,115,1058,5,2,0:0:0:0:
322,115,1416,2,0,P|375:103|463:113,2,134.999992847443,2|2|2,0:0|0:0|0:0,0:0:0:0:
241,186,2844,6,0,P|217:194|180:189,1,44.9999976158143,14|0,0:1|0:0,0:0:0:0:
151,165,3201,2,0,P|115:158|89:159,1,44.9999976158143,8|0,0:1|0:0,0:0:0:0:
72,199,3558,2,0,P|85:251|89:299,1,89.9999952316285,8|10,0:0|0:1,0:0:0:0:
166,361,4273,2,0,B|197:351|222:364|222:364|238:364|250:346,1,89.9999952316285,10|10,0:1|0:1,0:0:0:0:
295,320,4808,1,2,0:0:0:0:
314,269,4987,2,0,P|300:212|298:162,1,89.9999952316285,8|2,0:0|0:0,0:0:0:0:
346,84,5701,6,0,B|381:78|381:78|395:68|395:68|435:62,1,89.9999952316285,8|10,0:1|0:1,0:0:0:0:
490,152,6415,2,0,P|495:210|472:243,1,89.9999952316285,8|2,0:0|0:0,0:0:0:0:
433,263,6951,1,8,0:0:0:0:
381,244,7130,2,0,P|363:218|354:201,2,44.9999976158143,8|8|10,0:1|0:0|0:1,0:0:0:0:
356,349,7844,2,0,B|328:345|328:345|311:350|311:350|260:344,1,89.9999952316285,8|2,0:0|0:0,0:0:0:0:
214,358,8380,1,8,0:0:0:0:
166,332,8558,6,0,P|147:291|159:230,1,89.9999952316285,8|10,0:1|0:1,0:0:0:0:
235,180,9273,2,0,P|254:139|242:78,1,89.9999952316285,10|2,0:0|0:0,0:0:0:0:
219,51,9808,1,8,0:0:0:0:
166,38,9987,2,0,L|64:34,1,89.9999952316285,10|2,0:1|0:0,0:0:0:0:
31,64,10523,1,2,0:0:0:0:
7,169,10880,1,2,0:0:0:0:
8,222,11058,2,0,L|15:278,1,44.9999976158143,2|8,0:0|0:0,0:0:0:0:
38,314,11415,6,0,B|72:327|100:327|100:327|109:344|123:355,1,89.9999952316285,8|10,0:1|0:1,0:0:0:0:
224,349,12130,2,0,P|237:319|241:256,1,89.9999952316285,8|10,0:0|0:1,0:0:0:0:
197,232,12665,1,8,0:0:0:0:
150,205,12844,2,0,B|130:168|142:138|142:138|162:114,1,89.9999952316285,10|10,0:1|0:1,0:0:0:0:
198,90,13380,1,10,0:0:0:0:
249,75,13558,2,0,P|271:83|302:95,2,44.9999976158143,8|10|10,0:0|0:0|0:3,0:0:0:0:
161,10,14273,6,0,B|110:8|56:32,1,89.9999952316285,12|8,0:1|0:1,0:0:0:0:
21,120,14987,2,0,B|71:123|122:158,1,89.9999952316285,8|2,0:0|0:0,0:0:0:0:
148,181,15523,1,8,0:0:0:0:
172,229,15701,2,0,L|191:324,1,89.9999952316285,10|10,0:1|0:1,0:0:0:0:
297,313,16415,2,0,L|310:265,2,44.9999976158143,10|2|2,0:0|0:0|0:0,0:0:0:0:
330,355,16951,1,8,0:0:0:0:
382,368,17130,6,0,P|444:368|494:330,1,89.9999952316285,10|2,0:1|0:0,0:0:0:0:
497,252,17844,2,0,P|480:206|436:141,1,89.9999952316285,8|2,0:0|0:0,0:0:0:0:
405,172,18380,1,8,0:0:0:0:
369,212,18558,2,0,P|342:228|320:232,1,44.9999976158143,8|8,0:1|0:0,0:0:0:0:
279,219,18915,1,10,0:1:0:0:
204,140,19273,2,0,P|203:98|237:41,1,89.9999952316285,8|2,0:0|0:0,0:0:0:0:
260,17,19808,1,8,0:0:0:0:
312,5,19987,6,0,L|412:1,1,89.9999952316285,8|10,0:1|0:1,0:0:0:0:
479,76,20701,2,0,P|493:122|492:184,1,89.9999952316285,10|2,0:0|0:0,0:0:0:0:
413,233,21415,2,0,P|368:216|306:221,1,89.9999952316285,10|10,0:1|0:1,0:0:0:0:
282,247,21951,2,0,P|234:260|181:247,1,89.9999952316285,2|2,0:0|0:0,0:0:0:0:
157,213,22487,2,0,L|150:158,1,44.9999976158143,10|8,0:1|0:0,0:0:0:0:
184,125,22844,6,0,P|200:79|204:19,2,89.9999952316285,8|10|8,0:1|0:1|0:0,0:0:0:0:
81,159,23915,2,0,P|35:163|22:168,1,44.9999976158143,2|8,0:0|0:0,0:0:0:0:
5,207,24273,2,0,L|27:316,1,89.9999952316285,14|10,0:1|0:0,0:0:0:0:
69,322,24808,1,10,0:3:0:0:
119,302,24987,2,0,P|147:298|176:306,1,44.9999976158143,8|10,0:0|0:1,0:0:0:0:
202,338,25344,1,10,0:3:0:0:
282,266,25701,5,12,0:1:0:0:
256,192,25790,12,12,27308,0:1:0:0:
428,321,27844,6,0,P|437:293|436:266,1,44.9999976158143,8|8,0:0|0:3,0:0:0:0:
398,240,28201,2,0,P|391:205|397:176,1,44.9999976158143,4|4,0:3|0:3,0:0:0:0:
414,146,28558,6,0,L|465:138,2,44.9999976158143,12|0|0,0:1|0:0|0:0,0:0:0:0:
312,108,29273,1,10,0:0:0:0:
269,75,29451,2,0,P|228:65|211:64,1,44.9999976158143,2|0,0:0|0:0,0:0:0:0:
180,95,29808,2,0,L|185:199,2,89.9999952316285,10|10|2,0:1|0:1|0:0,0:0:0:0:
99,22,30880,1,2,0:0:0:0:
21,97,31237,5,2,3:2:0:0:
41,146,31415,2,0,P|57:192|63:250,1,89.9999952316285,8|10,0:1|0:1,0:0:0:0:
125,320,32130,2,0,P|148:284|201:259,1,89.9999952316285,8|2,0:0|0:0,0:0:0:0:
238,280,32665,1,10,0:1:0:0:
327,340,33023,1,10,0:0:0:0:
365,301,33201,2,0,P|375:267|376:237,1,44.9999976158143,10|10,0:1|0:1,0:0:0:0:
344,213,33558,2,0,P|325:172|316:115,1,89.9999952316285,10|2,0:0|0:0,0:0:0:0:
261,34,34273,6,0,P|221:36|199:39,2,44.9999976158143,10|0|0,0:1|0:0|0:0,0:0:0:0:
314,40,34808,1,0,0:0:0:0:
360,12,34987,2,0,P|381:7|417:7,1,44.9999976158143,10|0,0:0|0:0,0:0:0:0:
475,87,35523,2,0,P|488:119|505:201,2,89.9999952316285,10|10|2,0:1|0:1|0:0,0:0:0:0:
404,5,36594,1,2,0:0:0:0:
330,84,36951,5,2,3:2:0:0:
293,123,37130,2,0,P|231:140|187:131,1,89.9999952316285,8|10,0:1|0:1,0:0:0:0:
128,61,37844,1,8,0:0:0:0:
20,73,38201,1,2,0:0:0:0:
10,126,38380,2,0,P|27:174|32:232,1,89.9999952316285,10|10,0:1|0:0,0:0:0:0:
10,261,38915,1,2,0:0:0:0:
41,364,39273,1,8,0:0:0:0:
137,316,39630,2,0,P|161:314|190:320,1,44.9999976158143,8|8,0:1|0:0,0:0:0:0:
230,340,39987,6,0,L|235:394,2,44.9999976158143,12|0|0,0:1|0:0|0:0,0:0:0:0:
260,236,40701,2,0,L|264:179,1,44.9999976158143,10|2,0:0|0:0,0:0:0:0:
162,153,41237,2,0,P|128:160|46:146,2,89.9999952316285,10|10|2,0:1|0:1|0:0,0:0:0:0:
208,55,42308,2,0,P|237:39|280:34,1,44.9999976158143,2|0,0:0|0:0,0:0:0:0:
296,59,42665,1,2,3:2:0:0:
333,98,42844,6,0,P|359:128|410:143,1,89.9999952316285,8|10,0:1|0:1,0:0:0:0:
512,123,43558,1,8,0:0:0:0:
489,228,43915,1,2,0:0:0:0:
448,268,44094,2,0,P|398:272|342:257,1,89.9999952316285,10|10,0:1|0:0,0:0:0:0:
317,229,44630,2,0,P|310:202|298:173,2,44.9999976158143,10|2|10,0:1|0:0|0:0,0:0:0:0:
242,306,45344,2,0,P|206:313|177:334,1,44.9999976158143,2|2,0:0|3:2,0:0:0:0:
148,336,45701,6,0,L|146:382,2,44.9999976158143,8|0|0,0:1|0:0|0:0,0:0:0:0:
68,262,46415,2,0,L|57:200,1,44.9999976158143,10|2,0:0|0:0,0:0:0:0:
48,110,46951,1,10,0:1:0:0:
145,126,47308,2,0,P|172:131|202:131,1,44.9999976158143,10|8,0:1|0:1,0:0:0:0:
232,106,47665,2,0,L|245:12,1,89.9999952316285,2|2,0:0|0:0,0:0:0:0:
351,4,48380,5,2,3:2:0:0:
391,39,48558,2,0,P|429:66|457:124,1,89.9999952316285,8|10,0:1|0:1,0:0:0:0:
408,202,49273,2,0,P|368:182|301:166,1,89.9999952316285,8|2,0:0|0:0,0:0:0:0:
279,197,49808,1,10,0:1:0:0:
240,297,50165,1,10,0:0:0:0:
199,333,50344,2,0,P|178:344|146:345,1,44.9999976158143,2|8,0:0|0:1,0:0:0:0:
107,324,50701,2,0,L|39:329,2,44.9999976158143,8|8|10,0:0|0:0|0:3,0:0:0:0:
144,222,51415,6,0,P|152:164|147:73,1,134.999992847443,14|8,0:1|0:1,0:0:0:0:
108,51,52130,2,0,L|40:28,1,44.9999976158143,10|8,0:0|0:0,0:0:0:0:
12,47,52487,1,14,0:1:0:0:
1,208,53023,2,0,P|6:250|16:303,2,89.9999952316285,10|10|2,0:0|0:1|0:0,0:0:0:0:
73,127,54094,5,10,0:0:0:0:
124,109,54273,2,0,B|204:100|176:154|279:137,1,134.999992847443,12|8,0:1|0:1,0:0:0:0:
300,115,54987,2,0,L|310:65,1,44.9999976158143,8|0,0:0|0:0,0:0:0:0:
329,20,55344,1,14,0:1:0:0:
467,104,55880,2,0,L|527:96,2,44.9999976158143,10|0|10,0:0|0:0|0:1,0:0:0:0:
427,140,56415,2,0,P|421:174|421:195,1,44.9999976158143,8|10,0:0|0:1,0:0:0:0:
449,230,56773,1,12,0:0:0:0:
375,308,57130,6,0,B|321:298|321:298|299:280|299:280|217:266,1,134.999992847443,14|8,0:1|0:1,0:0:0:0:
196,287,57844,2,0,P|158:280|142:269,1,44.9999976158143,10|10,0:0|0:0,0:0:0:0:
139,224,58201,1,14,0:1:0:0:
229,89,58737,2,0,L|336:100,2,89.9999952316285,10|10|2,0:0|0:1|0:0,0:0:0:0:
125,61,59808,5,10,0:0:0:0:
72,73,59987,2,0,P|27:113|26:203,1,134.999992847443,14|8,0:1|0:1,0:0:0:0:
46,230,60701,1,8,0:0:0:0:
152,210,61058,2,0,B|196:238|244:233|244:233|311:187,1,134.999992847443,14|10,0:1|0:0,0:0:0:0:
297,105,61951,1,0,0:0:0:0:
276,55,62130,1,8,0:3:0:0:
374,10,62487,1,4,0:3:0:0:
452,84,62844,6,0,P|435:142|431:223,1,134.999992847443,14|8,0:1|0:1,0:0:0:0:
461,260,63558,2,0,P|470:287|472:313,1,44.9999976158143,10|10,0:0|0:0,0:0:0:0:
452,353,63915,1,14,0:1:0:0:
113,84,65344,6,0,P|84:90|57:105,1,44.9999976158143,2|2,0:0|0:0,0:0:0:0:
46,144,65701,2,0,L|65:265,2,89.9999952316285,14|8|8,0:1|0:1|0:0,0:0:0:0:
154,151,66773,2,0,P|181:141|217:149,1,44.9999976158143,10|8,0:1|0:0,0:0:0:0:
240,173,67130,2,0,P|306:191|356:180,1,89.9999952316285,10|10,0:1|0:1,0:0:0:0:
376,170,67665,1,2,0:0:0:0:
413,131,67844,2,0,L|415:78,2,44.9999976158143,8|2|2,0:0|0:0|0:0,0:0:0:0:
444,174,68380,1,8,0:0:0:0:
461,225,68558,6,0,P|459:284|438:348,1,89.9999952316285,8|10,0:1|0:1,0:0:0:0:
348,347,69273,2,0,B|312:332|312:332|249:329,1,89.9999952316285,8|2,0:0|0:0,0:0:0:0:
210,349,69808,1,8,0:0:0:0:
165,317,69987,2,0,P|159:291|161:272,1,44.9999976158143,8|0,0:1|0:0,0:0:0:0:
194,230,70344,1,10,0:1:0:0:
300,250,70701,2,0,P|331:251|386:187,1,89.9999952316285,8|2,0:0|0:0,0:0:0:0:
473,168,71415,6,0,B|465:124|487:125|474:78,1,89.9999952316285,8|10,0:1|0:1,0:0:0:0:
379,27,72130,1,10,0:0:0:0:
282,75,72487,1,2,0:0:0:0:
186,26,72844,2,0,P|121:21|83:60,1,89.9999952316285,10|10,0:1|0:1,0:0:0:0:
69,75,73380,2,0,B|72:110|72:110|75:118|75:118|80:171,1,89.9999952316285,2|2,0:0|0:0,0:0:0:0:
111,206,73915,2,0,P|148:202|163:207,1,44.9999976158143,10|8,0:1|0:0,0:0:0:0:
188,246,74273,6,0,L|201:378,2,89.9999952316285,8|10|8,0:1|0:1|0:0,0:0:0:0:
204,139,75344,1,2,0:0:0:0:
297,193,75701,2,0,P|339:210|396:205,1,89.9999952316285,10|10,0:1|0:1,0:0:0:0:
429,180,76237,1,8,0:0:0:0:
476,204,76415,2,0,L|485:263,1,44.9999976158143,8|10,0:0|0:0,0:0:0:0:
459,297,76773,2,0,L|453:346,1,44.9999976158143,6|4,0:3|0:3,0:0:0:0:
415,379,77130,6,0,P|366:354|310:365,1,89.9999952316285,12|8,0:1|0:1,0:0:0:0:
235,307,77844,1,8,0:0:0:0:
142,363,78201,1,2,0:0:0:0:
97,264,78558,2,0,P|99:211|91:162,1,89.9999952316285,10|10,0:1|0:1,0:0:0:0:
73,124,79094,1,2,0:0:0:0:
44,77,79273,2,0,L|-23:76,2,44.9999976158143,8|2|2,0:0|0:0|0:0,0:0:0:0:
86,44,79808,1,8,0:0:0:0:
137,26,79987,6,0,B|161:27|176:44|176:44|199:35|229:42,1,89.9999952316285,8|10,0:1|0:1,0:0:0:0:
319,84,80701,2,0,P|333:141|335:188,1,89.9999952316285,8|2,0:0|0:0,0:0:0:0:
316,222,81237,1,8,0:0:0:0:
283,264,81415,2,0,L|234:267,2,44.9999976158143,8|0|10,0:1|0:0|0:1,0:0:0:0:
362,337,82130,1,8,0:0:0:0:
459,290,82487,2,0,P|464:255|462:228,1,44.9999976158143,2|8,0:0|0:0,0:0:0:0:
427,205,82844,6,0,P|388:158|391:92,1,89.9999952316285,8|10,0:1|0:1,0:0:0:0:
439,38,83558,2,0,B|421:40|405:49|405:49|370:47|345:18,1,89.9999952316285,10|2,0:0|0:0,0:0:0:0:
302,24,84094,1,8,0:0:0:0:
253,48,84273,2,0,L|259:110,2,44.9999976158143,10|0|10,0:1|0:0|0:1,0:0:0:0:
152,8,84987,1,8,0:0:0:0:
94,99,85344,2,0,P|90:129|91:158,1,44.9999976158143,2|8,0:0|0:0,0:0:0:0:
124,185,85701,6,0,B|159:186|159:186|169:191|169:191|235:192,2,89.9999952316285,8|10|8,0:1|0:1|0:0,0:0:0:0:
44,258,86773,2,0,P|37:284|35:320,1,44.9999976158143,2|8,0:0|0:1,0:0:0:0:
71,341,87130,6,0,P|128:337|179:355,1,89.9999952316285,14|10,0:0|0:3,0:0:0:0:
207,368,87665,2,0,P|273:379|312:368,1,89.9999952316285,14|10,0:0|0:1,0:0:0:0:
339,343,88201,2,0,L|345:289,1,44.9999976158143,10|0,0:0|0:0,0:0:0:0:
328,246,88558,1,14,0:1:0:0:
382,94,89987,6,0,L|452:103,2,59.9999968210857,8|8|8,0:0|0:0|0:3,0:0:0:0:
309,123,90701,1,4,0:3:0:0:
254,124,90880,1,4,0:3:0:0:
208,94,91058,1,12,0:0:0:0:
134,179,91415,5,14,0:1:0:0:
102,63,97130,6,0,L|49:72,2,44.9999976158143,12|0|0,0:1|0:0|0:0,0:0:0:0:
205,94,97844,2,0,P|218:118|221:151,1,44.9999976158143,10|2,0:0|0:0,0:0:0:0:
197,240,98380,2,0,P|152:261|99:294,2,89.9999952316285,10|10|2,0:1|0:1|0:0,0:0:0:0:
294,192,99451,1,2,0:0:0:0:
391,238,99808,5,2,3:2:0:0:
411,288,99987,2,0,P|405:343|353:368,1,89.9999952316285,8|10,0:1|0:1,0:0:0:0:
282,316,100701,1,8,0:0:0:0:
181,355,101058,1,2,0:0:0:0:
155,307,101237,2,0,P|147:284|160:196,1,89.9999952316285,10|10,0:1|0:0,0:0:0:0:
188,181,101773,2,0,L|250:178,1,44.9999976158143,2|8,0:0|0:1,0:0:0:0:
284,193,102130,1,8,0:0:0:0:
356,113,102487,2,0,P|356:76|352:57,1,44.9999976158143,8|8,0:1|0:0,0:0:0:0:
312,34,102844,6,0,L|251:28,2,44.9999976158143,12|0|0,0:1|0:0|0:0,0:0:0:0:
418,14,103558,2,0,L|466:13,1,44.9999976158143,10|2,0:0|0:0,0:0:0:0:
506,112,104094,2,0,P|486:158|484:216,1,89.9999952316285,10|10,0:1|0:1,0:0:0:0:
386,247,104808,2,0,P|358:205|296:188,1,89.9999952316285,2|2,0:0|0:0,0:0:0:0:
224,232,105523,5,2,3:2:0:0:
183,266,105701,2,0,P|119:278|70:262,1,89.9999952316285,8|10,0:1|0:1,0:0:0:0:
8,209,106415,1,8,0:0:0:0:
19,101,106773,1,2,0:0:0:0:
61,67,106951,2,0,P|96:61|156:79,1,89.9999952316285,10|10,0:1|0:0,0:0:0:0:
193,103,107487,2,0,P|230:109|256:106,1,44.9999976158143,10|8,0:1|0:1,0:0:0:0:
284,82,107844,1,10,0:0:0:0:
370,146,108201,2,0,P|373:182|368:205,1,44.9999976158143,2|2,0:0|3:2,0:0:0:0:
345,238,108558,6,0,P|310:265|299:334,1,89.9999952316285,8|0,0:1|0:0,0:0:0:0:
372,383,109273,2,0,L|441:379,1,44.9999976158143,10|2,0:0|0:0,0:0:0:0:
496,307,109808,2,0,P|476:251|486:199,1,89.9999952316285,10|10,0:1|0:1,0:0:0:0:
502,115,110523,2,0,P|496:52|466:16,1,89.9999952316285,2|2,0:0|0:0,0:0:0:0:
379,65,111237,5,2,3:2:0:0:
339,101,111415,2,0,P|301:106|236:89,1,89.9999952316285,8|10,0:1|0:1,0:0:0:0:
160,36,112130,1,8,0:0:0:0:
62,83,112487,1,2,0:0:0:0:
29,126,112665,2,0,P|44:175|51:226,1,89.9999952316285,10|10,0:1|0:0,0:0:0:0:
83,255,113201,2,0,L|141:264,1,44.9999976158143,10|8,0:1|0:1,0:0:0:0:
178,243,113558,2,0,P|186:221|189:197,2,44.9999976158143,8|8|10,0:0|0:0|0:3,0:0:0:0:
201,291,114094,1,4,0:3:0:0:
231,335,114273,6,0,P|268:357|336:359,1,89.9999952316285,12|0,0:1|0:0,0:0:0:0:
402,300,114987,2,0,P|406:265|407:248,1,44.9999976158143,10|10,0:0|0:0,0:0:0:0:
390,203,115344,1,14,0:1:0:0:
292,73,115880,2,0,P|256:86|186:117,2,89.9999952316285,10|10|2,0:0|0:1|0:0,0:0:0:0:
405,18,116951,5,2,3:2:0:0:
457,32,117130,2,0,P|505:87|509:121,1,89.9999952316285,14|0,0:1|0:0,0:0:0:0:
458,197,117844,2,0,P|428:191|404:192,2,44.9999976158143,8|0|14,0:0|0:0|0:1,0:0:0:0:
494,236,118380,2,0,L|474:339,1,89.9999952316285,0|10,0:0|0:0,0:0:0:0:
378,368,119094,1,10,0:1:0:0:
333,337,119273,2,0,P|299:329|275:330,1,44.9999976158143,8|10,0:0|0:1,0:0:0:0:
242,355,119630,2,0,P|213:363|191:363,1,44.9999976158143,12|8,0:0|0:0,0:0:0:0:
153,333,119987,6,0,L|137:213,1,89.9999952316285,12|0,0:1|0:0,0:0:0:0:
191,148,120701,2,0,P|214:141|250:140,1,44.9999976158143,10|10,0:0|0:0,0:0:0:0:
284,160,121058,1,14,0:1:0:0:
188,28,121594,2,0,P|140:22|110:30,1,44.9999976158143,10|0,0:0|0:0,0:0:0:0:
89,21,121951,2,0,P|50:50|35:77,1,44.9999976158143,10|8,0:1|0:0,0:0:0:0:
33,98,122308,1,2,0:0:0:0:
66,200,122665,5,2,0:0:0:0:
116,179,122844,2,0,P|168:164|221:177,1,89.9999952316285,12|2,0:1|0:0,0:0:0:0:
268,254,123558,2,0,P|289:277|320:291,1,44.9999976158143,8|0,0:0|0:0,0:0:0:0:
353,271,123915,1,4,0:0:0:0:
402,250,124094,2,0,L|420:138,2,89.9999952316285,0|10|10,0:0|0:0|0:1,0:0:0:0:
427,292,124987,5,8,0:0:0:0:
359,364,125344,2,0,L|288:368,1,59.9999968210857,8|4,0:3|0:3,0:0:0:0:
263,368,125701,6,0,P|260:300|188:248,1,134.999992847443,12|8,0:1|0:1,0:0:0:0:
163,274,126415,2,0,P|136:283|109:287,1,44.9999976158143,8|8,0:0|0:0,0:0:0:0:
66,276,126773,1,14,0:1:0:0:
13,181,127130,2,0,P|56:152|100:145,1,89.9999952316285,0|10,0:0|0:1,0:0:0:0:
146,152,127665,1,10,0:1:0:0:
179,109,127844,2,0,L|181:58,2,44.9999976158143,8|10|10,0:0|0:0|0:3,0:0:0:0:
215,148,128380,1,8,0:3:0:0:
248,190,128558,6,0,P|256:236|273:302,1,89.9999952316285,12|8,0:1|0:1,0:0:0:0:
322,370,129273,2,0,P|350:320|390:305,1,89.9999952316285,8|2,0:0|0:0,0:0:0:0:
431,306,129808,1,8,0:0:0:0:
477,333,129987,2,0,L|483:382,2,44.9999976158143,10|0|10,0:1|0:0|0:1,0:0:0:0:
501,227,130701,2,0,P|490:165|458:137,1,89.9999952316285,8|2,0:0|0:0,0:0:0:0:
418,150,131237,1,8,0:0:0:0:
368,127,131415,6,0,L|353:3,1,89.9999952316285,8|10,0:1|0:1,0:0:0:0:
275,108,132130,2,0,P|210:144|157:127,1,89.9999952316285,8|2,0:0|0:0,0:0:0:0:
155,109,132665,1,8,0:0:0:0:
110,77,132844,2,0,P|73:42|13:29,2,89.9999952316285,8|10|10,0:1|0:1|0:0,0:0:0:0:
124,183,133915,1,2,0:0:0:0:
231,196,134273,6,0,P|293:182|323:202,1,89.9999952316285,8|10,0:1|0:1,0:0:0:0:
366,287,134987,1,10,0:0:0:0:
293,366,135344,1,2,0:0:0:0:
197,315,135701,2,0,P|135:301|78:311,1,89.9999952316285,10|10,0:1|0:1,0:0:0:0:
66,336,136237,2,0,P|9:316|10:266,1,89.9999952316285,2|2,0:0|0:0,0:0:0:0:
22,242,136773,2,0,L|32:185,1,44.9999976158143,2|8,0:0|0:0,0:0:0:0:
73,165,137130,6,0,B|110:164|110:164|119:169|119:169|185:170,2,89.9999952316285,8|10|10,0:1|0:1|0:0,0:0:0:0:
10,77,138201,1,2,0:0:0:0:
91,6,138558,2,0,P|157:15|197:30,1,89.9999952316285,10|10,0:1|0:1,0:0:0:0:
220,57,139094,1,10,0:0:0:0:
260,93,139273,2,0,L|257:150,2,44.9999976158143,8|10|6,0:0|0:0|0:3,0:0:0:0:
300,57,139808,1,4,0:3:0:0:
339,20,139987,6,0,P|390:10|441:40,1,89.9999952316285,12|8,0:1|0:1,0:0:0:0:
496,103,140701,2,0,P|473:166|469:209,1,89.9999952316285,8|2,0:0|0:0,0:0:0:0:
495,293,141415,2,0,B|462:281|462:281|388:286,1,89.9999952316285,10|10,0:1|0:1,0:0:0:0:
370,324,141951,2,0,P|326:349|276:329,1,89.9999952316285,2|2,0:0|0:0,0:0:0:0:
253,300,142487,2,0,L|248:243,1,44.9999976158143,2|8,0:0|0:0,0:0:0:0:
256,201,142844,6,0,P|290:166|360:147,2,89.9999952316285,8|10|10,0:1|0:1|0:0,0:0:0:0:
174,272,143915,2,0,L|106:276,1,44.9999976158143,2|8,0:0|0:0,0:0:0:0:
75,263,144273,2,0,P|65:241|49:212,2,44.9999976158143,8|0|10,0:1|0:0|0:1,0:0:0:0:
112,364,144987,1,8,0:0:0:0:
219,373,145344,1,2,0:0:0:0:
291,293,145701,6,0,P|351:281|405:305,1,89.9999952316285,8|10,0:1|0:1,0:0:0:0:
483,265,146415,1,10,0:0:0:0:
436,167,146773,1,2,0:0:0:0:
470,64,147130,2,0,L|513:46,2,44.9999976158143,10|0|10,0:1|0:0|0:1,0:0:0:0:
362,49,147844,2,0,P|292:32|250:43,1,89.9999952316285,8|2,0:0|0:0,0:0:0:0:
230,63,148380,1,8,0:0:0:0:
214,115,148558,6,0,L|224:220,1,89.9999952316285,8|10,0:1|0:1,0:0:0:0:
246,310,149273,1,8,0:0:0:0:
154,253,149630,2,0,P|126:243|100:241,1,44.9999976158143,2|8,0:0|0:1,0:0:0:0:
66,272,149987,6,0,P|13:250|1:184,1,89.9999952316285,14|8,0:0|0:1,0:0:0:0:
26,176,150523,2,0,L|34:85,1,89.9999952316285,14|8,0:0|0:1,0:0:0:0:
40,32,151058,1,10,0:3:0:0:
143,62,151415,6,0,B|202:20|267:60|267:60|245:143|160:136,1,267.749990921021,12|2,0:1|0:0,0:0:0:0:
372,225,153380,5,8,0:3:0:0:
400,270,153558,2,0,P|406:300|406:323,1,44.9999976158143,8|8,0:3|0:3,0:0:0:0:
375,358,153915,2,0,L|274:343,1,89.9999952316285,4|10,0:3|0:1,0:0:0:0:
400,42,165344,5,0,3:0:0:0:
448,128,165701,2,0,P|462:195|443:242,1,89.9999952316285,8|2,0:1|0:0,0:0:0:0:
391,288,166415,2,0,P|335:273|273:278,1,89.9999952316285,10|10,0:1|0:0,0:0:0:0:
268,308,166951,2,0,P|207:327|157:318,1,89.9999952316285,2|10,0:0|0:0,0:0:0:0:
97,273,167665,2,0,P|108:229|160:193,1,89.9999952316285,2|2,0:0|0:0,0:0:0:0:
229,155,168380,5,2,3:2:0:0:
243,107,168558,2,0,P|233:53|188:34,1,89.9999952316285,8|2,0:1|0:0,0:0:0:0:
159,52,169094,1,8,0:0:0:0:
112,36,169273,1,8,0:1:0:0:
33,96,169630,1,8,0:0:0:0:
75,185,169987,2,0,L|127:190,2,44.9999976158143,8|8|0,0:1|0:0|0:0,0:0:0:0:
21,268,170701,2,0,P|12:303|44:358,1,89.9999952316285,8|0,0:0|3:0,0:0:0:0:
132,361,171415,5,10,0:1:0:0:
209,299,171773,2,0,L|262:305,2,44.9999976158143,2|10|10,0:0|0:0|0:1,0:0:0:0:
176,205,172487,1,10,0:0:0:0:
167,156,172665,2,0,P|171:104|195:65,1,89.9999952316285,2|10,0:0|0:0,0:0:0:0:
283,39,173380,2,0,P|341:38|388:59,1,89.9999952316285,2|2,0:0|0:0,0:0:0:0:
423,131,174094,6,0,P|371:149|341:182,1,89.9999952316285,2|0,3:2|0:0,0:0:0:0:
335,212,174630,2,0,B|305:279|318:353|364:401|441:406|485:364|494:296|425:274,1,350.999965335848
256,192,177308,12,0,179987,0:0:0:0:
268,152,185344,5,2,0:0:0:0:
344,76,185701,2,0,P|423:75|451:114,1,89.9999952316285,12|10,0:1|0:1,0:0:0:0:
468,113,186237,1,0,0:0:0:0:
487,162,186415,2,0,L|486:223,1,44.9999976158143,10|0,0:0|0:0,0:0:0:0:
480,261,186773,1,2,0:0:0:0:
413,345,187130,2,0,P|363:328|309:341,1,89.9999952316285,10|10,0:1|0:1,0:0:0:0:
284,365,187665,2,0,P|243:381|187:376,1,89.9999952316285,2|0,0:0|0:0,0:0:0:0:
158,342,188201,2,0,L|151:270,1,44.9999976158143,2|8,0:0|0:0,0:0:0:0:
170,245,188558,6,0,P|222:216|282:217,2,89.9999952316285,8|10|8,0:1|0:1|0:0,0:0:0:0:
72,291,189630,1,2,0:0:0:0:
0,214,189987,2,0,P|4:127|26:90,1,89.9999952316285,10|10,0:1|0:1,0:0:0:0:
57,115,190523,1,10,0:0:0:0:
100,83,190701,2,0,L|101:28,2,44.9999976158143,8|10|6,0:0|0:0|0:3,0:0:0:0:
146,110,191237,1,4,0:3:0:0:
185,146,191415,6,0,P|181:200|191:260,1,89.9999952316285,12|8,0:1|0:1,0:0:0:0:
247,323,192130,2,0,B|282:308|282:308|354:307,1,89.9999952316285,8|2,0:0|0:0,0:0:0:0:
437,336,192844,2,0,P|460:279|457:232,1,89.9999952316285,10|10,0:1|0:1,0:0:0:0:
416,220,193380,2,0,P|400:162|406:119,1,89.9999952316285,2|10,0:0|0:0,0:0:0:0:
432,88,193915,2,0,P|438:60|436:42,1,44.9999976158143,6|4,0:3|0:3,0:0:0:0:
391,12,194273,6,0,P|338:2|279:27,1,89.9999952316285,8|10,0:1|0:1,0:0:0:0:
228,88,194987,1,8,0:0:0:0:
277,183,195344,2,0,P|305:184|326:190,1,44.9999976158143,2|8,0:0|0:0,0:0:0:0:
373,201,195701,2,0,P|400:186|448:177,2,44.9999976158143,8|0|10,0:1|0:0|0:1,0:0:0:0:
366,308,196415,1,8,0:0:0:0:
268,354,196773,1,2,0:0:0:0:
165,321,197130,6,0,P|144:266|168:210,1,89.9999952316285,8|10,0:1|0:1,0:0:0:0:
243,182,197844,2,0,P|243:104|210:63,1,89.9999952316285,10|2,0:0|0:0,0:0:0:0:
154,27,198558,2,0,L|43:47,1,89.9999952316285,10|10,0:1|0:1,0:0:0:0:
30,84,199094,2,0,P|21:131|34:181,1,89.9999952316285,2|2,0:0|0:0,0:0:0:0:
74,202,199630,2,0,L|125:202,1,44.9999976158143,2|8,0:0|0:0,0:0:0:0:
156,241,199987,6,0,P|174:296|170:346,2,89.9999952316285,8|10|8,0:1|0:1|0:0,0:0:0:0:
194,140,201058,2,0,P|197:113|204:89,1,44.9999976158143,2|8,0:0|0:1,0:0:0:0:
238,56,201415,1,14,0:1:0:0:
295,147,201773,2,0,P|302:175|303:214,1,59.9999968210857,10|8,0:3|0:3,0:0:0:0:
287,238,202130,2,0,P|278:277|281:314,1,59.9999968210857,4|4,0:3|0:3,0:0:0:0:
294,328,202487,1,10,0:0:0:0:
401,315,202844,6,0,P|446:281|504:254,2,89.9999952316285,12|8|8,0:1|0:1|0:0,0:0:0:0:
294,328,203915,1,2,0:0:0:0:
231,239,204273,2,0,L|227:131,1,89.9999952316285,10|10,0:1|0:1,0:0:0:0:
264,109,204808,1,2,0:0:0:0:
250,56,204987,2,0,P|219:26|163:23,1,89.9999952316285,8|2,0:0|0:0,0:0:0:0:
79,72,205701,6,0,B|73:101|73:101|69:109|69:109|59:168,1,89.9999952316285,8|10,0:1|0:1,0:0:0:0:
95,263,206415,2,0,P|150:256|200:268,1,89.9999952316285,8|2,0:0|0:0,0:0:0:0:
229,289,206951,1,8,0:0:0:0:
268,326,207130,2,0,L|271:384,2,44.9999976158143,8|0|10,0:1|0:0|0:1,0:0:0:0:
339,245,207844,1,8,0:0:0:0:
257,173,208201,1,2,0:0:0:0:
292,70,208558,6,0,P|341:54|406:59,1,89.9999952316285,8|10,0:1|0:1,0:0:0:0:
469,113,209273,1,10,0:0:0:0:
509,213,209630,1,2,0:0:0:0:
461,309,209987,2,0,P|411:296|358:302,1,89.9999952316285,10|10,0:1|0:1,0:0:0:0:
332,334,210523,2,0,P|273:345|216:339,1,89.9999952316285,2|2,0:0|0:0,0:0:0:0:
206,304,211058,2,0,L|197:244,1,44.9999976158143,2|8,0:0|0:0,0:0:0:0:
186,206,211415,6,0,P|146:173|82:151,2,89.9999952316285,8|10|8,0:1|0:1|0:0,0:0:0:0:
282,255,212487,1,2,0:0:0:0:
378,206,212844,2,0,P|387:142|413:99,1,89.9999952316285,10|10,0:1|0:1,0:0:0:0:
423,71,213380,1,10,0:0:0:0:
399,22,213558,2,0,P|372:12|331:11,1,44.9999976158143,8|10,0:0|0:0,0:0:0:0:
310,39,213915,2,0,P|292:47|260:52,1,44.9999976158143,6|4,0:3|0:3,0:0:0:0:
215,36,214273,6,0,B|193:22|193:22|161:18|118:40,2,89.9999952316285,12|8|8,0:1|0:1|0:0,0:0:0:0:
243,140,215344,1,2,0:0:0:0:
344,175,215701,2,0,P|384:156|435:153,1,89.9999952316285,10|10,0:1|0:1,0:0:0:0:
461,195,216237,1,10,0:1:0:0:
483,243,216415,2,0,L|543:264,2,44.9999976158143,8|2|10,0:0|0:0|0:3,0:0:0:0:
440,276,216951,1,8,0:0:0:0:
393,304,217130,6,0,P|349:283|285:282,1,89.9999952316285,8|10,0:1|0:1,0:0:0:0:
221,342,217844,1,8,0:0:0:0:
129,284,218201,1,2,0:0:0:0:
172,184,218558,2,0,L|222:173,2,44.9999976158143,8|0|10,0:1|0:0|0:1,0:0:0:0:
70,147,219273,2,0,P|34:91|34:45,1,89.9999952316285,8|2,0:0|0:0,0:0:0:0:
118,3,219987,6,0,P|193:3|225:24,1,89.9999952316285,8|10,0:1|0:1,0:0:0:0:
285,80,220701,1,10,0:0:0:0:
304,186,221058,1,2,0:0:0:0:
217,250,221415,2,0,P|154:236|99:257,1,89.9999952316285,10|10,0:1|0:1,0:0:0:0:
81,264,221951,1,2,0:0:0:0:
47,306,222130,2,0,L|-18:312,2,44.9999976158143,8|2|2,0:0|0:0|0:0,0:0:0:0:
136,365,222844,6,0,P|190:349|235:348,1,89.9999952316285,8|10,0:1|0:1,0:0:0:0:
328,370,223558,2,0,P|386:379|428:371,1,89.9999952316285,8|2,0:0|0:0,0:0:0:0:
468,360,224094,1,8,0:1:0:0:
502,317,224273,2,0,L|501:222,1,89.9999952316285,14|10,0:0|0:1,0:0:0:0:
461,190,224808,2,0,P|408:179|363:197,1,89.9999952316285,14|10,0:0|0:1,0:0:0:0:
343,233,225344,2,0,P|313:243|295:244,1,44.9999976158143,10|8,0:0|0:1,0:0:0:0:
251,218,225701,5,12,0:1:0:0:
256,192,225880,12,0,228469,0:0:0:0:
