osu file format v14

[General]
AudioFilename: audio.mp3
AudioLeadIn: 0
PreviewTime: 63737
Countdown: 0
SampleSet: Soft
StackLeniency: 0.7
Mode: 0
LetterboxInBreaks: 0
WidescreenStoryboard: 1

[Editor]
DistanceSpacing: 1.1
BeatDivisor: 4
GridSize: 8
TimelineZoom: 0.9999989

[Metadata]
Title:All your reasons
TitleUnicode:All your reasons
Artist:Primary
ArtistUnicode:Primary
Creator:keeVY
Version:Easy
Source:
Tags:japanese pop rock ゆいこんぬ female meis clauson yuikonnu yuiko from garden 11th album nao tomori naotoshi
BeatmapID:2836906
BeatmapSetID:1371427

[Difficulty]
HPDrainRate:3
CircleSize:3
OverallDifficulty:4
ApproachRate:5
SliderMultiplier:1.59999990463257
SliderTickRate:1

[Events]
//Background and Video events
0,0,"bg.jpg",0,0
//Break Periods
2,25901,27358
2,91615,95930
2,154473,164501
2,179987,184501
//Storyboard Layer 0 (Background)
//Storyboard Layer 1 (Fail)
//Storyboard Layer 2 (Pass)
//Storyboard Layer 3 (Foreground)
//Storyboard Layer 4 (Overlay)
//Storyboard Sound Samples

[TimingPoints]
-8584,714.285714285714,4,2,1,45,1,0
1416,-100,4,2,1,45,0,0
2844,-100,4,2,1,85,0,1
13915,-100,4,2,1,90,0,0
14273,-100,4,2,1,85,0,1
24273,-100,4,2,2,85,0,1
24630,-100,4,2,1,85,0,1
25032,-100,4,2,1,55,0,1
25165,-100,4,2,1,85,0,1
25389,-100,4,2,1,55,0,1
25523,-100,4,2,1,85,0,1
25701,-100,4,2,1,85,0,0
27130,-100,4,2,1,5,0,0
27665,-100,4,2,1,60,0,0
28558,-100,4,2,1,65,0,0
51415,-100,4,2,1,75,0,0
63915,-100,4,2,1,65,0,0
65344,-100,4,2,1,65,0,0
65701,-100,4,2,1,85,0,1
76773,-100,4,2,1,90,0,0
77130,-100,4,2,1,85,0,1
88558,-100,4,2,1,75,0,0
89630,-100,4,2,1,5,0,0
89987,-100,4,2,1,70,0,0
91415,-100,4,2,1,55,0,0
96415,-100,4,2,1,75,0,0
97130,-100,4,2,1,65,0,0
114273,-100,4,2,1,75,0,0
128558,-100,4,2,1,85,0,1
139630,-100,4,2,1,95,0,0
139987,-100,4,2,1,85,0,1
151415,-100,4,2,1,85,0,0
152487,-100,4,2,1,5,0,0
152665,-100,4,2,1,50,0,0
153380,-100,4,2,1,50,0,0
153558,-100,4,2,1,60,0,0
154273,-100,4,2,1,50,0,0
165344,-100,4,2,1,35,0,0
165701,-100,4,2,1,60,0,0
174273,-133.333333333333,4,2,1,55,0,0
174630,-133.333333333333,4,2,1,55,0,0
178112,-100,4,2,1,5,0,0
178201,-100,4,2,1,55,0,0
179987,-100,4,2,1,55,0,0
185344,-100,4,2,1,65,0,0
185612,-100,4,2,1,5,0,0
185701,-100,4,2,1,85,0,1
191058,-100,4,2,1,90,0,0
191415,-100,4,2,1,85,0,1
198826,-100,4,2,1,5,0,1
198915,-100,4,2,1,85,0,1
202487,-100,4,2,1,60,0,0
202576,-100,4,2,1,60,0,0
202665,-100,4,2,1,60,0,0
202844,-100,4,2,1,90,0,1
210255,-100,4,2,1,5,0,1
210344,-100,4,2,1,90,0,1
213915,-100,4,2,1,95,0,0
214273,-100,4,2,1,90,0,1
215969,-100,4,2,1,5,0,1
216058,-100,4,2,1,90,0,1
221683,-100,4,2,1,5,0,1
221773,-100,4,2,1,90,0,1
225701,-100,4,2,1,75,0,0
227487,-100,4,2,1,5,0,0
228469,-100,4,2,1,40,0,0
231415,-100,4,2,1,20,0,0

[Colours]
Combo1 : 201,209,224
Combo2 : 255,106,106
Combo3 : 155,214,249
Combo4 : 254,140,107

[HitObjects]
338,249,1058,5,2,0:0:0:0:
338,249,1416,2,0,P|318:326|318:378,2,119.999992847443,2|2|2,0:0|0:0|0:0,0:0:0:0:
417,211,2844,2,0,L|511:206,2,79.9999952316285,14|8|8,0:1|0:1|0:0,0:0:0:0:
338,249,3915,1,10,0:1:0:0:
270,192,4273,2,0,P|270:149|256:102,1,79.9999952316285,10|10,0:1|0:1,0:0:0:0:
223,33,4987,1,8,0:0:0:0:
140,3,5344,1,2,0:0:0:0:
57,34,5701,6,0,B|30:67|32:97|32:97|27:97|27:97|25:151|72:190,1,159.999990463257,8|8,0:1|0:0,0:0:0:0:
140,202,6773,1,2,0:0:0:0:
229,197,7130,2,0,P|283:245|265:344,1,159.999990463257,8|8,0:1|0:0,0:0:0:0:
108,365,8558,2,0,B|43:343|38:271|38:271|51:228,1,159.999990463257,8|10,0:1|0:0,0:0:0:0:
76,154,9630,1,2,0:0:0:0:
158,184,9987,2,0,P|185:207|240:222,1,79.9999952316285,10|2,0:1|0:0,0:0:0:0:
311,245,10701,2,0,P|344:233|384:192,1,79.9999952316285,8|2,0:0|0:0,0:0:0:0:
463,184,11415,6,0,B|505:180|510:144|510:144|453:127|431:73,1,159.999990463257,8|8,0:1|0:0,0:0:0:0:
355,61,12487,2,0,P|321:24|271:-1,2,79.9999952316285,10|10|10,0:1|0:1|0:1,0:0:0:0:
375,146,13558,1,8,0:0:0:0:
223,56,14273,6,0,P|157:60|126:152,1,159.999990463257,12|8,0:1|0:0,0:0:0:0:
142,224,15344,1,2,0:0:0:0:
224,253,15701,2,0,P|275:262|308:283,1,79.9999952316285,10|10,0:1|0:1,0:0:0:0:
298,363,16415,1,10,0:0:0:0:
211,379,16773,1,2,0:0:0:0:
131,341,17130,2,0,B|79:322|22:356|22:356|25:329|47:310,1,159.999990463257,10|8,0:1|0:0,0:0:0:0:
98,249,18201,1,2,0:0:0:0:
183,268,18558,2,0,B|213:323|265:315|265:315|280:283|322:265,1,159.999990463257,8|8,0:1|0:0,0:0:0:0:
469,336,19987,6,0,P|495:286|470:169,1,159.999990463257,8|10,0:1|0:0,0:0:0:0:
426,117,21058,1,2,0:0:0:0:
352,165,21415,2,0,L|257:182,2,79.9999952316285,10|10|8,0:1|0:1|0:0,0:0:0:0:
426,117,22487,1,10,0:1:0:0:
383,39,22844,6,0,B|294:18|320:84|211:56,1,159.999990463257,8|8,0:1|0:0,0:0:0:0:
146,89,23915,1,2,0:0:0:0:
81,149,24273,2,0,L|108:252,2,79.9999952316285,14|10|8,0:1|0:0|0:0,0:0:0:0:
3,107,25344,1,10,0:3:0:0:
68,47,25701,1,12,0:1:0:0:
332,109,28558,6,0,L|371:299,1,159.999990463257,12|10,0:1|0:0,0:0:0:0:
234,291,29808,2,0,B|194:303|172:353|172:353|98:362|69:288,1,199.999988079071,10|8,0:1|0:0,0:0:0:0:
152,149,31415,2,0,P|150:67|75:19,1,159.999990463257,8|8,0:1|0:0,0:0:0:0:
224,28,32665,2,0,P|284:38|353:4,1,119.999992847443,10|10,0:1|0:1,0:0:0:0:
425,27,33558,1,10,0:0:0:0:
421,186,34273,6,0,B|364:196|321:159|321:159|291:165|273:182,1,159.999990463257,10|10,0:1|0:0,0:0:0:0:
226,305,35523,2,0,P|189:346|46:339,1,199.999988079071,10|8,0:1|0:0,0:0:0:0:
61,168,37130,2,0,B|121:154|121:154|144:133|144:133|213:118,1,159.999990463257,8|8,0:1|0:0,0:0:0:0:
307,208,38380,2,0,P|287:267|413:308,1,199.999988079071,10|8,0:1|0:0,0:0:0:0:
466,284,39630,1,8,0:1:0:0:
509,207,39987,6,0,B|528:143|490:91|490:91|432:68,1,159.999990463257,12|10,0:1|0:0,0:0:0:0:
334,129,41237,1,10,0:1:0:0:
247,145,41594,1,10,0:1:0:0:
201,70,41951,2,0,P|146:60|112:73,1,79.9999952316285,2|2,0:0|0:0,0:0:0:0:
58,125,42665,2,0,L|73:263,1,119.999992847443,2|10,3:2|0:1,0:0:0:0:
81,331,43558,1,8,0:0:0:0:
201,277,44094,2,0,B|272:263|255:307|334:289,1,119.999992847443,10|10,0:1|0:1,0:0:0:0:
399,260,44987,2,0,L|403:169,1,79.9999952316285,10|2,0:0|0:0,0:0:0:0:
316,163,45701,6,0,B|259:182|214:164|214:164|175:103,1,159.999990463257,8|10,0:1|0:0,0:0:0:0:
271,18,46951,2,0,P|328:48|405:46,1,119.999992847443,10|8,0:1|0:1,0:0:0:0:
468,30,47844,2,0,P|502:67|492:114,1,79.9999952316285,8|0,0:0|0:0,0:0:0:0:
437,154,48558,2,0,P|416:212|399:318,1,159.999990463257,8|8,0:1|0:0,0:0:0:0:
279,364,49808,2,0,B|232:351|232:351|214:332|214:332|155:321,1,119.999992847443,10|2,0:1|0:0,0:0:0:0:
83,347,50701,1,8,0:0:0:0:
230,251,51415,6,0,B|280:220|343:235|343:235|335:214|302:200,1,159.999990463257,14|10,0:1|0:0,0:0:0:0:
251,146,52487,2,0,L|236:11,2,119.999992847443,14|10|8,0:1|0:0|0:0,0:0:0:0:
315,206,53915,1,8,0:1:0:0:
383,150,54273,1,12,0:1:0:0:
506,275,54987,1,8,0:0:0:0:
430,320,55344,2,0,B|375:288|322:296|322:296|274:332,1,159.999990463257,14|0,0:1|0:0,0:0:0:0:
217,381,56415,1,8,0:0:0:0:
62,322,57130,6,0,B|16:275|36:205|36:205|71:204|87:227,1,159.999990463257,14|10,0:1|0:0,0:0:0:0:
149,245,58201,2,0,P|212:276|291:271,2,119.999992847443,14|10|8,0:1|0:0|0:0,0:0:0:0:
137,157,59630,1,8,0:1:0:0:
192,88,59987,2,0,B|290:72|253:132|361:119,1,159.999990463257,14|8,0:1|0:0,0:0:0:0:
431,109,61058,2,0,P|418:160|419:275,1,159.999990463257,14|0,0:1|0:0,0:0:0:0:
473,334,62130,1,8,0:3:0:0:
299,305,62844,6,0,B|257:326|200:296|200:296|167:298|134:338,1,159.999990463257,14|10,0:1|0:0,0:0:0:0:
75,366,63915,2,0,P|18:340|105:225,1,239.999985694885,14|2,0:1|0:0,0:0:0:0:
255,246,65701,6,0,B|285:208|253:165|253:165|268:127|311:113,1,159.999990463257,14|8,0:1|0:0,0:0:0:0:
378,160,66773,1,10,0:1:0:0:
465,159,67130,2,0,P|483:105|476:70,1,79.9999952316285,10|10,0:1|0:1,0:0:0:0:
426,13,67844,1,10,0:0:0:0:
338,7,68201,1,2,0:0:0:0:
262,52,68558,6,0,B|198:67|198:67|175:93|175:93|88:117,1,159.999990463257,8|8,0:1|0:0,0:0:0:0:
31,91,69630,1,2,0:0:0:0:
8,175,69987,2,0,B|34:235|92:234|92:234|108:195|163:191,1,159.999990463257,8|8,0:1|0:0,0:0:0:0:
292,134,71415,2,0,P|356:134|400:220,1,159.999990463257,8|10,0:1|0:0,0:0:0:0:
418,296,72487,1,2,0:0:0:0:
363,364,72844,2,0,P|304:348|275:350,1,79.9999952316285,10|10,0:1|0:1,0:0:0:0:
204,382,73558,1,8,0:0:0:0:
118,363,73915,1,10,0:1:0:0:
31,378,74273,6,0,B|41:281|-15:339|0:218,1,159.999990463257,8|8,0:1|0:0,0:0:0:0:
4,139,75344,1,2,0:0:0:0:
78,92,75701,2,0,P|134:88|174:98,1,79.9999952316285,10|10,0:1|0:1,0:0:0:0:
231,138,76415,1,8,0:0:0:0:
394,73,77130,6,0,B|434:40|434:40|450:177,1,159.999990463257,12|8,0:1|0:0,0:0:0:0:
450,235,78201,1,2,0:0:0:0:
401,308,78558,2,0,P|345:328|304:326,1,79.9999952316285,10|10,0:1|0:1,0:0:0:0:
247,286,79273,1,10,0:0:0:0:
219,202,79630,1,2,0:0:0:0:
281,139,79987,6,0,P|304:65|227:52,1,159.999990463257,8|8,0:1|0:0,0:0:0:0:
160,79,81058,1,2,0:0:0:0:
78,45,81415,2,0,B|40:25|40:25|-13:71|31:156,1,159.999990463257,8|8,0:1|0:0,0:0:0:0:
82,298,82844,2,0,B|178:284|134:359|246:343,1,159.999990463257,8|10,0:1|0:0,0:0:0:0:
305,303,83915,1,2,0:0:0:0:
271,221,84273,2,0,P|231:198|185:187,1,79.9999952316285,10|10,0:1|0:1,0:0:0:0:
111,202,84987,1,8,0:0:0:0:
70,123,85344,1,2,0:0:0:0:
120,50,85701,6,0,P|196:22|298:31,1,159.999990463257,8|8,0:1|0:0,0:0:0:0:
357,56,86773,1,2,0:0:0:0:
430,104,87130,2,0,B|445:144|422:176|422:176|449:191|455:225,1,119.999992847443,14|12,0:0|0:0,0:0:0:0:
478,337,88201,1,10,0:0:0:0:
404,384,88558,1,14,0:1:0:0:
138,152,89987,6,0,P|114:211|198:222,1,159.999990463257,8|4,0:0|0:3,0:0:0:0:
339,141,91415,1,14,0:1:0:0:
160,49,97130,6,0,P|87:52|54:134,1,159.999990463257,12|10,0:1|0:0,0:0:0:0:
130,229,98380,2,0,B|174:224|196:185|196:185|242:233|324:216,1,199.999988079071,10|8,0:1|0:0,0:0:0:0:
386,63,99987,2,0,B|418:22|418:22|472:54|465:125,1,159.999990463257,8|8,0:1|0:0,0:0:0:0:
480,243,101237,1,10,0:1:0:0:
384,334,101773,2,0,P|334:307|292:310,1,79.9999952316285,2|8,0:0|0:0,0:0:0:0:
140,342,102844,6,0,P|113:285|180:220,1,159.999990463257,12|10,0:1|0:0,0:0:0:0:
298,181,104094,2,0,B|331:159|366:110|317:46|317:46|270:34,1,199.999988079071,10|8,0:1|0:0,0:0:0:0:
99,0,105701,2,0,P|68:-4|20:101,1,159.999990463257,8|8,0:1|0:0,0:0:0:0:
112,177,106951,2,0,P|136:227|111:293,1,119.999992847443,10|10,0:1|0:1,0:0:0:0:
51,344,107844,1,10,0:0:0:0:
226,341,108558,6,0,B|287:333|287:333|316:308|316:308|391:298,1,159.999990463257,8|10,0:1|0:0,0:0:0:0:
500,342,109808,2,0,B|533:347|533:347|536:236|428:216,1,199.999988079071,10|8,0:1|0:0,0:0:0:0:
271,207,111415,2,0,P|254:137|288:46,1,159.999990463257,8|8,0:1|0:0,0:0:0:0:
406,14,112665,2,0,P|452:55|442:128,1,119.999992847443,10|10,0:1|0:1,0:0:0:0:
381,162,113558,1,8,0:0:0:0:
241,54,114273,6,0,B|202:32|167:34|167:34|161:30|161:30|111:38|87:82,1,159.999990463257,12|10,0:1|0:0,0:0:0:0:
36,129,115344,2,0,L|20:263,2,119.999992847443,14|10|8,0:1|0:0|0:0,0:0:0:0:
97,66,116773,1,8,0:1:0:0:
167,118,117130,1,14,0:1:0:0:
108,283,117844,1,8,0:0:0:0:
162,352,118201,2,0,B|254:330|236:390|335:369,1,159.999990463257,14|0,0:1|0:0,0:0:0:0:
401,346,119273,1,8,0:0:0:0:
488,193,119987,6,0,P|446:124|347:132,1,159.999990463257,12|10,0:1|0:0,0:0:0:0:
307,176,121058,2,0,P|246:188|165:167,2,119.999992847443,14|10|8,0:1|0:0|0:0,0:0:0:0:
373,117,122487,1,12,0:1:0:0:
330,39,122844,1,12,0:1:0:0:
163,94,123558,1,8,0:0:0:0:
189,178,123915,2,0,P|229:223|251:323,1,159.999990463257,14|0,0:1|0:0,0:0:0:0:
190,382,124987,1,8,0:3:0:0:
18,344,125701,6,0,B|0:285|0:285|29:173,1,159.999990463257,12|8,0:1|0:0,0:0:0:0:
98,142,126773,2,0,L|196:162,2,79.9999952316285,14|0|10,0:1|0:0|0:1,0:0:0:0:
44,72,127844,1,8,0:0:0:0:
211,18,128558,6,0,P|262:78|265:174,1,159.999990463257,12|8,0:1|0:0,0:0:0:0:
219,229,129630,1,2,0:0:0:0:
240,314,129987,2,0,P|298:340|347:346,1,79.9999952316285,10|10,0:1|0:1,0:0:0:0:
400,354,130701,1,8,0:0:0:0:
480,318,131058,1,2,0:0:0:0:
498,232,131415,6,0,B|481:199|458:189|458:189|435:147|463:85,1,159.999990463257,8|8,0:1|0:0,0:0:0:0:
491,10,132487,1,2,0:0:0:0:
403,10,132844,2,0,P|316:38|229:27,1,159.999990463257,8|10,0:1|0:0,0:0:0:0:
119,152,134273,2,0,P|100:209|155:313,1,159.999990463257,8|10,0:1|0:0,0:0:0:0:
223,293,135344,1,2,0:0:0:0:
303,256,135701,2,0,P|305:200|292:160,1,79.9999952316285,10|10,0:1|0:1,0:0:0:0:
333,96,136415,1,8,0:0:0:0:
292,17,136773,1,2,0:0:0:0:
204,14,137130,6,0,B|120:18|149:68|43:71,1,159.999990463257,8|10,0:1|0:0,0:0:0:0:
4,140,138201,1,2,0:0:0:0:
49,215,138558,2,0,P|60:264|57:311,1,79.9999952316285,10|10,0:1|0:1,0:0:0:0:
21,373,139273,1,8,0:0:0:0:
193,337,139987,6,0,P|168:250|188:157,1,159.999990463257,12|8,0:1|0:0,0:0:0:0:
206,99,141058,1,2,0:0:0:0:
291,121,141415,2,0,P|328:129|373:120,1,79.9999952316285,10|10,0:1|0:1,0:0:0:0:
446,79,142130,1,10,0:0:0:0:
504,144,142487,1,2,0:0:0:0:
508,231,142844,6,0,B|467:243|446:286|446:286|400:287|375:250,1,159.999990463257,8|10,0:1|0:0,0:0:0:0:
324,189,143915,1,2,0:0:0:0:
236,201,144273,2,0,P|200:268|208:370,1,159.999990463257,8|8,0:1|0:0,0:0:0:0:
25,366,145701,2,0,L|12:192,1,159.999990463257,8|10,0:1|0:0,0:0:0:0:
8,118,146773,1,2,0:0:0:0:
87,155,147130,2,0,P|129:166|171:156,1,79.9999952316285,10|10,0:1|0:1,0:0:0:0:
226,96,147844,1,8,0:0:0:0:
312,82,148201,1,2,0:0:0:0:
365,151,148558,6,0,L|378:325,1,159.999990463257,8|8,0:1|0:0,0:0:0:0:
313,371,149630,1,2,0:0:0:0:
235,328,149987,2,0,B|189:309|189:309|86:319,2,119.999992847443,14|14|10,0:0|0:0|0:3,0:0:0:0:
313,371,151415,1,12,0:1:0:0:
476,82,153558,6,0,P|453:38|419:25,1,79.9999952316285,8|4,0:3|0:3,0:0:0:0:
340,41,154273,1,10,0:1:0:0:
89,36,165701,6,0,B|14:73|-9:166|54:242|54:242|118:227|131:174,1,319.999980926514,8|8,0:1|0:1,0:0:0:0:
249,87,167844,1,8,0:1:0:0:
420,50,168558,2,0,B|516:70|511:180|511:180|422:190|390:297,1,319.999980926514,8|8,0:1|0:1,0:0:0:0:
263,372,170701,2,0,P|200:368|180:343,1,79.9999952316285,8|0,0:0|3:0,0:0:0:0:
176,271,171415,6,0,B|219:218|231:109|168:57|85:74|44:162|141:192,1,319.999980926514,10|8,0:1|0:1,0:0:0:0:
289,169,173558,1,8,0:0:0:0:
361,297,174273,6,0,B|404:301|451:346|451:346|442:276|336:216|287:218|249:305|135:331|84:258|58:168|93:112|133:66|247:101|199:193,1,719.999984550476,8|2,0:1|0:0,0:0:0:0:
377,77,185701,6,0,L|395:252,1,159.999990463257,12|10,0:1|0:0,0:0:0:0:
342,308,186773,1,2,0:0:0:0:
257,284,187130,2,0,P|203:278|163:290,1,79.9999952316285,10|10,0:1|0:1,0:0:0:0:
104,330,187844,1,8,0:0:0:0:
17,311,188201,1,2,0:0:0:0:
5,223,188558,2,0,P|44:171|152:165,1,159.999990463257,8|8,0:1|0:0,0:0:0:0:
212,196,189630,1,2,0:0:0:0:
292,159,189987,2,0,P|291:103|276:62,1,79.9999952316285,10|10,0:1|0:1,0:0:0:0:
241,3,190701,1,8,0:0:0:0:
414,30,191415,6,0,B|445:131|368:92|412:216,1,159.999990463257,12|8,0:1|0:0,0:0:0:0:
452,256,192487,1,2,0:0:0:0:
404,330,192844,2,0,L|297:369,2,79.9999952316285,10|10|8,0:1|0:1|0:0,0:0:0:0:
452,256,193915,1,6,0:3:0:0:
403,184,194273,2,0,P|356:148|251:159,1,159.999990463257,8|8,0:1|0:0,0:0:0:0:
198,217,195344,1,2,0:0:0:0:
110,211,195701,2,0,L|72:48,1,159.999990463257,8|8,0:1|0:0,0:0:0:0:
4,217,197130,6,0,P|3:284|83:364,1,159.999990463257,8|10,0:1|0:0,0:0:0:0:
139,318,198201,1,2,0:0:0:0:
222,345,198558,2,0,P|276:363|320:367,1,79.9999952316285,10|10,0:1|0:1,0:0:0:0:
386,359,199273,1,8,0:0:0:0:
422,278,199630,1,2,0:0:0:0:
365,210,199987,6,0,B|335:184|335:184|306:126|347:62,1,159.999990463257,8|8,0:1|0:0,0:0:0:0:
421,30,201058,1,2,0:0:0:0:
484,90,201415,2,0,L|497:218,2,119.999992847443,14|10|10,0:1|0:3|0:0,0:0:0:0:
421,30,202844,6,0,B|361:35|361:35|326:62|326:62|246:75,1,159.999990463257,12|8,0:1|0:0,0:0:0:0:
183,61,203915,1,2,0:0:0:0:
99,32,204273,2,0,P|48:32|14:62,1,79.9999952316285,10|10,0:1|0:1,0:0:0:0:
2,132,204987,1,8,0:0:0:0:
44,209,205344,1,10,0:3:0:0:
131,196,205701,6,0,P|181:177|294:206,1,159.999990463257,8|8,0:1|0:0,0:0:0:0:
321,276,206773,1,2,0:0:0:0:
274,350,207130,2,0,B|241:349|218:326|218:326|183:367|121:363,1,159.999990463257,8|8,0:1|0:0,0:0:0:0:
37,214,208558,6,0,P|56:147|163:126,1,159.999990463257,8|10,0:1|0:0,0:0:0:0:
197,178,209630,1,2,0:0:0:0:
263,236,209987,2,0,P|314:255|347:248,1,79.9999952316285,10|10,0:1|0:1,0:0:0:0:
423,273,210701,1,8,0:0:0:0:
435,360,211058,1,2,0:0:0:0:
347,371,211415,6,0,B|262:392|284:327|176:349,1,159.999990463257,8|8,0:1|0:0,0:0:0:0:
110,374,212487,1,2,0:0:0:0:
26,348,212844,2,0,L|11:254,1,79.9999952316285,10|10,0:1|0:1,0:0:0:0:
46,187,213558,1,8,0:0:0:0:
206,258,214273,6,0,P|273:234|236:148,1,159.999990463257,12|8,0:1|0:0,0:0:0:0:
189,105,215344,1,2,0:0:0:0:
217,21,215701,2,0,P|265:8|312:11,1,79.9999952316285,10|10,0:1|0:1,0:0:0:0:
372,50,216415,1,8,0:0:0:0:
458,31,216773,1,2,0:0:0:0:
504,105,217130,6,0,B|480:150|490:217|490:217|473:200|462:176,1,159.999990463257,8|8,0:1|0:0,0:0:0:0:
382,146,218201,1,2,0:0:0:0:
314,203,218558,2,0,P|234:224|145:200,1,159.999990463257,8|8,0:1|0:0,0:0:0:0:
121,379,219987,2,0,B|177:373|177:373|211:350|211:350|281:344,1,159.999990463257,8|10,0:1|0:0,0:0:0:0:
356,374,221058,1,2,0:0:0:0:
440,348,221415,2,0,L|451:263,1,79.9999952316285,10|10,0:1|0:1,0:0:0:0:
404,193,222130,1,8,0:0:0:0:
402,105,222487,1,2,0:0:0:0:
473,53,222844,6,0,B|503:29|503:29|453:-14|360:25,1,159.999990463257,8|8,0:1|0:0,0:0:0:0:
312,60,223915,1,2,0:0:0:0:
229,29,224273,2,0,L|102:0,2,119.999992847443,14|14|10,0:0|0:0|0:0,0:0:0:0:
312,60,225701,1,12,0:1:0:0:
256,192,225880,12,0,228469,0:0:0:0:
