osu file format v14

[General]
AudioFilename: audio.ogg
AudioLeadIn: 0
PreviewTime:80020
Countdown: 0
SampleSet: Soft
StackLeniency: 0.3
Mode: 0
LetterboxInBreaks: 0
WidescreenStoryboard: 1

[Editor]
DistanceSpacing: 1
BeatDivisor: 4
GridSize: 8
TimelineZoom: 1.88

[Metadata]
Title:Tomodachi kara Koibito e
TitleUnicode:友だちから恋びとへ
Artist:Prico
ArtistUnicode:Prico
Creator:KennethBBG
Version:Natsume Shizuku's Insane
Source:友だちから恋びとへ
Tags:Azarashisoft VN video game Visual novel eroge Japanese pop jpop j-pop Rock jrock j-rock 保桜・あにもね 新井健史 AZARASHI SOFTWARE Mrgglock kowari Saronk Natsume Shizuku 恋人 友達
BeatmapID:4082786
BeatmapSetID:1960919

[Difficulty]
HPDrainRate:6
CircleSize:4
OverallDifficulty:8.2
ApproachRate:9
SliderMultiplier:1.7
SliderTickRate:1

[Events]
//Background and Video events
0,0,"bg6.jpg",0,0
//Break Periods
2,20648,30101
//Storyboard Layer 0 (Background)
//Storyboard Layer 1 (Fail)
//Storyboard Layer 2 (Pass)
//Storyboard Layer 3 (Foreground)
//Storyboard Layer 4 (Overlay)
//Storyboard Sound Samples

[TimingPoints]
544,314.13612565445,4,2,1,34,1,0
858,-100,4,2,1,25,0,0
8711,-100,4,2,1,50,0,0
8868,-100,4,2,1,35,0,0
9182,-117.647058823529,4,2,1,60,0,0
9417,-117.647058823529,4,2,1,60,0,0
9496,-117.647058823529,4,2,1,60,0,0
10596,-117.647058823529,4,2,1,70,0,0
19235,-285.714285714283,4,2,1,70,0,0
19392,-285.714285714283,4,2,1,30,0,0
20648,-285.714285714283,4,2,1,30,0,0
30701,-181.818181818181,4,2,1,30,0,0
39496,-333.333333333333,4,2,1,30,0,0
40125,-125,4,2,1,40,0,0
40439,-125,4,2,1,50,0,0
40674,-125,4,2,1,5,0,0
40753,-153.846153846153,4,2,1,40,0,0
45700,-153.846153846153,4,2,1,5,0,0
45779,-153.846153846153,4,2,1,40,0,0
49549,-142.857142857143,4,2,1,40,0,0
50491,-142.857142857143,4,2,1,45,0,0
50726,-142.857142857143,4,2,1,5,0,0
50805,-133.333333333333,4,2,1,45,0,0
59287,-117.647058823529,4,2,1,45,0,0
59601,-117.647058823529,4,2,1,50,0,0
59915,-117.647058823529,4,2,1,55,0,0
60858,-100,4,2,1,70,0,0
62585,-100,4,2,1,60,0,0
62742,-100,4,2,1,60,0,0
63292,-100,4,2,1,5,0,0
63371,-111.111111111111,4,2,1,60,0,0
65884,-111.111111111111,4,2,1,70,0,0
67769,-100,4,2,1,70,0,0
68004,-100,4,2,1,5,0,0
68083,-100,4,2,1,70,0,0
68318,-100,4,2,1,5,0,0
68397,-111.111111111111,4,2,1,60,0,0
73344,-111.111111111111,4,2,1,5,0,0
73423,-111.111111111111,4,2,1,60,0,0
74523,-111.111111111111,4,2,1,65,0,0
74758,-111.111111111111,4,2,1,65,0,0
74837,-111.111111111111,4,2,1,65,0,0
75936,-111.111111111111,4,2,1,70,0,0
76171,-111.111111111111,4,2,1,70,0,0
76250,-111.111111111111,4,2,1,70,0,0
76485,-111.111111111111,4,2,1,5,0,0
76564,-111.111111111111,4,2,1,70,0,0
78370,-111.111111111111,4,2,1,5,0,0
78449,-111.111111111111,4,2,1,75,0,0
80962,-100,4,2,1,75,0,1
85909,-100,4,2,1,5,0,1
85989,-100,4,2,1,75,0,1
88422,-100,4,2,1,5,0,1
88502,-100,4,2,1,75,0,1
90936,-100,4,2,1,5,0,1
91015,-100,4,2,1,75,0,1
93449,-100,4,2,1,5,0,1
93528,-100,4,2,1,75,0,1
95962,-100,4,2,1,5,0,1
96041,-100,4,2,1,75,0,1
98554,-90.9090909090909,4,2,1,80,0,1
98789,-90.9090909090909,4,2,1,80,0,1
98868,-90.9090909090909,4,2,1,80,0,1
99103,-90.9090909090909,4,2,1,5,0,1
99182,-90.9090909090909,4,2,1,80,0,1
100753,-100,4,2,1,80,0,0
101067,-100,4,2,1,75,0,1
105936,-83.3333333333333,4,2,1,75,0,1
106015,-100,4,2,1,75,0,1
106093,-83.3333333333333,4,2,1,80,0,1
108763,-83.3333333333333,4,2,1,75,0,1
110020,-100,4,2,1,75,0,1
111119,-100,4,2,1,70,0,1
116146,-100,4,2,1,75,0,1
117480,-100,4,2,1,75,0,1
117559,-100,4,2,1,75,0,1
118659,-100,4,2,1,80,0,0
118973,-100,4,2,1,40,0,0
120072,-100,4,2,1,50,0,0
121172,-100,4,2,1,65,0,0
121407,-100,4,2,1,5,0,0
121486,-100,4,2,1,65,0,0
123920,-100,4,2,1,5,0,0
123999,-100,4,2,1,65,0,0
130439,-100,4,2,1,50,0,0
130910,-133.333333333333,4,2,1,50,0,0
131224,-100,4,2,1,65,0,0
131538,-100,4,2,1,60,0,0
131852,-100,4,2,1,55,0,0
132167,-100,4,2,1,50,0,0
132481,-100,4,2,1,45,0,0
132795,-100,4,2,1,40,0,0
133109,-100,4,2,1,35,0,0
133423,-100,4,2,1,30,0,0
133737,-100,4,2,1,25,0,0
134051,-100,4,2,1,20,0,0
134365,-100,4,2,1,15,0,0
134680,-100,4,2,1,10,0,0
134994,-100,4,2,1,5,0,0
137586,-100,4,2,1,5,0,0

[Colours]
Combo1 : 240,120,0
Combo2 : 225,91,28
Combo3 : 88,88,88
Combo4 : 244,138,138

[HitObjects]
83,60,8711,5,8,3:2:0:0:
52,212,8868,2,0,L|30:124,1,85,0|2,3:2|0:0,0:0:0:0:
273,112,9182,6,0,P|199:100|146:155,1,144.500002756119,6|10,3:2|0:0,0:0:0:0:
214,290,9653,1,0,3:2:0:0:
214,290,9732,1,0,3:2:0:0:
214,290,9811,1,10,0:0:0:0:
56,370,9968,1,10,0:0:0:0:
109,265,10125,2,0,L|120:311,1,36.1250006890297,10|8,0:0|0:0,0:0:0:0:
202,379,10282,6,0,B|187:379|187:379|170:366,3,36.1250006890297,2|2|2|2,1:2|0:0|0:0|0:0,0:0:0:0:
300,243,10596,6,0,B|370:227|356:300|434:285,1,144.500002756119,6|8,3:2|0:0,0:0:0:0:
443,133,11067,1,0,0:0:0:0:
443,133,11224,2,0,P|429:175|422:216,1,72.2500013780594,2|2,3:2|3:2,0:0:0:0:
393,370,11538,1,10,0:0:0:0:
490,248,11695,6,0,P|433:239|359:298,1,144.500002756119,2|0,3:2|3:2,0:0:0:0:
224,188,12167,2,0,P|271:173|306:160,1,72.2500013780594,8|0,0:0|0:0,0:0:0:0:
394,12,12481,2,0,P|384:47|373:86,1,72.2500013780594,2|0,3:2|3:2,0:0:0:0:
195,22,12795,1,10,0:0:0:0:
184,32,13109,6,0,P|103:26|49:89,2,144.500002756119,2|10|2,3:2|0:0|3:2,0:0:0:0:
251,90,13894,1,0,3:2:0:0:
227,175,14051,1,8,0:0:0:0:
9,174,14208,6,0,P|70:148|160:131,1,144.500002756119,2|0,3:2|3:2,0:0:0:0:
336,128,14680,2,0,P|280:91|280:18,1,144.500002756119,10|2,0:0|3:2,0:0:0:0:
496,96,15151,1,0,3:2:0:0:
376,208,15308,1,8,0:0:0:0:
416,84,15465,5,0,0:0:0:0:
416,84,15543,1,0,3:2:0:0:
416,84,15622,2,0,B|408:160|472:144|457:230,1,144.500002756119,6|8,3:2|0:0,0:0:0:0:
361,331,16093,2,0,P|297:297|223:299,1,144.500002756119,0|0,0:0|3:2,0:0:0:0:
53,274,16564,1,8,0:0:0:0:
116,384,16722,2,0,P|131:315|157:243,1,144.500002756119,2|0,3:2|3:2,0:0:0:0:
111,43,17193,1,8,0:0:0:0:
14,77,17350,2,0,P|59:135|134:137,1,144.500002756119,2|0,0:0|3:2,0:0:0:0:
271,28,17821,1,8,0:0:0:0:
271,28,18135,6,0,P|256:66|252:107,1,72.2500013780594,2|0,3:2|0:0,0:0:0:0:
290,282,18449,2,0,P|302:320|327:354,1,72.2500013780594,10|10,0:0|0:0,0:0:0:0:
337,350,18685,1,8,0:0:0:0:
337,350,18763,1,2,3:2:0:0:
363,140,18920,5,0,1:2:0:0:
226,207,19078,1,0,1:2:0:0:
111,43,19235,1,6,3:2:0:0:
34,199,30701,6,0,P|80:180|138:171,1,93.5000028533936,2|0,0:0|0:0,0:0:0:0:
192,226,31172,2,0,P|168:257|116:258,2,93.5000028533936,2|2|2,0:0|0:0|0:0,0:0:0:0:
206,211,31957,2,0,P|188:260|189:317,1,93.5000028533936,2|0,0:0|0:0,0:0:0:0:
274,322,32585,2,0,P|292:273|291:216,1,93.5000028533936,0|2,0:0|0:0,0:0:0:0:
293,232,33214,6,0,P|341:221|361:185,1,93.5000028533936,2|2,0:0|0:0,0:0:0:0:
326,94,33685,2,0,P|336:44|363:5,2,93.5000028533936,2|2|2,0:0|0:0|0:0,0:0:0:0:
340,101,34470,2,0,P|388:81|439:78,1,93.5000028533936,2|0,0:0|0:0,0:0:0:0:
450,160,35098,2,0,P|402:180|351:183,1,93.5000028533936,0|2,0:0|0:0,0:0:0:0:
308,254,35570,1,2,0:0:0:0:
308,254,35727,6,0,P|295:301|323:344,1,93.5000028533936,2|2,0:0|0:0,0:0:0:0:
416,361,36198,1,2,0:0:0:0:
408,347,36512,1,2,0:0:0:0:
394,358,36826,1,2,0:0:0:0:
268,298,37297,5,2,0:0:0:0:
204,373,37612,2,0,P|156:356|110:350,1,93.5000028533936,2|2,0:0|0:0,0:0:0:0:
36,151,38240,5,2,0:0:0:0:
62,278,38397,2,0,B|-24:220|-7:147|30:119|30:119|87:135|89:193,1,280.500008560181,2|0,0:0|0:0,0:0:0:0:
173,218,39496,2,0,P|164:192|168:217,1,76.4999976654053,2|0,0:0|0:0,0:0:0:0:
231,175,40125,5,0,3:2:0:0:
89,100,40282,1,0,3:2:0:0:
200,7,40439,2,0,P|186:65|176:118,1,102,8|0,0:0|0:0,0:0:0:0:
231,175,40753,6,0,P|275:138|337:145,1,110.499994941712,2|2,3:2|3:2,0:0:0:0:
392,218,41224,1,2,0:0:0:0:
392,218,41381,2,0,P|373:271|361:338,1,110.499994941712,0|2,3:2|3:2,0:0:0:0:
260,378,41852,1,2,0:0:0:0:
181,317,42009,6,0,P|219:279|272:280,1,110.499994941712,2|2,3:2|3:2,0:0:0:0:
331,348,42481,2,0,P|295:359|274:374,1,55.2499974708558,2|0,0:0|3:2,0:0:0:0:
158,226,42795,2,0,P|181:239|208:246,1,55.2499974708558,2|0,0:0|3:2,0:0:0:0:
208,246,43266,6,0,P|261:225|317:212,2,110.499994941712,2|0|2,3:2|3:2|3:2,0:0:0:0:
13,59,44208,1,2,3:2:0:0:
61,120,44365,1,2,0:0:0:0:
137,97,44523,2,0,P|182:90|226:137,2,110.499994941712,0|0|0,3:2|3:2|3:2,0:0:0:0:
27,206,45465,2,0,P|50:253|61:296,1,82.8749962062838,2|0,3:2|0:0,0:0:0:0:
3,361,45779,6,0,P|40:325|103:321,1,110.499994941712,2|2,3:2|3:2,0:0:0:0:
192,364,46250,2,0,P|153:377|132:392,1,55.2499974708558,2|0,0:0|3:2,0:0:0:0:
217,243,46564,2,0,P|230:267|237:293,1,55.2499974708558,2|0,0:0|3:2,0:0:0:0:
327,376,46879,2,0,P|370:354|448:334,1,110.499994941712,2|0,0:0|0:0,0:0:0:0:
464,256,47350,2,0,P|476:216|429:154,1,110.499994941712,2|2,3:2|3:2,0:0:0:0:
328,197,47821,2,0,P|354:204|379:216,1,55.2499974708558,2|0,0:0|3:2,0:0:0:0:
364,126,48135,1,2,0:0:0:0:
364,126,48292,6,0,P|310:153|254:161,1,110.499994941712,0|0,3:2|3:2,0:0:0:0:
185,106,48763,1,0,0:0:0:0:
185,106,48920,2,0,P|175:55|223:17,1,110.499994941712,0|0,3:2|3:2,0:0:0:0:
26,124,49549,6,0,P|42:163|50:193,1,59.4999981842042,2|0,3:2|0:0,0:0:0:0:
129,242,49863,2,0,P|113:281|105:311,1,59.4999981842042,2|0,3:2|0:0,0:0:0:0:
192,136,50177,2,0,P|157:140|129:159,1,59.4999981842042,2|0,3:2|0:0,0:0:0:0:
46,334,50491,2,0,P|100:335|136:376,1,89.2499972763062,14|0,0:0|0:0,0:0:0:0:
209,382,50805,6,0,P|248:364|285:281,1,127.500004863739,2|2,3:2|3:2,0:0:0:0:
129,242,51276,2,0,P|169:254|194:256,1,63.7500024318696,2|0,0:0|3:2,0:0:0:0:
233,179,51591,2,0,P|264:183|295:192,1,63.7500024318696,2|0,0:0|3:2,0:0:0:0:
379,269,51905,1,2,0:0:0:0:
379,269,52062,6,0,P|410:206|395:137,2,127.500004863739,0|0|0,3:2|3:2|3:2,0:0:0:0:
335,57,53004,2,0,L|407:73,1,63.7500024318696,2|0,3:2|0:0,0:0:0:0:
507,23,53318,6,0,P|444:30|397:72,1,127.500004863739,2|2,3:2|3:2,0:0:0:0:
294,135,53790,2,0,P|302:98|318:71,1,63.7500024318696,2|0,0:0|3:2,0:0:0:0:
202,21,54104,2,0,P|204:53|215:83,1,63.7500024318696,2|0,0:0|3:2,0:0:0:0:
166,157,54418,1,2,0:0:0:0:
166,157,54575,6,0,P|104:132|43:128,2,127.500004863739,0|0|0,3:2|3:2|3:2,0:0:0:0:
78,377,55517,1,2,3:2:0:0:
15,325,55674,1,2,0:0:0:0:
64,254,55831,2,0,P|134:257|170:307,1,127.500004863739,2|2,3:2|3:2,0:0:0:0:
243,356,56303,2,0,P|205:369|176:389,1,63.7500024318696,2|0,0:0|3:2,0:0:0:0:
267,221,56617,2,0,P|283:248|292:278,1,63.7500024318696,2|0,0:0|3:2,0:0:0:0:
373,340,56931,1,2,0:0:0:0:
373,340,57088,6,0,P|426:341|472:289,2,127.500004863739,0|2|2,3:2|3:2|3:2,0:0:0:0:
436,182,57873,1,2,0:0:0:0:
336,261,58030,2,0,P|324:224|305:192,1,63.7500024318696,0|2,3:2|0:0,0:0:0:0:
407,101,58345,2,0,P|446:142|514:138,1,127.500004863739,2|0,3:2|3:2,0:0:0:0:
453,24,58816,1,0,0:0:0:0:
453,24,58973,2,0,P|414:65|346:61,1,127.500004863739,0|12,3:2|0:0,0:0:0:0:
51,96,59601,5,2,3:2:0:0:
158,150,59758,1,0,3:2:0:0:
51,96,59915,2,0,P|69:139|82:183,1,72.2500013780594,14|0,0:0|0:0,0:0:0:0:
295,310,60229,5,2,3:2:0:0:
162,370,60386,1,0,1:2:0:0:
295,310,60543,2,0,P|306:266|317:234,1,72.2500013780594,14|0,0:0|0:0,0:0:0:0:
240,170,60858,5,10,0:0:0:0:
409,266,61015,1,10,0:0:0:0:
367,132,61172,1,10,0:0:0:0:
276,297,61329,1,10,0:0:0:0:
246,10,61800,5,10,0:0:0:0:
218,162,61957,1,10,0:0:0:0:
124,65,62114,1,10,0:0:0:0:
334,106,62271,1,10,0:0:0:0:
323,115,62585,5,0,3:2:0:0:
114,74,62742,2,0,P|127:122|136:161,1,85,10|0,0:0|1:2,0:0:0:0:
0,324,63057,2,0,P|-17:280|31:221,1,127.5,2|0,1:2|0:0,0:0:0:0:
87,278,63371,6,0,P|158:244|235:242,1,152.999995330811,6|10,3:2|0:0,0:0:0:0:
346,112,63842,2,0,P|329:161|319:201,1,76.4999976654053,2|0,0:0|3:2,0:0:0:0:
403,363,64156,1,2,3:2:0:0:
304,299,64313,1,8,0:0:0:0:
430,209,64470,2,0,P|447:258|457:298,1,76.4999976654053,2|0,3:2|0:0,0:0:0:0:
246,368,64784,1,0,3:2:0:0:
389,356,64941,6,0,P|367:280|340:205,1,152.999995330811,8|0,0:0|3:2,0:0:0:0:
158,79,65413,1,0,3:2:0:0:
207,240,65570,2,0,P|218:203|233:168,1,76.4999976654053,8|0,0:0|0:0,0:0:0:0:
455,70,65884,5,14,0:0:0:0:
351,111,66041,1,10,0:0:0:0:
288,26,66198,1,2,1:2:0:0:
454,170,66355,1,2,1:2:0:0:
50,319,66826,5,10,0:0:0:0:
201,375,66983,1,10,0:0:0:0:
277,231,67140,1,2,1:2:0:0:
174,296,67297,1,2,1:2:0:0:
166,305,67769,6,0,P|156:243|193:188,1,127.5,14|0,3:2|0:0,0:0:0:0:
200,107,68083,6,0,P|216:167|276:153,1,127.5,14|0,3:2|0:0,0:0:0:0:
278,68,68397,6,0,P|348:98|409:146,1,152.999995330811,6|10,3:2|0:0,0:0:0:0:
501,101,68868,2,0,P|504:55|472:25,1,76.4999976654053,2|0,0:0|3:2,0:0:0:0:
369,221,69182,1,0,3:2:0:0:
335,142,69339,1,8,0:0:0:0:
485,193,69496,6,0,P|471:239|464:275,1,76.4999976654053,0|0,3:2|0:0,0:0:0:0:
320,376,69811,1,0,3:2:0:0:
391,333,69968,2,0,P|377:287|370:251,1,76.4999976654053,8|0,0:0|1:2,0:0:0:0:
168,248,70282,1,2,3:2:0:0:
232,376,70439,5,10,0:0:0:0:
280,208,70596,1,14,0:0:0:0:
240,368,70753,1,2,3:2:0:0:
104,336,70910,6,0,P|171:300|245:283,1,152.999995330811,6|10,3:2|0:0,0:0:0:0:
146,174,71381,2,0,P|160:217|168:250,1,76.4999976654053,2|0,0:0|3:2,0:0:0:0:
258,111,71695,1,2,3:2:0:0:
245,209,71852,1,8,0:0:0:0:
83,96,72009,6,0,P|120:86|156:74,1,76.4999976654053,6|0,3:2|0:0,0:0:0:0:
342,167,72324,1,0,3:2:0:0:
282,14,72481,2,0,P|268:73|239:175,1,152.999995330811,8|0,0:0|3:2,0:0:0:0:
84,317,72952,1,0,3:2:0:0:
0,238,73109,2,0,P|51:195|116:214,1,114.749996498108,10|0,0:0|0:0,0:0:0:0:
153,259,73423,6,0,P|131:203|104:99,1,152.999995330811,6|10,3:2|0:0,0:0:0:0:
316,140,73894,2,0,P|278:148|242:160,1,76.4999976654053,2|0,0:0|3:2,0:0:0:0:
406,352,74208,1,2,3:2:0:0:
251,252,74365,1,8,0:0:0:0:
309,382,74523,6,0,B|296:299|364:314|350:229,1,152.999995330811,6|2,3:2|3:2,0:0:0:0:
496,95,74994,2,0,P|457:115|420:125,1,76.4999976654053,10|0,0:0|3:2,0:0:0:0:
238,17,75308,1,2,3:2:0:0:
293,145,75465,1,0,3:2:0:0:
114,93,75622,2,0,P|126:53|137:11,1,76.4999976654053,10|0,0:0|3:2,0:0:0:0:
50,209,75936,5,6,3:2:0:0:
1,110,76093,1,2,0:0:0:0:
197,162,76250,2,0,P|169:210|173:275,1,114.749996498108,8|0,0:0|0:0,0:0:0:0:
108,325,76564,2,0,P|148:310|189:298,1,76.4999976654053,0|0,3:2|3:2,0:0:0:0:
390,369,76879,1,8,0:0:0:0:
339,173,77036,6,0,P|311:236|287:318,1,152.999995330811,0|0,3:2|3:2,0:0:0:0:
497,270,77507,2,0,P|444:249|413:241,1,76.4999976654053,8|0,0:0|0:0,0:0:0:0:
481,22,77821,1,0,3:2:0:0:
387,101,77978,1,0,3:2:0:0:
204,9,78135,2,0,P|222:72|239:136,1,114.749996498108,14|0,0:0|0:0,0:0:0:0:
167,191,78449,6,0,P|130:178|90:170,1,76.4999976654053,14|0,0:0|3:2,0:0:0:0:
234,378,78763,1,0,3:2:0:0:
97,278,78920,5,10,0:0:0:0:
330,167,79078,1,0,3:2:0:0:
134,370,79235,1,0,3:2:0:0:
267,232,79392,6,0,L|283:318,1,76.4999976654053,10|0,0:0|3:2,0:0:0:0:
144,96,79706,5,10,0:0:0:0:
345,365,79863,1,10,0:0:0:0:
154,3,80962,6,0,P|231:71|223:135,1,170,6|8,3:2|0:0,0:0:0:0:
30,172,81434,1,2,0:0:0:0:
30,172,81512,1,0,0:0:0:0:
30,172,81591,2,0,P|69:154|109:143,1,85,0|0,3:2|3:2,0:0:0:0:
238,368,81905,6,0,B|222:269|296:304|283:203,1,170,10|0,0:0|0:0,0:0:0:0:
175,223,82376,1,2,3:2:0:0:
338,344,82533,2,0,P|377:327|419:320,1,85,8|0,0:0|0:0,0:0:0:0:
398,74,82847,1,2,3:2:0:0:
492,150,83004,1,0,3:2:0:0:
398,74,83161,2,0,P|380:112|373:154,1,85,10|2,0:0|0:0,0:0:0:0:
170,66,83475,6,0,P|216:20|314:30,1,170,2|10,3:2|0:0,0:0:0:0:
174,198,83947,2,0,P|138:178|93:170,1,85,2|0,0:0|3:2,0:0:0:0:
90,365,84261,1,2,3:2:0:0:
9,219,84418,1,8,0:0:0:0:
212,298,84575,6,0,P|293:262|382:260,1,170,2|0,3:2|3:2,0:0:0:0:
327,98,85046,2,0,P|313:138|297:176,1,85,8|0,0:0|0:0,0:0:0:0:
339,377,85360,1,0,3:2:0:0:
218,209,85517,1,0,3:2:0:0:
481,217,85674,2,0,P|416:217|371:266,1,127.5,10|0,0:0|0:0,0:0:0:0:
308,297,85989,6,0,P|325:335|338:376,1,85,2|2,3:2|0:0,0:0:0:0:
451,297,86303,1,10,0:0:0:0:
208,350,86460,2,0,B|220:262|290:309|296:206,1,170,2|2,0:0|3:2,0:0:0:0:
107,138,86931,1,10,0:0:0:0:
337,128,87088,6,0,P|278:187|192:183,1,170,2|0,3:2|3:2,0:0:0:0:
162,0,87559,2,0,P|184:43|196:84,1,85,10|0,0:0|0:0,0:0:0:0:
53,253,87873,1,2,3:2:0:0:
0,125,88030,1,0,3:2:0:0:
202,206,88187,2,0,P|163:255|168:321,1,127.5,10|0,0:0|0:0,0:0:0:0:
244,342,88502,6,0,P|286:325|334:313,1,85,2|2,3:2|0:0,0:0:0:0:
487,168,88816,1,10,0:0:0:0:
370,384,88973,2,0,B|340:295|433:306|399:209,1,170,2|0,0:0|3:2,0:0:0:0:
238,75,89444,1,8,0:0:0:0:
493,185,89601,6,0,B|430:208|430:208|389:196|389:196|325:218,1,170,6|0,3:2|3:2,0:0:0:0:
139,33,90072,2,0,P|177:51|218:62,1,85,8|0,0:0|0:0,0:0:0:0:
67,176,90386,1,2,3:2:0:0:
42,82,90543,1,2,3:2:0:0:
265,159,90701,2,0,P|223:203|224:279,1,127.5,14|0,0:0|0:0,0:0:0:0:
287,316,91015,6,0,B|324:300|324:300|340:304|340:304|379:289,1,85,6|0,3:2|0:0,0:0:0:0:
428,81,91329,1,10,0:0:0:0:
512,155,91486,2,0,P|489:206|478:251,1,85,2|0,0:0|3:2,0:0:0:0:
327,87,91800,1,2,3:2:0:0:
495,8,91957,1,8,0:0:0:0:
392,163,92114,6,0,P|325:114|236:118,1,170,2|0,3:2|3:2,0:0:0:0:
254,354,92585,2,0,P|266:313|284:274,1,85,8|2,0:0|0:0,0:0:0:0:
85,118,92900,1,0,3:2:0:0:
146,197,93057,1,0,3:2:0:0:
10,305,93214,2,0,P|80:313|127:360,1,127.5,10|0,0:0|0:0,0:0:0:0:
182,294,93528,6,0,P|171:247|152:205,1,85,2|0,3:2|0:0,0:0:0:0:
351,45,93842,1,10,0:0:0:0:
304,122,93999,2,0,P|257:133|215:152,1,85,2|0,0:0|3:2,0:0:0:0:
372,299,94313,1,2,3:2:0:0:
493,204,94470,1,8,0:0:0:0:
436,369,94627,6,0,B|443:276|367:309|377:203,1,170,2|0,3:2|3:2,0:0:0:0:
194,353,95098,2,0,P|233:336|274:327,1,85,10|0,0:0|0:0,0:0:0:0:
390,127,95413,1,2,3:2:0:0:
280,200,95570,1,0,3:2:0:0:
147,73,95727,2,0,P|192:33|268:46,1,127.5,10|0,0:0|0:0,0:0:0:0:
304,104,96041,6,0,P|296:152|296:200,1,85,2|2,3:2|0:0,0:0:0:0:
113,322,96355,1,10,0:0:0:0:
224,336,96512,2,0,P|224:288|216:240,1,85,2|0,0:0|3:2,0:0:0:0:
32,264,96826,1,0,3:2:0:0:
184,168,96983,1,8,0:0:0:0:
72,112,97140,2,0,P|70:65|80:16,1,85,2|0,0:0|0:0,0:0:0:0:
176,136,97454,5,0,3:2:0:0:
88,192,97612,2,0,P|156:179|240:256,1,170,8|0,0:0|3:2,0:0:0:0:
176,328,98083,1,0,3:2:0:0:
312,376,98240,2,0,P|315:324|320:280,1,85,8|0,0:0|0:0,0:0:0:0:
423,133,98554,5,6,3:2:0:0:
423,133,98868,2,0,B|339:123|371:192|267:176,1,140.25000428009,8|0,0:0|0:0,0:0:0:0:
225,131,99182,5,0,3:2:0:0:
344,0,99339,1,8,0:0:0:0:
508,64,99496,1,8,0:0:0:0:
405,255,99653,6,0,P|365:172|406:77,1,187.000005706787,6|0,3:2|3:2,0:0:0:0:
127,17,100125,2,0,P|172:25|214:45,1,93.5000028533936,10|0,0:0|0:0,0:0:0:0:
66,192,100439,5,10,0:0:0:0:
63,183,100517,1,8,0:0:0:0:
60,174,100596,1,10,0:0:0:0:
142,110,100753,1,10,0:0:0:0:
24,308,100910,1,0,1:2:0:0:
242,215,101067,6,0,B|197:203|197:203|149:225|149:225|121:211|80:205,1,170,6|8,3:2|0:0,0:0:0:0:
209,29,101538,1,2,0:0:0:0:
209,29,101617,1,0,0:0:0:0:
209,29,101695,2,0,P|226:85|232:121,1,85,0|0,3:2|3:2,0:0:0:0:
468,168,102009,6,0,P|381:169|336:245,1,170,10|0,0:0|0:0,0:0:0:0:
440,368,102481,1,2,3:2:0:0:
263,296,102638,2,0,P|254:254|241:214,1,85,8|0,0:0|0:0,0:0:0:0:
21,363,102952,1,2,3:2:0:0:
90,272,103109,1,0,3:2:0:0:
21,363,103266,2,0,P|63:372|103:385,1,85,10|0,0:0|3:2,0:0:0:0:
276,135,103580,6,0,P|230:189|133:184,1,170,2|10,3:2|0:0,0:0:0:0:
0,27,104051,2,0,P|19:66|33:114,1,85,2|0,0:0|3:2,0:0:0:0:
2,272,104365,1,2,3:2:0:0:
106,113,104523,1,8,0:0:0:0:
201,326,104680,6,0,B|281:336|270:253|352:264,1,170,2|0,3:2|3:2,0:0:0:0:
499,110,105151,2,0,P|481:151|467:188,1,85,8|0,0:0|0:0,0:0:0:0:
347,362,105465,1,0,3:2:0:0:
453,306,105622,1,0,3:2:0:0:
253,187,105779,2,0,P|317:184|357:130,1,127.5,10|0,0:0|3:2,0:0:0:0:
338,15,106093,6,0,B|381:30|381:30|393:42|393:42|435:55,1,101.999996887207,6|0,3:2|0:0,0:0:0:0:
145,172,106407,1,10,0:0:0:0:
236,0,106564,2,0,P|256:46|270:95,1,101.999996887207,2|0,0:0|3:2,0:0:0:0:
58,284,106879,1,2,3:2:0:0:
253,187,107036,1,8,0:0:0:0:
207,366,107193,6,0,B|225:262|105:296|143:160,1,203.999993774414,6|0,3:2|3:2,0:0:0:0:
0,18,107664,2,0,P|42:57|91:70,1,101.999996887207,10|0,0:0|0:0,0:0:0:0:
286,8,107978,1,2,3:2:0:0:
286,8,108057,1,0,3:2:0:0:
286,8,108135,1,0,3:2:0:0:
205,116,108292,2,0,P|188:60|167:12,1,101.999996887207,10|0,0:0|3:2,0:0:0:0:
51,219,108606,5,6,3:2:0:0:
220,203,108763,1,2,0:0:0:0:
0,137,108920,1,10,0:0:0:0:
111,366,109078,2,0,B|176:338|176:338|231:345|231:345|260:326|309:319,1,203.999993774414,2|0,0:0|3:2,0:0:0:0:
469,196,109549,1,8,0:0:0:0:
379,368,109706,1,0,3:2:0:0:
379,368,110020,5,0,3:2:0:0:
220,203,110177,2,0,P|260:217|301:226,1,85,8|0,0:0|3:2,0:0:0:0:
484,110,110491,5,2,3:2:0:0:
385,171,110648,1,2,1:2:0:0:
481,380,110805,1,10,0:0:0:0:
303,319,110962,1,2,0:0:0:0:
480,183,111119,6,0,B|443:196|418:197|418:197|390:218|390:218|356:217|306:234,1,170,6|10,3:2|0:0,0:0:0:0:
107,122,111591,2,0,P|151:141|206:152,1,85,2|0,0:0|3:2,0:0:0:0:
366,71,111905,1,2,3:2:0:0:
229,221,112062,1,8,0:0:0:0:
256,0,112219,6,0,P|310:55|305:157,1,170,2|0,3:2|3:2,0:0:0:0:
480,29,112690,2,0,P|438:37|399:54,1,85,8|0,0:0|3:2,0:0:0:0:
377,218,113004,1,0,3:2:0:0:
311,143,113161,1,0,3:2:0:0:
503,197,113318,2,0,P|490:235|477:277,1,85,10|0,0:0|0:0,0:0:0:0:
185,371,113633,6,0,B|215:354|242:355|242:355|271:321|271:321|301:324|344:304,1,170,6|10,3:2|0:0,0:0:0:0:
157,177,114104,2,0,P|175:215|186:256,1,85,2|0,0:0|3:2,0:0:0:0:
309,107,114418,1,2,3:2:0:0:
159,33,114575,1,8,0:0:0:0:
250,191,114732,6,0,P|305:141|404:144,1,170,2|0,3:2|3:2,0:0:0:0:
512,13,115203,2,0,P|466:26|411:39,1,85,8|0,0:0|0:0,0:0:0:0:
346,222,115517,1,2,3:2:0:0:
481,141,115674,1,0,3:2:0:0:
374,350,115831,1,10,0:0:0:0:
374,350,116146,6,0,B|346:296|292:306|292:306|278:342|238:350,1,170,6|10,3:2|0:0,0:0:0:0:
79,245,116617,1,2,0:0:0:0:
143,381,116774,2,0,P|156:324|179:278,1,85,0|0,3:2|3:2,0:0:0:0:
1,366,117088,5,8,0:0:0:0:
180,165,117245,1,6,3:2:0:0:
180,165,117559,5,8,0:0:0:0:
182,173,117638,1,8,0:0:0:0:
184,181,117716,1,0,1:2:0:0:
57,93,117873,1,0,1:2:0:0:
242,51,118030,6,0,L|286:62,3,42.5,0|0|0|0,3:2|3:2|3:2|3:2,0:0:0:0:
349,3,118345,6,0,P|356:27|360:49,1,42.5,8|0,0:0|0:0,0:0:0:0:
303,186,118502,2,0,P|297:164|292:140,1,42.5,8|0,0:0|0:0,0:0:0:0:
435,9,118659,5,6,3:2:0:0:
380,258,120072,5,0,3:2:0:0:
274,372,120229,2,0,L|252:282,1,85,10|2,0:0|3:2,0:0:0:0:
325,176,120543,5,8,0:0:0:0:
323,184,120622,1,8,0:0:0:0:
321,192,120701,1,10,0:0:0:0:
138,306,120858,1,8,0:0:0:0:
237,197,121015,1,2,1:2:0:0:
64,347,121172,6,0,P|129:344|175:394,1,127.5,10|0,0:0|0:0,0:0:0:0:
256,360,121486,2,0,P|282:312|274:277,1,85,8|0,0:0|0:0,0:0:0:0:
162,161,121800,1,10,0:0:0:0:
26,236,121957,1,0,3:2:0:0:
127,67,122114,1,8,0:0:0:0:
237,197,122271,6,0,P|280:181|330:166,1,85,2|8,3:2|0:0,0:0:0:0:
470,51,122585,1,0,3:2:0:0:
430,222,122742,2,0,P|414:179|399:129,1,85,10|2,0:0|3:2,0:0:0:0:
282,16,123057,1,8,0:0:0:0:
405,119,123214,1,2,3:2:0:0:
303,257,123371,1,8,0:0:0:0:
303,257,123685,6,0,P|252:216|183:227,1,127.5,10|0,0:0|0:0,0:0:0:0:
127,286,123999,2,0,P|145:336|157:382,1,85,10|2,0:0|0:0,0:0:0:0:
113,192,124313,1,8,0:0:0:0:
0,294,124470,1,0,3:2:0:0:
49,110,124627,1,8,0:0:0:0:
0,294,124784,6,0,P|18:254|31:205,1,85,2|8,3:2|0:0,0:0:0:0:
227,120,125098,1,0,3:2:0:0:
108,20,125256,2,0,P|126:60|139:109,1,85,10|2,0:0|3:2,0:0:0:0:
330,42,125570,1,10,0:0:0:0:
227,120,125727,1,0,3:2:0:0:
410,197,125884,1,8,0:0:0:0:
323,137,126041,1,0,3:2:0:0:
508,235,126198,6,0,P|440:229|372:309,1,170,10|8,0:0|0:0,0:0:0:0:
232,384,126669,1,2,0:0:0:0:
262,219,126826,2,0,P|274:265|288:300,1,85,8|0,0:0|3:2,0:0:0:0:
78,384,127140,1,8,0:0:0:0:
6,327,127297,6,0,P|23:244|54:159,1,170,2|0,3:2|3:2,0:0:0:0:
9,14,127769,1,10,0:0:0:0:
177,56,127926,2,0,P|141:62|95:79,1,85,2|8,3:2|0:0,0:0:0:0:
173,179,128240,1,0,3:2:0:0:
299,81,128397,2,0,P|284:41|275:0,1,85,8|0,0:0|3:2,0:0:0:0:
487,101,128711,6,0,B|488:189|412:166|417:264,1,170,10|10,0:0|0:0,0:0:0:0:
241,333,129182,1,0,3:2:0:0:
238,324,129261,1,0,3:2:0:0:
235,315,129339,1,10,0:0:0:0:
308,230,129496,1,2,1:2:0:0:
135,381,129653,1,2,1:2:0:0:
242,136,129811,1,6,3:2:0:0:
242,136,130439,6,0,L|232:89,2,42.5,0|8|8,1:2|0:0|0:0,0:0:0:0:
172,194,130753,1,8,0:0:0:0:
313,63,130910,2,0,P|248:63|199:16,1,127.500004863739,0|6,1:2|3:2,0:0:0:0:
256,192,131303,12,0,137585,0:0:0:0:
