osu file format v14

[General]
AudioFilename: audio.ogg
AudioLeadIn: 0
PreviewTime: 80020
Countdown: 0
SampleSet: Soft
StackLeniency: 0.3
Mode: 0
LetterboxInBreaks: 0
WidescreenStoryboard: 1

[Editor]
Bookmarks: 63842
DistanceSpacing: 1.7
BeatDivisor: 4
GridSize: 8
TimelineZoom: 1.58

[Metadata]
Title:Tomodachi kara Koibito e
TitleUnicode:友だちから恋びとへ
Artist:Prico
ArtistUnicode:Prico
Creator:KennethBBG
Version:Hard
Source:友だちから恋びとへ
Tags:Azarashisoft VN video game Visual novel eroge Japanese pop jpop j-pop Rock jrock j-rock 保桜・あにもね 新井健史 AZARASHI SOFTWARE Mrgglock kowari Saronk Natsume Shizuku 恋人 友達
BeatmapID:4078995
BeatmapSetID:1960919

[Difficulty]
HPDrainRate:4
CircleSize:3.7
OverallDifficulty:6.5
ApproachRate:7.5
SliderMultiplier:1.25
SliderTickRate:1

[Events]
//Background and Video events
0,0,"bg3.jpg",0,0
//Break Periods
2,20848,39300
//Storyboard Layer 0 (Background)
//Storyboard Layer 1 (Fail)
//Storyboard Layer 2 (Pass)
//Storyboard Layer 3 (Foreground)
//Storyboard Layer 4 (Overlay)
//Storyboard Sound Samples

[TimingPoints]
544,314.13612565445,4,2,1,34,1,0
858,-100,4,2,1,25,0,0
8711,-100,4,2,1,50,0,0
8868,-100,4,2,1,35,0,0
9182,-100,4,2,1,60,0,0
9417,-100,4,2,1,60,0,0
9496,-100,4,2,1,60,0,0
10596,-100,4,2,1,70,0,0
19392,-100,4,2,1,30,0,0
30701,-181.818181818181,4,2,1,30,0,0
40125,-125,4,2,1,40,0,0
40439,-125,4,2,1,50,0,0
40674,-133.333333333333,4,2,1,40,0,0
40753,-133.333333333333,4,2,1,40,0,0
49549,-133.333333333333,4,2,1,40,0,0
50491,-133.333333333333,4,2,1,45,0,0
50726,-133.333333333333,4,2,1,5,0,0
50805,-133.333333333333,4,2,1,45,0,0
59287,-117.647058823529,4,2,1,45,0,0
59601,-117.647058823529,4,2,1,50,0,0
59915,-117.647058823529,4,2,1,55,0,0
60858,-100,4,2,1,70,0,0
62585,-100,4,2,1,60,0,0
62742,-100,4,2,1,60,0,0
63371,-111.111111111111,4,2,1,60,0,0
65884,-111.111111111111,4,2,1,70,0,0
67769,-100,4,2,1,70,0,0
68004,-100,4,2,1,70,0,0
68083,-100,4,2,1,70,0,0
68318,-100,4,2,1,70,0,0
68397,-111.111111111111,4,2,1,60,0,0
74523,-111.111111111111,4,2,1,65,0,0
74758,-111.111111111111,4,2,1,65,0,0
74837,-111.111111111111,4,2,1,65,0,0
75857,-111.111111111111,4,2,1,5,0,0
75936,-111.111111111111,4,2,1,70,0,0
76171,-111.111111111111,4,2,1,70,0,0
76250,-111.111111111111,4,2,1,70,0,0
78370,-111.111111111111,4,2,1,5,0,0
78449,-111.111111111111,4,2,1,75,0,0
80962,-100,4,2,1,75,0,1
90936,-100,4,2,1,5,0,1
91015,-100,4,2,1,75,0,1
98554,-83.3333333333333,4,2,1,80,0,1
98789,-83.3333333333333,4,2,1,80,0,1
98868,-83.3333333333333,4,2,1,80,0,1
100753,-100,4,2,1,80,0,0
101067,-100,4,2,1,75,0,1
105936,-86.9565217391304,4,2,1,75,0,1
106093,-86.9565217391304,4,2,1,80,0,1
108763,-86.9565217391304,4,2,1,75,0,1
110020,-100,4,2,1,75,0,1
111040,-100,4,2,1,5,0,1
111119,-100,4,2,1,70,0,1
115752,-100,4,2,1,5,0,1
115831,-100,4,2,1,70,0,1
116146,-100,4,2,1,75,0,1
116381,-100,4,2,1,5,0,1
116459,-100,4,2,1,75,0,1
117480,-100,4,2,1,75,0,1
117559,-100,4,2,1,75,0,1
118659,-100,4,2,1,80,0,0
118973,-100,4,2,1,40,0,0
120072,-100,4,2,1,50,0,0
121172,-100,4,2,1,65,0,0
121407,-100,4,2,1,65,0,0
121486,-100,4,2,1,65,0,0
123920,-100,4,2,1,65,0,0
123999,-100,4,2,1,65,0,0
130439,-100,4,2,1,50,0,0
131224,-100,4,2,1,65,0,0
131538,-100,4,2,1,60,0,0
131852,-100,4,2,1,55,0,0
132167,-100,4,2,1,50,0,0
132481,-100,4,2,1,45,0,0
132795,-100,4,2,1,40,0,0
133109,-100,4,2,1,35,0,0
133423,-100,4,2,1,30,0,0
133737,-100,4,2,1,25,0,0
134051,-100,4,2,1,20,0,0
134365,-100,4,2,1,15,0,0
134680,-100,4,2,1,10,0,0
134994,-100,4,2,1,5,0,0
137586,-100,4,2,1,5,0,0

[Colours]
Combo1 : 240,120,0
Combo2 : 225,91,28
Combo3 : 88,88,88
Combo4 : 244,138,138

[HitObjects]
184,188,8711,5,8,3:2:0:0:
125,253,8868,1,0,3:2:0:0:
189,349,9024,5,2,0:0:0:0:
189,349,9103,1,2,0:0:0:0:
189,349,9181,2,0,P|241:335|324:316,1,125,6|10,3:2|0:0,0:0:0:0:
381,379,9653,1,0,3:2:0:0:
436,316,9811,1,10,0:0:0:0:
436,316,9967,1,10,0:0:0:0:
374,237,10124,1,10,0:0:0:0:
374,237,10202,1,8,0:0:0:0:
374,237,10281,2,0,L|359:188,3,31.25,2|2|2|2,1:2|0:0|0:0|0:0,0:0:0:0:
381,162,10595,6,0,B|453:178|453:178|519:154,2,125,6|8|2,3:2|0:0|3:2,0:0:0:0:
299,125,11380,1,2,3:2:0:0:
298,124,11537,1,10,0:0:0:0:
242,199,11694,6,0,P|182:179|121:164,1,125,2|0,3:2|3:2,0:0:0:0:
42,109,12167,2,0,P|27:150|31:178,1,62.5,8|0,0:0|0:0,0:0:0:0:
86,239,12481,1,2,3:2:0:0:
86,239,12638,1,0,3:2:0:0:
176,208,12795,1,10,0:0:0:0:
283,350,13109,6,0,P|223:366|146:390,2,125,2|10|2,3:2|0:0|3:2,0:0:0:0:
378,384,13893,1,0,3:2:0:0:
378,384,14050,1,8,0:0:0:0:
399,292,14207,6,0,P|413:234|376:174,1,125,2|0,3:2|3:2,0:0:0:0:
296,158,14680,2,0,L|306:75,1,62.5,10|2,0:0|0:0,0:0:0:0:
352,12,14994,2,0,P|383:14|412:25,1,62.5,2|0,3:2|3:2,0:0:0:0:
505,14,15308,1,8,0:0:0:0:
499,132,15464,5,0,3:2:0:0:
499,132,15542,1,0,3:2:0:0:
499,132,15621,2,0,P|483:192|472:254,2,125,6|8|2,3:2|0:0|3:2,0:0:0:0:
412,111,16406,1,0,3:2:0:0:
412,111,16563,1,8,0:0:0:0:
369,208,16722,6,0,P|312:185|236:173,1,125,2|0,3:2|3:2,0:0:0:0:
146,146,17193,2,0,P|178:198|168:261,2,125,8|0|8,0:0|3:2|0:0,0:0:0:0:
0,380,18134,6,0,P|61:369|123:358,1,125,2|10,3:2|0:0,0:0:0:0:
228,384,18605,1,10,0:0:0:0:
228,384,18684,1,8,0:0:0:0:
228,384,18762,1,2,3:2:0:0:
317,338,18920,2,0,L|333:263,1,62.5,0|0,1:2|1:2,0:0:0:0:
306,164,19235,5,6,3:2:0:0:
256,192,19313,12,2,20648,0:0:0:0:
497,9,40125,5,0,3:2:0:0:
497,9,40282,1,0,3:2:0:0:
451,80,40439,2,0,P|456:109|462:148,1,50,8|0,0:0|0:0,0:0:0:0:
422,200,40753,6,0,P|369:176|313:180,1,93.7500035762788,2|2,3:2|3:2,0:0:0:0:
293,243,41224,2,0,P|296:272|308:349,1,93.7500035762788,2|0,0:0|0:0,0:0:0:0:
231,364,41695,2,0,P|208:358|184:356,1,46.8750017881394,2|2,3:2|0:0,0:0:0:0:
105,351,42009,6,0,B|119:296|131:312|147:262,1,93.7500035762788,2|2,3:2|3:2,0:0:0:0:
125,189,42481,2,0,P|185:194|221:228,1,93.7500035762788,2|2,0:0|0:0,0:0:0:0:
243,285,42952,1,0,3:2:0:0:
329,152,43266,6,0,P|375:159|420:172,2,93.7500035762788,2|0|2,3:2|3:2|3:2,0:0:0:0:
148,73,44208,1,2,3:2:0:0:
245,47,44365,1,2,0:0:0:0:
245,47,44523,6,0,P|230:100|223:139,2,93.7500035762788,0|0|0,3:2|3:2|3:2,0:0:0:0:
441,30,45465,2,0,L|436:79,1,46.8750017881394,2|0,3:2|0:0,0:0:0:0:
497,153,45779,6,0,P|451:148|413:174,1,93.7500035762788,2|2,3:2|3:2,0:0:0:0:
374,243,46250,2,0,L|423:252,1,46.8750017881394,2|0,0:0|3:2,0:0:0:0:
415,330,46564,2,0,L|313:310,1,93.7500035762788,2|2,0:0|0:0,0:0:0:0:
251,348,47036,6,0,B|272:307|272:307|255:243,2,93.7500035762788,0|2|2,3:2|3:2|3:2,0:0:0:0:
173,367,47821,2,0,L|126:360,1,46.8750017881394,2|0,0:0|3:2,0:0:0:0:
57,331,48135,1,2,0:0:0:0:
57,331,48292,6,0,P|70:271|109:255,2,93.7500035762788,0|0|0,3:2|3:2|3:2,0:0:0:0:
178,227,49235,1,0,3:2:0:0:
107,85,49549,6,0,P|87:80|-8:77,2,93.7500035762788,2|2|2,3:2|3:2|3:2,0:0:0:0:
286,12,50491,2,0,P|281:32|265:83,1,70.3125026822091,14|0,0:0|0:0,0:0:0:0:
249,123,50805,6,0,P|288:100|345:116,1,93.7500035762788,2|2,3:2|3:2,0:0:0:0:
370,178,51276,2,0,P|343:183|322:188,1,46.8750017881394,2|0,0:0|3:2,0:0:0:0:
297,263,51591,2,0,P|319:267|342:274,1,46.8750017881394,2|0,0:0|3:2,0:0:0:0:
421,309,51905,1,2,0:0:0:0:
421,309,52062,6,0,P|394:340|330:350,2,93.7500035762788,0|0|0,3:2|3:2|3:2,0:0:0:0:
488,134,53004,6,0,L|431:122,1,46.8750017881394,2|0,3:2|0:0,0:0:0:0:
370,159,53318,2,0,P|362:112|353:67,1,93.7500035762788,2|2,3:2|3:2,0:0:0:0:
284,31,53790,2,0,P|229:19|188:53,1,93.7500035762788,2|2,0:0|0:0,0:0:0:0:
85,197,54418,5,2,0:0:0:0:
85,197,54575,2,0,B|32:212|32:212|12:200|-3:192,2,93.7500035762788,0|0|0,3:2|3:2|3:2,0:0:0:0:
140,325,55517,6,0,L|144:371,1,46.8750017881394,2|2,3:2|0:0,0:0:0:0:
222,356,55831,2,0,P|275:363|319:373,1,93.7500035762788,2|2,3:2|3:2,0:0:0:0:
389,344,56303,2,0,L|378:284,1,46.8750017881394,2|0,0:0|3:2,0:0:0:0:
316,246,56617,2,0,L|326:186,1,46.8750017881394,2|0,0:0|3:2,0:0:0:0:
381,145,56931,5,2,0:0:0:0:
381,145,57009,1,0,0:0:0:0:
381,145,57088,2,0,P|341:121|285:129,2,93.7500035762788,0|2|2,3:2|3:2|3:2,0:0:0:0:
454,175,57873,2,0,L|460:221,1,46.8750017881394,2|0,0:0|3:2,0:0:0:0:
496,303,58188,5,2,0:0:0:0:
496,303,58266,1,0,0:0:0:0:
496,303,58345,2,0,B|443:318|443:318|391:296,2,93.7500035762788,2|0|0,3:2|3:2|3:2,0:0:0:0:
277,384,59287,6,0,P|259:350|273:284,1,106.250002026558,12|2,0:0|3:2,0:0:0:0:
329,216,59758,1,0,3:2:0:0:
255,162,59915,2,0,L|180:177,1,53.125001013279,14|0,0:0|0:0,0:0:0:0:
134,223,60229,2,0,L|81:212,1,53.125001013279,2|0,3:2|1:2,0:0:0:0:
14,161,60543,2,0,P|8:133|24:101,1,53.125001013279,14|0,0:0|0:0,0:0:0:0:
84,36,60858,5,10,0:0:0:0:
84,36,61015,1,10,0:0:0:0:
167,88,61172,1,10,0:0:0:0:
167,88,61329,1,10,0:0:0:0:
512,32,61800,5,10,0:0:0:0:
512,32,61957,1,10,0:0:0:0:
429,84,62114,1,10,0:0:0:0:
429,84,62271,1,10,0:0:0:0:
249,6,62585,5,0,3:2:0:0:
249,6,62742,2,0,P|259:49|268:93,1,62.5,10|0,0:0|1:2,0:0:0:0:
324,138,63057,2,0,P|314:181|305:225,1,62.5,2|0,1:2|0:0,0:0:0:0:
344,275,63371,6,0,B|281:244|281:244|256:251|232:254,1,112.499996566773,6|10,3:2|0:0,0:0:0:0:
192,322,63842,2,0,P|133:324|86:355,1,112.499996566773,2|2,0:0|3:2,0:0:0:0:
14,311,64313,1,8,0:0:0:0:
14,311,64470,6,0,P|30:249|39:194,1,112.499996566773,2|0,3:2|3:2,0:0:0:0:
0,125,64941,2,0,B|34:137|70:161|70:161|110:145,1,112.499996566773,8|0,0:0|3:2,0:0:0:0:
177,107,65413,1,0,3:2:0:0:
177,107,65570,2,0,L|202:185,1,56.2499982833863,8|0,0:0|0:0,0:0:0:0:
219,258,65884,5,14,0:0:0:0:
219,258,66041,1,10,0:0:0:0:
167,341,66198,1,2,1:2:0:0:
167,341,66355,1,2,1:2:0:0:
445,384,66826,5,10,0:0:0:0:
445,384,66983,1,10,0:0:0:0:
393,301,67140,1,2,1:2:0:0:
393,301,67297,1,2,1:2:0:0:
512,149,67769,6,0,L|431:132,1,62.5,14|0,3:2|0:0,0:0:0:0:
389,207,68083,2,0,L|308:224,1,62.5,14|0,3:2|0:0,0:0:0:0:
240,180,68397,6,0,B|250:116|269:59,1,112.499996566773,6|10,3:2|0:0,0:0:0:0:
195,23,68868,2,0,P|155:30|80:40,1,112.499996566773,2|0,0:0|3:2,0:0:0:0:
8,77,69339,1,8,0:0:0:0:
27,159,69496,2,0,P|92:173|129:223,1,112.499996566773,0|0,3:2|3:2,0:0:0:0:
96,286,69968,2,0,P|57:276|19:268,1,56.2499982833863,8|0,0:0|1:2,0:0:0:0:
9,352,70282,5,2,3:2:0:0:
9,352,70439,1,10,0:0:0:0:
93,381,70596,1,14,0:0:0:0:
93,381,70753,1,2,3:2:0:0:
185,358,70910,6,0,B|195:283|213:233,1,112.499996566773,6|10,3:2|0:0,0:0:0:0:
178,140,71381,2,0,P|226:170|286:169,1,112.499996566773,2|2,0:0|3:2,0:0:0:0:
298,84,71852,1,8,0:0:0:0:
388,8,72009,6,0,B|453:6|425:35|506:31,1,112.499996566773,6|0,3:2|3:2,0:0:0:0:
504,113,72481,2,0,P|509:165|460:213,1,112.499996566773,8|0,0:0|3:2,0:0:0:0:
387,230,72952,1,0,3:2:0:0:
387,230,73109,2,0,L|393:308,1,56.2499982833863,10|0,0:0|0:0,0:0:0:0:
326,363,73423,6,0,P|277:337|223:349,1,112.499996566773,6|10,3:2|0:0,0:0:0:0:
136,298,73894,2,0,P|134:242|152:189,1,112.499996566773,2|2,0:0|3:2,0:0:0:0:
238,134,74365,1,8,0:0:0:0:
175,53,74523,6,0,B|146:63|121:82|121:82|93:67|64:66,1,112.499996566773,6|2,3:2|3:2,0:0:0:0:
17,137,74994,2,0,P|30:174|35:206,1,56.2499982833863,10|0,0:0|3:2,0:0:0:0:
118,218,75308,2,0,P|105:255|100:287,1,56.2499982833863,2|0,3:2|3:2,0:0:0:0:
76,369,75622,2,0,P|114:356|179:343,1,84.3749974250794,10|0,0:0|0:0,0:0:0:0:
192,310,75936,6,0,P|246:307|285:346,2,112.499996566773,6|8|0,3:2|0:0|3:2,0:0:0:0:
159,225,76722,2,0,L|166:169,1,56.2499982833863,0|8,3:2|0:0,0:0:0:0:
170,79,77036,6,0,B|239:82|220:111|284:115,1,112.499996566773,0|0,3:2|3:2,0:0:0:0:
343,55,77507,2,0,P|326:118|317:182,1,112.499996566773,8|0,0:0|3:2,0:0:0:0:
269,240,77978,1,0,3:2:0:0:
312,331,78135,2,0,P|353:324|393:337,1,84.3749974250794,14|0,0:0|0:0,0:0:0:0:
440,354,78449,6,0,P|450:294|469:239,1,112.499996566773,14|0,0:0|3:2,0:0:0:0:
501,152,78920,1,10,0:0:0:0:
501,152,79078,2,0,L|445:163,1,56.2499982833863,0|0,3:2|3:2,0:0:0:0:
375,236,79392,1,10,0:0:0:0:
375,236,79549,1,0,3:2:0:0:
282,194,79706,5,10,0:0:0:0:
298,94,79863,1,10,0:0:0:0:
0,50,80962,6,0,B|72:47|51:84|128:74,1,125,6|8,3:2|0:0,0:0:0:0:
198,8,81434,2,0,P|164:73|179:143,1,125,2|0,0:0|3:2,0:0:0:0:
222,205,81905,1,10,0:0:0:0:
222,205,82062,2,0,L|307:193,1,62.5,0|0,3:2|0:0,0:0:0:0:
356,141,82376,1,2,3:2:0:0:
436,183,82533,1,8,0:0:0:0:
512,313,82847,6,0,L|500:398,1,62.5,2|0,3:2|3:2,0:0:0:0:
420,325,83161,2,0,L|408:240,1,62.5,10|2,0:0|0:0,0:0:0:0:
303,309,83475,6,0,P|246:342|171:313,1,125,2|10,3:2|0:0,0:0:0:0:
116,261,83947,2,0,L|125:196,1,62.5,2|0,0:0|3:2,0:0:0:0:
207,145,84261,2,0,L|197:80,1,62.5,2|8,3:2|0:0,0:0:0:0:
114,28,84575,6,0,P|51:63|41:132,1,125,2|0,3:2|3:2,0:0:0:0:
11,209,85046,2,0,B|43:206|71:194|71:194|103:220|127:234,1,125,8|0,0:0|3:2,0:0:0:0:
121,230,85517,1,0,3:2:0:0:
214,265,85674,2,0,L|197:346,1,62.5,10|0,0:0|0:0,0:0:0:0:
279,380,85989,5,2,3:2:0:0:
279,380,86146,1,2,0:0:0:0:
341,324,86303,1,10,0:0:0:0:
341,324,86460,2,0,L|324:243,1,62.5,2|0,0:0|3:2,0:0:0:0:
340,181,86774,1,2,3:2:0:0:
430,180,86931,1,10,0:0:0:0:
380,103,87088,6,0,P|341:87|251:62,1,125,2|0,3:2|3:2,0:0:0:0:
212,158,87559,2,0,P|160:172|98:129,2,125,10|2|10,0:0|3:2|0:0,0:0:0:0:
324,315,88502,5,2,3:2:0:0:
324,315,88659,1,2,0:0:0:0:
419,357,88816,1,10,0:0:0:0:
419,357,88973,2,0,L|398:230,1,125,2|0,0:0|3:2,0:0:0:0:
426,144,89444,1,8,0:0:0:0:
319,182,89601,6,0,P|272:163|179:193,1,125,6|0,3:2|3:2,0:0:0:0:
134,227,90072,1,8,0:0:0:0:
53,379,90386,5,2,3:2:0:0:
53,379,90543,1,2,3:2:0:0:
0,303,90701,2,0,P|4:254|7:205,1,93.75,14|0,0:0|0:0,0:0:0:0:
13,157,91015,6,0,P|79:147|125:88,1,125,6|10,3:2|0:0,0:0:0:0:
116,4,91486,2,0,L|197:21,1,62.5,2|0,0:0|3:2,0:0:0:0:
236,96,91800,2,0,L|317:79,1,62.5,2|8,3:2|0:0,0:0:0:0:
391,16,92114,6,0,P|383:68|376:165,1,125,2|0,3:2|3:2,0:0:0:0:
428,220,92585,2,0,B|347:232|391:247|307:261,1,125,8|0,0:0|3:2,0:0:0:0:
311,260,93057,1,0,3:2:0:0:
250,189,93214,2,0,L|233:108,1,62.5,10|0,0:0|0:0,0:0:0:0:
182,52,93528,6,0,P|88:95|49:125,1,125,2|10,3:2|0:0,0:0:0:0:
11,175,93999,2,0,L|23:256,1,62.5,2|0,0:0|3:2,0:0:0:0:
116,256,94313,2,0,L|104:337,1,62.5,2|8,3:2|0:0,0:0:0:0:
209,289,94627,6,0,P|276:278|355:277,1,125,2|0,3:2|3:2,0:0:0:0:
423,301,95098,2,0,P|437:353|519:382,2,125,10|2|10,0:0|3:2|0:0,0:0:0:0:
487,126,96041,5,2,3:2:0:0:
487,126,96198,1,2,0:0:0:0:
391,99,96355,1,10,0:0:0:0:
391,99,96512,2,0,L|250:77,1,125,2|0,0:0|3:2,0:0:0:0:
220,3,96983,1,8,0:0:0:0:
130,44,97140,6,0,P|175:106|165:166,1,125,2|0,3:2|3:2,0:0:0:0:
95,118,97612,2,0,L|31:104,1,62.5,8|0,0:0|3:2,0:0:0:0:
12,137,97847,1,0,3:2:0:0:
12,137,97926,2,0,L|26:201,1,62.5,0|0,3:2|3:2,0:0:0:0:
116,230,98240,2,0,P|133:262|124:324,1,93.75,8|0,0:0|0:0,0:0:0:0:
138,349,98554,6,0,B|93:348|75:331|75:331|36:362|-9:370,2,149.999995422363,6|8|0,3:2|0:0|3:2,0:0:0:0:
261,318,99339,1,8,0:0:0:0:
221,228,99496,1,8,0:0:0:0:
317,191,99653,2,0,P|310:109|307:29,1,149.999995422363,6|0,3:2|3:2,0:0:0:0:
406,11,100125,2,0,P|468:44|472:143,1,149.999995422363,10|10,0:0|0:0,0:0:0:0:
471,153,100517,1,8,0:0:0:0:
471,153,100596,1,10,0:0:0:0:
407,228,100753,2,0,P|446:243|487:261,1,62.5,10|0,0:0|1:2,0:0:0:0:
426,354,101067,6,0,B|354:351|375:388|298:378,1,125,6|8,3:2|0:0,0:0:0:0:
202,382,101539,2,0,P|236:317|221:247,1,125,2|0,0:0|3:2,0:0:0:0:
140,298,102010,1,10,0:0:0:0:
140,298,102167,2,0,L|55:310,1,62.5,0|0,3:2|0:0,0:0:0:0:
6,252,102481,1,2,3:2:0:0:
64,177,102638,1,8,0:0:0:0:
105,41,102952,6,0,L|190:53,1,62.5,2|0,3:2|3:2,0:0:0:0:
208,129,103266,2,0,L|143:138,1,62.5,10|0,0:0|3:2,0:0:0:0:
103,274,103580,6,0,P|160:241|231:268,1,125,2|10,3:2|0:0,0:0:0:0:
308,295,104052,2,0,L|299:230,1,62.5,2|0,0:0|3:2,0:0:0:0:
288,146,104366,2,0,L|298:81,1,62.5,2|8,3:2|0:0,0:0:0:0:
365,20,104680,6,0,P|428:55|444:126,1,125,2|0,3:2|3:2,0:0:0:0:
512,151,105151,2,0,B|468:156|377:182,1,125,8|0,0:0|3:2,0:0:0:0:
390,178,105622,1,0,3:2:0:0:
339,252,105779,2,0,L|356:333,1,62.5,10|0,0:0|3:2,0:0:0:0:
234,374,106093,6,0,P|175:328|85:337,1,143.750002741814,6|10,3:2|0:0,0:0:0:0:
2,295,106565,2,0,L|19:214,1,71.8750013709069,2|0,0:0|3:2,0:0:0:0:
16,224,106879,1,2,3:2:0:0:
5,132,107036,1,8,0:0:0:0:
111,107,107193,6,0,P|189:93|280:71,1,143.750002741814,6|0,3:2|3:2,0:0:0:0:
357,37,107664,2,0,P|350:68|338:122,1,71.8750013709069,10|0,0:0|0:0,0:0:0:0:
261,177,107978,2,0,P|268:208|280:262,1,71.8750013709069,2|0,3:2|3:2,0:0:0:0:
319,345,108292,2,0,P|355:333|394:335,1,71.8750013709069,10|0,0:0|3:2,0:0:0:0:
487,280,108606,6,0,P|494:196|445:145,1,143.750002741814,6|10,3:2|0:0,0:0:0:0:
402,76,109078,2,0,L|418:-25,1,71.8750013709069,2|0,0:0|3:2,0:0:0:0:
319,31,109392,1,0,3:2:0:0:
228,53,109549,1,8,0:0:0:0:
228,53,109706,6,0,B|264:110|264:110|245:146|230:195,1,143.750002741814,0|0,3:2|3:2,0:0:0:0:
149,167,110177,1,8,0:0:0:0:
0,224,110490,5,2,3:2:0:0:
65,275,110647,1,2,1:2:0:0:
34,367,110805,2,0,P|74:358|137:358,1,93.75,10|0,0:0|0:0,0:0:0:0:
164,370,111119,6,0,P|230:360|276:301,1,125,6|10,3:2|0:0,0:0:0:0:
309,235,111590,2,0,L|390:252,1,62.5,2|0,0:0|3:2,0:0:0:0:
443,305,111904,2,0,L|524:288,1,62.5,2|8,3:2|0:0,0:0:0:0:
492,199,112218,6,0,P|484:147|477:50,1,125,2|0,3:2|3:2,0:0:0:0:
386,55,112689,2,0,B|305:67|349:82|265:96,1,125,8|0,0:0|3:2,0:0:0:0:
269,95,113161,1,0,3:2:0:0:
183,93,113318,2,0,L|171:154,1,62.5,10|0,0:0|0:0,0:0:0:0:
66,211,113633,6,0,P|124:233|177:266,1,125,6|10,3:2|0:0,0:0:0:0:
264,244,114103,2,0,L|345:256,1,62.5,2|0,0:0|3:2,0:0:0:0:
365,174,114417,2,0,L|353:93,1,62.5,2|8,3:2|0:0,0:0:0:0:
450,63,114731,6,0,P|461:134|474:207,1,125,2|0,3:2|3:2,0:0:0:0:
494,276,115202,2,0,P|461:267|413:264,1,62.5,8|0,0:0|0:0,0:0:0:0:
384,341,115517,2,0,P|337:348|291:357,1,93.75,2|0,3:2|0:0,0:0:0:0:
250,356,115831,2,0,L|240:294,1,62.5,10|0,0:0|0:0,0:0:0:0:
308,238,116146,6,0,P|315:191|324:145,1,93.75,6|0,3:2|0:0,0:0:0:0:
304,113,116459,1,10,0:0:0:0:
224,176,116616,2,0,P|166:200|83:198,1,125,2|0,0:0|3:2,0:0:0:0:
39,255,117087,1,8,0:0:0:0:
0,144,117244,6,0,P|62:99|122:109,1,125,6|8,3:2|0:0,0:0:0:0:
143,108,117638,1,8,0:0:0:0:
143,108,117716,2,0,L|157:44,1,62.5,0|0,1:2|1:2,0:0:0:0:
260,10,118030,1,0,3:2:0:0:
260,10,118109,1,0,3:2:0:0:
260,10,118187,1,0,3:2:0:0:
335,85,118344,2,0,L|273:97,1,62.5,8|8,0:0|0:0,0:0:0:0:
213,182,118659,5,6,3:2:0:0:
23,7,120072,5,0,3:2:0:0:
23,7,120229,2,0,P|76:-2|147:58,1,125,10|8,0:0|0:0,0:0:0:0:
167,74,120622,1,8,0:0:0:0:
167,74,120701,1,10,0:0:0:0:
246,123,120858,2,0,P|277:116|313:111,1,62.5,8|2,0:0|1:2,0:0:0:0:
406,141,121172,6,0,P|384:85|437:16,2,125,10|8|10,0:0|0:0|0:0,0:0:0:0:
482,188,121957,1,0,3:2:0:0:
482,188,122114,1,8,0:0:0:0:
456,278,122271,6,0,P|427:264|396:262,1,62.5,2|8,3:2|0:0,0:0:0:0:
326,209,122585,1,0,3:2:0:0:
250,264,122742,2,0,P|259:355|281:391,2,125,10|8|8,0:0|0:0|0:0,0:0:0:0:
30,124,123685,6,0,P|11:56|-1:-1,2,125,10|10|8,0:0|0:0|0:0,0:0:0:0:
8,219,124470,1,0,3:2:0:0:
8,219,124627,1,8,0:0:0:0:
53,301,124784,6,0,P|81:287|112:285,1,62.5,2|8,3:2|0:0,0:0:0:0:
187,229,125098,1,0,3:2:0:0:
187,229,125255,2,0,P|200:200|202:169,1,62.5,10|2,0:0|3:2,0:0:0:0:
127,112,125570,2,0,P|113:83|111:52,1,62.5,10|0,0:0|3:2,0:0:0:0:
195,11,125884,1,8,0:0:0:0:
378,50,126198,6,0,P|434:28|503:81,2,125,10|8|8,0:0|0:0|0:0,0:0:0:0:
304,106,126983,1,0,3:2:0:0:
304,106,127140,1,8,0:0:0:0:
269,193,127297,6,0,P|240:179|209:177,1,62.5,2|8,3:2|0:0,0:0:0:0:
130,158,127612,1,0,3:2:0:0:
55,190,127769,2,0,P|61:236|64:272,1,62.5,10|2,0:0|3:2,0:0:0:0:
67,296,128004,1,0,3:2:0:0:
67,296,128083,2,0,P|98:299|126:316,1,62.5,8|0,0:0|3:2,0:0:0:0:
173,384,128397,2,0,P|204:380|232:364,1,62.5,8|0,0:0|3:2,0:0:0:0:
287,297,128711,6,0,P|269:232|261:211,1,62.5,10|0,0:0|3:2,0:0:0:0:
226,159,129025,2,0,P|265:128|299:130,1,62.5,10|0,0:0|3:2,0:0:0:0:
320,124,129261,1,0,3:2:0:0:
320,124,129339,1,10,0:0:0:0:
399,141,129496,2,0,P|414:114|417:83,1,62.5,2|2,1:2|1:2,0:0:0:0:
351,0,129811,5,6,3:2:0:0:
195,66,130439,5,0,1:2:0:0:
195,66,130517,1,8,0:0:0:0:
195,66,130596,2,0,P|165:78|117:81,1,62.5,8|8,0:0|0:0,0:0:0:0:
60,50,130910,1,0,1:2:0:0:
256,192,131224,5,6,3:2:0:0:
256,192,131303,12,0,137586,0:0:0:0:
