osu file format v14

[General]
AudioFilename: audio.mp3
AudioLeadIn: 0
PreviewTime: 117734
Countdown: 0
SampleSet: Soft
StackLeniency: 0.5
Mode: 0
LetterboxInBreaks: 1
WidescreenStoryboard: 1

[Editor]
Bookmarks: 39220,50191,61163,72134,83106,92718,93661,94077,105049,116020,118763,124249,129734,135220,140706
DistanceSpacing: 1
BeatDivisor: 8
GridSize: 4
TimelineZoom: 2.599999

[Metadata]
Title:Veritas
TitleUnicode:Veritas
Artist:Presti
ArtistUnicode:Presti
Creator:Sanyu_
Version:Extra
Source:Deemo: Rayark Selection Vol. 3
Tags:streams jumps dnb drum and bass piano melodic -kevincela-
BeatmapID:1413617
BeatmapSetID:562171

[Difficulty]
HPDrainRate:6
CircleSize:4.2
OverallDifficulty:8
ApproachRate:9.3
SliderMultiplier:1.8
SliderTickRate:1

[Events]
//Background and Video events
0,0,"e29f2637f25e443f9797c1d118d903f0.jpg",0,0
//Break Periods
2,94289,104507
2,116232,118221
//Storyboard Layer 0 (Background)
//Storyboard Layer 1 (Fail)
//Storyboard Layer 2 (Pass)
//Storyboard Layer 3 (Foreground)
//Storyboard Sound Samples

[TimingPoints]
2850,705.882352941176,4,2,77,60,1,0
3202,-100,4,2,2,60,0,0
5673,-100,4,2,77,60,0,0
5717,-100,4,2,2,60,0,0
7438,-100,4,2,77,60,0,0
7791,-100,4,2,2,60,0,0
8497,-100,4,2,77,60,0,0
8849,-100,4,2,2,60,0,0
11320,-100,4,2,77,60,0,0
12026,-100,4,2,2,60,0,0
14144,-100,4,2,77,60,0,0
14188,-100,4,2,2,60,0,0
16967,-100,4,2,77,60,0,0
17673,-100,4,2,2,60,0,0
19791,-100,4,2,77,60,0,0
19835,-100,4,2,2,60,0,0
25438,-100,4,2,77,60,0,0
28261,342.857142857143,4,2,3,75,1,0
50203,-100,4,2,3,75,0,0
61175,-100,4,2,3,75,0,0
72146,-100,4,2,3,75,0,0
83118,-100,4,2,3,75,0,0
94089,-100,4,2,3,75,0,0
105061,342.857142857143,4,2,3,75,1,0
116032,-100,4,2,77,75,0,0
118775,-100,4,2,3,100,0,1
129746,-100,4,2,3,100,0,1
140718,-100,4,2,3,100,0,1
146203,-100,4,2,3,50,0,0
146889,-100,4,2,3,45,0,0
147575,-100,4,2,3,40,0,0
148261,-100,4,2,3,35,0,0
148946,-100,4,2,3,30,0,0
149632,-100,4,2,3,25,0,0
150318,-100,4,2,3,20,0,0
151003,-100,4,2,3,15,0,0
151689,-100,4,2,3,10,0,0
152375,-100,4,2,3,5,0,0
155032,-100,4,2,11,5,0,0

[Colours]
Combo1 : 128,128,128
Combo2 : 164,32,240
Combo3 : 0,128,255
Combo4 : 182,108,255
Combo5 : 100,177,255
Combo6 : 192,192,192

[HitObjects]
256,192,26,12,12,2850,0:0:0:0:
188,216,3202,69,0,0:0:0:0:
92,132,3555,6,0,P|112:88|176:56,2,90,4|0|4,0:0|0:0|0:0,0:0:0:0:
256,44,4614,1,0,0:0:0:0:
420,144,4967,1,4,0:0:0:0:
368,220,5320,1,0,0:0:0:0:
332,244,5497,1,0,0:0:0:0:
296,272,5673,70,0,P|250:290|185:254,2,90,14|0|4,0:0|0:0|0:0,0:0:0:0:
120,204,6732,1,0,0:0:0:0:
264,132,7085,1,4,0:0:0:0:
224,216,7438,1,4,0:0:0:0:
248,312,7791,6,0,P|272:264|336:232,2,90,4|0|6,0:0|0:0|0:0,0:0:0:0:
428,208,8849,1,0,0:0:0:0:
304,52,9202,1,4,0:0:0:0:
216,68,9555,1,0,0:0:0:0:
128,92,9908,70,0,L|72:96,1,45,4|0,0:0|0:0,0:0:0:0:
152,168,10261,2,0,L|215:162,1,45,4|0,0:0|0:0,0:0:0:0:
80,224,10614,2,0,P|115:269|177:287,1,90,4|0,0:0|0:0,0:0:0:0:
188,288,11144,1,0,0:0:0:0:
232,284,11320,1,6,0:0:0:0:
348,328,12026,6,0,P|232:308|184:240,1,180,4|4,0:0|0:0,0:0:0:0:
336,156,13438,1,4,0:0:0:0:
168,220,14144,70,0,P|164:124|224:64,1,180,12|4,0:0|0:0,0:0:0:0:
304,96,15202,1,0,0:0:0:0:
328,136,15379,1,0,0:0:0:0:
348,176,15555,1,4,0:0:0:0:
404,108,15908,1,0,0:0:0:0:
428,68,16085,1,0,0:0:0:0:
444,28,16261,6,0,P|384:20|324:40,1,90,4|0,0:0|0:0,0:0:0:0:
276,68,16967,1,6,0:0:0:0:
216,228,17673,2,0,P|196:276|152:292,1,90,4|0,0:0|0:0,0:0:0:0:
120,284,18202,1,0,0:0:0:0:
80,264,18379,1,4,0:0:0:0:
60,176,18732,1,0,0:0:0:0:
84,140,18908,1,0,0:0:0:0:
112,104,19085,2,0,P|152:68|200:64,1,90,4|0,0:0|0:0,0:0:0:0:
276,64,19791,70,0,P|376:84|424:164,1,180,6|4,0:0|0:0,0:0:0:0:
392,228,20849,2,0,L|387:279,2,45,0|0|4,0:0|0:0|0:0,0:0:0:0:
304,212,21555,1,0,0:0:0:0:
260,196,21732,1,0,0:0:0:0:
216,180,21908,2,0,P|176:156|152:116,1,90,4|0,0:0|0:0,0:0:0:0:
148,76,22438,1,0,0:0:0:0:
148,32,22614,6,0,B|173:97|241:97|241:97|297:136|368:94|354:-16|244:-30|201:40|241:97|241:97|241:164|306:190,1,540
252,272,25438,1,14,0:0:0:0:
256,192,25614,12,0,27908,0:0:0:0:
256,192,28261,5,8,0:0:0:0:
416,248,28432,1,0,0:0:0:0:
408,96,28603,1,2,0:0:0:0:
324,68,28775,1,0,0:0:0:0:
280,56,28861,1,0,0:0:0:0:
235,54,28946,1,0,0:0:0:0:
191,62,29032,1,0,0:0:0:0:
149,79,29118,1,8,0:0:0:0:
92,148,29289,2,0,L|37:241,1,90,2|0,0:0|0:0,0:0:0:0:
156,324,29632,5,8,0:0:0:0:
220,160,29803,1,0,0:0:0:0:
336,308,29975,2,0,L|224:268,1,90,2|0,0:0|0:0,0:0:0:0:
208,264,30232,1,0,0:0:0:0:
168,248,30318,1,0,0:0:0:0:
128,232,30403,1,0,0:0:0:0:
84,216,30489,1,8,0:0:0:0:
208,168,30661,2,0,P|180:124|168:60,1,90,2|0,0:0|0:0,0:0:0:0:
324,172,31003,6,0,P|360:132|404:112,1,90,8|0,0:0|0:0,0:0:0:0:
416,204,31346,1,2,0:0:0:0:
404,292,31518,1,0,0:0:0:0:
373,324,31603,1,0,0:0:0:0:
333,343,31689,1,0,0:0:0:0:
288,345,31775,1,0,0:0:0:0:
246,330,31861,1,8,0:0:0:0:
168,284,32032,2,0,P|148:236|104:184,1,90,2|0,0:0|0:0,0:0:0:0:
52,256,32375,6,0,P|44:160|128:100,1,180,8|2,0:0|0:0,0:0:0:0:
184,76,32889,1,0,0:0:0:0:
225,58,32975,1,0,0:0:0:0:
270,56,33061,1,0,0:0:0:0:
312,70,33146,1,0,0:0:0:0:
348,97,33232,1,8,0:0:0:0:
312,180,33403,2,0,P|332:236|384:268,1,90,2|0,0:0|0:0,0:0:0:0:
424,312,33746,38,0,P|376:324|332:356,1,90,8|0,0:0|0:0,0:0:0:0:
464,160,34089,2,0,P|468:116|452:60,1,90,2|0,0:0|0:0,0:0:0:0:
428,40,34346,1,0,0:0:0:0:
386,22,34432,1,0,0:0:0:0:
342,17,34518,1,0,0:0:0:0:
298,26,34603,1,8,0:0:0:0:
284,152,34775,2,0,P|268:208|220:236,1,90,2|0,0:0|0:0,0:0:0:0:
148,100,35118,5,8,0:0:0:0:
84,272,35289,1,0,0:0:0:0:
244,227,35461,1,2,0:0:0:0:
388,180,35632,1,0,0:0:0:0:
375,136,35718,1,0,0:0:0:0:
351,99,35803,1,0,0:0:0:0:
317,69,35889,1,0,0:0:0:0:
276,51,35975,1,8,0:0:0:0:
404,44,36146,2,0,P|440:80|464:128,1,90,2|0,0:0|0:0,0:0:0:0:
208,128,36489,6,0,P|136:164|92:268,1,180,8|2,0:0|0:0,0:0:0:0:
180,344,37003,1,0,0:0:0:0:
213,314,37089,1,0,0:0:0:0:
247,284,37175,1,0,0:0:0:0:
281,254,37261,1,0,0:0:0:0:
314,224,37346,1,8,0:0:0:0:
342,64,37518,2,0,P|285:105|233:116,1,90,2|0,0:0|0:0,0:0:0:0:
108,108,37861,5,12,0:0:0:0:
268,112,38032,1,0,0:0:0:0:
204,260,38203,1,2,0:0:0:0:
316,224,38375,2,0,L|320:279,1,45
384,132,38546,2,0,L|413:89,1,45
476,200,38718,1,8,0:0:0:0:
156,172,38889,2,0,P|175:123|233:87,1,90,2|0,0:0|0:0,0:0:0:0:
252,80,39232,38,0,P|348:88|416:148,1,180,12|2,0:0|0:0,0:0:0:0:
432,180,39661,1,0,0:0:0:0:
440,224,39746,1,0,0:0:0:0:
432,268,39832,1,0,0:0:0:0:
412,308,39918,5,0,0:0:0:0:
380,340,40003,1,0,0:0:0:0:
336,352,40089,1,8,0:0:0:0:
292,356,40175,1,0,0:0:0:0:
248,340,40261,2,0,L|208:316,3,45,2|0|0|0,0:0|0:0|0:0|0:0,0:0:0:0:
184,280,40603,6,0,L|184:228,3,45,8|0|0|0,0:0|0:0|0:0|0:0,0:0:0:0:
164,196,40946,2,0,L|128:164,3,45,2|0|0|0,0:0|0:0|0:0|0:0,0:0:0:0:
148,124,41289,6,0,L|192:80,3,45,0|0|8|0,0:0|0:0|0:0|0:0,0:0:0:0:
220,68,41632,1,2,0:0:0:0:
264,56,41718,1,0,0:0:0:0:
308,56,41803,1,0,0:0:0:0:
348,76,41889,1,0,0:0:0:0:
400,148,41975,38,0,P|360:228|252:240,1,180,12|2,0:0|0:0,0:0:0:0:
232,236,42403,1,0,0:0:0:0:
197,207,42489,1,0,0:0:0:0:
180,166,42575,1,0,0:0:0:0:
175,122,42661,5,0,0:0:0:0:
161,88,42746,1,0,0:0:0:0:
117,94,42832,1,8,0:0:0:0:
77,114,42918,1,0,0:0:0:0:
40,140,43003,1,2,0:0:0:0:
12,176,43089,1,0,0:0:0:0:
0,219,43175,1,0,0:0:0:0:
4,263,43261,1,0,0:0:0:0:
23,304,43346,5,8,0:0:0:0:
55,335,43432,1,0,0:0:0:0:
95,354,43518,1,0,0:0:0:0:
140,358,43603,1,0,0:0:0:0:
183,346,43689,1,2,0:0:0:0:
224,328,43775,1,0,0:0:0:0:
257,298,43861,1,0,0:0:0:0:
300,288,43946,1,0,0:0:0:0:
342,301,44032,5,0,0:0:0:0:
384,320,44118,1,0,0:0:0:0:
425,335,44203,1,8,0:0:0:0:
469,327,44289,1,0,0:0:0:0:
492,288,44375,2,0,L|512:244,3,45,2|0|0|0,0:0|0:0|0:0|0:0,0:0:0:0:
420,232,44718,38,0,P|328:208|292:128,1,180,12|2,0:0|0:0,0:0:0:0:
292,92,45146,1,0,0:0:0:0:
277,49,45232,1,0,0:0:0:0:
244,19,45318,1,0,0:0:0:0:
201,7,45403,5,0,0:0:0:0:
156,12,45489,1,0,0:0:0:0:
113,25,45575,1,8,0:0:0:0:
75,49,45661,1,0,0:0:0:0:
45,83,45746,1,2,0:0:0:0:
26,123,45832,1,0,0:0:0:0:
19,168,45918,1,0,0:0:0:0:
24,212,46003,1,0,0:0:0:0:
44,252,46089,6,0,L|52:296,3,45,8|0|0|0,0:0|0:0|0:0|0:0,0:0:0:0:
96,300,46432,2,0,L|136:264,3,45,2|0|0|0,0:0|0:0|0:0|0:0,0:0:0:0:
172,276,46775,6,0,L|200:320,3,45,0|0|8|0,0:0|0:0|0:0|0:0,0:0:0:0:
240,300,47118,2,0,L|280:256,3,45,2|0|0|0,0:0|0:0|0:0|0:0,0:0:0:0:
312,280,47461,37,8,0:0:0:0:
356,287,47546,1,0,0:0:0:0:
400,281,47632,1,0,0:0:0:0:
440,261,47718,1,0,0:0:0:0:
472,230,47803,1,2,0:0:0:0:
492,190,47889,1,0,0:0:0:0:
499,145,47975,1,0,0:0:0:0:
491,101,48061,1,0,0:0:0:0:
469,62,48146,5,0,0:0:0:0:
437,31,48232,1,0,0:0:0:0:
396,12,48318,1,8,0:0:0:0:
352,7,48403,1,0,0:0:0:0:
308,17,48489,1,2,0:0:0:0:
269,39,48575,1,0,0:0:0:0:
240,73,48661,1,0,0:0:0:0:
222,114,48746,1,0,0:0:0:0:
212,160,48832,6,0,L|224:204,3,45,8|0|0|0,0:0|0:0|0:0|0:0,0:0:0:0:
200,244,49175,2,0,L|146:270,3,45,2|0|0|0,0:0|0:0|0:0|0:0,0:0:0:0:
116,256,49518,2,0,L|93:213,3,45,0|0|8|0,0:0|0:0|0:0|0:0,0:0:0:0:
108,172,49861,2,0,L|132:124,3,45,2|0|0|0,0:0|0:0|0:0|0:0,0:0:0:0:
192,68,50203,6,0,P|280:80|348:156,1,180,12|2,0:0|0:0,0:0:0:0:
348,232,50718,1,0,0:0:0:0:
312,316,50889,2,0,P|264:340|196:328,1,90,0|8,0:0|0:0,0:0:0:0:
176,268,51232,1,2,0:0:0:0:
256,192,51403,1,0,0:0:0:0:
256,192,51489,1,0,0:0:0:0:
256,192,51575,38,0,P|324:144|428:164,1,180,8|2,0:0|0:0,0:0:0:0:
468,228,52089,1,0,0:0:0:0:
436,312,52261,1,0,0:0:0:0:
401,340,52346,1,0,0:0:0:0:
360,358,52432,1,8,0:0:0:0:
272,348,52603,2,0,P|224:328|200:272,1,90,2|0,0:0|0:0,0:0:0:0:
296,264,52946,6,0,P|224:202|128:212,1,180,12|2,0:0|0:0,0:0:0:0:
52,196,53461,1,0,0:0:0:0:
88,112,53632,1,0,0:0:0:0:
124,86,53718,1,0,0:0:0:0:
167,73,53803,1,8,0:0:0:0:
212,75,53889,1,0,0:0:0:0:
256,92,53975,2,0,P|307:110|350:102,1,90,2|0,0:0|0:0,0:0:0:0:
404,172,54318,6,0,P|372:256|276:280,1,180,8|2,0:0|0:0,0:0:0:0:
208,252,54832,1,0,0:0:0:0:
169,229,54918,1,0,0:0:0:0:
144,192,55003,1,0,0:0:0:0:
144,148,55089,1,0,0:0:0:0:
123,109,55175,1,8,0:0:0:0:
52,52,55346,2,0,P|88:24|168:24,1,90,2|0,0:0|0:0,0:0:0:0:
276,188,55689,6,0,P|280:96|364:48,1,180,12|2,0:0|0:0,0:0:0:0:
416,104,56203,1,0,0:0:0:0:
416,104,56289,1,0,0:0:0:0:
416,104,56375,1,0,0:0:0:0:
396,284,56546,1,8,0:0:0:0:
396,284,56632,1,0,0:0:0:0:
396,284,56718,2,0,P|349:316|291:316,1,90,2|0,0:0|0:0,0:0:0:0:
172,292,57061,38,0,B|78:285|78:285|36:192,1,180,8|2,0:0|0:0,0:0:0:0:
68,120,57575,1,0,0:0:0:0:
104,94,57661,1,0,0:0:0:0:
147,80,57746,1,0,0:0:0:0:
236,108,57918,1,8,0:0:0:0:
279,116,58003,1,0,0:0:0:0:
323,107,58089,2,0,P|372:88|424:104,1,90,2|0,0:0|0:0,0:0:0:0:
400,276,58432,6,0,P|320:304|216:272,1,180,12|2,0:0|0:0,0:0:0:0:
192,256,58861,1,0,0:0:0:0:
160,224,58946,1,0,0:0:0:0:
144,182,59032,1,0,0:0:0:0:
140,136,59118,1,0,0:0:0:0:
126,93,59203,1,0,0:0:0:0:
100,56,59289,1,8,0:0:0:0:
192,48,59461,2,0,P|244:64|288:108,1,90,2|0,0:0|0:0,0:0:0:0:
344,252,59803,6,0,L|386:240,3,45
284,192,60146,2,0,L|237:179,3,45
338,112,60489,2,0,L|380:100,3,45
288,87,60832,2,0,L|233:73,3,45
184,52,61175,6,0,P|108:88|80:184,1,180,12|2,0:0|0:0,0:0:0:0:
88,264,61689,1,0,0:0:0:0:
172,296,61861,2,0,P|232:304|268:284,1,90,0|8,0:0|0:0,0:0:0:0:
328,236,62203,1,2,0:0:0:0:
364,152,62375,1,0,0:0:0:0:
364,152,62461,1,0,0:0:0:0:
364,152,62546,38,0,P|372:68|284:24,1,180,8|2,0:0|0:0,0:0:0:0:
208,44,63061,1,0,0:0:0:0:
204,132,63232,1,0,0:0:0:0:
181,170,63318,1,0,0:0:0:0:
142,190,63403,1,8,0:0:0:0:
124,104,63575,2,0,P|72:80|44:36,1,90,2|0,0:0|0:0,0:0:0:0:
204,132,63918,6,0,P|296:176|328:264,1,180,12|2,0:0|0:0,0:0:0:0:
316,332,64432,1,0,0:0:0:0:
228,344,64603,1,0,0:0:0:0:
209,303,64689,1,0,0:0:0:0:
178,270,64775,1,8,0:0:0:0:
138,251,64861,1,0,0:0:0:0:
92,248,64946,2,0,P|46:232|18:184,1,90,2|0,0:0|0:0,0:0:0:0:
200,60,65289,6,0,P|296:72|368:144,1,180,8|2,0:0|0:0,0:0:0:0:
376,212,65803,1,0,0:0:0:0:
332,220,65889,1,0,0:0:0:0:
287,214,65975,1,0,0:0:0:0:
248,193,66061,1,0,0:0:0:0:
217,160,66146,1,8,0:0:0:0:
96,104,66318,2,0,P|72:160|72:216,1,90,2|0,0:0|0:0,0:0:0:0:
244,332,66661,6,0,P|336:328|400:272,1,180,12|2,0:0|0:0,0:0:0:0:
456,148,67175,1,0,0:0:0:0:
456,148,67261,1,0,0:0:0:0:
456,148,67346,1,0,0:0:0:0:
236,196,67518,1,8,0:0:0:0:
236,196,67603,1,0,0:0:0:0:
236,196,67689,2,0,P|184:192|139:161,1,90,2|0,0:0|0:0,0:0:0:0:
344,36,68032,38,0,P|368:124|316:216,1,180,8|2,0:0|0:0,0:0:0:0:
128,296,68546,2,0,L|115:342,2,45
184,76,68889,1,8,0:0:0:0:
144,100,68975,1,0,0:0:0:0:
104,124,69061,2,0,P|64:152|44:188,1,90,2|0,0:0|0:0,0:0:0:0:
256,264,69403,6,0,P|340:224|360:136,1,180,12|2,0:0|0:0,0:0:0:0:
224,28,69918,1,0,0:0:0:0:
224,28,70003,1,0,0:0:0:0:
224,28,70089,1,0,0:0:0:0:
165,168,70261,1,8,0:0:0:0:
165,168,70346,1,0,0:0:0:0:
165,168,70432,2,0,P|145:212|141:256,1,90,2|0,0:0|0:0,0:0:0:0:
300,356,70775,6,0,P|208:352|104:320,1,180,8|2,0:0|0:0,0:0:0:0:
84,304,71203,1,0,0:0:0:0:
54,270,71289,1,0,0:0:0:0:
40,227,71375,1,0,0:0:0:0:
43,183,71461,1,0,0:0:0:0:
56,140,71546,1,0,0:0:0:0:
79,101,71632,1,0,0:0:0:0:
112,70,71718,1,0,0:0:0:0:
151,49,71803,1,0,0:0:0:0:
196,40,71889,1,0,0:0:0:0:
236,59,71975,1,0,0:0:0:0:
280,56,72061,1,0,0:0:0:0:
392,36,72146,6,0,P|456:120|440:216,1,180,12|2,0:0|0:0,0:0:0:0:
432,232,72575,1,0,0:0:0:0:
410,270,72661,1,0,0:0:0:0:
409,315,72746,1,0,0:0:0:0:
432,356,72832,1,0,0:0:0:0:
398,326,72918,1,0,0:0:0:0:
358,304,73003,1,8,0:0:0:0:
315,292,73089,1,0,0:0:0:0:
271,289,73175,1,2,0:0:0:0:
226,295,73261,1,0,0:0:0:0:
184,312,73346,1,0,0:0:0:0:
147,337,73432,1,0,0:0:0:0:
112,364,73518,38,0,P|36:312|44:212,1,180,8|2,0:0|0:0,0:0:0:0:
52,192,73946,1,0,0:0:0:0:
77,155,74032,1,0,0:0:0:0:
118,139,74118,1,0,0:0:0:0:
161,149,74203,1,0,0:0:0:0:
204,164,74289,1,0,0:0:0:0:
246,177,74375,1,8,0:0:0:0:
291,175,74461,1,0,0:0:0:0:
332,156,74546,1,2,0:0:0:0:
363,125,74632,1,0,0:0:0:0:
381,84,74718,1,0,0:0:0:0:
383,39,74803,1,0,0:0:0:0:
360,0,74889,38,0,P|260:0|172:68,1,180,12|2,0:0|0:0,0:0:0:0:
164,72,75318,1,0,0:0:0:0:
132,103,75403,1,0,0:0:0:0:
115,144,75489,1,0,0:0:0:0:
115,189,75575,1,0,0:0:0:0:
204,204,75746,1,8,0:0:0:0:
243,224,75832,1,0,0:0:0:0:
272,258,75918,1,2,0:0:0:0:
287,300,76003,1,0,0:0:0:0:
284,345,76089,1,0,0:0:0:0:
312,120,76261,38,0,P|392:138|446:227,1,180,8|2,0:0|0:0,0:0:0:0:
440,260,76689,1,0,0:0:0:0:
405,288,76775,1,0,0:0:0:0:
364,307,76861,1,0,0:0:0:0:
320,314,76946,1,0,0:0:0:0:
275,310,77032,1,0,0:0:0:0:
233,294,77118,1,8,0:0:0:0:
196,268,77203,1,0,0:0:0:0:
168,232,77289,1,2,0:0:0:0:
140,196,77375,1,0,0:0:0:0:
102,172,77461,1,0,0:0:0:0:
59,160,77546,1,0,0:0:0:0:
164,116,77632,6,0,P|264:96|324:28,1,180,12|2,0:0|0:0,0:0:0:0:
348,8,78061,1,0,0:0:0:0:
342,52,78146,1,0,0:0:0:0:
350,96,78232,1,0,0:0:0:0:
370,136,78318,1,0,0:0:0:0:
401,169,78403,1,0,0:0:0:0:
436,200,78489,1,8,0:0:0:0:
450,242,78575,1,0,0:0:0:0:
445,286,78661,1,2,0:0:0:0:
422,325,78746,1,0,0:0:0:0:
385,350,78832,1,0,0:0:0:0:
341,357,78918,1,0,0:0:0:0:
344,244,79003,6,0,P|280:232|208:144,1,180,8|2,0:0|0:0,0:0:0:0:
196,104,79432,1,0,0:0:0:0:
175,64,79518,1,0,0:0:0:0:
139,38,79603,1,0,0:0:0:0:
95,32,79689,1,0,0:0:0:0:
52,36,79775,1,0,0:0:0:0:
81,69,79861,1,8,0:0:0:0:
99,110,79946,1,0,0:0:0:0:
103,155,80032,1,2,0:0:0:0:
94,199,80118,1,0,0:0:0:0:
72,238,80203,1,0,0:0:0:0:
39,268,80289,1,0,0:0:0:0:
12,304,80375,5,12,0:0:0:0:
40,338,80461,1,0,0:0:0:0:
80,358,80546,1,0,0:0:0:0:
124,362,80632,1,0,0:0:0:0:
167,349,80718,1,2,0:0:0:0:
204,324,80803,1,0,0:0:0:0:
236,293,80889,1,0,0:0:0:0:
277,274,80975,1,0,0:0:0:0:
321,269,81061,1,0,0:0:0:0:
365,277,81146,1,0,0:0:0:0:
405,299,81232,1,8,0:0:0:0:
440,328,81318,1,0,0:0:0:0:
478,305,81403,1,2,0:0:0:0:
507,271,81489,1,0,0:0:0:0:
512,229,81575,1,0,0:0:0:0:
512,185,81661,1,0,0:0:0:0:
508,144,81746,38,0,L|459:171,3,45,12|0|0|0,0:0|0:0|0:0|0:0,0:0:0:0:
440,140,82089,2,0,L|406:100,3,45,2|0|0|0,0:0|0:0|0:0|0:0,0:0:0:0:
364,128,82432,2,0,L|327:164,3,45,0|0|8|0,0:0|0:0|0:0|0:0,0:0:0:0:
288,144,82775,2,0,L|252:101,3,45,2|0|0|0,0:0|0:0|0:0|0:0,0:0:0:0:
228,76,83118,6,0,P|140:60|60:112,1,180,12|2,0:0|0:0,0:0:0:0:
36,140,83546,1,0,0:0:0:0:
32,184,83632,1,0,0:0:0:0:
39,229,83718,1,0,0:0:0:0:
72,260,83803,1,0,0:0:0:0:
87,301,83889,1,0,0:0:0:0:
76,343,83975,1,8,0:0:0:0:
52,384,84061,1,0,0:0:0:0:
87,356,84146,1,2,0:0:0:0:
128,338,84232,1,0,0:0:0:0:
173,331,84318,1,0,0:0:0:0:
217,334,84403,1,0,0:0:0:0:
260,340,84489,6,0,P|348:360|428:308,1,180,8|2,0:0|0:0,0:0:0:0:
444,276,84918,1,0,0:0:0:0:
466,238,85003,1,0,0:0:0:0:
461,194,85089,1,0,0:0:0:0:
431,162,85175,1,0,0:0:0:0:
388,148,85261,1,0,0:0:0:0:
351,123,85346,1,8,0:0:0:0:
337,81,85432,1,0,0:0:0:0:
356,40,85518,1,2,0:0:0:0:
316,61,85603,1,0,0:0:0:0:
272,70,85689,1,0,0:0:0:0:
227,66,85775,1,0,0:0:0:0:
184,52,85861,6,0,L|140:28,3,45,12|0|0|0,0:0|0:0|0:0|0:0,0:0:0:0:
104,48,86203,2,0,L|72:88,3,45,2|0|0|0,0:0|0:0|0:0|0:0,0:0:0:0:
96,124,86546,2,0,L|136:164,3,45,0|0|8|0,0:0|0:0|0:0|0:0,0:0:0:0:
112,196,86889,2,0,L|80:240,3,45,2|0|0|0,0:0|0:0|0:0|0:0,0:0:0:0:
80,276,87232,37,8,0:0:0:0:
83,320,87318,1,0,0:0:0:0:
106,358,87403,1,0,0:0:0:0:
145,379,87489,1,0,0:0:0:0:
190,380,87575,1,2,0:0:0:0:
229,359,87661,1,0,0:0:0:0:
260,328,87746,1,0,0:0:0:0:
291,296,87832,1,0,0:0:0:0:
331,276,87918,1,0,0:0:0:0:
376,273,88003,1,0,0:0:0:0:
419,285,88089,1,8,0:0:0:0:
456,312,88175,1,0,0:0:0:0:
427,277,88261,1,2,0:0:0:0:
407,236,88346,1,0,0:0:0:0:
396,193,88432,1,0,0:0:0:0:
394,148,88518,1,0,0:0:0:0:
404,104,88603,6,0,P|384:56|260:40,1,180,12|2,0:0|0:0,0:0:0:0:
236,64,89032,1,0,0:0:0:0:
264,98,89118,1,0,0:0:0:0:
282,139,89203,1,0,0:0:0:0:
287,184,89289,1,0,0:0:0:0:
284,228,89375,1,0,0:0:0:0:
247,253,89461,1,8,0:0:0:0:
205,269,89546,1,0,0:0:0:0:
160,273,89632,1,2,0:0:0:0:
144,232,89718,1,0,0:0:0:0:
124,191,89803,1,0,0:0:0:0:
93,159,89889,1,0,0:0:0:0:
64,124,89975,6,0,P|100:68|212:48,1,180,8|2,0:0|0:0,0:0:0:0:
248,60,90403,1,0,0:0:0:0:
208,80,90489,1,0,0:0:0:0:
186,119,90575,1,0,0:0:0:0:
189,163,90661,1,0,0:0:0:0:
216,198,90746,1,0,0:0:0:0:
256,224,90832,1,8,0:0:0:0:
275,264,90918,1,0,0:0:0:0:
272,308,91003,1,2,0:0:0:0:
247,345,91089,1,0,0:0:0:0:
208,366,91175,1,0,0:0:0:0:
163,364,91261,1,0,0:0:0:0:
120,348,91346,6,0,L|71:320,3,45,12|0|0|0,0:0|0:0|0:0|0:0,0:0:0:0:
160,256,91689,2,0,L|205:230,3,45,2|0|0|0,0:0|0:0|0:0|0:0,0:0:0:0:
76,180,92032,2,0,L|30:154,3,45,0|0|8|0,0:0|0:0|0:0|0:0,0:0:0:0:
156,84,92375,2,0,L|204:56,3,45,2|0|0|0,0:0|0:0|0:0|0:0,0:0:0:0:
236,44,92718,38,0,P|268:32|320:32,1,60,8|0,0:0|0:0,0:0:0:0:
220,212,92946,2,0,P|188:236|148:244,1,60,0|2,0:0|0:0,0:0:0:0:
396,88,93175,2,0,P|432:120|440:152,1,60
296,248,93403,2,0,P|308:220|308:176,2,60
270,291,93746,5,2,0:0:0:0:
241,325,93832,1,0,0:0:0:0:
201,345,93918,1,0,0:0:0:0:
156,348,94003,1,0,0:0:0:0:
116,332,94089,5,12,0:0:0:0:
344,32,105061,6,0,P|392:36|444:72,1,90,12|0,0:0|0:0,0:0:0:0:
360,144,105403,1,2,0:0:0:0:
472,208,105575,1,0,0:0:0:0:
446,244,105661,1,0,0:0:0:0:
417,277,105746,1,0,0:0:0:0:
374,290,105832,1,0,0:0:0:0:
331,303,105918,1,8,0:0:0:0:
256,252,106089,2,0,P|208:232|136:240,1,90,2|0,0:0|0:0,0:0:0:0:
40,356,106432,37,8,0:0:0:0:
168,228,106603,1,0,0:0:0:0:
8,144,106775,2,0,P|48:108|116:92,1,90,2|0,0:0|0:0,0:0:0:0:
124,88,107032,1,0,0:0:0:0:
168,80,107118,1,0,0:0:0:0:
211,89,107203,1,0,0:0:0:0:
249,113,107289,1,8,0:0:0:0:
196,240,107461,2,0,P|192:296|216:336,1,90,2|0,0:0|0:0,0:0:0:0:
348,216,107803,6,0,P|396:220|472:200,1,90,8|0,0:0|0:0,0:0:0:0:
324,72,108146,1,2,0:0:0:0:
256,240,108318,1,0,0:0:0:0:
225,272,108403,1,0,0:0:0:0:
186,294,108489,1,0,0:0:0:0:
141,300,108575,1,0,0:0:0:0:
97,292,108661,1,8,0:0:0:0:
160,172,108832,2,0,P|116:144|88:96,1,90,2|0,0:0|0:0,0:0:0:0:
228,96,109175,5,8,0:0:0:0:
380,48,109346,1,0,0:0:0:0:
316,192,109518,1,2,0:0:0:0:
468,144,109689,1,0,0:0:0:0:
425,128,109775,1,0,0:0:0:0:
381,120,109861,1,0,0:0:0:0:
336,119,109946,1,0,0:0:0:0:
292,125,110032,1,8,0:0:0:0:
384,256,110203,2,0,P|340:280|272:276,1,90,2|0,0:0|0:0,0:0:0:0:
185,243,110546,5,8,0:0:0:0:
140,144,110718,1,8,0:0:0:0:
326,243,110889,1,10,0:0:0:0:
371,144,111061,1,8,0:0:0:0:
176,249,111232,37,8,0:0:0:0:
126,138,111403,1,8,0:0:0:0:
335,249,111575,1,10,0:0:0:0:
385,138,111746,1,8,0:0:0:0:
168,256,111918,5,8,0:0:0:0:
112,132,112089,1,8,0:0:0:0:
344,256,112261,1,10,0:0:0:0:
400,132,112432,1,8,0:0:0:0:
159,262,112603,5,8,0:0:0:0:
97,125,112775,1,8,0:0:0:0:
352,262,112946,1,10,0:0:0:0:
414,125,113118,1,8,0:0:0:0:
296,60,113289,5,8,0:0:0:0:
253,45,113375,1,8,0:0:0:0:
209,37,113461,1,8,0:0:0:0:
164,36,113546,1,8,0:0:0:0:
119,43,113632,1,10,0:0:0:0:
76,60,113718,1,8,0:0:0:0:
43,90,113803,1,8,0:0:0:0:
23,130,113889,1,8,0:0:0:0:
18,175,113975,37,8,0:0:0:0:
28,219,114061,1,8,0:0:0:0:
53,256,114146,1,8,0:0:0:0:
89,283,114232,1,8,0:0:0:0:
132,300,114318,1,10,0:0:0:0:
172,317,114403,1,8,0:0:0:0:
188,358,114489,1,8,0:0:0:0:
212,320,114575,1,8,0:0:0:0:
239,284,114661,5,8,0:0:0:0:
274,256,114746,1,8,0:0:0:0:
316,238,114832,1,8,0:0:0:0:
360,231,114918,1,8,0:0:0:0:
405,235,115003,1,10,0:0:0:0:
447,250,115089,1,8,0:0:0:0:
488,268,115175,1,8,0:0:0:0:
470,226,115261,1,8,0:0:0:0:
464,184,115346,6,0,L|486:161,7,22.5,10|8|8|8|8|8|8|8,0:0|0:0|0:0|0:0|0:0|0:0|0:0|0:0,0:0:0:0:
424,160,115689,2,0,L|438:135,7,22.5,10|8|8|8|8|8|8|8,0:0|0:0|0:0|0:0|0:0|0:0|0:0|0:0,0:0:0:0:
384,148,116032,21,12,0:0:0:0:
144,72,118775,21,12,0:0:0:0:
300,164,118946,1,0,0:0:0:0:
300,164,119032,1,0,0:0:0:0:
300,164,119118,1,2,0:0:0:0:
124,192,119289,1,0,0:0:0:0:
124,192,119375,1,0,0:0:0:0:
124,192,119461,1,0,0:0:0:0:
288,264,119632,1,8,0:0:0:0:
332,269,119718,1,0,0:0:0:0:
374,254,119803,1,2,0:0:0:0:
404,221,119889,1,0,0:0:0:0:
415,178,119975,1,0,0:0:0:0:
360,352,120146,5,8,0:0:0:0:
144,284,120318,2,0,L|84:289,2,45,0|0|2,0:0|0:0|0:0,0:0:0:0:
328,156,120661,1,0,0:0:0:0:
352,140,120746,1,0,0:0:0:0:
372,124,120832,1,0,0:0:0:0:
152,84,121003,1,8,0:0:0:0:
107,88,121089,1,0,0:0:0:0:
66,106,121175,1,2,0:0:0:0:
33,136,121261,1,0,0:0:0:0:
11,175,121346,1,0,0:0:0:0:
172,260,121518,5,8,0:0:0:0:
340,192,121689,1,0,0:0:0:0:
380,172,121775,1,0,0:0:0:0:
421,153,121861,1,2,0:0:0:0:
244,116,122032,1,0,0:0:0:0:
200,106,122118,1,0,0:0:0:0:
156,96,122203,1,0,0:0:0:0:
256,272,122375,1,8,0:0:0:0:
241,294,122461,1,0,0:0:0:0:
222,312,122546,2,0,P|173:330|138:320,1,90,2|0,0:0|0:0,0:0:0:0:
112,300,122803,1,0,0:0:0:0:
88,260,122889,5,8,0:0:0:0:
131,247,122975,1,0,0:0:0:0:
169,224,123061,1,0,0:0:0:0:
202,193,123146,1,0,0:0:0:0:
226,156,123232,1,2,0:0:0:0:
248,116,123318,1,0,0:0:0:0:
270,77,123403,1,0,0:0:0:0:
306,50,123489,1,0,0:0:0:0:
349,37,123575,1,0,0:0:0:0:
393,42,123661,1,0,0:0:0:0:
433,62,123746,1,8,0:0:0:0:
462,96,123832,1,0,0:0:0:0:
477,138,123918,2,0,P|472:200|432:244,1,90,2|0,0:0|0:0,0:0:0:0:
304,316,124261,38,0,P|240:308|200:284,1,90,8|0,0:0|0:0,0:0:0:0:
196,284,124518,1,0,0:0:0:0:
176,268,124603,1,2,0:0:0:0:
288,192,124775,2,0,L|343:187,2,45
152,176,125118,1,8,0:0:0:0:
145,131,125203,1,0,0:0:0:0:
157,88,125289,2,0,P|176:60|232:32,1,90,2|0,0:0|0:0,0:0:0:0:
348,132,125546,1,0,0:0:0:0:
360,152,125632,6,0,P|376:216|360:280,1,90,8|0,0:0|0:0,0:0:0:0:
364,264,125889,1,0,0:0:0:0:
355,289,125975,1,2,0:0:0:0:
228,328,126146,1,0,0:0:0:0:
201,325,126232,1,0,0:0:0:0:
175,316,126318,1,0,0:0:0:0:
228,188,126489,1,8,0:0:0:0:
225,143,126575,1,0,0:0:0:0:
238,100,126661,1,2,0:0:0:0:
266,65,126746,1,0,0:0:0:0:
305,42,126832,2,0,P|324:32|348:28,1,45
384,204,127003,6,0,P|384:256|352:300,1,90,8|0,0:0|0:0,0:0:0:0:
348,308,127261,1,0,0:0:0:0:
328,324,127346,1,2,0:0:0:0:
236,228,127518,1,0,0:0:0:0:
214,211,127603,1,0,0:0:0:0:
190,199,127689,1,0,0:0:0:0:
256,80,127861,1,8,0:0:0:0:
286,60,127946,1,0,0:0:0:0:
320,48,128032,1,2,0:0:0:0:
412,49,128203,2,0,P|428:56|456:76,1,45
212,20,128375,6,0,P|144:44|104:80,1,90,8|8,0:0|0:0,0:0:0:0:
100,76,128632,1,0,0:0:0:0:
78,104,128718,1,2,0:0:0:0:
92,240,128889,1,8,0:0:0:0:
130,263,128975,1,0,0:0:0:0:
174,271,129061,2,0,L|184:300,1,22.5,8|0,0:0|0:0,0:0:0:0:
218,262,129146,2,0,L|233:288,1,22.5,8|0,0:0|0:0,0:0:0:0:
255,237,129232,2,0,L|279:265,1,22.5,8|0,0:0|0:0,0:0:0:0:
288,204,129318,2,0,L|314:231,1,22.5,8|0,0:0|0:0,0:0:0:0:
323,176,129403,2,0,L|304:144,3,22.5,2|8|8|8,0:0|0:0|0:0|0:0,0:0:0:0:
365,161,129575,2,0,L|364:136,3,22.5,8|8|8|8,0:0|0:0|0:0|0:0,0:0:0:0:
408,168,129746,38,0,P|452:152|488:112,1,90,12|0,0:0|0:0,0:0:0:0:
500,92,130003,1,0,0:0:0:0:
506,56,130089,1,2,0:0:0:0:
372,48,130261,1,0,0:0:0:0:
345,44,130346,1,0,0:0:0:0:
318,44,130432,1,0,0:0:0:0:
404,204,130603,1,8,0:0:0:0:
400,239,130689,1,0,0:0:0:0:
386,272,130775,1,2,0:0:0:0:
363,300,130861,1,0,0:0:0:0:
334,320,130946,1,0,0:0:0:0:
204,192,131118,5,8,0:0:0:0:
372,124,131289,2,0,L|423:119,2,45,0|0|2,0:0|0:0|0:0,0:0:0:0:
260,268,131632,1,0,0:0:0:0:
228,284,131718,1,0,0:0:0:0:
192,288,131803,1,0,0:0:0:0:
228,112,131975,1,8,0:0:0:0:
254,76,132061,1,0,0:0:0:0:
291,50,132146,1,2,0:0:0:0:
334,36,132232,1,0,0:0:0:0:
379,37,132318,1,0,0:0:0:0:
284,192,132489,6,0,P|196:192|160:168,1,90,8|0,0:0|0:0,0:0:0:0:
156,176,132746,1,0,0:0:0:0:
123,146,132832,1,2,0:0:0:0:
300,116,133003,1,0,0:0:0:0:
339,136,133089,1,0,0:0:0:0:
362,174,133175,1,0,0:0:0:0:
256,320,133346,1,8,0:0:0:0:
211,311,133432,1,0,0:0:0:0:
168,298,133518,1,2,0:0:0:0:
89,257,133689,2,0,P|78:283|81:307,1,45
168,92,133861,5,8,0:0:0:0:
205,67,133946,1,0,0:0:0:0:
249,60,134032,1,0,0:0:0:0:
292,72,134118,1,0,0:0:0:0:
328,96,134203,1,2,0:0:0:0:
368,115,134289,1,0,0:0:0:0:
413,120,134375,1,0,0:0:0:0:
456,110,134461,1,0,0:0:0:0:
480,72,134546,2,0,L|449:35,3,45,0|0|8|0,0:0|0:0|0:0|0:0,0:0:0:0:
420,4,134889,1,2,0:0:0:0:
200,300,135232,38,0,P|136:248|132:136,1,180,8|2,0:0|0:0,0:0:0:0:
135,120,135661,1,0,0:0:0:0:
149,87,135746,1,0,0:0:0:0:
174,61,135832,1,0,0:0:0:0:
204,40,135918,1,0,0:0:0:0:
364,116,136089,1,8,0:0:0:0:
304,284,136261,2,0,P|252:312|188:316,1,90,2|0,0:0|0:0,0:0:0:0:
260,140,136603,5,8,0:0:0:0:
263,95,136689,1,0,0:0:0:0:
286,56,136775,1,0,0:0:0:0:
322,31,136861,1,0,0:0:0:0:
368,20,136946,1,2,0:0:0:0:
411,32,137032,1,0,0:0:0:0:
445,60,137118,1,0,0:0:0:0:
466,100,137203,1,0,0:0:0:0:
476,144,137289,1,0,0:0:0:0:
368,224,137461,1,8,0:0:0:0:
456,324,137632,2,0,P|408:352|356:352,1,90,2|0,0:0|0:0,0:0:0:0:
220,260,137975,5,8,0:0:0:0:
56,192,138146,1,0,0:0:0:0:
236,180,138318,1,2,0:0:0:0:
164,68,138489,1,0,0:0:0:0:
205,50,138575,1,0,0:0:0:0:
249,46,138661,1,0,0:0:0:0:
293,57,138746,1,0,0:0:0:0:
330,82,138832,1,8,0:0:0:0:
316,216,139003,2,0,P|384:204|420:176,1,90,2|0,0:0|0:0,0:0:0:0:
276,324,139346,5,8,0:0:0:0:
235,342,139432,1,0,0:0:0:0:
190,343,139518,2,0,L|160:372,4,22.5,0|0|0|0|2,0:0|0:0|0:0|0:0|0:0,0:0:0:0:
160,308,139775,1,0,0:0:0:0:
138,268,139861,2,0,L|105:281,4,22.5
133,223,140118,1,0,0:0:0:0:
148,180,140203,1,8,0:0:0:0:
308,128,140375,2,0,P|352:112|408:120,1,90,2|0,0:0|0:0,0:0:0:0:
300,268,140718,38,0,P|232:220|220:120,1,180,12|2,0:0|0:0,0:0:0:0:
232,88,141146,1,0,0:0:0:0:
247,55,141232,1,0,0:0:0:0:
273,31,141318,1,0,0:0:0:0:
306,18,141403,1,0,0:0:0:0:
320,152,141575,1,8,0:0:0:0:
424,68,141746,2,0,P|444:112|444:168,1,90,2|0,0:0|0:0,0:0:0:0:
308,232,142089,5,8,0:0:0:0:
273,259,142175,1,0,0:0:0:0:
230,274,142261,1,0,0:0:0:0:
186,275,142346,1,0,0:0:0:0:
148,248,142432,1,2,0:0:0:0:
103,243,142518,1,0,0:0:0:0:
60,257,142603,1,0,0:0:0:0:
27,286,142689,1,0,0:0:0:0:
0,320,142775,1,0,0:0:0:0:
124,104,142946,1,8,0:0:0:0:
260,124,143118,2,0,P|320:116|360:80,1,90,2|0,0:0|0:0,0:0:0:0:
436,4,143461,6,0,P|472:40|476:108,1,90,8|0,0:0|0:0,0:0:0:0:
348,100,143803,1,2,0:0:0:0:
456,184,143975,1,0,0:0:0:0:
440,225,144061,1,0,0:0:0:0:
409,258,144146,1,0,0:0:0:0:
369,277,144232,1,0,0:0:0:0:
324,278,144318,1,8,0:0:0:0:
144,272,144489,2,0,P|180:248|256:236,1,90,2|0,0:0|0:0,0:0:0:0:
112,160,144832,6,0,P|64:184|32:224,1,90,8|8,0:0|0:0,0:0:0:0:
180,96,145175,1,2,0:0:0:0:
139,77,145261,1,8,0:0:0:0:
94,80,145346,1,8,0:0:0:0:
52,72,145432,1,8,0:0:0:0:
96,69,145518,1,8,0:0:0:0:
139,55,145603,1,8,0:0:0:0:
176,30,145689,1,8,0:0:0:0:
208,0,145775,1,8,0:0:0:0:
233,36,145861,1,2,0:0:0:0:
269,62,145946,1,8,0:0:0:0:
312,75,146032,1,8,0:0:0:0:
357,72,146118,1,8,0:0:0:0:
400,60,146203,37,12,0:0:0:0:
256,192,146289,12,0,155118,0:0:0:0:
