osu file format v14

[General]
AudioFilename: audio.mp3
AudioLeadIn: 0
PreviewTime: -1
Countdown: 1
SampleSet: Soft
StackLeniency: 0.7
Mode: 0
LetterboxInBreaks: 0
WidescreenStoryboard: 1

[Editor]
Bookmarks: 113271,115328,121500,146185
DistanceSpacing: 1
BeatDivisor: 8
GridSize: 8
TimelineZoom: 1

[Metadata]
Title:Veritas
TitleUnicode:Veritas
Artist:Presti
ArtistUnicode:Presti
Creator:Kakaris1
Version:unplayable indeed
Source:
Tags:
BeatmapID:1454149
BeatmapSetID:687161

[Difficulty]
HPDrainRate:4
CircleSize:4
OverallDifficulty:9
ApproachRate:9.5
SliderMultiplier:1.59999990463257
SliderTickRate:1

[Events]
//Background and Video events
0,0,"Veritas.jpg",0,0
//Break Periods
//Storyboard Layer 0 (Background)
//Storyboard Layer 1 (Fail)
//Storyboard Layer 2 (Pass)
//Storyboard Layer 3 (Foreground)
//Storyboard Sound Samples

[TimingPoints]
0,342.857142857143,4,2,0,50,1,0
2828,-200,4,2,0,50,0,0
39214,-50,4,2,0,50,0,0

[HitObjects]
240,200,2828,5,0,0:0:0:0:
352,112,3214,1,0,0:0:0:0:
448,168,3557,1,0,0:0:0:0:
416,296,3900,1,0,0:0:0:0:
288,184,4242,1,0,0:0:0:0:
160,112,4585,2,0,L|152:120,2,9.99999940395356
320,72,4971,5,0,0:0:0:0:
456,128,5314,1,0,0:0:0:0:
408,216,5485,1,0,0:0:0:0:
304,144,5657,1,0,0:0:0:0:
152,160,6042,1,0,0:0:0:0:
288,304,6385,1,0,0:0:0:0:
320,144,7071,5,0,0:0:0:0:
440,256,7800,1,0,0:0:0:0:
192,160,8142,1,0,0:0:0:0:
344,128,8485,1,0,0:0:0:0:
312,272,9214,1,0,0:0:0:0:
120,136,9900,1,0,0:0:0:0:
256,208,10071,1,0,0:0:0:0:
336,80,10242,1,0,0:0:0:0:
400,224,10414,5,0,0:0:0:0:
312,320,10585,1,0,0:0:0:0:
128,264,10971,1,0,0:0:0:0:
224,112,11143,1,0,0:0:0:0:
304,192,11314,1,0,0:0:0:0:
392,88,12000,5,0,0:0:0:0:
256,128,12728,1,0,0:0:0:0:
336,264,13457,1,0,0:0:0:0:
96,184,14142,2,0,L|104:176,1,9.99999940395356
280,120,14828,1,0,0:0:0:0:
376,232,15214,1,0,0:0:0:0:
232,288,15385,5,0,0:0:0:0:
160,128,15557,1,0,0:0:0:0:
320,72,15900,1,0,0:0:0:0:
440,192,16071,1,0,0:0:0:0:
384,288,16242,1,0,0:0:0:0:
216,192,16628,1,0,0:0:0:0:
344,192,16971,1,0,0:0:0:0:
224,152,17657,5,0,0:0:0:0:
408,184,18042,1,0,0:0:0:0:
288,304,18214,1,0,0:0:0:0:
192,248,18385,1,0,0:0:0:0:
160,112,18728,1,0,0:0:0:0:
280,136,18900,1,0,0:0:0:0:
352,232,19071,1,0,0:0:0:0:
168,288,19414,1,0,0:0:0:0:
32,224,19800,5,0,0:0:0:0:
288,104,20485,1,0,0:0:0:0:
408,216,20871,1,0,0:0:0:0:
368,288,21043,1,0,0:0:0:0:
240,264,21214,1,0,0:0:0:0:
136,128,21557,5,0,0:0:0:0:
240,72,21728,1,0,0:0:0:0:
296,152,21900,1,0,0:0:0:0:
424,80,22242,1,0,0:0:0:0:
432,184,22414,1,0,0:0:0:0:
384,256,22585,1,0,0:0:0:0:
208,152,22714,2,0,P|176:144|176:144,1,29.9999982118607
208,152,23142,6,0,P|176:144|176:144,1,29.9999982118607
208,152,23484,2,0,P|176:144|176:144,1,29.9999982118607
208,152,24513,6,0,P|176:144|176:144,1,29.9999982118607
72,112,24728,1,0,0:0:0:0:
392,224,25414,1,0,0:0:0:0:
208,152,25671,2,0,P|176:144|176:144,1,29.9999982118607
208,152,26014,6,0,P|176:144|176:144,1,29.9999982118607
48,152,26957,1,0,0:0:0:0:
112,200,27085,1,0,0:0:0:0:
32,232,27171,1,0,0:0:0:0:
96,272,27257,1,0,0:0:0:0:
24,312,27342,1,0,0:0:0:0:
80,344,27428,1,0,0:0:0:0:
160,344,27514,5,0,0:0:0:0:
208,280,27600,1,0,0:0:0:0:
264,344,27685,1,0,0:0:0:0:
312,272,27771,1,0,0:0:0:0:
360,344,27857,1,0,0:0:0:0:
400,264,27942,5,0,0:0:0:0:
456,328,28028,1,0,0:0:0:0:
480,208,28157,2,0,L|464:184,1,19.9999988079071
368,72,28585,6,0,P|336:56|328:96,2,79.9999952316285
368,72,29957,6,0,P|336:56|328:96,2,79.9999952316285
360,64,31328,6,0,P|336:56|328:96,2,69.9999958276749
456,112,32057,2,0,L|400:176,4,79.9999952316285
216,232,33728,1,0,0:0:0:0:
368,72,34071,6,0,P|336:56|328:96,2,79.9999952316285
232,112,35100,1,0,0:0:0:0:
368,72,35442,6,0,P|336:56|328:96,2,79.9999952316285
208,112,36471,1,0,0:0:0:0:
368,72,36814,6,0,P|336:56|328:96,2,79.9999952316285
264,208,38528,1,0,0:0:0:0:
120,104,39214,5,0,0:0:0:0:
288,112,39557,1,0,0:0:0:0:
360,80,39642,1,0,0:0:0:0:
440,104,39728,1,0,0:0:0:0:
464,184,39814,1,0,0:0:0:0:
416,248,39900,1,0,0:0:0:0:
344,296,39985,1,0,0:0:0:0:
256,264,40071,1,0,0:0:0:0:
224,184,40157,1,0,0:0:0:0:
320,184,40242,5,0,0:0:0:0:
344,96,40328,1,0,0:0:0:0:
264,80,40414,1,0,0:0:0:0:
176,96,40500,1,0,0:0:0:0:
136,184,40585,1,0,0:0:0:0:
224,192,40671,1,0,0:0:0:0:
296,120,40757,1,0,0:0:0:0:
376,64,40842,1,0,0:0:0:0:
440,136,40928,1,0,0:0:0:0:
432,232,41014,1,0,0:0:0:0:
352,296,41100,5,0,0:0:0:0:
336,200,41185,1,0,0:0:0:0:
264,256,41271,1,0,0:0:0:0:
176,288,41357,1,0,0:0:0:0:
136,208,41442,1,0,0:0:0:0:
192,152,41528,1,0,0:0:0:0:
280,112,41614,1,0,0:0:0:0:
376,128,41700,1,0,0:0:0:0:
384,48,41785,5,0,0:0:0:0:
304,16,41871,1,0,0:0:0:0:
224,40,41957,1,0,0:0:0:0:
144,16,42042,1,0,0:0:0:0:
96,88,42128,1,0,0:0:0:0:
56,152,42214,1,0,0:0:0:0:
112,208,42300,1,0,0:0:0:0:
40,256,42385,1,0,0:0:0:0:
112,296,42471,1,0,0:0:0:0:
40,352,42557,1,0,0:0:0:0:
120,376,42642,5,0,0:0:0:0:
192,336,42728,1,0,0:0:0:0:
280,344,42814,1,0,0:0:0:0:
280,256,42900,1,0,0:0:0:0:
360,304,42985,1,0,0:0:0:0:
408,240,43071,1,0,0:0:0:0:
344,176,43157,1,0,0:0:0:0:
432,160,43242,1,0,0:0:0:0:
360,88,43328,1,0,0:0:0:0:
456,80,43414,1,0,0:0:0:0:
408,8,43500,5,0,0:0:0:0:
320,16,43585,1,0,0:0:0:0:
256,80,43671,1,0,0:0:0:0:
184,40,43757,1,0,0:0:0:0:
208,144,43842,1,0,0:0:0:0:
120,96,43928,1,0,0:0:0:0:
168,208,44014,1,0,0:0:0:0:
72,168,44100,1,0,0:0:0:0:
144,296,44185,1,0,0:0:0:0:
24,232,44271,1,0,0:0:0:0:
80,344,44357,1,0,0:0:0:0:
8,304,44442,1,0,0:0:0:0:
200,360,44528,5,0,0:0:0:0:
336,304,44614,1,0,0:0:0:0:
440,200,45042,1,0,0:0:0:0:
416,128,45128,5,0,0:0:0:0:
336,88,45214,1,0,0:0:0:0:
264,136,45300,1,0,0:0:0:0:
256,224,45385,1,0,0:0:0:0:
336,264,45471,1,0,0:0:0:0:
416,216,45557,1,0,0:0:0:0:
416,128,45642,1,0,0:0:0:0:
336,88,45728,1,0,0:0:0:0:
264,136,45814,1,0,0:0:0:0:
256,224,45900,1,0,0:0:0:0:
336,264,45985,5,0,0:0:0:0:
416,216,46071,1,0,0:0:0:0:
416,128,46157,1,0,0:0:0:0:
336,88,46242,1,0,0:0:0:0:
264,136,46328,1,0,0:0:0:0:
256,224,46414,1,0,0:0:0:0:
248,320,46500,1,0,0:0:0:0:
144,328,46585,5,0,0:0:0:0:
88,264,46671,1,0,0:0:0:0:
144,192,46757,1,0,0:0:0:0:
80,136,46842,1,0,0:0:0:0:
144,72,46928,1,0,0:0:0:0:
232,56,47014,1,0,0:0:0:0:
304,128,47100,1,0,0:0:0:0:
240,208,47185,1,0,0:0:0:0:
200,136,47271,5,0,0:0:0:0:
264,88,47357,1,0,0:0:0:0:
344,56,47442,1,0,0:0:0:0:
416,112,47528,1,0,0:0:0:0:
392,208,47614,1,0,0:0:0:0:
304,160,47699,1,0,0:0:0:0:
384,144,47785,5,0,0:0:0:0:
456,208,47871,1,0,0:0:0:0:
448,296,47956,1,0,0:0:0:0:
368,344,48042,1,0,0:0:0:0:
280,336,48128,1,0,0:0:0:0:
232,272,48214,1,0,0:0:0:0:
152,280,48299,1,0,0:0:0:0:
120,200,48385,1,0,0:0:0:0:
192,136,48471,1,0,0:0:0:0:
272,176,48556,1,0,0:0:0:0:
328,248,48642,1,0,0:0:0:0:
424,248,48728,5,0,0:0:0:0:
464,136,48814,1,0,0:0:0:0:
392,64,48900,1,0,0:0:0:0:
376,152,48985,1,0,0:0:0:0:
296,88,49071,1,0,0:0:0:0:
208,48,49157,5,0,0:0:0:0:
128,72,49242,1,0,0:0:0:0:
104,168,49328,1,0,0:0:0:0:
200,200,49414,1,0,0:0:0:0:
224,128,49500,1,0,0:0:0:0:
296,168,49585,1,0,0:0:0:0:
320,248,49671,1,0,0:0:0:0:
272,320,49757,1,0,0:0:0:0:
184,312,49842,1,0,0:0:0:0:
96,264,49928,1,0,0:0:0:0:
56,168,50014,5,0,0:0:0:0:
104,80,50100,1,0,0:0:0:0:
416,48,50185,1,0,0:0:0:0:
96,128,51385,1,0,0:0:0:0:
192,216,51471,1,0,0:0:0:0:
240,96,51557,1,0,0:0:0:0:
296,312,51900,5,0,0:0:0:0:
376,160,52242,1,0,0:0:0:0:
288,72,52414,1,0,0:0:0:0:
184,160,52585,1,0,0:0:0:0:
136,64,52928,1,0,0:0:0:0:
272,128,53271,5,0,0:0:0:0:
120,192,53614,1,0,0:0:0:0:
120,72,53700,1,0,0:0:0:0:
208,184,53785,1,0,0:0:0:0:
216,72,53871,1,0,0:0:0:0:
296,176,53957,1,0,0:0:0:0:
296,56,54042,1,0,0:0:0:0:
384,168,54128,1,0,0:0:0:0:
376,48,54214,1,0,0:0:0:0:
448,344,54300,5,0,0:0:0:0:
168,128,54642,1,0,0:0:0:0:
280,224,54985,1,0,0:0:0:0:
240,32,55157,1,0,0:0:0:0:
312,112,55328,1,0,0:0:0:0:
424,216,55671,1,0,0:0:0:0:
176,112,56014,1,0,0:0:0:0:
328,80,56185,1,0,0:0:0:0:
384,160,56271,1,0,0:0:0:0:
432,64,56357,1,0,0:0:0:0:
432,264,56528,5,0,0:0:0:0:
376,328,56614,1,0,0:0:0:0:
320,256,56700,1,0,0:0:0:0:
112,280,56871,1,0,0:0:0:0:
64,112,56957,1,0,0:0:0:0:
152,192,57042,1,0,0:0:0:0:
328,48,57385,1,0,0:0:0:0:
424,128,57557,5,0,0:0:0:0:
416,232,57643,1,0,0:0:0:0:
344,184,57728,1,0,0:0:0:0:
160,160,57900,5,0,0:0:0:0:
96,88,57985,1,0,0:0:0:0:
192,72,58071,1,0,0:0:0:0:
184,272,58242,1,0,0:0:0:0:
432,344,58414,1,0,0:0:0:0:
472,48,58757,1,0,0:0:0:0:
416,224,58928,1,0,0:0:0:0:
320,280,59014,1,0,0:0:0:0:
304,168,59100,1,0,0:0:0:0:
152,240,59271,5,0,0:0:0:0:
64,224,59357,1,0,0:0:0:0:
240,240,59442,1,0,0:0:0:0:
64,104,59614,5,0,0:0:0:0:
208,88,59785,1,0,0:0:0:0:
312,48,59871,1,0,0:0:0:0:
408,56,59957,5,0,0:0:0:0:
472,128,60042,1,0,0:0:0:0:
456,224,60128,1,0,0:0:0:0:
368,240,60214,1,0,0:0:0:0:
288,200,60300,1,0,0:0:0:0:
280,104,60385,1,0,0:0:0:0:
232,24,60471,5,0,0:0:0:0:
144,48,60557,1,0,0:0:0:0:
80,112,60642,1,0,0:0:0:0:
72,216,60728,1,0,0:0:0:0:
144,304,60814,2,0,L|184:328,6,39.9999976158142
392,264,61157,5,0,0:0:0:0:
232,144,61500,1,0,0:0:0:0:
192,256,62014,1,0,0:0:0:0:
296,344,62185,1,0,0:0:0:0:
352,72,62357,1,0,0:0:0:0:
304,144,62442,1,0,0:0:0:0:
248,64,62528,1,0,0:0:0:0:
112,80,62871,5,0,0:0:0:0:
96,208,63214,1,0,0:0:0:0:
264,200,63385,1,0,0:0:0:0:
376,256,63557,1,0,0:0:0:0:
376,128,63900,1,0,0:0:0:0:
224,120,64242,1,0,0:0:0:0:
440,184,64585,1,0,0:0:0:0:
392,256,64670,5,0,0:0:0:0:
304,224,64756,1,0,0:0:0:0:
312,136,64842,1,0,0:0:0:0:
392,104,64927,1,0,0:0:0:0:
216,280,65100,5,0,0:0:0:0:
136,216,65185,1,0,0:0:0:0:
32,208,65271,1,0,0:0:0:0:
128,24,65614,1,0,0:0:0:0:
312,168,65957,5,0,0:0:0:0:
216,208,66128,1,0,0:0:0:0:
104,256,66300,1,0,0:0:0:0:
272,304,66642,1,0,0:0:0:0:
472,32,66985,1,0,0:0:0:0:
360,144,67157,1,0,0:0:0:0:
288,208,67242,1,0,0:0:0:0:
224,144,67328,1,0,0:0:0:0:
104,184,67500,1,0,0:0:0:0:
168,272,67585,1,0,0:0:0:0:
264,288,67671,1,0,0:0:0:0:
424,352,67842,1,0,0:0:0:0:
496,32,68014,5,0,0:0:0:0:
80,16,68357,1,0,0:0:0:0:
224,64,68528,1,0,0:0:0:0:
136,112,68614,1,0,0:0:0:0:
208,184,68699,1,0,0:0:0:0:
368,200,68871,1,0,0:0:0:0:
320,280,68957,1,0,0:0:0:0:
416,288,69042,1,0,0:0:0:0:
456,112,69214,5,0,0:0:0:0:
352,48,69300,1,0,0:0:0:0:
304,144,69385,1,0,0:0:0:0:
184,64,69728,1,0,0:0:0:0:
56,120,69900,5,0,0:0:0:0:
48,208,69985,1,0,0:0:0:0:
96,288,70071,1,0,0:0:0:0:
224,256,70242,5,0,0:0:0:0:
160,192,70328,1,0,0:0:0:0:
152,104,70414,1,0,0:0:0:0:
264,56,70757,2,0,L|296:80,1,39.9999976158142
384,104,70928,2,0,L|400:144,3,39.9999976158142
424,232,71142,5,0,0:0:0:0:
360,296,71271,2,0,L|320:272,3,39.9999976158142
264,232,71528,5,0,0:0:0:0:
168,288,71614,1,0,0:0:0:0:
80,264,71700,1,0,0:0:0:0:
64,160,71785,1,0,0:0:0:0:
128,96,71871,1,0,0:0:0:0:
216,104,71957,5,0,0:0:0:0:
160,176,72042,1,0,0:0:0:0:
344,120,72128,5,0,0:0:0:0:
424,216,72471,1,0,0:0:0:0:
368,272,72557,1,0,0:0:0:0:
296,288,72642,1,0,0:0:0:0:
224,272,72728,1,0,0:0:0:0:
192,208,72814,1,0,0:0:0:0:
200,136,72900,5,0,0:0:0:0:
264,80,72985,1,0,0:0:0:0:
352,64,73071,1,0,0:0:0:0:
400,128,73157,1,0,0:0:0:0:
328,168,73242,1,0,0:0:0:0:
256,208,73328,1,0,0:0:0:0:
176,192,73414,1,0,0:0:0:0:
16,224,73500,5,0,0:0:0:0:
56,112,73842,1,0,0:0:0:0:
104,48,73928,1,0,0:0:0:0:
160,0,74014,1,0,0:0:0:0:
88,176,74100,1,0,0:0:0:0:
152,112,74186,1,0,0:0:0:0:
224,48,74272,1,0,0:0:0:0:
104,240,74357,1,0,0:0:0:0:
176,184,74443,5,0,0:0:0:0:
256,120,74529,1,0,0:0:0:0:
320,48,74614,1,0,0:0:0:0:
360,128,74700,1,0,0:0:0:0:
432,56,74871,5,0,0:0:0:0:
400,272,75214,1,0,0:0:0:0:
192,272,75385,1,0,0:0:0:0:
224,176,75471,1,0,0:0:0:0:
128,200,75557,1,0,0:0:0:0:
424,120,75728,1,0,0:0:0:0:
320,168,75900,1,0,0:0:0:0:
128,104,76071,1,0,0:0:0:0:
40,176,76156,5,0,0:0:0:0:
48,64,76242,1,0,0:0:0:0:
248,48,76585,1,0,0:0:0:0:
392,192,76671,1,0,0:0:0:0:
336,256,76756,1,0,0:0:0:0:
248,256,76842,1,0,0:0:0:0:
176,200,76928,1,0,0:0:0:0:
296,88,77099,5,0,0:0:0:0:
344,160,77185,1,0,0:0:0:0:
264,184,77271,1,0,0:0:0:0:
176,200,77356,1,0,0:0:0:0:
96,168,77442,1,0,0:0:0:0:
120,80,77528,1,0,0:0:0:0:
368,24,77614,1,0,0:0:0:0:
464,136,77957,5,0,0:0:0:0:
416,240,78042,1,0,0:0:0:0:
336,264,78128,5,0,0:0:0:0:
304,184,78214,1,0,0:0:0:0:
384,152,78300,1,0,0:0:0:0:
336,264,78471,1,0,0:0:0:0:
304,184,78557,1,0,0:0:0:0:
384,152,78642,1,0,0:0:0:0:
312,64,78985,1,0,0:0:0:0:
184,64,79328,5,0,0:0:0:0:
112,104,79414,1,0,0:0:0:0:
168,152,79500,1,0,0:0:0:0:
184,64,79585,1,0,0:0:0:0:
88,176,79671,1,0,0:0:0:0:
16,240,79757,1,0,0:0:0:0:
88,272,79842,1,0,0:0:0:0:
48,352,79928,5,0,0:0:0:0:
128,360,80014,1,0,0:0:0:0:
184,280,80100,1,0,0:0:0:0:
248,360,80185,1,0,0:0:0:0:
296,280,80271,1,0,0:0:0:0:
424,160,80357,1,0,0:0:0:0:
344,72,80700,5,0,0:0:0:0:
168,96,81214,1,0,0:0:0:0:
272,256,81385,1,0,0:0:0:0:
408,144,81728,5,0,0:0:0:0:
320,72,81857,1,0,0:0:0:0:
208,176,81971,1,0,0:0:0:0:
128,96,82085,1,0,0:0:0:0:
408,144,82185,5,0,0:0:0:0:
320,72,82314,1,0,0:0:0:0:
208,176,82428,1,0,0:0:0:0:
128,96,82542,1,0,0:0:0:0:
408,144,82628,5,0,0:0:0:0:
96,192,82757,2,0,L|80:240,5,39.9999976158142
160,328,83100,1,0,0:0:0:0:
144,96,83442,1,0,0:0:0:0:
208,40,83528,1,0,0:0:0:0:
296,40,83614,1,0,0:0:0:0:
376,48,83700,1,0,0:0:0:0:
432,112,83785,1,0,0:0:0:0:
352,176,83957,5,0,0:0:0:0:
224,192,84128,1,0,0:0:0:0:
104,168,84300,1,0,0:0:0:0:
48,264,84385,1,0,0:0:0:0:
0,352,84471,1,0,0:0:0:0:
160,264,84814,5,0,0:0:0:0:
224,200,84900,1,0,0:0:0:0:
304,168,84985,1,0,0:0:0:0:
344,240,85071,1,0,0:0:0:0:
264,272,85157,1,0,0:0:0:0:
208,328,85242,1,0,0:0:0:0:
272,376,85328,5,0,0:0:0:0:
328,320,85414,1,0,0:0:0:0:
400,296,85500,1,0,0:0:0:0:
480,272,85585,1,0,0:0:0:0:
496,352,85671,1,0,0:0:0:0:
432,160,85842,5,0,0:0:0:0:
352,40,86185,1,0,0:0:0:0:
216,96,86357,1,0,0:0:0:0:
160,160,86442,1,0,0:0:0:0:
224,224,86528,1,0,0:0:0:0:
224,224,86700,5,0,0:0:0:0:
160,160,86785,1,0,0:0:0:0:
216,96,86871,1,0,0:0:0:0:
216,96,87042,1,0,0:0:0:0:
224,224,87128,1,0,0:0:0:0:
160,160,87214,1,0,0:0:0:0:
80,160,87300,5,0,0:0:0:0:
64,80,87385,1,0,0:0:0:0:
136,32,87471,1,0,0:0:0:0:
224,32,87557,1,0,0:0:0:0:
280,96,87642,1,0,0:0:0:0:
224,168,87728,1,0,0:0:0:0:
184,96,87814,5,0,0:0:0:0:
280,96,87900,1,0,0:0:0:0:
360,80,87985,1,0,0:0:0:0:
440,72,88071,1,0,0:0:0:0:
504,128,88157,1,0,0:0:0:0:
488,216,88242,1,0,0:0:0:0:
408,216,88328,5,0,0:0:0:0:
352,160,88414,1,0,0:0:0:0:
280,96,88500,1,0,0:0:0:0:
152,248,88585,1,0,0:0:0:0:
128,40,88928,5,0,0:0:0:0:
200,0,89014,1,0,0:0:0:0:
280,24,89099,1,0,0:0:0:0:
264,104,89185,1,0,0:0:0:0:
200,168,89271,1,0,0:0:0:0:
128,120,89356,1,0,0:0:0:0:
192,80,89442,1,0,0:0:0:0:
128,40,89528,1,0,0:0:0:0:
48,64,89614,5,0,0:0:0:0:
32,144,89700,1,0,0:0:0:0:
40,224,89785,1,0,0:0:0:0:
112,200,89871,1,0,0:0:0:0:
232,240,89957,1,0,0:0:0:0:
448,64,90300,5,0,0:0:0:0:
368,32,90385,1,0,0:0:0:0:
288,24,90471,1,0,0:0:0:0:
200,40,90557,1,0,0:0:0:0:
152,112,90642,1,0,0:0:0:0:
216,168,90728,1,0,0:0:0:0:
272,104,90814,1,0,0:0:0:0:
360,112,90900,5,0,0:0:0:0:
432,152,90985,1,0,0:0:0:0:
472,232,91071,1,0,0:0:0:0:
384,232,91157,1,0,0:0:0:0:
312,184,91242,1,0,0:0:0:0:
64,328,91328,1,0,0:0:0:0:
80,192,91671,5,0,0:0:0:0:
120,120,91757,1,0,0:0:0:0:
176,64,91842,1,0,0:0:0:0:
160,248,91928,1,0,0:0:0:0:
200,144,92014,1,0,0:0:0:0:
448,208,92185,1,0,0:0:0:0:
360,120,92271,1,0,0:0:0:0:
384,304,92357,5,0,0:0:0:0:
136,344,92528,1,0,0:0:0:0:
64,280,92614,1,0,0:0:0:0:
80,192,92700,1,0,0:0:0:0:
160,160,92785,1,0,0:0:0:0:
176,248,92914,2,0,L|216:192,3,39.9999976158142
64,280,93042,1,0,0:0:0:0:
96,64,93214,2,0,L|152:48,3,39.9999976158142
232,48,93471,1,0,0:0:0:0:
328,40,93557,5,0,0:0:0:0:
416,48,93642,1,0,0:0:0:0:
312,128,93771,2,0,L|256:128,2,39.9999976158142
184,168,93942,2,0,L|208:200,3,39.9999976158142
424,232,94114,1,0,0:0:0:0:
152,256,94757,1,0,0:0:0:0:
248,96,95014,1,0,0:0:0:0:
416,144,95271,5,0,0:0:0:0:
424,248,95442,1,0,0:0:0:0:
312,208,95700,1,0,0:0:0:0:
184,208,95957,1,0,0:0:0:0:
256,104,96171,1,0,0:0:0:0:
416,112,96385,1,0,0:0:0:0:
336,32,96642,5,0,0:0:0:0:
176,176,96814,1,0,0:0:0:0:
80,136,97071,1,0,0:0:0:0:
168,48,97328,1,0,0:0:0:0:
272,112,97500,1,0,0:0:0:0:
368,224,98185,1,0,0:0:0:0:
392,112,98442,5,0,0:0:0:0:
288,152,98700,1,0,0:0:0:0:
96,152,98871,1,0,0:0:0:0:
160,72,99128,1,0,0:0:0:0:
264,72,99385,1,0,0:0:0:0:
368,208,99557,2,0,B|320:208|320:216|216:248|216:248|136:216|136:216|56:216|16:104|16:104|96:40|240:152,1,639.999961853028
368,64,100500,5,0,0:0:0:0:
464,312,100757,1,0,0:0:0:0:
360,320,100928,1,0,0:0:0:0:
32,208,101185,1,0,0:0:0:0:
144,240,101442,1,0,0:0:0:0:
184,152,101614,1,0,0:0:0:0:
312,224,101871,5,0,0:0:0:0:
424,72,102128,1,0,0:0:0:0:
360,152,102300,1,0,0:0:0:0:
200,96,102471,1,0,0:0:0:0:
120,144,102642,1,0,0:0:0:0:
200,216,102814,1,0,0:0:0:0:
280,128,102985,1,0,0:0:0:0:
352,248,103242,5,0,0:0:0:0:
464,312,103500,1,0,0:0:0:0:
352,352,103671,1,0,0:0:0:0:
256,288,103842,1,0,0:0:0:0:
192,344,104014,1,0,0:0:0:0:
128,272,104185,1,0,0:0:0:0:
200,200,104357,5,0,0:0:0:0:
112,144,104528,1,0,0:0:0:0:
240,72,104700,1,0,0:0:0:0:
296,208,104871,1,0,0:0:0:0:
456,96,105042,2,0,B|440:160|440:160|312:128|312:128|336:48,1,279.9999833107
216,64,105728,5,0,0:0:0:0:
112,304,105900,1,0,0:0:0:0:
112,304,106071,1,0,0:0:0:0:
280,288,106414,5,0,0:0:0:0:
416,152,106671,1,0,0:0:0:0:
264,88,106928,1,0,0:0:0:0:
200,168,107100,1,0,0:0:0:0:
320,256,107357,1,0,0:0:0:0:
160,296,107614,1,0,0:0:0:0:
72,208,107785,5,0,0:0:0:0:
120,80,108042,1,0,0:0:0:0:
232,160,108300,1,0,0:0:0:0:
232,160,108471,1,0,0:0:0:0:
392,264,108642,1,0,0:0:0:0:
320,312,108814,1,0,0:0:0:0:
376,120,109157,5,0,0:0:0:0:
256,64,109414,1,0,0:0:0:0:
184,168,109671,1,0,0:0:0:0:
120,120,109842,1,0,0:0:0:0:
88,248,110100,1,0,0:0:0:0:
176,304,110357,1,0,0:0:0:0:
136,192,110528,5,0,0:0:0:0:
136,56,110700,1,0,0:0:0:0:
320,56,110871,1,0,0:0:0:0:
320,200,111042,1,0,0:0:0:0:
192,208,111214,1,0,0:0:0:0:
200,88,111385,5,0,0:0:0:0:
328,88,111557,1,0,0:0:0:0:
416,280,111728,1,0,0:0:0:0:
96,280,111900,1,0,0:0:0:0:
256,0,112071,1,0,0:0:0:0:
416,280,112242,1,0,0:0:0:0:
240,272,112414,5,0,0:0:0:0:
384,104,112585,1,0,0:0:0:0:
144,232,112757,1,0,0:0:0:0:
272,72,112928,1,0,0:0:0:0:
352,264,113100,1,0,0:0:0:0:
248,192,113271,5,0,0:0:0:0:
192,144,113357,1,0,0:0:0:0:
136,112,113442,1,0,0:0:0:0:
72,120,113528,1,0,0:0:0:0:
24,160,113614,1,0,0:0:0:0:
24,224,113700,1,0,0:0:0:0:
64,272,113785,1,0,0:0:0:0:
120,264,113871,1,0,0:0:0:0:
160,224,113957,5,0,0:0:0:0:
136,160,114042,1,0,0:0:0:0:
168,96,114128,1,0,0:0:0:0:
232,56,114214,1,0,0:0:0:0:
304,48,114300,1,0,0:0:0:0:
376,56,114385,1,0,0:0:0:0:
448,104,114471,1,0,0:0:0:0:
464,184,114557,5,0,0:0:0:0:
408,216,114642,1,0,0:0:0:0:
336,176,114728,1,0,0:0:0:0:
264,136,114814,1,0,0:0:0:0:
184,144,114900,1,0,0:0:0:0:
128,216,114985,1,0,0:0:0:0:
184,272,115071,1,0,0:0:0:0:
256,240,115157,1,0,0:0:0:0:
304,304,115242,5,0,0:0:0:0:
416,312,115328,2,0,L|440:280,15,39.9999976158142
256,184,118757,5,0,0:0:0:0:
104,136,118928,1,0,0:0:0:0:
168,64,119014,1,0,0:0:0:0:
224,128,119100,1,0,0:0:0:0:
304,112,119271,5,0,0:0:0:0:
368,40,119357,1,0,0:0:0:0:
440,128,119442,1,0,0:0:0:0:
384,272,119614,1,0,0:0:0:0:
288,232,119700,1,0,0:0:0:0:
200,200,119786,1,0,0:0:0:0:
120,160,119871,1,0,0:0:0:0:
32,184,119957,1,0,0:0:0:0:
104,320,120128,5,0,0:0:0:0:
208,336,120300,1,0,0:0:0:0:
232,264,120385,1,0,0:0:0:0:
152,248,120471,1,0,0:0:0:0:
152,248,120642,1,0,0:0:0:0:
232,264,120728,1,0,0:0:0:0:
208,336,120814,1,0,0:0:0:0:
320,344,120985,5,0,0:0:0:0:
360,272,121071,1,0,0:0:0:0:
400,200,121157,1,0,0:0:0:0:
432,120,121242,1,0,0:0:0:0:
456,40,121328,1,0,0:0:0:0:
376,16,121414,1,0,0:0:0:0:
224,96,121500,1,0,0:0:0:0:
32,96,121671,5,0,0:0:0:0:
64,168,121757,1,0,0:0:0:0:
104,64,121842,1,0,0:0:0:0:
144,144,122014,1,0,0:0:0:0:
104,64,122100,1,0,0:0:0:0:
64,168,122185,1,0,0:0:0:0:
112,256,122357,5,0,0:0:0:0:
200,224,122442,1,0,0:0:0:0:
240,296,122528,1,0,0:0:0:0:
336,256,122699,1,0,0:0:0:0:
288,192,122785,1,0,0:0:0:0:
376,160,122870,1,0,0:0:0:0:
416,232,122956,1,0,0:0:0:0:
336,256,123042,1,0,0:0:0:0:
272,296,123127,5,0,0:0:0:0:
208,240,123214,1,0,0:0:0:0:
120,240,123300,1,0,0:0:0:0:
96,168,123385,1,0,0:0:0:0:
176,160,123471,1,0,0:0:0:0:
256,176,123557,1,0,0:0:0:0:
336,160,123642,1,0,0:0:0:0:
328,72,123728,1,0,0:0:0:0:
248,88,123814,1,0,0:0:0:0:
160,80,123900,5,0,0:0:0:0:
40,248,124242,1,0,0:0:0:0:
120,328,124414,1,0,0:0:0:0:
224,328,124585,1,0,0:0:0:0:
320,328,124757,1,0,0:0:0:0:
416,328,124842,1,0,0:0:0:0:
480,256,124928,1,0,0:0:0:0:
456,160,125100,5,0,0:0:0:0:
384,208,125185,1,0,0:0:0:0:
288,208,125271,1,0,0:0:0:0:
288,120,125357,1,0,0:0:0:0:
368,128,125442,1,0,0:0:0:0:
456,80,125528,1,0,0:0:0:0:
208,32,125614,1,0,0:0:0:0:
64,72,125785,5,0,0:0:0:0:
40,160,125871,1,0,0:0:0:0:
120,128,125957,1,0,0:0:0:0:
160,280,126128,1,0,0:0:0:0:
64,280,126214,1,0,0:0:0:0:
112,208,126300,1,0,0:0:0:0:
288,192,126471,5,0,0:0:0:0:
288,96,126557,1,0,0:0:0:0:
360,40,126642,1,0,0:0:0:0:
440,48,126728,1,0,0:0:0:0:
496,112,126814,1,0,0:0:0:0:
424,144,126900,1,0,0:0:0:0:
320,304,126985,1,0,0:0:0:0:
