osu file format v14

[General]
AudioFilename: audio.mp3
AudioLeadIn: 0
PreviewTime: 72136
Countdown: 0
SampleSet: Normal
StackLeniency: 0.7
Mode: 3
LetterboxInBreaks: 0
SpecialStyle: 0
WidescreenStoryboard: 1

[Editor]
DistanceSpacing: 0.8
BeatDivisor: 4
GridSize: 4
TimelineZoom: 1.8

[Metadata]
Title:Veritas
TitleUnicode:Veritas
Artist:Presti
ArtistUnicode:Presti
Creator:DarckoSeth
Version:Vidi [HD]
Source:Deemo
Tags:piano wood fantasy artcore rayark selection vol.3
BeatmapID:1686071
BeatmapSetID:803279

[Difficulty]
HPDrainRate:7.5
CircleSize:4
OverallDifficulty:7.5
ApproachRate:5
SliderMultiplier:1.4
SliderTickRate:1

[Events]
//Background and Video events
0,0,"bg.jpg",0,0
//Break Periods
//Storyboard Layer 0 (Background)
//Storyboard Layer 1 (Fail)
//Storyboard Layer 2 (Pass)
//Storyboard Layer 3 (Foreground)
//Storyboard Sound Samples

[TimingPoints]
2840,352.941176470588,4,1,1,50,1,0
28251,342.857142857143,4,1,1,100,1,0
72136,-100,4,1,1,100,0,1
94079,-100,4,1,1,100,0,0

[HitObjects]
64,192,2840,5,8,0:0:0:0:
320,192,2840,1,4,0:0:0:0:
192,192,3192,1,0,0:0:0:0:
320,192,3545,1,0,0:0:0:20:clap.wav
448,192,3545,1,0,0:0:0:0:
192,192,3898,1,0,0:0:0:0:
64,192,4251,1,0,0:0:0:0:
192,192,4604,1,0,0:0:0:0:
320,192,4957,1,0,0:0:0:20:clap.wav
448,192,4957,1,0,0:0:0:0:
320,192,5310,1,0,0:0:0:0:
192,192,5487,1,0,0:0:0:0:
64,192,5663,1,8,0:0:0:0:
448,192,5663,1,0,0:0:0:0:
320,192,6016,1,0,0:0:0:0:
64,192,6369,1,0,0:0:0:20:clap.wav
192,192,6369,1,0,0:0:0:0:
320,192,6722,1,0,0:0:0:0:
64,192,7075,1,0,0:0:0:0:
448,192,7075,1,0,0:0:0:0:
320,192,7428,1,0,0:0:0:0:
64,192,7781,1,0,0:0:0:20:clap.wav
192,192,7781,1,0,0:0:0:0:
320,192,8134,1,0,0:0:0:0:
192,192,8487,1,8,0:0:0:0:
448,192,8487,1,0,0:0:0:0:
64,192,8839,1,0,0:0:0:0:
192,192,9192,1,0,0:0:0:20:clap.wav
448,192,9192,1,0,0:0:0:0:
320,192,9545,1,0,0:0:0:0:
64,192,9898,1,0,0:0:0:0:
448,192,9898,1,0,0:0:0:0:
192,192,10075,1,0,0:0:0:0:
320,192,10251,1,0,0:0:0:0:
192,192,10428,1,0,0:0:0:0:
320,192,10604,1,0,0:0:0:20:clap.wav
448,192,10604,1,0,0:0:0:0:
448,192,10957,1,0,0:0:0:0:
320,192,11134,1,0,0:0:0:0:
64,192,11310,1,8,0:0:0:0:
192,192,11310,1,0,0:0:0:0:
320,192,11663,1,0,0:0:0:0:
192,192,12016,1,0,0:0:0:20:clap.wav
448,192,12016,1,0,0:0:0:0:
64,192,12369,1,0,0:0:0:0:
320,192,12722,1,0,0:0:0:0:
448,192,12722,1,0,0:0:0:0:
192,192,13075,1,0,0:0:0:0:
64,192,13428,1,0,0:0:0:20:clap.wav
448,192,13428,1,0,0:0:0:0:
320,192,13781,1,0,0:0:0:0:
192,192,14134,1,8,0:0:0:0:
448,192,14134,1,0,0:0:0:0:
64,192,14487,1,0,0:0:0:0:
64,192,14839,1,0,0:0:0:20:clap.wav
448,192,14839,1,0,0:0:0:0:
192,192,15192,1,0,0:0:0:0:
320,192,15369,1,0,0:0:0:0:
448,192,15545,1,0,0:0:0:0:
64,192,15898,1,0,0:0:0:0:
192,192,16075,1,0,0:0:0:0:
320,192,16251,1,0,0:0:0:20:clap.wav
448,192,16251,1,0,0:0:0:0:
64,192,16604,1,0,0:0:0:0:
192,192,16957,1,8,0:0:0:0:
320,192,16957,1,0,0:0:0:0:
448,192,17310,1,0,0:0:0:0:
64,192,17663,1,0,0:0:0:20:clap.wav
448,192,17663,1,0,0:0:0:0:
64,192,18016,1,0,0:0:0:0:
192,192,18192,1,0,0:0:0:0:
320,192,18369,1,0,0:0:0:0:
448,192,18722,1,0,0:0:0:0:
320,192,18898,1,0,0:0:0:0:
64,192,19075,1,0,0:0:0:20:clap.wav
192,192,19075,1,0,0:0:0:0:
320,192,19428,1,0,0:0:0:0:
192,192,19781,1,8,0:0:0:0:
448,192,19781,1,0,0:0:0:0:
64,192,20134,1,0,0:0:0:0:
64,192,20487,1,0,0:0:0:20:clap.wav
448,192,20487,1,0,0:0:0:0:
192,192,20839,1,0,0:0:0:0:
320,192,21016,1,0,0:0:0:0:
448,192,21192,1,0,0:0:0:0:
64,192,21545,1,0,0:0:0:0:
192,192,21722,1,0,0:0:0:0:
64,192,21898,1,0,0:0:0:20:clap.wav
320,192,21898,1,0,0:0:0:0:
192,192,22251,1,0,0:0:0:0:
320,192,22428,1,0,0:0:0:0:
192,192,22604,1,8,0:0:0:0:
448,192,22604,128,0,24722:0:0:0:0:
192,192,23310,1,0,0:0:0:20:clap.wav
64,192,24016,1,0,0:0:0:0:
192,192,24722,128,0,25428:0:0:0:0:
64,192,25428,128,8,28251:0:0:0:0:
448,192,25428,1,0,0:0:0:0:
192,192,28251,1,8,0:0:0:0:
448,192,28251,1,4,0:0:0:0:
320,192,28422,1,0,0:0:0:0:
64,192,28593,1,2,0:0:0:0:
448,192,28593,1,0,0:0:0:0:
192,192,28765,1,0,0:0:0:0:
320,192,28851,1,0,0:0:0:0:
448,192,28936,1,0,0:0:0:0:
64,192,29108,1,8,0:0:0:0:
192,192,29108,1,0,0:0:0:0:
320,192,29279,1,2,0:0:0:0:
448,192,29279,1,0,0:0:0:0:
192,192,29451,1,0,0:0:0:0:
64,192,29622,1,8,0:0:0:0:
320,192,29622,1,0,0:0:0:0:
192,192,29793,1,0,0:0:0:0:
64,192,29965,1,2,0:0:0:0:
448,192,29965,1,0,0:0:0:0:
320,192,30136,1,0,0:0:0:0:
192,192,30222,1,0,0:0:0:0:
64,192,30308,1,0,0:0:0:0:
192,192,30479,1,8,0:0:0:0:
320,192,30479,1,0,0:0:0:0:
64,192,30651,1,2,0:0:0:0:
448,192,30651,1,0,0:0:0:0:
192,192,30822,1,0,0:0:0:0:
320,192,30993,1,8,0:0:0:0:
448,192,30993,1,0,0:0:0:0:
192,192,31165,1,0,0:0:0:0:
64,192,31336,1,2,0:0:0:0:
320,192,31336,1,0,0:0:0:0:
448,192,31508,1,0,0:0:0:0:
320,192,31593,1,0,0:0:0:0:
192,192,31679,1,0,0:0:0:0:
320,192,31851,1,8,0:0:0:0:
448,192,31851,1,0,0:0:0:0:
64,192,32022,1,2,0:0:0:0:
192,192,32022,1,0,0:0:0:0:
320,192,32193,1,0,0:0:0:0:
64,192,32365,1,8,0:0:0:0:
448,192,32365,1,0,0:0:0:0:
320,192,32536,1,0,0:0:0:0:
192,192,32708,1,2,0:0:0:0:
448,192,32708,1,0,0:0:0:0:
64,192,32879,1,0,0:0:0:0:
192,192,32965,1,0,0:0:0:0:
320,192,33051,1,0,0:0:0:0:
64,192,33222,1,8,0:0:0:0:
192,192,33222,1,0,0:0:0:0:
320,192,33393,1,2,0:0:0:0:
448,192,33393,1,0,0:0:0:0:
192,192,33565,1,0,0:0:0:0:
64,192,33736,1,8,0:0:0:0:
448,192,33736,1,0,0:0:0:0:
320,192,33908,1,0,0:0:0:0:
64,192,34079,1,2,0:0:0:0:
192,192,34079,1,0,0:0:0:0:
320,192,34251,1,0,0:0:0:0:
192,192,34336,1,0,0:0:0:0:
64,192,34422,1,0,0:0:0:0:
192,192,34593,1,8,0:0:0:0:
320,192,34593,1,0,0:0:0:0:
64,192,34765,1,2,0:0:0:0:
448,192,34765,1,0,0:0:0:0:
192,192,34936,1,0,0:0:0:0:
320,192,35108,1,8,0:0:0:0:
448,192,35108,1,0,0:0:0:0:
192,192,35279,1,0,0:0:0:0:
64,192,35451,1,2,0:0:0:0:
448,192,35451,1,0,0:0:0:0:
192,192,35622,1,0,0:0:0:0:
320,192,35708,1,0,0:0:0:0:
448,192,35793,1,0,0:0:0:0:
64,192,35965,1,8,0:0:0:0:
320,192,35965,1,0,0:0:0:0:
192,192,36136,1,2,0:0:0:0:
448,192,36136,1,0,0:0:0:0:
64,192,36308,1,0,0:0:0:0:
192,192,36479,1,8,0:0:0:0:
448,192,36479,1,0,0:0:0:0:
320,192,36651,1,0,0:0:0:0:
64,192,36822,1,2,0:0:0:0:
192,192,36822,1,0,0:0:0:0:
448,192,36993,1,0,0:0:0:0:
320,192,37079,1,0,0:0:0:0:
192,192,37165,1,0,0:0:0:0:
320,192,37336,1,8,0:0:0:0:
448,192,37336,1,0,0:0:0:0:
64,192,37508,1,2,0:0:0:0:
192,192,37508,1,0,0:0:0:0:
320,192,37679,1,0,0:0:0:0:
64,192,37851,1,8,0:0:0:0:
192,192,37851,1,4,0:0:0:0:
448,192,37851,128,0,37936:0:0:0:0:
320,192,38022,1,0,0:0:0:0:
192,192,38193,1,2,0:0:0:0:
448,192,38193,1,0,0:0:0:0:
64,192,38365,1,0,0:0:0:0:
192,192,38451,1,0,0:0:0:0:
320,192,38536,1,0,0:0:0:0:
64,192,38708,1,8,0:0:0:0:
448,192,38708,1,0,0:0:0:0:
192,192,38879,1,2,0:0:0:0:
320,192,38879,1,0,0:0:0:0:
64,192,39051,1,0,0:0:0:0:
64,192,39222,1,8,0:0:0:0:
320,192,39222,1,4,0:0:0:0:
448,192,39222,128,0,39308:0:0:0:0:
192,192,39393,1,0,0:0:0:0:
64,192,39565,1,2,0:0:0:0:
448,192,39565,1,0,0:0:0:0:
192,192,39651,1,0,0:0:0:0:
320,192,39736,1,0,0:0:0:0:
192,192,39822,1,0,0:0:0:0:
64,192,39908,1,0,0:0:0:0:
192,192,39993,1,0,0:0:0:0:
320,192,40079,1,8,0:0:0:0:
448,192,40165,1,0,0:0:0:0:
64,192,40251,1,2,0:0:0:0:
320,192,40251,1,0,0:0:0:0:
192,192,40336,1,0,0:0:0:0:
320,192,40422,1,0,0:0:0:0:
448,192,40508,1,0,0:0:0:0:
64,192,40593,1,8,0:0:0:0:
192,192,40679,1,0,0:0:0:0:
320,192,40765,1,0,0:0:0:0:
192,192,40851,1,0,0:0:0:0:
64,192,40936,1,2,0:0:0:0:
448,192,40936,1,0,0:0:0:0:
320,192,41022,1,0,0:0:0:0:
192,192,41108,1,0,0:0:0:0:
64,192,41193,1,0,0:0:0:0:
192,192,41279,1,0,0:0:0:0:
320,192,41365,1,0,0:0:0:0:
192,192,41451,1,8,0:0:0:0:
64,192,41536,1,0,0:0:0:0:
320,192,41622,1,2,0:0:0:0:
448,192,41622,1,0,0:0:0:0:
192,192,41708,1,0,0:0:0:0:
320,192,41793,1,0,0:0:0:0:
448,192,41879,1,0,0:0:0:0:
320,192,41965,1,8,0:0:0:0:
192,192,42051,1,0,0:0:0:0:
64,192,42136,1,0,0:0:0:0:
192,192,42222,1,0,0:0:0:0:
320,192,42308,1,2,0:0:0:0:
448,192,42308,1,0,0:0:0:0:
64,192,42393,1,0,0:0:0:0:
192,192,42479,1,0,0:0:0:0:
320,192,42565,1,0,0:0:0:0:
448,192,42651,1,0,0:0:0:0:
320,192,42736,1,0,0:0:0:0:
192,192,42822,1,8,0:0:0:0:
64,192,42908,1,0,0:0:0:0:
192,192,42993,1,2,0:0:0:0:
448,192,42993,1,0,0:0:0:0:
320,192,43079,1,0,0:0:0:0:
192,192,43165,1,0,0:0:0:0:
64,192,43251,1,0,0:0:0:0:
192,192,43336,1,8,0:0:0:0:
320,192,43422,1,0,0:0:0:0:
448,192,43508,1,0,0:0:0:0:
320,192,43593,1,0,0:0:0:0:
64,192,43679,1,2,0:0:0:0:
192,192,43679,1,0,0:0:0:0:
448,192,43765,1,0,0:0:0:0:
320,192,43851,1,0,0:0:0:0:
192,192,43936,1,0,0:0:0:0:
64,192,44022,1,0,0:0:0:0:
192,192,44108,1,0,0:0:0:0:
320,192,44193,1,8,0:0:0:0:
448,192,44279,1,0,0:0:0:0:
64,192,44365,1,2,0:0:0:0:
320,192,44365,1,0,0:0:0:0:
192,192,44451,1,0,0:0:0:0:
320,192,44536,1,0,0:0:0:0:
448,192,44622,1,0,0:0:0:0:
64,192,44708,1,8,0:0:0:0:
320,192,44879,1,0,0:0:0:0:
64,192,45051,1,2,0:0:0:0:
448,192,45051,1,0,0:0:0:0:
320,192,45136,1,0,0:0:0:0:
192,192,45222,1,0,0:0:0:0:
320,192,45308,1,0,0:0:0:0:
448,192,45393,1,0,0:0:0:0:
320,192,45479,1,0,0:0:0:0:
192,192,45565,1,8,0:0:0:0:
64,192,45651,1,0,0:0:0:0:
320,192,45736,1,2,0:0:0:0:
448,192,45736,1,0,0:0:0:0:
64,192,45822,1,0,0:0:0:0:
192,192,45908,1,0,0:0:0:0:
320,192,45993,1,0,0:0:0:0:
448,192,46079,1,8,0:0:0:0:
320,192,46165,1,0,0:0:0:0:
192,192,46251,1,0,0:0:0:0:
64,192,46336,1,0,0:0:0:0:
320,192,46422,1,2,0:0:0:0:
448,192,46422,1,0,0:0:0:0:
192,192,46508,1,0,0:0:0:0:
64,192,46593,1,0,0:0:0:0:
192,192,46679,1,0,0:0:0:0:
320,192,46765,1,0,0:0:0:0:
192,192,46851,1,0,0:0:0:0:
320,192,46936,1,8,0:0:0:0:
448,192,47022,1,0,0:0:0:0:
64,192,47108,1,2,0:0:0:0:
192,192,47108,1,0,0:0:0:0:
320,192,47193,1,0,0:0:0:0:
448,192,47279,1,0,0:0:0:0:
320,192,47365,1,0,0:0:0:0:
192,192,47451,1,8,0:0:0:0:
64,192,47536,1,0,0:0:0:0:
192,192,47622,1,0,0:0:0:0:
320,192,47708,1,0,0:0:0:0:
64,192,47793,1,2,0:0:0:0:
448,192,47793,1,0,0:0:0:0:
320,192,47879,1,0,0:0:0:0:
192,192,47965,1,0,0:0:0:0:
64,192,48051,1,0,0:0:0:0:
192,192,48136,1,0,0:0:0:0:
320,192,48222,1,0,0:0:0:0:
448,192,48308,1,8,0:0:0:0:
320,192,48393,1,0,0:0:0:0:
64,192,48479,1,2,0:0:0:0:
192,192,48479,1,0,0:0:0:0:
448,192,48565,1,0,0:0:0:0:
320,192,48651,1,0,0:0:0:0:
192,192,48736,1,0,0:0:0:0:
64,192,48822,1,8,0:0:0:0:
448,192,48822,1,4,0:0:0:0:
320,192,48908,1,0,0:0:0:0:
192,192,48993,1,0,0:0:0:0:
64,192,49079,1,0,0:0:0:0:
320,192,49165,1,2,0:0:0:0:
448,192,49165,1,0,0:0:0:0:
192,192,49251,1,0,0:0:0:0:
64,192,49336,1,0,0:0:0:0:
192,192,49422,1,0,0:0:0:0:
320,192,49508,1,0,0:0:0:0:
448,192,49593,1,0,0:0:0:0:
320,192,49679,1,8,0:0:0:0:
192,192,49765,1,0,0:0:0:0:
64,192,49851,1,2,0:0:0:0:
448,192,49851,1,0,0:0:0:0:
320,192,49936,1,0,0:0:0:0:
192,192,50022,1,0,0:0:0:0:
64,192,50108,1,0,0:0:0:0:
320,192,50193,1,8,0:0:0:0:
448,192,50193,1,4,0:0:0:0:
192,192,50365,1,0,0:0:0:0:
64,192,50536,1,2,0:0:0:0:
448,192,50536,1,0,0:0:0:0:
192,192,50708,1,0,0:0:0:0:
320,192,50879,1,0,0:0:0:0:
64,192,51051,1,8,0:0:0:0:
192,192,51051,1,0,0:0:0:0:
320,192,51222,1,2,0:0:0:0:
448,192,51222,1,0,0:0:0:0:
64,192,51393,1,0,0:0:0:0:
192,192,51479,1,0,0:0:0:0:
320,192,51565,1,8,0:0:0:0:
448,192,51565,1,0,0:0:0:0:
192,192,51736,1,0,0:0:0:0:
64,192,51908,1,2,0:0:0:0:
448,192,51908,1,0,0:0:0:0:
320,192,52079,1,0,0:0:0:0:
192,192,52251,1,0,0:0:0:0:
320,192,52422,1,8,0:0:0:0:
448,192,52422,1,0,0:0:0:0:
64,192,52593,1,2,0:0:0:0:
192,192,52593,1,0,0:0:0:0:
320,192,52765,1,0,0:0:0:0:
64,192,52936,1,8,0:0:0:0:
448,192,52936,1,0,0:0:0:0:
192,192,53108,1,0,0:0:0:0:
64,192,53279,1,2,0:0:0:0:
448,192,53279,1,0,0:0:0:0:
320,192,53451,1,0,0:0:0:0:
64,192,53622,1,0,0:0:0:0:
192,192,53708,1,0,0:0:0:0:
320,192,53793,1,8,0:0:0:0:
192,192,53879,1,0,0:0:0:0:
64,192,53965,1,2,0:0:0:0:
448,192,53965,1,0,0:0:0:0:
192,192,54136,1,0,0:0:0:0:
320,192,54222,1,0,0:0:0:0:
64,192,54308,1,8,0:0:0:0:
448,192,54308,1,0,0:0:0:0:
192,192,54479,1,0,0:0:0:0:
320,192,54651,1,2,0:0:0:0:
448,192,54651,1,0,0:0:0:0:
64,192,54822,1,0,0:0:0:0:
320,192,54993,1,0,0:0:0:0:
192,192,55165,1,8,0:0:0:0:
448,192,55165,1,0,0:0:0:0:
64,192,55336,1,2,0:0:0:0:
320,192,55336,1,0,0:0:0:0:
448,192,55508,1,0,0:0:0:0:
64,192,55679,1,8,0:0:0:0:
192,192,55679,1,0,0:0:0:0:
320,192,55851,1,0,0:0:0:0:
64,192,56022,1,2,0:0:0:0:
448,192,56022,1,0,0:0:0:0:
192,192,56193,1,0,0:0:0:0:
320,192,56279,1,0,0:0:0:0:
64,192,56365,1,0,0:0:0:0:
448,192,56365,1,0,0:0:0:0:
320,192,56536,1,8,0:0:0:0:
192,192,56622,1,0,0:0:0:0:
64,192,56708,1,2,0:0:0:0:
448,192,56708,1,0,0:0:0:0:
192,192,56879,1,0,0:0:0:0:
320,192,57051,1,8,0:0:0:0:
448,192,57051,1,0,0:0:0:0:
64,192,57222,1,0,0:0:0:0:
192,192,57393,1,2,0:0:0:0:
320,192,57393,1,0,0:0:0:0:
448,192,57565,1,0,0:0:0:0:
320,192,57651,1,0,0:0:0:0:
64,192,57736,1,0,0:0:0:0:
192,192,57736,1,0,0:0:0:0:
64,192,57908,1,8,0:0:0:0:
192,192,57993,1,0,0:0:0:0:
320,192,58079,1,2,0:0:0:0:
448,192,58079,1,0,0:0:0:0:
64,192,58251,1,0,0:0:0:0:
192,192,58422,1,8,0:0:0:0:
448,192,58422,1,0,0:0:0:0:
320,192,58593,1,0,0:0:0:0:
64,192,58765,1,2,0:0:0:0:
192,192,58765,1,0,0:0:0:0:
448,192,58936,1,0,0:0:0:0:
320,192,59022,1,0,0:0:0:0:
192,192,59108,1,0,0:0:0:0:
448,192,59108,1,0,0:0:0:0:
64,192,59279,1,8,0:0:0:0:
192,192,59365,1,0,0:0:0:0:
64,192,59451,1,2,0:0:0:0:
320,192,59451,1,0,0:0:0:0:
448,192,59622,1,0,0:0:0:0:
64,192,59793,1,8,0:0:0:0:
448,192,59793,1,4,0:0:0:0:
192,192,59879,1,0,0:0:0:0:
320,192,59965,1,8,0:0:0:0:
448,192,60051,1,0,0:0:0:0:
64,192,60136,1,10,0:0:0:0:
192,192,60222,1,0,0:0:0:0:
320,192,60308,1,8,0:0:0:0:
64,192,60393,1,0,0:0:0:0:
192,192,60479,1,8,0:0:0:0:
448,192,60479,1,0,0:0:0:0:
320,192,60565,1,8,0:0:0:0:
192,192,60651,1,8,0:0:0:0:
64,192,60736,1,8,0:0:0:0:
320,192,60822,1,2,0:0:0:0:
448,192,60822,1,8,0:0:0:0:
192,192,60908,1,8,0:0:0:0:
64,192,60993,1,8,0:0:0:0:
448,192,60993,1,0,0:0:0:0:
320,192,61079,1,8,0:0:0:0:
64,192,61165,1,8,0:0:0:0:
192,192,61165,1,4,0:0:0:0:
448,192,61336,1,0,0:0:0:0:
192,192,61508,1,2,0:0:0:0:
320,192,61508,1,0,0:0:0:0:
64,192,61679,1,0,0:0:0:0:
320,192,61851,1,0,0:0:0:0:
192,192,62022,1,8,0:0:0:0:
448,192,62022,1,0,0:0:0:0:
64,192,62193,1,2,0:0:0:0:
320,192,62193,1,0,0:0:0:0:
192,192,62365,1,0,0:0:0:0:
320,192,62451,1,0,0:0:0:0:
64,192,62536,1,8,0:0:0:0:
448,192,62536,1,0,0:0:0:0:
320,192,62708,1,0,0:0:0:0:
64,192,62879,1,2,0:0:0:0:
192,192,62879,1,0,0:0:0:0:
320,192,63051,1,0,0:0:0:0:
192,192,63222,1,0,0:0:0:0:
320,192,63393,1,8,0:0:0:0:
448,192,63393,1,0,0:0:0:0:
64,192,63565,1,2,0:0:0:0:
192,192,63565,1,0,0:0:0:0:
320,192,63736,1,0,0:0:0:0:
64,192,63908,1,8,0:0:0:0:
448,192,63908,1,0,0:0:0:0:
192,192,64079,1,0,0:0:0:0:
320,192,64251,1,2,0:0:0:0:
448,192,64251,1,0,0:0:0:0:
64,192,64422,1,0,0:0:0:0:
448,192,64593,1,0,0:0:0:0:
320,192,64679,1,0,0:0:0:0:
192,192,64765,1,8,0:0:0:0:
64,192,64851,1,0,0:0:0:0:
320,192,64936,1,2,0:0:0:0:
448,192,64936,1,0,0:0:0:0:
192,192,65108,1,0,0:0:0:0:
320,192,65193,1,0,0:0:0:0:
64,192,65279,1,8,0:0:0:0:
448,192,65279,1,0,0:0:0:0:
192,192,65451,1,0,0:0:0:0:
64,192,65622,1,2,0:0:0:0:
448,192,65622,1,0,0:0:0:0:
320,192,65793,1,0,0:0:0:0:
64,192,65965,1,0,0:0:0:0:
192,192,66136,1,8,0:0:0:0:
320,192,66136,1,0,0:0:0:0:
64,192,66308,1,2,0:0:0:0:
448,192,66308,1,0,0:0:0:0:
192,192,66479,1,0,0:0:0:0:
320,192,66651,1,8,0:0:0:0:
448,192,66651,1,0,0:0:0:0:
192,192,66822,1,0,0:0:0:0:
64,192,66993,1,2,0:0:0:0:
448,192,66993,1,0,0:0:0:0:
64,192,67165,1,0,0:0:0:0:
192,192,67251,1,0,0:0:0:0:
320,192,67336,1,0,0:0:0:0:
448,192,67336,1,0,0:0:0:0:
448,192,67508,1,8,0:0:0:0:
320,192,67593,1,0,0:0:0:0:
64,192,67679,1,2,0:0:0:0:
192,192,67679,1,0,0:0:0:0:
320,192,67851,1,0,0:0:0:0:
64,192,68022,1,8,0:0:0:0:
192,192,68022,1,0,0:0:0:0:
448,192,68193,1,0,0:0:0:0:
64,192,68365,1,2,0:0:0:0:
320,192,68365,1,0,0:0:0:0:
192,192,68536,1,0,0:0:0:0:
320,192,68622,1,0,0:0:0:0:
64,192,68708,1,0,0:0:0:0:
448,192,68708,1,0,0:0:0:0:
320,192,68879,1,8,0:0:0:0:
192,192,68965,1,0,0:0:0:0:
64,192,69051,1,2,0:0:0:0:
448,192,69051,1,0,0:0:0:0:
192,192,69222,1,0,0:0:0:0:
320,192,69393,1,8,0:0:0:0:
448,192,69393,1,0,0:0:0:0:
192,192,69565,1,0,0:0:0:0:
64,192,69736,1,2,0:0:0:0:
320,192,69736,1,0,0:0:0:0:
192,192,69908,1,0,0:0:0:0:
320,192,69993,1,0,0:0:0:0:
64,192,70079,1,0,0:0:0:0:
448,192,70079,1,0,0:0:0:0:
320,192,70251,1,8,0:0:0:0:
192,192,70336,1,0,0:0:0:0:
64,192,70422,1,2,0:0:0:0:
320,192,70422,1,0,0:0:0:0:
448,192,70422,128,0,70765:0:0:0:0:
192,192,70765,1,8,0:0:0:0:
320,192,70765,128,4,71108:0:0:0:0:
64,192,71108,1,2,0:0:0:0:
448,192,71108,1,8,0:0:0:0:
192,192,71193,1,0,0:0:0:0:
320,192,71279,1,8,0:0:0:0:
448,192,71365,1,0,0:0:0:0:
64,192,71451,1,8,0:0:0:0:
192,192,71536,1,8,0:0:0:0:
320,192,71622,1,8,0:0:0:0:
448,192,71708,1,8,0:0:0:0:
64,192,71793,1,2,0:0:0:0:
192,192,71793,1,8,0:0:0:0:
320,192,71879,1,8,0:0:0:0:
64,192,71965,1,8,0:0:0:0:
448,192,71965,1,0,0:0:0:0:
192,192,72051,1,8,0:0:0:0:
320,192,72136,1,8,0:0:0:0:
448,192,72136,128,4,72479:0:0:0:0:
64,192,72479,1,2,0:0:0:0:
320,192,72479,1,0,0:0:0:0:
192,192,72565,1,0,0:0:0:0:
320,192,72651,1,0,0:0:0:0:
192,192,72736,1,0,0:0:0:0:
64,192,72822,1,0,0:0:0:0:
192,192,72908,1,0,0:0:0:0:
320,192,72993,1,8,0:0:0:0:
448,192,73079,1,0,0:0:0:0:
64,192,73165,1,2,0:0:0:0:
320,192,73165,1,0,0:0:0:0:
192,192,73251,1,0,0:0:0:0:
320,192,73336,1,0,0:0:0:0:
448,192,73422,1,0,0:0:0:0:
64,192,73508,128,8,73851:0:0:0:0:
192,192,73508,1,0,0:0:0:0:
192,192,73851,1,2,0:0:0:0:
448,192,73851,1,0,0:0:0:0:
320,192,73936,1,0,0:0:0:0:
192,192,74022,1,0,0:0:0:0:
320,192,74108,1,0,0:0:0:0:
448,192,74193,1,0,0:0:0:0:
320,192,74279,1,0,0:0:0:0:
192,192,74365,1,8,0:0:0:0:
64,192,74451,1,0,0:0:0:0:
192,192,74536,1,2,0:0:0:0:
448,192,74536,1,0,0:0:0:0:
320,192,74622,1,0,0:0:0:0:
192,192,74708,1,0,0:0:0:0:
64,192,74793,1,0,0:0:0:0:
320,192,74879,1,8,0:0:0:0:
448,192,74879,128,0,75222:0:0:0:0:
64,192,75222,1,2,0:0:0:0:
320,192,75222,1,0,0:0:0:0:
192,192,75393,1,0,0:0:0:0:
320,192,75479,1,0,0:0:0:0:
64,192,75565,1,0,0:0:0:0:
448,192,75565,1,0,0:0:0:0:
320,192,75736,1,8,0:0:0:0:
192,192,75822,1,0,0:0:0:0:
64,192,75908,1,2,0:0:0:0:
448,192,75908,1,0,0:0:0:0:
320,192,76079,1,0,0:0:0:0:
64,192,76251,1,8,0:0:0:0:
448,192,76251,1,0,0:0:0:0:
192,192,76336,1,0,0:0:0:0:
320,192,76422,1,0,0:0:0:0:
448,192,76508,1,0,0:0:0:0:
64,192,76593,1,2,0:0:0:0:
192,192,76593,1,0,0:0:0:0:
320,192,76679,1,0,0:0:0:0:
192,192,76765,1,0,0:0:0:0:
64,192,76851,1,0,0:0:0:0:
192,192,76936,1,0,0:0:0:0:
320,192,77022,1,0,0:0:0:0:
448,192,77108,1,8,0:0:0:0:
320,192,77193,1,0,0:0:0:0:
64,192,77279,1,2,0:0:0:0:
192,192,77279,1,0,0:0:0:0:
448,192,77365,1,0,0:0:0:0:
320,192,77451,1,0,0:0:0:0:
192,192,77536,1,0,0:0:0:0:
64,192,77622,1,8,0:0:0:0:
448,192,77622,1,0,0:0:0:0:
320,192,77793,1,0,0:0:0:0:
64,192,77965,1,2,0:0:0:0:
192,192,77965,1,0,0:0:0:0:
448,192,78051,1,0,0:0:0:0:
320,192,78136,1,0,0:0:0:0:
192,192,78222,1,0,0:0:0:0:
64,192,78308,1,0,0:0:0:0:
448,192,78393,1,0,0:0:0:0:
320,192,78479,1,8,0:0:0:0:
192,192,78565,1,0,0:0:0:0:
320,192,78651,1,2,0:0:0:0:
448,192,78651,1,0,0:0:0:0:
64,192,78736,1,0,0:0:0:0:
192,192,78822,1,0,0:0:0:0:
320,192,78908,1,0,0:0:0:0:
64,192,78993,1,8,0:0:0:0:
448,192,78993,1,0,0:0:0:0:
320,192,79165,1,0,0:0:0:0:
64,192,79336,1,2,0:0:0:0:
448,192,79336,1,0,0:0:0:0:
192,192,79422,1,0,0:0:0:0:
320,192,79508,1,0,0:0:0:0:
192,192,79593,1,0,0:0:0:0:
64,192,79679,1,0,0:0:0:0:
192,192,79765,1,0,0:0:0:0:
320,192,79851,1,8,0:0:0:0:
448,192,79936,1,0,0:0:0:0:
64,192,80022,1,2,0:0:0:0:
320,192,80022,1,0,0:0:0:0:
192,192,80108,1,0,0:0:0:0:
320,192,80193,1,0,0:0:0:0:
448,192,80279,1,0,0:0:0:0:
320,192,80365,1,8,0:0:0:0:
192,192,80451,1,0,0:0:0:0:
64,192,80536,1,0,0:0:0:0:
192,192,80622,1,0,0:0:0:0:
320,192,80708,1,2,0:0:0:0:
448,192,80708,1,0,0:0:0:0:
64,192,80793,1,0,0:0:0:0:
192,192,80879,1,0,0:0:0:0:
320,192,80965,1,0,0:0:0:0:
192,192,81051,1,0,0:0:0:0:
64,192,81136,1,0,0:0:0:0:
192,192,81222,1,8,0:0:0:0:
320,192,81308,1,0,0:0:0:0:
64,192,81393,1,2,0:0:0:0:
448,192,81393,1,0,0:0:0:0:
320,192,81479,1,0,0:0:0:0:
192,192,81565,1,0,0:0:0:0:
64,192,81651,1,0,0:0:0:0:
320,192,81736,1,8,0:0:0:0:
448,192,81736,1,4,0:0:0:0:
192,192,81851,1,0,0:0:0:0:
64,192,81965,1,0,0:0:0:0:
320,192,82079,1,10,0:0:0:0:
64,192,82193,1,0,0:0:0:0:
192,192,82308,1,0,0:0:0:0:
448,192,82422,1,8,0:0:0:0:
64,192,82508,1,8,0:0:0:0:
192,192,82593,1,8,0:0:0:0:
320,192,82679,1,8,0:0:0:0:
64,192,82765,1,2,0:0:0:0:
448,192,82765,1,8,0:0:0:0:
320,192,82851,1,8,0:0:0:0:
192,192,82936,1,8,0:0:0:0:
448,192,82936,1,0,0:0:0:0:
64,192,83022,1,8,0:0:0:0:
192,192,83108,128,8,83451:0:0:0:0:
320,192,83108,1,4,0:0:0:0:
320,192,83451,1,2,0:0:0:0:
448,192,83451,1,0,0:0:0:0:
64,192,83536,1,0,0:0:0:0:
192,192,83622,1,0,0:0:0:0:
320,192,83708,1,0,0:0:0:0:
448,192,83793,1,0,0:0:0:0:
320,192,83879,1,0,0:0:0:0:
192,192,83965,1,8,0:0:0:0:
64,192,84051,1,0,0:0:0:0:
192,192,84136,1,2,0:0:0:0:
448,192,84136,1,0,0:0:0:0:
320,192,84222,1,0,0:0:0:0:
192,192,84308,1,0,0:0:0:0:
64,192,84393,1,0,0:0:0:0:
192,192,84479,128,8,84822:0:0:0:0:
448,192,84479,1,0,0:0:0:0:
64,192,84822,1,2,0:0:0:0:
320,192,84822,1,0,0:0:0:0:
448,192,84908,1,0,0:0:0:0:
320,192,84993,1,0,0:0:0:0:
192,192,85079,1,0,0:0:0:0:
64,192,85165,1,0,0:0:0:0:
192,192,85251,1,0,0:0:0:0:
320,192,85336,1,8,0:0:0:0:
448,192,85422,1,0,0:0:0:0:
64,192,85508,1,2,0:0:0:0:
320,192,85508,1,0,0:0:0:0:
192,192,85593,1,0,0:0:0:0:
320,192,85679,1,0,0:0:0:0:
448,192,85765,1,0,0:0:0:0:
64,192,85851,1,8,0:0:0:0:
320,192,85851,128,0,86193:0:0:0:0:
192,192,86193,1,2,0:0:0:0:
448,192,86193,1,0,0:0:0:0:
64,192,86365,1,0,0:0:0:0:
192,192,86451,1,0,0:0:0:0:
320,192,86536,1,0,0:0:0:0:
448,192,86536,1,0,0:0:0:0:
192,192,86708,1,8,0:0:0:0:
320,192,86793,1,0,0:0:0:0:
64,192,86879,1,2,0:0:0:0:
448,192,86879,1,0,0:0:0:0:
320,192,87051,1,0,0:0:0:0:
64,192,87222,1,8,0:0:0:0:
448,192,87222,1,0,0:0:0:0:
192,192,87308,1,0,0:0:0:0:
320,192,87393,1,0,0:0:0:0:
448,192,87479,1,0,0:0:0:0:
64,192,87565,1,2,0:0:0:0:
192,192,87565,1,0,0:0:0:0:
320,192,87651,1,0,0:0:0:0:
448,192,87736,1,0,0:0:0:0:
320,192,87822,1,0,0:0:0:0:
192,192,87908,1,0,0:0:0:0:
64,192,87993,1,0,0:0:0:0:
192,192,88079,1,8,0:0:0:0:
320,192,88165,1,0,0:0:0:0:
64,192,88251,1,2,0:0:0:0:
448,192,88251,1,0,0:0:0:0:
192,192,88336,1,0,0:0:0:0:
320,192,88422,1,0,0:0:0:0:
448,192,88508,1,0,0:0:0:0:
64,192,88593,1,8,0:0:0:0:
192,192,88593,1,0,0:0:0:0:
320,192,88765,1,0,0:0:0:0:
64,192,88936,1,2,0:0:0:0:
448,192,88936,1,0,0:0:0:0:
192,192,89022,1,0,0:0:0:0:
320,192,89108,1,0,0:0:0:0:
192,192,89193,1,0,0:0:0:0:
64,192,89279,1,0,0:0:0:0:
192,192,89365,1,0,0:0:0:0:
320,192,89451,1,8,0:0:0:0:
448,192,89536,1,0,0:0:0:0:
64,192,89622,1,2,0:0:0:0:
320,192,89622,1,0,0:0:0:0:
192,192,89708,1,0,0:0:0:0:
320,192,89793,1,0,0:0:0:0:
448,192,89879,1,0,0:0:0:0:
64,192,89965,1,8,0:0:0:0:
192,192,89965,1,0,0:0:0:0:
320,192,90136,1,0,0:0:0:0:
64,192,90308,1,2,0:0:0:0:
448,192,90308,1,0,0:0:0:0:
320,192,90422,1,0,0:0:0:0:
192,192,90536,1,0,0:0:0:0:
320,192,90651,1,0,0:0:0:0:
192,192,90736,1,0,0:0:0:0:
64,192,90822,1,8,0:0:0:0:
192,192,90908,1,0,0:0:0:0:
320,192,90993,1,2,0:0:0:0:
448,192,90993,1,0,0:0:0:0:
64,192,91079,1,0,0:0:0:0:
192,192,91165,1,0,0:0:0:0:
320,192,91251,1,0,0:0:0:0:
64,192,91336,1,8,0:0:0:0:
448,192,91336,1,0,0:0:0:0:
192,192,91508,1,0,0:0:0:0:
320,192,91593,1,0,0:0:0:0:
64,192,91679,1,2,0:0:0:0:
448,192,91679,1,0,0:0:0:0:
320,192,91851,1,0,0:0:0:0:
192,192,91936,1,0,0:0:0:0:
64,192,92022,1,0,0:0:0:0:
448,192,92022,1,0,0:0:0:0:
64,192,92193,1,8,0:0:0:0:
192,192,92279,1,0,0:0:0:0:
320,192,92365,1,2,0:0:0:0:
448,192,92365,1,0,0:0:0:0:
192,192,92536,1,0,0:0:0:0:
64,192,92708,1,8,0:0:0:0:
320,192,92708,1,4,0:0:0:0:
448,192,92822,1,0,0:0:0:0:
320,192,92936,1,0,0:0:0:0:
64,192,93051,1,2,0:0:0:0:
192,192,93051,1,8,0:0:0:0:
320,192,93165,1,0,0:0:0:0:
192,192,93279,1,0,0:0:0:0:
320,192,93393,1,8,0:0:0:0:
448,192,93393,1,0,0:0:0:0:
192,192,93479,1,8,0:0:0:0:
64,192,93565,1,8,0:0:0:0:
320,192,93651,1,8,0:0:0:0:
192,192,93736,1,2,0:0:0:0:
448,192,93736,1,8,0:0:0:0:
320,192,93822,1,8,0:0:0:0:
64,192,93908,1,8,0:0:0:0:
448,192,93908,1,0,0:0:0:0:
192,192,93993,1,8,0:0:0:0:
64,192,94079,128,8,94765:0:0:0:0:
320,192,94079,1,4,0:0:0:0:
192,192,94765,1,0,0:0:0:0:
448,192,95022,1,0,0:0:0:0:
320,192,95279,1,0,0:0:0:0:
64,192,95451,1,0,0:0:0:0:
448,192,95708,1,0,0:0:0:0:
320,192,95965,1,0,0:0:0:0:
192,192,96136,1,0,0:0:0:0:
320,192,96393,1,0,0:0:0:0:
192,192,96651,1,0,0:0:0:0:
64,192,96822,1,0,0:0:0:0:
64,192,97079,1,0,0:0:0:0:
64,192,97336,1,0,0:0:0:0:
192,192,97508,1,0,0:0:0:0:
192,192,97765,1,0,0:0:0:0:
192,192,98022,1,0,0:0:0:0:
320,192,98193,1,0,0:0:0:0:
64,192,98451,1,0,0:0:0:0:
192,192,98708,1,0,0:0:0:0:
448,192,98879,1,0,0:0:0:0:
192,192,99136,1,0,0:0:0:0:
448,192,99393,1,0,0:0:0:0:
320,192,99565,128,0,100251:0:0:0:0:
448,192,100251,1,0,0:0:0:0:
192,192,100508,1,0,0:0:0:0:
320,192,100765,1,0,0:0:0:0:
448,192,100936,1,0,0:0:0:0:
64,192,101193,1,0,0:0:0:0:
192,192,101451,1,0,0:0:0:0:
320,192,101622,1,0,0:0:0:0:
448,192,101879,1,0,0:0:0:0:
320,192,102136,1,0,0:0:0:0:
64,192,102308,1,0,0:0:0:0:
192,192,102565,1,0,0:0:0:0:
320,192,102822,1,0,0:0:0:0:
448,192,102993,1,0,0:0:0:0:
64,192,103251,1,0,0:0:0:0:
320,192,103508,1,0,0:0:0:0:
448,192,103679,128,0,104365:0:0:0:0:
64,192,103851,1,0,0:0:0:0:
192,192,104022,1,0,0:0:0:0:
320,192,104193,1,0,0:0:0:0:
64,192,104365,128,0,105051:0:0:0:0:
448,192,104536,1,0,0:0:0:0:
320,192,104708,1,0,0:0:0:0:
192,192,104879,1,0,0:0:0:0:
192,192,105051,1,8,0:0:0:0:
448,192,105051,1,4,0:0:0:0:
320,192,105222,1,0,0:0:0:0:
64,192,105393,1,2,0:0:0:0:
192,192,105393,1,0,0:0:0:0:
320,192,105565,1,0,0:0:0:0:
448,192,105736,1,0,0:0:0:0:
192,192,105908,1,8,0:0:0:0:
320,192,105908,1,0,0:0:0:0:
64,192,106079,1,2,0:0:0:0:
448,192,106079,1,0,0:0:0:0:
192,192,106251,1,0,0:0:0:0:
64,192,106422,1,8,0:0:0:0:
320,192,106422,1,0,0:0:0:0:
448,192,106593,1,0,0:0:0:0:
64,192,106765,1,2,0:0:0:0:
192,192,106765,1,0,0:0:0:0:
320,192,106936,1,0,0:0:0:0:
448,192,107108,1,0,0:0:0:0:
192,192,107279,1,8,0:0:0:0:
320,192,107279,1,0,0:0:0:0:
64,192,107451,1,2,0:0:0:0:
448,192,107451,1,0,0:0:0:0:
320,192,107622,1,0,0:0:0:0:
192,192,107793,1,8,0:0:0:0:
448,192,107793,1,0,0:0:0:0:
64,192,107965,1,0,0:0:0:0:
320,192,108136,1,2,0:0:0:0:
448,192,108136,1,0,0:0:0:0:
64,192,108308,1,0,0:0:0:0:
192,192,108479,1,0,0:0:0:0:
320,192,108651,1,8,0:0:0:0:
448,192,108651,1,0,0:0:0:0:
64,192,108822,1,2,0:0:0:0:
192,192,108822,1,0,0:0:0:0:
320,192,108993,1,0,0:0:0:0:
64,192,109165,1,8,0:0:0:0:
448,192,109165,1,0,0:0:0:0:
320,192,109336,1,0,0:0:0:0:
64,192,109508,1,2,0:0:0:0:
448,192,109508,1,0,0:0:0:0:
192,192,109679,1,0,0:0:0:0:
320,192,109851,1,0,0:0:0:0:
192,192,110022,1,8,0:0:0:0:
448,192,110022,1,0,0:0:0:0:
64,192,110193,1,2,0:0:0:0:
320,192,110193,1,0,0:0:0:0:
192,192,110365,1,0,0:0:0:0:
320,192,110536,1,8,0:0:0:0:
448,192,110536,1,0,0:0:0:0:
64,192,110708,1,8,0:0:0:0:
64,192,110879,1,2,0:0:0:0:
448,192,110879,1,8,0:0:0:0:
320,192,111051,1,8,0:0:0:0:
64,192,111222,1,8,0:0:0:0:
320,192,111222,1,0,0:0:0:0:
448,192,111393,1,8,0:0:0:0:
192,192,111565,1,2,0:0:0:0:
448,192,111565,1,8,0:0:0:0:
64,192,111736,1,8,0:0:0:0:
64,192,111908,1,8,0:0:0:0:
448,192,111908,1,0,0:0:0:0:
192,192,112079,1,8,0:0:0:0:
192,192,112251,1,2,0:0:0:0:
448,192,112251,1,8,0:0:0:0:
320,192,112422,1,8,0:0:0:0:
64,192,112593,1,8,0:0:0:0:
320,192,112593,1,0,0:0:0:0:
448,192,112765,1,8,0:0:0:0:
192,192,112936,1,2,0:0:0:0:
448,192,112936,1,8,0:0:0:0:
64,192,113108,1,8,0:0:0:0:
64,192,113279,1,8,0:0:0:0:
448,192,113279,1,0,0:0:0:0:
192,192,113365,1,8,0:0:0:0:
320,192,113451,1,8,0:0:0:0:
448,192,113536,1,8,0:0:0:0:
64,192,113622,1,10,0:0:0:0:
448,192,113708,1,8,0:0:0:0:
320,192,113793,1,8,0:0:0:0:
192,192,113879,1,8,0:0:0:0:
64,192,113965,1,8,0:0:0:0:
192,192,114051,1,8,0:0:0:0:
320,192,114136,1,8,0:0:0:0:
448,192,114222,1,8,0:0:0:0:
64,192,114308,1,10,0:0:0:0:
448,192,114393,1,8,0:0:0:0:
320,192,114479,1,8,0:0:0:0:
192,192,114565,1,8,0:0:0:0:
64,192,114651,1,12,0:0:0:0:
192,192,114736,1,8,0:0:0:0:
320,192,114822,1,8,0:0:0:0:
448,192,114908,1,8,0:0:0:0:
64,192,114993,1,10,0:0:0:0:
192,192,115079,1,8,0:0:0:0:
320,192,115165,1,8,0:0:0:0:
448,192,115251,1,8,0:0:0:0:
64,192,115336,128,8,116022:0:0:0:0:
192,192,115336,1,0,0:0:0:0:
320,192,115422,1,8,0:0:0:0:
448,192,115508,1,8,0:0:0:0:
320,192,115593,1,8,0:0:0:0:
192,192,115679,1,10,0:0:0:0:
448,192,115765,1,8,0:0:0:0:
320,192,115851,1,8,0:0:0:0:
192,192,115936,1,8,0:0:0:0:
320,192,116022,1,8,0:0:0:0:
448,192,116022,1,0,0:0:0:0:
448,192,117736,128,0,118765:0:0:0:0:
64,192,118765,1,8,0:0:0:0:
192,192,118765,1,4,0:0:0:0:
320,192,118936,1,0,0:0:0:0:
192,192,119022,1,0,0:0:0:0:
64,192,119108,1,2,0:0:0:0:
448,192,119108,1,0,0:0:0:0:
192,192,119279,1,0,0:0:0:0:
320,192,119365,1,0,0:0:0:0:
64,192,119451,1,0,0:0:0:0:
448,192,119451,1,0,0:0:0:0:
320,192,119622,1,8,0:0:0:0:
192,192,119708,1,0,0:0:0:0:
64,192,119793,1,2,0:0:0:0:
448,192,119793,1,0,0:0:0:0:
320,192,119879,1,0,0:0:0:0:
192,192,119965,1,0,0:0:0:0:
320,192,120136,1,8,0:0:0:0:
448,192,120136,1,0,0:0:0:0:
448,192,120308,1,0,0:0:0:0:
320,192,120393,1,0,0:0:0:0:
64,192,120479,1,2,0:0:0:0:
192,192,120479,1,0,0:0:0:0:
64,192,120651,1,0,0:0:0:0:
192,192,120736,1,0,0:0:0:0:
320,192,120822,1,0,0:0:0:0:
448,192,120822,1,0,0:0:0:0:
448,192,120993,1,8,0:0:0:0:
320,192,121079,1,0,0:0:0:0:
64,192,121165,1,2,0:0:0:0:
192,192,121165,1,0,0:0:0:0:
448,192,121251,1,0,0:0:0:0:
320,192,121336,1,0,0:0:0:0:
64,192,121508,1,8,0:0:0:0:
192,192,121508,1,0,0:0:0:0:
192,192,121679,1,0,0:0:0:0:
320,192,121765,1,0,0:0:0:0:
64,192,121851,1,2,0:0:0:0:
448,192,121851,1,0,0:0:0:0:
320,192,122022,1,0,0:0:0:0:
192,192,122108,1,0,0:0:0:0:
64,192,122193,1,0,0:0:0:0:
448,192,122193,1,0,0:0:0:0:
192,192,122365,1,8,0:0:0:0:
320,192,122451,1,0,0:0:0:0:
64,192,122536,1,2,0:0:0:0:
448,192,122536,1,0,0:0:0:0:
320,192,122708,1,0,0:0:0:0:
64,192,122879,1,8,0:0:0:0:
448,192,122879,1,0,0:0:0:0:
192,192,122965,1,0,0:0:0:0:
320,192,123051,1,0,0:0:0:0:
448,192,123136,1,0,0:0:0:0:
64,192,123222,1,2,0:0:0:0:
192,192,123308,1,0,0:0:0:0:
320,192,123393,1,0,0:0:0:0:
448,192,123479,1,0,0:0:0:0:
320,192,123565,1,0,0:0:0:0:
192,192,123651,1,0,0:0:0:0:
64,192,123736,1,8,0:0:0:0:
448,192,123822,1,0,0:0:0:0:
192,192,123908,1,2,0:0:0:0:
320,192,123908,1,0,0:0:0:0:
64,192,124251,1,8,0:0:0:0:
192,192,124251,1,0,0:0:0:0:
448,192,124422,1,0,0:0:0:0:
320,192,124508,1,0,0:0:0:0:
64,192,124593,1,2,0:0:0:0:
192,192,124593,1,0,0:0:0:0:
64,192,124765,1,0,0:0:0:0:
192,192,124851,1,0,0:0:0:0:
320,192,124936,1,0,0:0:0:0:
448,192,124936,1,0,0:0:0:0:
448,192,125108,1,8,0:0:0:0:
320,192,125193,1,0,0:0:0:0:
64,192,125279,1,2,0:0:0:0:
192,192,125279,1,0,0:0:0:0:
320,192,125451,1,0,0:0:0:0:
320,192,125622,1,8,0:0:0:0:
448,192,125622,1,0,0:0:0:0:
192,192,125793,1,0,0:0:0:0:
320,192,125879,1,0,0:0:0:0:
64,192,125965,1,2,0:0:0:0:
448,192,125965,1,0,0:0:0:0:
320,192,126136,1,0,0:0:0:0:
192,192,126222,1,0,0:0:0:0:
64,192,126308,1,0,0:0:0:0:
448,192,126308,1,0,0:0:0:0:
448,192,126479,1,8,0:0:0:0:
320,192,126565,1,0,0:0:0:0:
64,192,126651,1,2,0:0:0:0:
192,192,126651,1,0,0:0:0:0:
320,192,126736,1,0,0:0:0:0:
192,192,126822,1,0,0:0:0:0:
64,192,126908,1,0,0:0:0:0:
320,192,126993,1,8,0:0:0:0:
448,192,126993,1,0,0:0:0:0:
192,192,127165,1,0,0:0:0:0:
320,192,127251,1,0,0:0:0:0:
64,192,127336,1,2,0:0:0:0:
448,192,127336,1,0,0:0:0:0:
320,192,127508,1,0,0:0:0:0:
448,192,127593,1,0,0:0:0:0:
64,192,127679,1,0,0:0:0:0:
192,192,127679,1,0,0:0:0:0:
448,192,127851,1,8,0:0:0:0:
320,192,127936,1,0,0:0:0:0:
64,192,128022,1,2,0:0:0:0:
192,192,128022,1,0,0:0:0:0:
320,192,128193,1,0,0:0:0:0:
192,192,128279,1,0,0:0:0:0:
64,192,128365,1,8,0:0:0:0:
448,192,128365,1,4,0:0:0:0:
192,192,128536,1,8,0:0:0:0:
320,192,128708,1,2,0:0:0:0:
448,192,128708,1,8,0:0:0:0:
192,192,128879,1,8,0:0:0:0:
64,192,129051,1,8,0:0:0:0:
320,192,129051,1,0,0:0:0:0:
448,192,129136,1,8,0:0:0:0:
320,192,129222,1,8,0:0:0:0:
192,192,129308,1,8,0:0:0:0:
64,192,129393,1,2,0:0:0:0:
448,192,129393,1,8,0:0:0:0:
320,192,129479,1,8,0:0:0:0:
192,192,129565,1,8,0:0:0:0:
448,192,129565,1,0,0:0:0:0:
64,192,129651,1,8,0:0:0:0:
192,192,129736,1,8,0:0:0:0:
320,192,129736,1,4,0:0:0:0:
320,192,129908,1,0,0:0:0:0:
192,192,129993,1,0,0:0:0:0:
64,192,130079,1,2,0:0:0:0:
448,192,130079,1,0,0:0:0:0:
192,192,130251,1,0,0:0:0:0:
320,192,130336,1,0,0:0:0:0:
64,192,130422,1,0,0:0:0:0:
448,192,130422,1,0,0:0:0:0:
192,192,130593,1,8,0:0:0:0:
320,192,130679,1,0,0:0:0:0:
64,192,130765,1,2,0:0:0:0:
448,192,130765,1,0,0:0:0:0:
192,192,130851,1,0,0:0:0:0:
320,192,130936,1,0,0:0:0:0:
64,192,131108,1,8,0:0:0:0:
448,192,131108,1,0,0:0:0:0:
192,192,131279,1,0,0:0:0:0:
320,192,131365,1,0,0:0:0:0:
64,192,131451,1,2,0:0:0:0:
448,192,131451,1,0,0:0:0:0:
448,192,131622,1,0,0:0:0:0:
320,192,131708,1,0,0:0:0:0:
64,192,131793,1,0,0:0:0:0:
192,192,131793,1,0,0:0:0:0:
320,192,131965,1,8,0:0:0:0:
192,192,132051,1,0,0:0:0:0:
64,192,132136,1,2,0:0:0:0:
448,192,132136,1,0,0:0:0:0:
320,192,132222,1,0,0:0:0:0:
192,192,132308,1,0,0:0:0:0:
64,192,132479,1,8,0:0:0:0:
448,192,132479,1,0,0:0:0:0:
64,192,132651,1,0,0:0:0:0:
192,192,132736,1,0,0:0:0:0:
320,192,132822,1,2,0:0:0:0:
448,192,132822,1,0,0:0:0:0:
192,192,132993,1,0,0:0:0:0:
320,192,133079,1,0,0:0:0:0:
64,192,133165,1,0,0:0:0:0:
448,192,133165,1,0,0:0:0:0:
320,192,133336,1,8,0:0:0:0:
192,192,133422,1,0,0:0:0:0:
64,192,133508,1,2,0:0:0:0:
448,192,133508,1,0,0:0:0:0:
192,192,133679,1,0,0:0:0:0:
320,192,133765,1,0,0:0:0:0:
448,192,133851,1,8,0:0:0:0:
320,192,133936,1,0,0:0:0:0:
192,192,134022,1,0,0:0:0:0:
320,192,134108,1,0,0:0:0:0:
448,192,134193,1,2,0:0:0:0:
320,192,134279,1,0,0:0:0:0:
192,192,134365,1,0,0:0:0:0:
64,192,134451,1,0,0:0:0:0:
192,192,134536,1,0,0:0:0:0:
320,192,134622,1,0,0:0:0:0:
192,192,134708,1,8,0:0:0:0:
64,192,134793,1,0,0:0:0:0:
320,192,134879,1,2,0:0:0:0:
448,192,134879,1,0,0:0:0:0:
192,192,135051,1,0,0:0:0:0:
320,192,135222,1,8,0:0:0:0:
448,192,135222,1,0,0:0:0:0:
64,192,135393,1,0,0:0:0:0:
192,192,135565,1,2,0:0:0:0:
448,192,135565,1,0,0:0:0:0:
320,192,135651,1,0,0:0:0:0:
192,192,135736,1,0,0:0:0:0:
64,192,135822,1,0,0:0:0:0:
320,192,135908,1,0,0:0:0:0:
448,192,135908,1,0,0:0:0:0:
192,192,136079,1,8,0:0:0:0:
64,192,136251,1,2,0:0:0:0:
320,192,136251,1,0,0:0:0:0:
192,192,136422,1,0,0:0:0:0:
64,192,136593,1,8,0:0:0:0:
448,192,136593,1,0,0:0:0:0:
320,192,136679,1,0,0:0:0:0:
192,192,136765,1,0,0:0:0:0:
64,192,136851,1,0,0:0:0:0:
320,192,136936,1,2,0:0:0:0:
448,192,136936,1,0,0:0:0:0:
64,192,137022,1,0,0:0:0:0:
192,192,137108,1,0,0:0:0:0:
320,192,137193,1,0,0:0:0:0:
64,192,137279,1,0,0:0:0:0:
448,192,137279,1,0,0:0:0:0:
192,192,137451,1,8,0:0:0:0:
320,192,137622,1,2,0:0:0:0:
448,192,137622,1,0,0:0:0:0:
192,192,137793,1,0,0:0:0:0:
64,192,137965,1,8,0:0:0:0:
320,192,137965,1,0,0:0:0:0:
192,192,138136,1,0,0:0:0:0:
64,192,138308,1,2,0:0:0:0:
448,192,138308,1,0,0:0:0:0:
192,192,138479,1,0,0:0:0:0:
320,192,138565,1,0,0:0:0:0:
64,192,138651,1,0,0:0:0:0:
448,192,138651,1,0,0:0:0:0:
192,192,138822,1,8,0:0:0:0:
64,192,138993,1,2,0:0:0:0:
448,192,138993,1,0,0:0:0:0:
320,192,139165,1,0,0:0:0:0:
64,192,139336,1,8,0:0:0:0:
448,192,139336,128,4,139422:0:0:0:0:
192,192,139508,1,8,0:0:0:0:
320,192,139593,1,0,0:0:0:0:
64,192,139679,1,2,0:0:0:0:
448,192,139679,1,8,0:0:0:0:
320,192,139851,1,8,0:0:0:0:
192,192,139936,1,0,0:0:0:0:
64,192,140022,1,8,0:0:0:0:
448,192,140022,1,0,0:0:0:0:
320,192,140108,1,8,0:0:0:0:
192,192,140193,1,8,0:0:0:0:
320,192,140279,1,8,0:0:0:0:
64,192,140365,1,2,0:0:0:0:
448,192,140365,1,8,0:0:0:0:
192,192,140451,1,8,0:0:0:0:
64,192,140536,1,8,0:0:0:0:
320,192,140536,1,0,0:0:0:0:
448,192,140622,1,8,0:0:0:0:
192,192,140708,1,8,0:0:0:0:
320,192,140708,1,4,0:0:0:0:
64,192,141051,1,2,0:0:0:0:
448,192,141051,1,0,0:0:0:0:
320,192,141136,1,0,0:0:0:0:
192,192,141222,1,0,0:0:0:0:
64,192,141308,1,0,0:0:0:0:
320,192,141393,1,0,0:0:0:0:
448,192,141393,1,0,0:0:0:0:
192,192,141565,1,8,0:0:0:0:
64,192,141736,1,2,0:0:0:0:
448,192,141736,1,0,0:0:0:0:
320,192,141908,1,0,0:0:0:0:
64,192,142079,1,8,0:0:0:0:
448,192,142079,1,0,0:0:0:0:
192,192,142165,1,0,0:0:0:0:
320,192,142251,1,0,0:0:0:0:
192,192,142336,1,0,0:0:0:0:
64,192,142422,1,2,0:0:0:0:
192,192,142508,1,0,0:0:0:0:
320,192,142593,1,0,0:0:0:0:
448,192,142679,1,0,0:0:0:0:
64,192,142765,1,0,0:0:0:0:
320,192,142765,1,0,0:0:0:0:
192,192,142936,1,8,0:0:0:0:
64,192,143108,1,2,0:0:0:0:
320,192,143108,1,0,0:0:0:0:
192,192,143279,1,0,0:0:0:0:
64,192,143451,1,8,0:0:0:0:
448,192,143451,1,0,0:0:0:0:
320,192,143622,1,0,0:0:0:0:
64,192,143793,1,2,0:0:0:0:
192,192,143793,1,0,0:0:0:0:
448,192,143965,1,0,0:0:0:0:
320,192,144051,1,0,0:0:0:0:
64,192,144136,1,0,0:0:0:0:
192,192,144136,1,0,0:0:0:0:
320,192,144308,1,8,0:0:0:0:
64,192,144479,1,2,0:0:0:0:
448,192,144479,1,0,0:0:0:0:
192,192,144651,1,0,0:0:0:0:
320,192,144822,1,8,0:0:0:0:
448,192,144822,1,0,0:0:0:0:
192,192,144993,1,8,0:0:0:0:
64,192,145165,1,2,0:0:0:0:
448,192,145165,1,8,0:0:0:0:
192,192,145251,1,0,0:0:0:0:
320,192,145336,1,8,0:0:0:0:
192,192,145422,1,0,0:0:0:0:
64,192,145508,1,8,0:0:0:0:
192,192,145593,1,8,0:0:0:0:
320,192,145679,1,8,0:0:0:0:
448,192,145765,1,8,0:0:0:0:
64,192,145851,1,2,0:0:0:0:
320,192,145851,1,8,0:0:0:0:
192,192,145936,1,8,0:0:0:0:
320,192,146022,1,8,0:0:0:0:
192,192,146108,1,8,0:0:0:0:
64,192,146193,128,8,148936:0:0:0:0:
448,192,146193,1,4,0:0:0:0:
