osu file format v14

[General]
AudioFilename: audio.mp3
AudioLeadIn: 0
PreviewTime: -1
Countdown: 1
SampleSet: Soft
StackLeniency: 0.7
Mode: 3
LetterboxInBreaks: 0
SpecialStyle: 0
WidescreenStoryboard: 0

[Editor]
DistanceSpacing: 1
BeatDivisor: 4
GridSize: 16
TimelineZoom: 2.1

[Metadata]
Title:Kis-meow
TitleUnicode:Кис-мяу
Artist:President i Amasonka
ArtistUnicode:Президент и Амазонка
Creator:Morbon
Version:dvijparij
Source:
Tags:хз че это пусть будет huevyi dump
BeatmapID:1573362
BeatmapSetID:746533

[Difficulty]
HPDrainRate:5
CircleSize:4
OverallDifficulty:8
ApproachRate:5
SliderMultiplier:1.4
SliderTickRate:1

[Events]
//Background and Video events
0,0,"telochki.jpg",0,0
//Break Periods
//Storyboard Layer 0 (Background)
//Storyboard Layer 1 (Fail)
//Storyboard Layer 2 (Pass)
//Storyboard Layer 3 (Foreground)
//Storyboard Sound Samples

[TimingPoints]
150,326.441784548422,4,2,0,15,1,0
150,-125,4,2,0,15,0,0
10596,-100,4,2,0,15,0,0
62826,-100,4,2,0,15,0,1
83719,-100,4,2,0,15,0,0

[HitObjects]
64,192,150,5,0,0:0:0:0:
448,192,476,1,0,0:0:0:0:
64,192,802,1,0,0:0:0:0:
448,192,1129,1,0,0:0:0:0:
192,192,1455,1,0,0:0:0:0:
320,192,1782,1,0,0:0:0:0:
192,192,2108,1,0,0:0:0:0:
320,192,2435,1,0,0:0:0:0:
192,192,2761,1,0,0:0:0:0:
64,192,3087,1,0,0:0:0:0:
448,192,3414,1,0,0:0:0:0:
320,192,3740,1,0,0:0:0:0:
192,192,4067,1,0,0:0:0:0:
448,192,4393,1,0,0:0:0:0:
192,192,4720,1,0,0:0:0:0:
320,192,5046,1,0,0:0:0:0:
64,192,5373,1,0,0:0:0:0:
320,192,5699,1,0,0:0:0:0:
64,192,6025,1,0,0:0:0:0:
320,192,6352,1,0,0:0:0:0:
192,192,6678,1,0,0:0:0:0:
448,192,7005,1,0,0:0:0:0:
192,192,7331,1,0,0:0:0:0:
320,192,7658,1,0,0:0:0:0:
64,192,7984,1,0,0:0:0:0:
192,192,8311,1,0,0:0:0:0:
448,192,8637,1,0,0:0:0:0:
192,192,8963,1,0,0:0:0:0:
448,192,9290,1,0,0:0:0:0:
192,192,9616,1,0,0:0:0:0:
320,192,9943,1,0,0:0:0:0:
64,192,10269,1,0,0:0:0:0:
448,192,10596,1,0,0:0:0:0:
64,192,10596,1,0,0:0:0:0:
320,192,10677,1,0,0:0:0:0:
448,192,10759,1,0,0:0:0:0:
192,192,10922,1,0,0:0:0:0:
64,192,10922,1,0,0:0:0:0:
448,192,11085,1,0,0:0:0:0:
320,192,11167,1,0,0:0:0:0:
448,192,11249,1,0,0:0:0:0:
192,192,11249,1,0,0:0:0:0:
320,192,11330,1,0,0:0:0:0:
448,192,11412,1,0,0:0:0:0:
192,192,11575,1,0,0:0:0:0:
64,192,11575,1,0,0:0:0:0:
320,192,11657,1,0,0:0:0:0:
448,192,11738,1,0,0:0:0:0:
320,192,11820,1,0,0:0:0:0:
192,192,11901,1,0,0:0:0:0:
64,192,11901,1,0,0:0:0:0:
448,192,11901,1,0,0:0:0:0:
320,192,11983,1,0,0:0:0:0:
192,192,12065,1,0,0:0:0:0:
448,192,12228,1,0,0:0:0:0:
320,192,12228,1,0,0:0:0:0:
64,192,12309,1,0,0:0:0:0:
192,192,12391,1,0,0:0:0:0:
320,192,12473,1,0,0:0:0:0:
64,192,12554,1,0,0:0:0:0:
448,192,12554,1,0,0:0:0:0:
320,192,12636,1,0,0:0:0:0:
192,192,12718,1,0,0:0:0:0:
448,192,12799,1,0,0:0:0:0:
192,192,12881,1,0,0:0:0:0:
64,192,12881,1,0,0:0:0:0:
320,192,12962,1,0,0:0:0:0:
192,192,13044,1,0,0:0:0:0:
64,192,13126,1,0,0:0:0:0:
320,192,13207,1,0,0:0:0:0:
448,192,13207,1,0,0:0:0:0:
192,192,13207,1,0,0:0:0:0:
64,192,13289,1,0,0:0:0:0:
320,192,13370,1,0,0:0:0:0:
192,192,13534,1,0,0:0:0:0:
448,192,13534,1,0,0:0:0:0:
320,192,13615,1,0,0:0:0:0:
192,192,13697,1,0,0:0:0:0:
64,192,13778,1,0,0:0:0:0:
192,192,13860,1,0,0:0:0:0:
320,192,13860,1,0,0:0:0:0:
448,192,13942,1,0,0:0:0:0:
320,192,14023,1,0,0:0:0:0:
192,192,14186,1,0,0:0:0:0:
64,192,14186,1,0,0:0:0:0:
320,192,14268,1,0,0:0:0:0:
448,192,14350,1,0,0:0:0:0:
320,192,14431,1,0,0:0:0:0:
192,192,14513,1,0,0:0:0:0:
64,192,14513,1,0,0:0:0:0:
320,192,14595,1,0,0:0:0:0:
448,192,14676,1,0,0:0:0:0:
192,192,14839,1,0,0:0:0:0:
320,192,14839,1,0,0:0:0:0:
64,192,14921,1,0,0:0:0:0:
192,192,15003,1,0,0:0:0:0:
320,192,15084,1,0,0:0:0:0:
192,192,15166,1,0,0:0:0:0:
448,192,15166,1,0,0:0:0:0:
320,192,15247,1,0,0:0:0:0:
448,192,15329,1,0,0:0:0:0:
320,192,15492,1,0,0:0:0:0:
64,192,15492,1,0,0:0:0:0:
192,192,15574,1,0,0:0:0:0:
320,192,15655,1,0,0:0:0:0:
192,192,15737,1,0,0:0:0:0:
320,192,15819,1,0,0:0:0:0:
448,192,15819,1,0,0:0:0:0:
64,192,15819,1,0,0:0:0:0:
192,192,15900,1,0,0:0:0:0:
64,192,15982,1,0,0:0:0:0:
320,192,16145,1,0,0:0:0:0:
448,192,16145,1,0,0:0:0:0:
192,192,16227,1,0,0:0:0:0:
320,192,16308,1,0,0:0:0:0:
64,192,16390,1,0,0:0:0:0:
192,192,16472,1,0,0:0:0:0:
320,192,16472,1,0,0:0:0:0:
448,192,16553,1,0,0:0:0:0:
64,192,16635,1,0,0:0:0:0:
448,192,16798,1,0,0:0:0:0:
320,192,16798,1,0,0:0:0:0:
192,192,16880,1,0,0:0:0:0:
320,192,16961,1,0,0:0:0:0:
448,192,17043,1,0,0:0:0:0:
192,192,17124,1,0,0:0:0:0:
64,192,17124,1,0,0:0:0:0:
320,192,17206,1,0,0:0:0:0:
192,192,17288,1,0,0:0:0:0:
192,192,17451,1,0,0:0:0:0:
64,192,17451,1,0,0:0:0:0:
320,192,17533,1,0,0:0:0:0:
192,192,17614,1,0,0:0:0:0:
64,192,17696,1,0,0:0:0:0:
320,192,17777,1,0,0:0:0:0:
448,192,17777,1,0,0:0:0:0:
192,192,17859,1,0,0:0:0:0:
320,192,17941,1,0,0:0:0:0:
320,192,18104,1,0,0:0:0:0:
448,192,18104,1,0,0:0:0:0:
192,192,18185,1,0,0:0:0:0:
448,192,18267,1,0,0:0:0:0:
320,192,18349,1,0,0:0:0:0:
192,192,18430,1,0,0:0:0:0:
64,192,18430,1,0,0:0:0:0:
448,192,18430,1,0,0:0:0:0:
320,192,18512,1,0,0:0:0:0:
448,192,18593,1,0,0:0:0:0:
192,192,18675,1,0,0:0:0:0:
64,192,18757,1,0,0:0:0:0:
320,192,18757,1,0,0:0:0:0:
448,192,18838,1,0,0:0:0:0:
192,192,18920,1,0,0:0:0:0:
320,192,19002,1,0,0:0:0:0:
64,192,19083,1,0,0:0:0:0:
192,192,19083,1,0,0:0:0:0:
320,192,19165,1,0,0:0:0:0:
448,192,19246,1,0,0:0:0:0:
64,192,19328,1,0,0:0:0:0:
448,192,19410,1,0,0:0:0:0:
192,192,19410,1,0,0:0:0:0:
320,192,19491,1,0,0:0:0:0:
448,192,19573,1,0,0:0:0:0:
320,192,19654,1,0,0:0:0:0:
64,192,19736,1,0,0:0:0:0:
192,192,19736,1,0,0:0:0:0:
448,192,19736,1,0,0:0:0:0:
320,192,19818,1,0,0:0:0:0:
192,192,19899,1,0,0:0:0:0:
64,192,19899,1,0,0:0:0:0:
320,192,19981,1,0,0:0:0:0:
192,192,20062,1,0,0:0:0:0:
64,192,20062,1,0,0:0:0:0:
320,192,20144,1,0,0:0:0:0:
448,192,20144,1,0,0:0:0:0:
192,192,20226,1,0,0:0:0:0:
320,192,20307,1,0,0:0:0:0:
448,192,20307,1,0,0:0:0:0:
192,192,20389,1,0,0:0:0:0:
320,192,20471,1,0,0:0:0:0:
448,192,20471,1,0,0:0:0:0:
192,192,20552,1,0,0:0:0:0:
320,192,20634,1,0,0:0:0:0:
448,192,20634,1,0,0:0:0:0:
64,192,20715,1,0,0:0:0:0:
192,192,20770,1,0,0:0:0:0:
320,192,20797,1,0,0:0:0:0:
448,192,20797,1,0,0:0:0:0:
64,192,20879,1,0,0:0:0:0:
192,192,20933,1,0,0:0:0:0:
448,192,20960,1,0,0:0:0:0:
320,192,20960,1,0,0:0:0:0:
192,192,21042,1,0,0:0:0:0:
64,192,21042,1,0,0:0:0:0:
320,192,21123,1,0,0:0:0:0:
192,192,21205,1,0,0:0:0:0:
448,192,21287,1,0,0:0:0:0:
320,192,21368,1,0,0:0:0:0:
64,192,21368,1,0,0:0:0:0:
192,192,21450,1,0,0:0:0:0:
320,192,21531,1,0,0:0:0:0:
64,192,21613,1,0,0:0:0:0:
192,192,21695,1,0,0:0:0:0:
320,192,21695,1,0,0:0:0:0:
448,192,21776,1,0,0:0:0:0:
64,192,21858,1,0,0:0:0:0:
320,192,21939,1,0,0:0:0:0:
192,192,22021,1,0,0:0:0:0:
448,192,22021,1,0,0:0:0:0:
320,192,22103,1,0,0:0:0:0:
64,192,22184,1,0,0:0:0:0:
320,192,22266,1,0,0:0:0:0:
192,192,22348,1,0,0:0:0:0:
64,192,22348,1,0,0:0:0:0:
448,192,22348,1,0,0:0:0:0:
320,192,22429,1,0,0:0:0:0:
192,192,22511,1,0,0:0:0:0:
64,192,22592,1,0,0:0:0:0:
320,192,22674,1,0,0:0:0:0:
448,192,22674,1,0,0:0:0:0:
64,192,22756,1,0,0:0:0:0:
192,192,22837,1,0,0:0:0:0:
320,192,22919,1,0,0:0:0:0:
192,192,23000,1,0,0:0:0:0:
64,192,23000,1,0,0:0:0:0:
320,192,23082,1,0,0:0:0:0:
192,192,23164,1,0,0:0:0:0:
448,192,23245,1,0,0:0:0:0:
320,192,23327,1,0,0:0:0:0:
64,192,23327,1,0,0:0:0:0:
448,192,23408,1,0,0:0:0:0:
192,192,23490,1,0,0:0:0:0:
320,192,23572,1,0,0:0:0:0:
192,192,23653,1,0,0:0:0:0:
64,192,23653,1,0,0:0:0:0:
448,192,23653,1,0,0:0:0:0:
320,192,23735,1,0,0:0:0:0:
64,192,23817,1,0,0:0:0:0:
448,192,23898,1,0,0:0:0:0:
192,192,23980,1,0,0:0:0:0:
320,192,23980,1,0,0:0:0:0:
64,192,24061,1,0,0:0:0:0:
320,192,24143,1,0,0:0:0:0:
192,192,24225,1,0,0:0:0:0:
320,192,24306,1,0,0:0:0:0:
448,192,24306,1,0,0:0:0:0:
192,192,24388,1,0,0:0:0:0:
64,192,24469,1,0,0:0:0:0:
192,192,24551,1,0,0:0:0:0:
320,192,24633,1,0,0:0:0:0:
64,192,24633,1,0,0:0:0:0:
448,192,24714,1,0,0:0:0:0:
320,192,24796,1,0,0:0:0:0:
192,192,24877,1,0,0:0:0:0:
320,192,24959,1,0,0:0:0:0:
448,192,24959,1,0,0:0:0:0:
64,192,24959,1,0,0:0:0:0:
192,192,25041,1,0,0:0:0:0:
320,192,25122,1,0,0:0:0:0:
192,192,25204,1,0,0:0:0:0:
64,192,25286,1,0,0:0:0:0:
448,192,25286,1,0,0:0:0:0:
320,192,25367,1,0,0:0:0:0:
192,192,25449,1,0,0:0:0:0:
64,192,25530,1,0,0:0:0:0:
320,192,25612,1,0,0:0:0:0:
448,192,25612,1,0,0:0:0:0:
192,192,25694,1,0,0:0:0:0:
64,192,25775,1,0,0:0:0:0:
320,192,25857,1,0,0:0:0:0:
192,192,25938,1,0,0:0:0:0:
448,192,25938,1,0,0:0:0:0:
320,192,26020,1,0,0:0:0:0:
64,192,26102,1,0,0:0:0:0:
192,192,26183,1,0,0:0:0:0:
320,192,26265,1,0,0:0:0:0:
64,192,26265,1,0,0:0:0:0:
448,192,26265,1,0,0:0:0:0:
192,192,26346,1,0,0:0:0:0:
448,192,26428,1,0,0:0:0:0:
64,192,26510,1,0,0:0:0:0:
320,192,26591,1,0,0:0:0:0:
448,192,26591,1,0,0:0:0:0:
192,192,26673,1,0,0:0:0:0:
64,192,26755,1,0,0:0:0:0:
192,192,26836,1,0,0:0:0:0:
320,192,26918,1,0,0:0:0:0:
448,192,26918,1,0,0:0:0:0:
192,192,26999,1,0,0:0:0:0:
448,192,27081,1,0,0:0:0:0:
320,192,27163,1,0,0:0:0:0:
64,192,27244,1,0,0:0:0:0:
448,192,27244,1,0,0:0:0:0:
192,192,27326,1,0,0:0:0:0:
320,192,27407,1,0,0:0:0:0:
64,192,27489,1,0,0:0:0:0:
192,192,27571,1,0,0:0:0:0:
320,192,27571,1,0,0:0:0:0:
448,192,27571,1,0,0:0:0:0:
64,192,27652,1,0,0:0:0:0:
192,192,27734,1,0,0:0:0:0:
320,192,27815,1,0,0:0:0:0:
192,192,27897,1,0,0:0:0:0:
64,192,27897,1,0,0:0:0:0:
320,192,27979,1,0,0:0:0:0:
448,192,28060,1,0,0:0:0:0:
64,192,28142,1,0,0:0:0:0:
320,192,28223,1,0,0:0:0:0:
192,192,28223,1,0,0:0:0:0:
448,192,28305,1,0,0:0:0:0:
64,192,28387,1,0,0:0:0:0:
320,192,28468,1,0,0:0:0:0:
192,192,28550,1,0,0:0:0:0:
448,192,28550,1,0,0:0:0:0:
320,192,28632,1,0,0:0:0:0:
192,192,28713,1,0,0:0:0:0:
64,192,28795,1,0,0:0:0:0:
192,192,28876,1,0,0:0:0:0:
320,192,28876,1,0,0:0:0:0:
448,192,28876,1,0,0:0:0:0:
64,192,28958,1,0,0:0:0:0:
192,192,29040,1,0,0:0:0:0:
320,192,29121,1,0,0:0:0:0:
448,192,29203,1,0,0:0:0:0:
64,192,29203,1,0,0:0:0:0:
320,192,29284,1,0,0:0:0:0:
192,192,29366,1,0,0:0:0:0:
64,192,29448,1,0,0:0:0:0:
320,192,29529,1,0,0:0:0:0:
448,192,29529,1,0,0:0:0:0:
192,192,29611,1,0,0:0:0:0:
64,192,29692,1,0,0:0:0:0:
320,192,29774,1,0,0:0:0:0:
192,192,29856,1,0,0:0:0:0:
448,192,29856,1,0,0:0:0:0:
320,192,29937,1,0,0:0:0:0:
192,192,30019,1,0,0:0:0:0:
64,192,30182,1,0,0:0:0:0:
192,192,30182,1,0,0:0:0:0:
320,192,30182,1,0,0:0:0:0:
448,192,30182,1,0,0:0:0:0:
64,192,30264,1,0,0:0:0:0:
64,192,30345,1,0,0:0:0:0:
192,192,30509,1,0,0:0:0:0:
320,192,30509,1,0,0:0:0:0:
448,192,30509,1,0,0:0:0:0:
64,192,30509,1,0,0:0:0:0:
192,192,30590,1,0,0:0:0:0:
192,192,30672,1,0,0:0:0:0:
320,192,30835,1,0,0:0:0:0:
448,192,30835,1,0,0:0:0:0:
192,192,30835,1,0,0:0:0:0:
64,192,30835,1,0,0:0:0:0:
320,192,30917,1,0,0:0:0:0:
320,192,30998,1,0,0:0:0:0:
448,192,31161,1,0,0:0:0:0:
320,192,31189,1,0,0:0:0:0:
192,192,31216,1,0,0:0:0:0:
64,192,31243,1,0,0:0:0:0:
448,192,31270,1,0,0:0:0:0:
320,192,31297,1,0,0:0:0:0:
192,192,31325,1,0,0:0:0:0:
64,192,31352,1,0,0:0:0:0:
448,192,31379,1,0,0:0:0:0:
320,192,31406,1,0,0:0:0:0:
192,192,31434,1,0,0:0:0:0:
64,192,31461,1,0,0:0:0:0:
448,192,31488,1,0,0:0:0:0:
320,192,31515,1,0,0:0:0:0:
192,192,31597,1,0,0:0:0:0:
64,192,31651,1,0,0:0:0:0:
320,192,31706,1,0,0:0:0:0:
448,192,31760,1,0,0:0:0:0:
320,192,31814,1,0,0:0:0:0:
64,192,31814,1,0,0:0:0:0:
192,192,31869,1,0,0:0:0:0:
448,192,31923,1,0,0:0:0:0:
320,192,31978,1,0,0:0:0:0:
192,192,32032,1,0,0:0:0:0:
448,192,32086,1,0,0:0:0:0:
64,192,32141,1,0,0:0:0:0:
320,192,32141,1,0,0:0:0:0:
192,192,32195,1,0,0:0:0:0:
64,192,32250,1,0,0:0:0:0:
448,192,32304,1,0,0:0:0:0:
192,192,32358,1,0,0:0:0:0:
64,192,32413,1,0,0:0:0:0:
320,192,32467,1,0,0:0:0:0:
448,192,32467,1,0,0:0:0:0:
192,192,32522,1,0,0:0:0:0:
64,192,32576,1,0,0:0:0:0:
320,192,32630,1,0,0:0:0:0:
192,192,32685,1,0,0:0:0:0:
448,192,32739,1,0,0:0:0:0:
320,192,32794,1,0,0:0:0:0:
64,192,32794,1,0,0:0:0:0:
192,192,32794,1,0,0:0:0:0:
448,192,32848,1,0,0:0:0:0:
320,192,32902,1,0,0:0:0:0:
64,192,32957,1,0,0:0:0:0:
448,192,33011,1,0,0:0:0:0:
320,192,33066,1,0,0:0:0:0:
192,192,33120,1,0,0:0:0:0:
64,192,33120,1,0,0:0:0:0:
448,192,33175,1,0,0:0:0:0:
320,192,33229,1,0,0:0:0:0:
192,192,33283,1,0,0:0:0:0:
448,192,33338,1,0,0:0:0:0:
64,192,33392,1,0,0:0:0:0:
192,192,33447,1,0,0:0:0:0:
320,192,33447,1,0,0:0:0:0:
64,192,33501,1,0,0:0:0:0:
448,192,33555,1,0,0:0:0:0:
192,192,33610,1,0,0:0:0:0:
320,192,33664,1,0,0:0:0:0:
448,192,33719,1,0,0:0:0:0:
192,192,33773,1,0,0:0:0:0:
64,192,33773,1,0,0:0:0:0:
320,192,33827,1,0,0:0:0:0:
448,192,33882,1,0,0:0:0:0:
192,192,33936,1,0,0:0:0:0:
320,192,33991,1,0,0:0:0:0:
64,192,34045,1,0,0:0:0:0:
192,192,34099,1,0,0:0:0:0:
320,192,34099,1,0,0:0:0:0:
448,192,34099,1,0,0:0:0:0:
64,192,34154,1,0,0:0:0:0:
192,192,34208,1,0,0:0:0:0:
320,192,34263,1,0,0:0:0:0:
64,192,34263,1,0,0:0:0:0:
448,192,34317,1,0,0:0:0:0:
320,192,34371,1,0,0:0:0:0:
64,192,34426,1,0,0:0:0:0:
192,192,34426,1,0,0:0:0:0:
448,192,34480,1,0,0:0:0:0:
192,192,34535,1,0,0:0:0:0:
320,192,34589,1,0,0:0:0:0:
448,192,34589,1,0,0:0:0:0:
64,192,34644,1,0,0:0:0:0:
320,192,34698,1,0,0:0:0:0:
192,192,34752,1,0,0:0:0:0:
448,192,34752,1,0,0:0:0:0:
64,192,34807,1,0,0:0:0:0:
320,192,34861,1,0,0:0:0:0:
192,192,34916,1,0,0:0:0:0:
448,192,34970,1,0,0:0:0:0:
320,192,35024,1,0,0:0:0:0:
64,192,35079,1,0,0:0:0:0:
192,192,35079,1,0,0:0:0:0:
320,192,35133,1,0,0:0:0:0:
448,192,35188,1,0,0:0:0:0:
192,192,35242,1,0,0:0:0:0:
64,192,35242,1,0,0:0:0:0:
320,192,35296,1,0,0:0:0:0:
64,192,35351,1,0,0:0:0:0:
192,192,35405,1,0,0:0:0:0:
320,192,35405,1,0,0:0:0:0:
448,192,35405,1,0,0:0:0:0:
64,192,35460,1,0,0:0:0:0:
448,192,35514,1,0,0:0:0:0:
192,192,35568,1,0,0:0:0:0:
320,192,35623,1,0,0:0:0:0:
64,192,35677,1,0,0:0:0:0:
192,192,35732,1,0,0:0:0:0:
448,192,35732,1,0,0:0:0:0:
320,192,35786,1,0,0:0:0:0:
192,192,35840,1,0,0:0:0:0:
64,192,35895,1,0,0:0:0:0:
320,192,35949,1,0,0:0:0:0:
192,192,36004,1,0,0:0:0:0:
448,192,36058,1,0,0:0:0:0:
64,192,36058,1,0,0:0:0:0:
192,192,36113,1,0,0:0:0:0:
320,192,36167,1,0,0:0:0:0:
448,192,36221,1,0,0:0:0:0:
192,192,36276,1,0,0:0:0:0:
320,192,36330,1,0,0:0:0:0:
64,192,36385,1,0,0:0:0:0:
448,192,36385,1,0,0:0:0:0:
320,192,36439,1,0,0:0:0:0:
192,192,36493,1,0,0:0:0:0:
320,192,36548,1,0,0:0:0:0:
448,192,36602,1,0,0:0:0:0:
192,192,36657,1,0,0:0:0:0:
64,192,36711,1,0,0:0:0:0:
320,192,36711,1,0,0:0:0:0:
448,192,36711,1,0,0:0:0:0:
192,192,36765,1,0,0:0:0:0:
64,192,36820,1,0,0:0:0:0:
320,192,36874,1,0,0:0:0:0:
192,192,36929,1,0,0:0:0:0:
448,192,36983,1,0,0:0:0:0:
320,192,37037,1,0,0:0:0:0:
64,192,37037,1,0,0:0:0:0:
192,192,37092,1,0,0:0:0:0:
320,192,37146,1,0,0:0:0:0:
448,192,37201,1,0,0:0:0:0:
64,192,37201,1,0,0:0:0:0:
192,192,37255,1,0,0:0:0:0:
320,192,37309,1,0,0:0:0:0:
192,192,37364,1,0,0:0:0:0:
64,192,37364,1,0,0:0:0:0:
448,192,37418,1,0,0:0:0:0:
192,192,37473,1,0,0:0:0:0:
64,192,37527,1,0,0:0:0:0:
320,192,37581,1,0,0:0:0:0:
192,192,37636,1,0,0:0:0:0:
448,192,37690,1,0,0:0:0:0:
320,192,37690,1,0,0:0:0:0:
64,192,37745,1,0,0:0:0:0:
320,192,37799,1,0,0:0:0:0:
192,192,37854,1,0,0:0:0:0:
64,192,37908,1,0,0:0:0:0:
320,192,37962,1,0,0:0:0:0:
192,192,38017,1,0,0:0:0:0:
64,192,38017,1,0,0:0:0:0:
448,192,38017,1,0,0:0:0:0:
320,192,38071,1,0,0:0:0:0:
448,192,38126,1,0,0:0:0:0:
192,192,38180,1,0,0:0:0:0:
320,192,38234,1,0,0:0:0:0:
448,192,38289,1,0,0:0:0:0:
64,192,38343,1,0,0:0:0:0:
192,192,38343,1,0,0:0:0:0:
320,192,38398,1,0,0:0:0:0:
448,192,38452,1,0,0:0:0:0:
320,192,38506,1,0,0:0:0:0:
192,192,38561,1,0,0:0:0:0:
64,192,38615,1,0,0:0:0:0:
320,192,38670,1,0,0:0:0:0:
192,192,38670,1,0,0:0:0:0:
448,192,38724,1,0,0:0:0:0:
64,192,38778,1,0,0:0:0:0:
192,192,38833,1,0,0:0:0:0:
320,192,38887,1,0,0:0:0:0:
448,192,38942,1,0,0:0:0:0:
64,192,38996,1,0,0:0:0:0:
192,192,39023,1,0,0:0:0:0:
320,192,39050,1,0,0:0:0:0:
448,192,39078,1,0,0:0:0:0:
64,192,39105,1,0,0:0:0:0:
192,192,39132,1,0,0:0:0:0:
320,192,39159,1,0,0:0:0:0:
448,192,39186,1,0,0:0:0:0:
64,192,39214,1,0,0:0:0:0:
192,192,39241,1,0,0:0:0:0:
320,192,39268,1,0,0:0:0:0:
448,192,39295,1,0,0:0:0:0:
64,192,39323,1,0,0:0:0:0:
192,192,39350,1,0,0:0:0:0:
448,192,39377,1,0,0:0:0:0:
320,192,39431,1,0,0:0:0:0:
192,192,39486,1,0,0:0:0:0:
320,192,39540,1,0,0:0:0:0:
448,192,39595,1,0,0:0:0:0:
64,192,39649,1,0,0:0:0:0:
192,192,39649,1,0,0:0:0:0:
320,192,39703,1,0,0:0:0:0:
64,192,39758,1,0,0:0:0:0:
448,192,39812,1,0,0:0:0:0:
192,192,39867,1,0,0:0:0:0:
320,192,39921,1,0,0:0:0:0:
192,192,39975,1,0,0:0:0:0:
64,192,39975,1,0,0:0:0:0:
320,192,40030,1,0,0:0:0:0:
448,192,40084,1,0,0:0:0:0:
64,192,40139,1,0,0:0:0:0:
192,192,40193,1,0,0:0:0:0:
320,192,40247,1,0,0:0:0:0:
448,192,40302,1,0,0:0:0:0:
64,192,40302,1,0,0:0:0:0:
192,192,40356,1,0,0:0:0:0:
320,192,40411,1,0,0:0:0:0:
192,192,40465,1,0,0:0:0:0:
64,192,40519,1,0,0:0:0:0:
448,192,40574,1,0,0:0:0:0:
320,192,40628,1,0,0:0:0:0:
192,192,40628,1,0,0:0:0:0:
64,192,40628,1,0,0:0:0:0:
192,192,40710,1,0,0:0:0:0:
192,192,40792,1,0,0:0:0:0:
64,192,40955,1,0,0:0:0:0:
320,192,40955,1,0,0:0:0:0:
448,192,40955,1,0,0:0:0:0:
320,192,41036,1,0,0:0:0:0:
320,192,41118,1,0,0:0:0:0:
64,192,41281,1,0,0:0:0:0:
192,192,41281,1,0,0:0:0:0:
320,192,41281,1,0,0:0:0:0:
64,192,41363,1,0,0:0:0:0:
64,192,41444,1,0,0:0:0:0:
320,192,41608,1,0,0:0:0:0:
448,192,41608,1,0,0:0:0:0:
64,192,41608,1,0,0:0:0:0:
320,192,41689,1,0,0:0:0:0:
448,192,41689,1,0,0:0:0:0:
320,192,41771,1,0,0:0:0:0:
448,192,41771,1,0,0:0:0:0:
320,192,41852,1,0,0:0:0:0:
448,192,41852,1,0,0:0:0:0:
320,192,41934,1,0,0:0:0:0:
448,192,41934,1,0,0:0:0:0:
64,192,41934,1,0,0:0:0:0:
192,192,42016,1,0,0:0:0:0:
320,192,42097,1,0,0:0:0:0:
192,192,42179,1,0,0:0:0:0:
64,192,42260,1,0,0:0:0:0:
448,192,42260,1,0,0:0:0:0:
320,192,42342,1,0,0:0:0:0:
192,192,42424,1,0,0:0:0:0:
64,192,42505,1,0,0:0:0:0:
192,192,42587,1,0,0:0:0:0:
448,192,42587,1,0,0:0:0:0:
320,192,42669,1,0,0:0:0:0:
448,192,42750,1,0,0:0:0:0:
192,192,42832,1,0,0:0:0:0:
320,192,42913,1,0,0:0:0:0:
64,192,42913,1,0,0:0:0:0:
192,192,42995,1,0,0:0:0:0:
320,192,43077,1,0,0:0:0:0:
448,192,43158,1,0,0:0:0:0:
192,192,43240,1,0,0:0:0:0:
64,192,43240,1,0,0:0:0:0:
320,192,43321,1,0,0:0:0:0:
192,192,43403,1,0,0:0:0:0:
320,192,43485,1,0,0:0:0:0:
192,192,43566,1,0,0:0:0:0:
64,192,43566,1,0,0:0:0:0:
320,192,43648,1,0,0:0:0:0:
448,192,43729,1,0,0:0:0:0:
192,192,43811,1,0,0:0:0:0:
320,192,43893,1,0,0:0:0:0:
448,192,43893,1,0,0:0:0:0:
192,192,43974,1,0,0:0:0:0:
320,192,44056,1,0,0:0:0:0:
192,192,44138,1,0,0:0:0:0:
320,192,44219,1,0,0:0:0:0:
448,192,44219,1,0,0:0:0:0:
192,192,44301,1,0,0:0:0:0:
64,192,44382,1,0,0:0:0:0:
192,192,44464,1,0,0:0:0:0:
320,192,44546,1,0,0:0:0:0:
448,192,44546,1,0,0:0:0:0:
64,192,44627,1,0,0:0:0:0:
320,192,44709,1,0,0:0:0:0:
192,192,44790,1,0,0:0:0:0:
448,192,44872,1,0,0:0:0:0:
64,192,44872,1,0,0:0:0:0:
320,192,44954,1,0,0:0:0:0:
192,192,45035,1,0,0:0:0:0:
448,192,45117,1,0,0:0:0:0:
320,192,45198,1,0,0:0:0:0:
192,192,45198,1,0,0:0:0:0:
64,192,45280,1,0,0:0:0:0:
192,192,45362,1,0,0:0:0:0:
320,192,45443,1,0,0:0:0:0:
448,192,45525,1,0,0:0:0:0:
64,192,45525,1,0,0:0:0:0:
320,192,45607,1,0,0:0:0:0:
192,192,45688,1,0,0:0:0:0:
64,192,45770,1,0,0:0:0:0:
448,192,45851,1,0,0:0:0:0:
192,192,45851,1,0,0:0:0:0:
320,192,45933,1,0,0:0:0:0:
448,192,46015,1,0,0:0:0:0:
320,192,46096,1,0,0:0:0:0:
448,192,46178,1,0,0:0:0:0:
64,192,46178,1,0,0:0:0:0:
320,192,46259,1,0,0:0:0:0:
192,192,46341,1,0,0:0:0:0:
320,192,46423,1,0,0:0:0:0:
192,192,46504,1,0,0:0:0:0:
64,192,46504,1,0,0:0:0:0:
320,192,46586,1,0,0:0:0:0:
192,192,46667,1,0,0:0:0:0:
320,192,46749,1,0,0:0:0:0:
192,192,46831,1,0,0:0:0:0:
448,192,46831,1,0,0:0:0:0:
320,192,46912,1,0,0:0:0:0:
192,192,46994,1,0,0:0:0:0:
64,192,47076,1,0,0:0:0:0:
192,192,47157,1,0,0:0:0:0:
448,192,47157,1,0,0:0:0:0:
320,192,47239,1,0,0:0:0:0:
448,192,47320,1,0,0:0:0:0:
64,192,47402,1,0,0:0:0:0:
192,192,47484,1,0,0:0:0:0:
320,192,47484,1,0,0:0:0:0:
448,192,47565,1,0,0:0:0:0:
192,192,47647,1,0,0:0:0:0:
448,192,47728,1,0,0:0:0:0:
64,192,47810,1,0,0:0:0:0:
192,192,47810,1,0,0:0:0:0:
320,192,47892,1,0,0:0:0:0:
448,192,47973,1,0,0:0:0:0:
320,192,48055,1,0,0:0:0:0:
192,192,48136,1,0,0:0:0:0:
64,192,48136,1,0,0:0:0:0:
320,192,48218,1,0,0:0:0:0:
192,192,48300,1,0,0:0:0:0:
64,192,48381,1,0,0:0:0:0:
320,192,48463,1,0,0:0:0:0:
448,192,48463,1,0,0:0:0:0:
192,192,48544,1,0,0:0:0:0:
320,192,48626,1,0,0:0:0:0:
448,192,48708,1,0,0:0:0:0:
64,192,48789,1,0,0:0:0:0:
192,192,48789,1,0,0:0:0:0:
320,192,48871,1,0,0:0:0:0:
192,192,48953,1,0,0:0:0:0:
64,192,49034,1,0,0:0:0:0:
192,192,49116,1,0,0:0:0:0:
448,192,49116,1,0,0:0:0:0:
320,192,49197,1,0,0:0:0:0:
448,192,49279,1,0,0:0:0:0:
320,192,49361,1,0,0:0:0:0:
192,192,49442,1,0,0:0:0:0:
64,192,49442,1,0,0:0:0:0:
320,192,49524,1,0,0:0:0:0:
448,192,49605,1,0,0:0:0:0:
320,192,49687,1,0,0:0:0:0:
192,192,49769,1,0,0:0:0:0:
64,192,49769,1,0,0:0:0:0:
320,192,49850,1,0,0:0:0:0:
448,192,49932,1,0,0:0:0:0:
64,192,50013,1,0,0:0:0:0:
192,192,50095,1,0,0:0:0:0:
448,192,50095,1,0,0:0:0:0:
320,192,50177,1,0,0:0:0:0:
448,192,50258,1,0,0:0:0:0:
64,192,50340,1,0,0:0:0:0:
192,192,50422,1,0,0:0:0:0:
448,192,50422,1,0,0:0:0:0:
320,192,50503,1,0,0:0:0:0:
448,192,50585,1,0,0:0:0:0:
320,192,50666,1,0,0:0:0:0:
192,192,50748,1,0,0:0:0:0:
448,192,50748,1,0,0:0:0:0:
64,192,50830,1,0,0:0:0:0:
192,192,50911,1,0,0:0:0:0:
320,192,50993,1,0,0:0:0:0:
448,192,51074,1,0,0:0:0:0:
64,192,51074,1,0,0:0:0:0:
320,192,51156,1,0,0:0:0:0:
192,192,51238,1,0,0:0:0:0:
448,192,51238,1,0,0:0:0:0:
320,192,51319,1,0,0:0:0:0:
192,192,51401,1,0,0:0:0:0:
64,192,51401,1,0,0:0:0:0:
320,192,51482,1,0,0:0:0:0:
192,192,51564,1,0,0:0:0:0:
448,192,51564,1,0,0:0:0:0:
320,192,51646,1,0,0:0:0:0:
192,192,51727,1,0,0:0:0:0:
64,192,51727,1,0,0:0:0:0:
320,192,51809,1,0,0:0:0:0:
448,192,51809,1,0,0:0:0:0:
192,192,51891,1,0,0:0:0:0:
64,192,51891,1,0,0:0:0:0:
320,192,51972,1,0,0:0:0:0:
448,192,51972,1,0,0:0:0:0:
64,192,52054,1,0,0:0:0:0:
192,192,52054,1,0,0:0:0:0:
320,192,52135,1,0,0:0:0:0:
448,192,52135,1,0,0:0:0:0:
192,192,52217,1,0,0:0:0:0:
64,192,52217,1,0,0:0:0:0:
320,192,52299,1,0,0:0:0:0:
448,192,52299,1,0,0:0:0:0:
192,192,52380,1,0,0:0:0:0:
64,192,52380,1,0,0:0:0:0:
320,192,52462,1,0,0:0:0:0:
448,192,52543,1,0,0:0:0:0:
192,192,52625,1,0,0:0:0:0:
320,192,52707,1,0,0:0:0:0:
448,192,52707,1,0,0:0:0:0:
64,192,52788,1,0,0:0:0:0:
192,192,52870,1,0,0:0:0:0:
448,192,52951,1,0,0:0:0:0:
320,192,53033,1,0,0:0:0:0:
64,192,53033,1,0,0:0:0:0:
192,192,53115,1,0,0:0:0:0:
64,192,53196,1,0,0:0:0:0:
448,192,53278,1,0,0:0:0:0:
320,192,53360,1,0,0:0:0:0:
192,192,53360,1,0,0:0:0:0:
64,192,53441,1,0,0:0:0:0:
192,192,53523,1,0,0:0:0:0:
320,192,53604,1,0,0:0:0:0:
192,192,53686,1,0,0:0:0:0:
64,192,53686,1,0,0:0:0:0:
320,192,53768,1,0,0:0:0:0:
448,192,53849,1,0,0:0:0:0:
192,192,53931,1,0,0:0:0:0:
320,192,54012,1,0,0:0:0:0:
448,192,54012,1,0,0:0:0:0:
64,192,54094,1,0,0:0:0:0:
192,192,54176,1,0,0:0:0:0:
320,192,54257,1,0,0:0:0:0:
64,192,54339,1,0,0:0:0:0:
448,192,54339,1,0,0:0:0:0:
192,192,54420,1,0,0:0:0:0:
64,192,54502,1,0,0:0:0:0:
192,192,54584,1,0,0:0:0:0:
64,192,54665,1,0,0:0:0:0:
320,192,54665,1,0,0:0:0:0:
448,192,54747,1,0,0:0:0:0:
320,192,54828,1,0,0:0:0:0:
192,192,54910,1,0,0:0:0:0:
64,192,54992,1,0,0:0:0:0:
448,192,54992,1,0,0:0:0:0:
192,192,55073,1,0,0:0:0:0:
320,192,55155,1,0,0:0:0:0:
448,192,55237,1,0,0:0:0:0:
320,192,55318,1,0,0:0:0:0:
64,192,55318,1,0,0:0:0:0:
448,192,55400,1,0,0:0:0:0:
320,192,55481,1,0,0:0:0:0:
192,192,55563,1,0,0:0:0:0:
64,192,55645,1,0,0:0:0:0:
448,192,55645,1,0,0:0:0:0:
192,192,55726,1,0,0:0:0:0:
320,192,55808,1,0,0:0:0:0:
448,192,55889,1,0,0:0:0:0:
320,192,55971,1,0,0:0:0:0:
192,192,55971,1,0,0:0:0:0:
64,192,56053,1,0,0:0:0:0:
320,192,56134,1,0,0:0:0:0:
192,192,56216,1,0,0:0:0:0:
448,192,56297,1,0,0:0:0:0:
320,192,56297,1,0,0:0:0:0:
192,192,56379,1,0,0:0:0:0:
320,192,56461,1,0,0:0:0:0:
192,192,56542,1,0,0:0:0:0:
320,192,56624,1,0,0:0:0:0:
448,192,56624,1,0,0:0:0:0:
192,192,56706,1,0,0:0:0:0:
320,192,56787,1,0,0:0:0:0:
192,192,56869,1,0,0:0:0:0:
320,192,56950,1,0,0:0:0:0:
64,192,56950,1,0,0:0:0:0:
192,192,57032,1,0,0:0:0:0:
64,192,57114,1,0,0:0:0:0:
192,192,57195,1,0,0:0:0:0:
64,192,57277,1,0,0:0:0:0:
320,192,57277,1,0,0:0:0:0:
192,192,57358,1,0,0:0:0:0:
320,192,57440,1,0,0:0:0:0:
448,192,57522,1,0,0:0:0:0:
320,192,57603,1,0,0:0:0:0:
192,192,57603,1,0,0:0:0:0:
64,192,57603,1,0,0:0:0:0:
448,192,57685,1,0,0:0:0:0:
64,192,57766,1,0,0:0:0:0:
192,192,57848,1,0,0:0:0:0:
320,192,57930,1,0,0:0:0:0:
448,192,57930,1,0,0:0:0:0:
192,192,58011,1,0,0:0:0:0:
64,192,58093,1,0,0:0:0:0:
320,192,58175,1,0,0:0:0:0:
192,192,58256,1,0,0:0:0:0:
64,192,58256,1,0,0:0:0:0:
320,192,58338,1,0,0:0:0:0:
192,192,58419,1,0,0:0:0:0:
320,192,58501,1,0,0:0:0:0:
448,192,58583,1,0,0:0:0:0:
64,192,58664,1,0,0:0:0:0:
192,192,58746,1,0,0:0:0:0:
320,192,58827,1,0,0:0:0:0:
448,192,58909,1,0,0:0:0:0:
192,192,58909,1,0,0:0:0:0:
320,192,58991,1,0,0:0:0:0:
192,192,59072,1,0,0:0:0:0:
448,192,59154,1,0,0:0:0:0:
320,192,59235,1,0,0:0:0:0:
64,192,59235,1,0,0:0:0:0:
192,192,59317,1,0,0:0:0:0:
64,192,59399,1,0,0:0:0:0:
192,192,59480,1,0,0:0:0:0:
64,192,59562,1,0,0:0:0:0:
448,192,59562,1,0,0:0:0:0:
192,192,59644,1,0,0:0:0:0:
64,192,59725,1,0,0:0:0:0:
192,192,59807,1,0,0:0:0:0:
320,192,59888,1,0,0:0:0:0:
448,192,59888,1,0,0:0:0:0:
192,192,59970,1,0,0:0:0:0:
64,192,60052,1,0,0:0:0:0:
448,192,60133,1,0,0:0:0:0:
64,192,60215,1,0,0:0:0:0:
320,192,60215,1,0,0:0:0:0:
192,192,60296,1,0,0:0:0:0:
448,192,60296,1,0,0:0:0:0:
64,192,60378,1,0,0:0:0:0:
320,192,60378,1,0,0:0:0:0:
192,192,60460,1,0,0:0:0:0:
448,192,60460,1,0,0:0:0:0:
64,192,60541,1,0,0:0:0:0:
320,192,60541,1,0,0:0:0:0:
192,192,60623,1,0,0:0:0:0:
448,192,60623,1,0,0:0:0:0:
64,192,60704,1,0,0:0:0:0:
320,192,60704,1,0,0:0:0:0:
448,192,60786,1,0,0:0:0:0:
192,192,60786,1,0,0:0:0:0:
320,192,60868,1,0,0:0:0:0:
192,192,60949,1,0,0:0:0:0:
64,192,60949,1,0,0:0:0:0:
320,192,61031,1,0,0:0:0:0:
448,192,61031,1,0,0:0:0:0:
192,192,61113,1,0,0:0:0:0:
64,192,61113,1,0,0:0:0:0:
320,192,61194,1,0,0:0:0:0:
448,192,61194,1,0,0:0:0:0:
192,192,61276,1,0,0:0:0:0:
64,192,61276,1,0,0:0:0:0:
320,192,61357,1,0,0:0:0:0:
448,192,61357,1,0,0:0:0:0:
64,192,61439,1,0,0:0:0:0:
448,192,61521,1,0,0:0:0:0:
192,192,61521,1,0,0:0:0:0:
320,192,61602,1,0,0:0:0:0:
64,192,61602,1,0,0:0:0:0:
192,192,61684,1,0,0:0:0:0:
448,192,61684,1,0,0:0:0:0:
320,192,61765,1,0,0:0:0:0:
64,192,61765,1,0,0:0:0:0:
192,192,61847,1,0,0:0:0:0:
448,192,61847,1,0,0:0:0:0:
320,192,61929,1,0,0:0:0:0:
64,192,61929,1,0,0:0:0:0:
192,192,62010,1,0,0:0:0:0:
448,192,62010,1,0,0:0:0:0:
320,192,62092,1,0,0:0:0:0:
64,192,62092,1,0,0:0:0:0:
192,192,62173,1,0,0:0:0:0:
448,192,62173,1,0,0:0:0:0:
320,192,62255,1,0,0:0:0:0:
64,192,62255,1,0,0:0:0:0:
192,192,62337,1,0,0:0:0:0:
448,192,62337,1,0,0:0:0:0:
320,192,62418,1,0,0:0:0:0:
64,192,62418,1,0,0:0:0:0:
448,192,62500,1,0,0:0:0:0:
320,192,62541,1,0,0:0:0:0:
192,192,62581,1,0,0:0:0:0:
64,192,62622,1,0,0:0:0:0:
448,192,62663,1,0,0:0:0:0:
320,192,62704,1,0,0:0:0:0:
192,192,62745,1,0,0:0:0:0:
64,192,62786,1,0,0:0:0:0:
448,192,62826,1,0,0:0:0:0:
320,192,62881,1,0,0:0:0:0:
192,192,62935,1,0,0:0:0:0:
320,192,62990,1,0,0:0:0:0:
192,192,63044,1,0,0:0:0:0:
64,192,63098,1,0,0:0:0:0:
448,192,63153,1,0,0:0:0:0:
320,192,63153,1,0,0:0:0:0:
192,192,63207,1,0,0:0:0:0:
64,192,63262,1,0,0:0:0:0:
320,192,63316,1,0,0:0:0:0:
448,192,63370,1,0,0:0:0:0:
64,192,63425,1,0,0:0:0:0:
192,192,63479,1,0,0:0:0:0:
320,192,63534,1,0,0:0:0:0:
448,192,63588,1,0,0:0:0:0:
192,192,63642,1,0,0:0:0:0:
320,192,63697,1,0,0:0:0:0:
448,192,63751,1,0,0:0:0:0:
192,192,63806,1,0,0:0:0:0:
64,192,63860,1,0,0:0:0:0:
320,192,63914,1,0,0:0:0:0:
192,192,63969,1,0,0:0:0:0:
64,192,64023,1,0,0:0:0:0:
448,192,64023,1,0,0:0:0:0:
320,192,64078,1,0,0:0:0:0:
192,192,64132,1,0,0:0:0:0:
64,192,64132,1,0,0:0:0:0:
320,192,64186,1,0,0:0:0:0:
448,192,64241,1,0,0:0:0:0:
192,192,64295,1,0,0:0:0:0:
320,192,64350,1,0,0:0:0:0:
448,192,64404,1,0,0:0:0:0:
192,192,64459,1,0,0:0:0:0:
64,192,64459,1,0,0:0:0:0:
320,192,64513,1,0,0:0:0:0:
448,192,64567,1,0,0:0:0:0:
192,192,64622,1,0,0:0:0:0:
320,192,64676,1,0,0:0:0:0:
448,192,64731,1,0,0:0:0:0:
64,192,64785,1,0,0:0:0:0:
192,192,64785,1,0,0:0:0:0:
320,192,64839,1,0,0:0:0:0:
448,192,64894,1,0,0:0:0:0:
320,192,64948,1,0,0:0:0:0:
192,192,65003,1,0,0:0:0:0:
64,192,65057,1,0,0:0:0:0:
192,192,65111,1,0,0:0:0:0:
320,192,65166,1,0,0:0:0:0:
448,192,65220,1,0,0:0:0:0:
320,192,65275,1,0,0:0:0:0:
192,192,65329,1,0,0:0:0:0:
64,192,65383,1,0,0:0:0:0:
320,192,65438,1,0,0:0:0:0:
448,192,65438,1,0,0:0:0:0:
192,192,65492,1,0,0:0:0:0:
64,192,65547,1,0,0:0:0:0:
320,192,65601,1,0,0:0:0:0:
192,192,65655,1,0,0:0:0:0:
448,192,65710,1,0,0:0:0:0:
320,192,65764,1,0,0:0:0:0:
64,192,65819,1,0,0:0:0:0:
192,192,65873,1,0,0:0:0:0:
320,192,65928,1,0,0:0:0:0:
448,192,65982,1,0,0:0:0:0:
320,192,66036,1,0,0:0:0:0:
192,192,66091,1,0,0:0:0:0:
64,192,66145,1,0,0:0:0:0:
320,192,66200,1,0,0:0:0:0:
192,192,66254,1,0,0:0:0:0:
448,192,66254,1,0,0:0:0:0:
64,192,66308,1,0,0:0:0:0:
320,192,66363,1,0,0:0:0:0:
192,192,66417,1,0,0:0:0:0:
448,192,66472,1,0,0:0:0:0:
320,192,66526,1,0,0:0:0:0:
192,192,66580,1,0,0:0:0:0:
64,192,66580,1,0,0:0:0:0:
320,192,66635,1,0,0:0:0:0:
448,192,66689,1,0,0:0:0:0:
192,192,66744,1,0,0:0:0:0:
64,192,66744,1,0,0:0:0:0:
448,192,66798,1,0,0:0:0:0:
320,192,66852,1,0,0:0:0:0:
192,192,66907,1,0,0:0:0:0:
64,192,66907,1,0,0:0:0:0:
320,192,66961,1,0,0:0:0:0:
448,192,67016,1,0,0:0:0:0:
192,192,67070,1,0,0:0:0:0:
64,192,67070,1,0,0:0:0:0:
320,192,67124,1,0,0:0:0:0:
448,192,67179,1,0,0:0:0:0:
192,192,67233,1,0,0:0:0:0:
64,192,67233,1,0,0:0:0:0:
448,192,67288,1,0,0:0:0:0:
320,192,67342,1,0,0:0:0:0:
192,192,67397,1,0,0:0:0:0:
64,192,67397,1,0,0:0:0:0:
320,192,67451,1,0,0:0:0:0:
448,192,67505,1,0,0:0:0:0:
192,192,67560,1,0,0:0:0:0:
64,192,67560,1,0,0:0:0:0:
448,192,67614,1,0,0:0:0:0:
320,192,67669,1,0,0:0:0:0:
192,192,67723,1,0,0:0:0:0:
448,192,67777,1,0,0:0:0:0:
320,192,67832,1,0,0:0:0:0:
64,192,67886,1,0,0:0:0:0:
192,192,67941,1,0,0:0:0:0:
320,192,67995,1,0,0:0:0:0:
192,192,68049,1,0,0:0:0:0:
64,192,68049,1,0,0:0:0:0:
320,192,68104,1,0,0:0:0:0:
448,192,68158,1,0,0:0:0:0:
192,192,68213,1,0,0:0:0:0:
320,192,68267,1,0,0:0:0:0:
448,192,68321,1,0,0:0:0:0:
192,192,68376,1,0,0:0:0:0:
64,192,68376,1,0,0:0:0:0:
320,192,68430,1,0,0:0:0:0:
64,192,68485,1,0,0:0:0:0:
192,192,68539,1,0,0:0:0:0:
320,192,68593,1,0,0:0:0:0:
448,192,68648,1,0,0:0:0:0:
320,192,68702,1,0,0:0:0:0:
192,192,68757,1,0,0:0:0:0:
64,192,68811,1,0,0:0:0:0:
448,192,68811,1,0,0:0:0:0:
320,192,68865,1,0,0:0:0:0:
448,192,68920,1,0,0:0:0:0:
192,192,68974,1,0,0:0:0:0:
64,192,69029,1,0,0:0:0:0:
320,192,69029,1,0,0:0:0:0:
192,192,69083,1,0,0:0:0:0:
320,192,69138,1,0,0:0:0:0:
448,192,69192,1,0,0:0:0:0:
64,192,69192,1,0,0:0:0:0:
192,192,69246,1,0,0:0:0:0:
64,192,69301,1,0,0:0:0:0:
448,192,69355,1,0,0:0:0:0:
320,192,69355,1,0,0:0:0:0:
192,192,69410,1,0,0:0:0:0:
64,192,69464,1,0,0:0:0:0:
448,192,69518,1,0,0:0:0:0:
320,192,69573,1,0,0:0:0:0:
192,192,69627,1,0,0:0:0:0:
320,192,69682,1,0,0:0:0:0:
64,192,69682,1,0,0:0:0:0:
448,192,69736,1,0,0:0:0:0:
64,192,69790,1,0,0:0:0:0:
192,192,69845,1,0,0:0:0:0:
448,192,69845,1,0,0:0:0:0:
320,192,69899,1,0,0:0:0:0:
192,192,69954,1,0,0:0:0:0:
64,192,70008,1,0,0:0:0:0:
320,192,70062,1,0,0:0:0:0:
192,192,70117,1,0,0:0:0:0:
64,192,70171,1,0,0:0:0:0:
448,192,70171,1,0,0:0:0:0:
320,192,70226,1,0,0:0:0:0:
192,192,70280,1,0,0:0:0:0:
320,192,70334,1,0,0:0:0:0:
448,192,70389,1,0,0:0:0:0:
320,192,70443,1,0,0:0:0:0:
192,192,70498,1,0,0:0:0:0:
64,192,70552,1,0,0:0:0:0:
192,192,70607,1,0,0:0:0:0:
320,192,70661,1,0,0:0:0:0:
448,192,70661,1,0,0:0:0:0:
64,192,70715,1,0,0:0:0:0:
192,192,70770,1,0,0:0:0:0:
320,192,70824,1,0,0:0:0:0:
448,192,70879,1,0,0:0:0:0:
192,192,70933,1,0,0:0:0:0:
320,192,70987,1,0,0:0:0:0:
448,192,71042,1,0,0:0:0:0:
64,192,71042,1,0,0:0:0:0:
192,192,71096,1,0,0:0:0:0:
448,192,71151,1,0,0:0:0:0:
320,192,71205,1,0,0:0:0:0:
192,192,71259,1,0,0:0:0:0:
448,192,71314,1,0,0:0:0:0:
64,192,71314,1,0,0:0:0:0:
320,192,71368,1,0,0:0:0:0:
192,192,71423,1,0,0:0:0:0:
448,192,71477,1,0,0:0:0:0:
64,192,71531,1,0,0:0:0:0:
192,192,71586,1,0,0:0:0:0:
320,192,71640,1,0,0:0:0:0:
64,192,71695,1,0,0:0:0:0:
448,192,71749,1,0,0:0:0:0:
320,192,71803,1,0,0:0:0:0:
192,192,71858,1,0,0:0:0:0:
448,192,71912,1,0,0:0:0:0:
320,192,71967,1,0,0:0:0:0:
64,192,71967,1,0,0:0:0:0:
192,192,72021,1,0,0:0:0:0:
448,192,72076,1,0,0:0:0:0:
320,192,72130,1,0,0:0:0:0:
64,192,72130,1,0,0:0:0:0:
448,192,72184,1,0,0:0:0:0:
192,192,72239,1,0,0:0:0:0:
320,192,72293,1,0,0:0:0:0:
64,192,72293,1,0,0:0:0:0:
192,192,72348,1,0,0:0:0:0:
448,192,72402,1,0,0:0:0:0:
320,192,72456,1,0,0:0:0:0:
64,192,72456,1,0,0:0:0:0:
448,192,72511,1,0,0:0:0:0:
192,192,72565,1,0,0:0:0:0:
320,192,72620,1,0,0:0:0:0:
64,192,72620,1,0,0:0:0:0:
192,192,72674,1,0,0:0:0:0:
448,192,72728,1,0,0:0:0:0:
320,192,72783,1,0,0:0:0:0:
64,192,72783,1,0,0:0:0:0:
448,192,72837,1,0,0:0:0:0:
192,192,72892,1,0,0:0:0:0:
448,192,72946,1,0,0:0:0:0:
320,192,72973,1,0,0:0:0:0:
192,192,73000,1,0,0:0:0:0:
64,192,73028,1,0,0:0:0:0:
448,192,73028,1,0,0:0:0:0:
320,192,73055,1,0,0:0:0:0:
192,192,73082,1,0,0:0:0:0:
64,192,73109,1,0,0:0:0:0:
448,192,73109,1,0,0:0:0:0:
320,192,73136,1,0,0:0:0:0:
192,192,73164,1,0,0:0:0:0:
64,192,73191,1,0,0:0:0:0:
448,192,73191,1,0,0:0:0:0:
320,192,73218,1,0,0:0:0:0:
192,192,73245,1,0,0:0:0:0:
64,192,73272,1,0,0:0:0:0:
448,192,73313,1,0,0:0:0:0:
320,192,73354,1,0,0:0:0:0:
192,192,73395,1,0,0:0:0:0:
64,192,73436,1,0,0:0:0:0:
320,192,73476,1,0,0:0:0:0:
192,192,73517,1,0,0:0:0:0:
64,192,73558,1,0,0:0:0:0:
448,192,73599,1,0,0:0:0:0:
320,192,73640,1,0,0:0:0:0:
192,192,73681,1,0,0:0:0:0:
320,192,73721,1,0,0:0:0:0:
448,192,73762,1,0,0:0:0:0:
64,192,73803,1,0,0:0:0:0:
192,192,73844,1,0,0:0:0:0:
320,192,73885,1,0,0:0:0:0:
448,192,73925,1,0,0:0:0:0:
192,192,73966,1,0,0:0:0:0:
320,192,74007,1,0,0:0:0:0:
448,192,74048,1,0,0:0:0:0:
192,192,74089,1,0,0:0:0:0:
64,192,74129,1,0,0:0:0:0:
320,192,74170,1,0,0:0:0:0:
192,192,74211,1,0,0:0:0:0:
448,192,74252,1,0,0:0:0:0:
320,192,74293,1,0,0:0:0:0:
64,192,74333,1,0,0:0:0:0:
192,192,74374,1,0,0:0:0:0:
320,192,74415,1,0,0:0:0:0:
448,192,74456,1,0,0:0:0:0:
64,192,74497,1,0,0:0:0:0:
192,192,74537,1,0,0:0:0:0:
320,192,74578,1,0,0:0:0:0:
448,192,74578,1,0,0:0:0:0:
64,192,74619,1,0,0:0:0:0:
192,192,74660,1,0,0:0:0:0:
320,192,74701,1,0,0:0:0:0:
448,192,74741,1,0,0:0:0:0:
64,192,74782,1,0,0:0:0:0:
192,192,74823,1,0,0:0:0:0:
320,192,74864,1,0,0:0:0:0:
448,192,74905,1,0,0:0:0:0:
64,192,74905,1,0,0:0:0:0:
320,192,74945,1,0,0:0:0:0:
192,192,74986,1,0,0:0:0:0:
64,192,75027,1,0,0:0:0:0:
448,192,75068,1,0,0:0:0:0:
320,192,75109,1,0,0:0:0:0:
192,192,75149,1,0,0:0:0:0:
64,192,75190,1,0,0:0:0:0:
448,192,75231,1,0,0:0:0:0:
192,192,75231,1,0,0:0:0:0:
320,192,75272,1,0,0:0:0:0:
448,192,75313,1,0,0:0:0:0:
192,192,75354,1,0,0:0:0:0:
320,192,75394,1,0,0:0:0:0:
64,192,75435,1,0,0:0:0:0:
192,192,75476,1,0,0:0:0:0:
320,192,75517,1,0,0:0:0:0:
448,192,75558,1,0,0:0:0:0:
192,192,75598,1,0,0:0:0:0:
64,192,75639,1,0,0:0:0:0:
320,192,75680,1,0,0:0:0:0:
192,192,75721,1,0,0:0:0:0:
448,192,75762,1,0,0:0:0:0:
320,192,75802,1,0,0:0:0:0:
64,192,75884,1,0,0:0:0:0:
448,192,75884,1,0,0:0:0:0:
192,192,75925,1,0,0:0:0:0:
320,192,75966,1,0,0:0:0:0:
448,192,76006,1,0,0:0:0:0:
192,192,76047,1,0,0:0:0:0:
320,192,76088,1,0,0:0:0:0:
448,192,76129,1,0,0:0:0:0:
192,192,76170,1,0,0:0:0:0:
320,192,76210,1,0,0:0:0:0:
64,192,76251,1,0,0:0:0:0:
192,192,76292,1,0,0:0:0:0:
448,192,76333,1,0,0:0:0:0:
320,192,76374,1,0,0:0:0:0:
192,192,76414,1,0,0:0:0:0:
64,192,76455,1,0,0:0:0:0:
448,192,76496,1,0,0:0:0:0:
320,192,76537,1,0,0:0:0:0:
192,192,76578,1,0,0:0:0:0:
320,192,76618,1,0,0:0:0:0:
448,192,76659,1,0,0:0:0:0:
64,192,76700,1,0,0:0:0:0:
192,192,76741,1,0,0:0:0:0:
320,192,76782,1,0,0:0:0:0:
448,192,76823,1,0,0:0:0:0:
192,192,76863,1,0,0:0:0:0:
64,192,76904,1,0,0:0:0:0:
320,192,76945,1,0,0:0:0:0:
192,192,76986,1,0,0:0:0:0:
64,192,77027,1,0,0:0:0:0:
448,192,77067,1,0,0:0:0:0:
320,192,77108,1,0,0:0:0:0:
192,192,77149,1,0,0:0:0:0:
64,192,77190,1,0,0:0:0:0:
448,192,77190,1,0,0:0:0:0:
320,192,77231,1,0,0:0:0:0:
192,192,77271,1,0,0:0:0:0:
448,192,77312,1,0,0:0:0:0:
320,192,77353,1,0,0:0:0:0:
192,192,77394,1,0,0:0:0:0:
64,192,77435,1,0,0:0:0:0:
192,192,77475,1,0,0:0:0:0:
320,192,77516,1,0,0:0:0:0:
448,192,77516,1,0,0:0:0:0:
64,192,77557,1,0,0:0:0:0:
192,192,77598,1,0,0:0:0:0:
320,192,77639,1,0,0:0:0:0:
448,192,77679,1,0,0:0:0:0:
192,192,77720,1,0,0:0:0:0:
320,192,77761,1,0,0:0:0:0:
64,192,77802,1,0,0:0:0:0:
192,192,77843,1,0,0:0:0:0:
448,192,77843,1,0,0:0:0:0:
320,192,77883,1,0,0:0:0:0:
64,192,77924,1,0,0:0:0:0:
192,192,77965,1,0,0:0:0:0:
320,192,78006,1,0,0:0:0:0:
448,192,78047,1,0,0:0:0:0:
320,192,78087,1,0,0:0:0:0:
192,192,78128,1,0,0:0:0:0:
64,192,78169,1,0,0:0:0:0:
448,192,78169,1,0,0:0:0:0:
320,192,78210,1,0,0:0:0:0:
192,192,78251,1,0,0:0:0:0:
64,192,78292,1,0,0:0:0:0:
448,192,78292,1,0,0:0:0:0:
320,192,78332,1,0,0:0:0:0:
192,192,78373,1,0,0:0:0:0:
448,192,78414,1,0,0:0:0:0:
320,192,78455,1,0,0:0:0:0:
192,192,78496,1,0,0:0:0:0:
64,192,78496,1,0,0:0:0:0:
448,192,78536,1,0,0:0:0:0:
320,192,78577,1,0,0:0:0:0:
64,192,78618,1,0,0:0:0:0:
192,192,78659,1,0,0:0:0:0:
320,192,78700,1,0,0:0:0:0:
448,192,78740,1,0,0:0:0:0:
192,192,78781,1,0,0:0:0:0:
320,192,78822,1,0,0:0:0:0:
64,192,78863,1,0,0:0:0:0:
192,192,78904,1,0,0:0:0:0:
320,192,78944,1,0,0:0:0:0:
448,192,78985,1,0,0:0:0:0:
192,192,79026,1,0,0:0:0:0:
320,192,79067,1,0,0:0:0:0:
64,192,79108,1,0,0:0:0:0:
192,192,79148,1,0,0:0:0:0:
448,192,79189,1,0,0:0:0:0:
320,192,79230,1,0,0:0:0:0:
192,192,79271,1,0,0:0:0:0:
64,192,79312,1,0,0:0:0:0:
320,192,79352,1,0,0:0:0:0:
192,192,79393,1,0,0:0:0:0:
448,192,79434,1,0,0:0:0:0:
320,192,79475,1,0,0:0:0:0:
64,192,79516,1,0,0:0:0:0:
192,192,79556,1,0,0:0:0:0:
320,192,79597,1,0,0:0:0:0:
448,192,79638,1,0,0:0:0:0:
192,192,79679,1,0,0:0:0:0:
320,192,79720,1,0,0:0:0:0:
448,192,79760,1,0,0:0:0:0:
192,192,79801,1,0,0:0:0:0:
64,192,79801,1,0,0:0:0:0:
320,192,79842,1,0,0:0:0:0:
448,192,79883,1,0,0:0:0:0:
192,192,79924,1,0,0:0:0:0:
320,192,79965,1,0,0:0:0:0:
448,192,80005,1,0,0:0:0:0:
64,192,80005,1,0,0:0:0:0:
192,192,80046,1,0,0:0:0:0:
320,192,80087,1,0,0:0:0:0:
448,192,80128,1,0,0:0:0:0:
192,192,80169,1,0,0:0:0:0:
64,192,80209,1,0,0:0:0:0:
320,192,80250,1,0,0:0:0:0:
192,192,80291,1,0,0:0:0:0:
448,192,80332,1,0,0:0:0:0:
320,192,80373,1,0,0:0:0:0:
64,192,80413,1,0,0:0:0:0:
192,192,80454,1,0,0:0:0:0:
320,192,80495,1,0,0:0:0:0:
64,192,80536,1,0,0:0:0:0:
192,192,80577,1,0,0:0:0:0:
320,192,80617,1,0,0:0:0:0:
448,192,80658,1,0,0:0:0:0:
320,192,80699,1,0,0:0:0:0:
192,192,80740,1,0,0:0:0:0:
64,192,80781,1,0,0:0:0:0:
448,192,80821,1,0,0:0:0:0:
320,192,80862,1,0,0:0:0:0:
192,192,80903,1,0,0:0:0:0:
448,192,80944,1,0,0:0:0:0:
320,192,80985,1,0,0:0:0:0:
64,192,81025,1,0,0:0:0:0:
192,192,81066,1,0,0:0:0:0:
448,192,81107,1,0,0:0:0:0:
320,192,81107,1,0,0:0:0:0:
64,192,81148,1,0,0:0:0:0:
192,192,81189,1,0,0:0:0:0:
320,192,81229,1,0,0:0:0:0:
448,192,81270,1,0,0:0:0:0:
192,192,81311,1,0,0:0:0:0:
320,192,81352,1,0,0:0:0:0:
448,192,81393,1,0,0:0:0:0:
64,192,81393,1,0,0:0:0:0:
192,192,81434,1,0,0:0:0:0:
320,192,81474,1,0,0:0:0:0:
448,192,81515,1,0,0:0:0:0:
192,192,81556,1,0,0:0:0:0:
320,192,81597,1,0,0:0:0:0:
64,192,81638,1,0,0:0:0:0:
192,192,81678,1,0,0:0:0:0:
320,192,81719,1,0,0:0:0:0:
448,192,81760,1,0,0:0:0:0:
320,192,81801,1,0,0:0:0:0:
192,192,81842,1,0,0:0:0:0:
448,192,81882,1,0,0:0:0:0:
320,192,81923,1,0,0:0:0:0:
64,192,81964,1,0,0:0:0:0:
192,192,82005,1,0,0:0:0:0:
320,192,82046,1,0,0:0:0:0:
64,192,82086,1,0,0:0:0:0:
192,192,82127,1,0,0:0:0:0:
448,192,82168,1,0,0:0:0:0:
320,192,82209,1,0,0:0:0:0:
64,192,82250,1,0,0:0:0:0:
192,192,82290,1,0,0:0:0:0:
320,192,82331,1,0,0:0:0:0:
448,192,82372,1,0,0:0:0:0:
64,192,82413,1,0,0:0:0:0:
192,192,82413,1,0,0:0:0:0:
320,192,82454,1,0,0:0:0:0:
448,192,82494,1,0,0:0:0:0:
192,192,82535,1,0,0:0:0:0:
320,192,82576,1,0,0:0:0:0:
448,192,82617,1,0,0:0:0:0:
64,192,82617,1,0,0:0:0:0:
192,192,82658,1,0,0:0:0:0:
320,192,82698,1,0,0:0:0:0:
192,192,82739,1,0,0:0:0:0:
64,192,82739,1,0,0:0:0:0:
320,192,82780,1,0,0:0:0:0:
448,192,82821,1,0,0:0:0:0:
192,192,82862,1,0,0:0:0:0:
320,192,82902,1,0,0:0:0:0:
448,192,82943,1,0,0:0:0:0:
64,192,82984,1,0,0:0:0:0:
192,192,83025,1,0,0:0:0:0:
320,192,83066,1,0,0:0:0:0:
448,192,83066,1,0,0:0:0:0:
64,192,83107,1,0,0:0:0:0:
192,192,83147,1,0,0:0:0:0:
320,192,83188,1,0,0:0:0:0:
448,192,83229,1,0,0:0:0:0:
192,192,83270,1,0,0:0:0:0:
320,192,83311,1,0,0:0:0:0:
64,192,83351,1,0,0:0:0:0:
192,192,83392,1,0,0:0:0:0:
320,192,83419,1,0,0:0:0:0:
448,192,83447,1,0,0:0:0:0:
64,192,83474,1,0,0:0:0:0:
192,192,83501,1,0,0:0:0:0:
320,192,83528,1,0,0:0:0:0:
448,192,83555,1,0,0:0:0:0:
64,192,83583,1,0,0:0:0:0:
192,192,83610,1,0,0:0:0:0:
320,192,83637,1,0,0:0:0:0:
448,192,83664,1,0,0:0:0:0:
64,192,83691,1,0,0:0:0:0:
192,192,83719,1,0,0:0:0:0:
320,192,83800,1,0,0:0:0:0:
448,192,83882,1,0,0:0:0:0:
320,192,83963,1,0,0:0:0:0:
192,192,84045,1,0,0:0:0:0:
64,192,84045,1,0,0:0:0:0:
448,192,84127,1,0,0:0:0:0:
320,192,84208,1,0,0:0:0:0:
192,192,84290,1,0,0:0:0:0:
320,192,84371,1,0,0:0:0:0:
448,192,84371,1,0,0:0:0:0:
192,192,84453,1,0,0:0:0:0:
64,192,84535,1,0,0:0:0:0:
320,192,84616,1,0,0:0:0:0:
192,192,84698,1,0,0:0:0:0:
64,192,84698,1,0,0:0:0:0:
320,192,84780,1,0,0:0:0:0:
448,192,84861,1,0,0:0:0:0:
320,192,84943,1,0,0:0:0:0:
192,192,85024,1,0,0:0:0:0:
64,192,85024,1,0,0:0:0:0:
448,192,85024,1,0,0:0:0:0:
320,192,85106,1,0,0:0:0:0:
448,192,85188,1,0,0:0:0:0:
192,192,85269,1,0,0:0:0:0:
320,192,85351,1,0,0:0:0:0:
448,192,85351,1,0,0:0:0:0:
64,192,85432,1,0,0:0:0:0:
192,192,85514,1,0,0:0:0:0:
448,192,85596,1,0,0:0:0:0:
320,192,85677,1,0,0:0:0:0:
192,192,85677,1,0,0:0:0:0:
64,192,85759,1,0,0:0:0:0:
192,192,85840,1,0,0:0:0:0:
64,192,85922,1,0,0:0:0:0:
192,192,86004,1,0,0:0:0:0:
448,192,86004,1,0,0:0:0:0:
320,192,86085,1,0,0:0:0:0:
192,192,86167,1,0,0:0:0:0:
64,192,86249,1,0,0:0:0:0:
192,192,86330,1,0,0:0:0:0:
320,192,86330,1,0,0:0:0:0:
448,192,86330,1,0,0:0:0:0:
64,192,86412,1,0,0:0:0:0:
320,192,86493,1,0,0:0:0:0:
64,192,86575,1,0,0:0:0:0:
320,192,86657,1,0,0:0:0:0:
448,192,86657,1,0,0:0:0:0:
192,192,86738,1,0,0:0:0:0:
64,192,86820,1,0,0:0:0:0:
192,192,86901,1,0,0:0:0:0:
320,192,86983,1,0,0:0:0:0:
448,192,86983,1,0,0:0:0:0:
192,192,87065,1,0,0:0:0:0:
64,192,87146,1,0,0:0:0:0:
320,192,87228,1,0,0:0:0:0:
192,192,87309,1,0,0:0:0:0:
64,192,87309,1,0,0:0:0:0:
320,192,87391,1,0,0:0:0:0:
448,192,87473,1,0,0:0:0:0:
192,192,87554,1,0,0:0:0:0:
320,192,87636,1,0,0:0:0:0:
448,192,87636,1,0,0:0:0:0:
64,192,87636,1,0,0:0:0:0:
192,192,87718,1,0,0:0:0:0:
320,192,87799,1,0,0:0:0:0:
448,192,87881,1,0,0:0:0:0:
192,192,87962,1,0,0:0:0:0:
64,192,87962,1,0,0:0:0:0:
320,192,88044,1,0,0:0:0:0:
448,192,88126,1,0,0:0:0:0:
320,192,88207,1,0,0:0:0:0:
448,192,88289,1,0,0:0:0:0:
192,192,88289,1,0,0:0:0:0:
320,192,88370,1,0,0:0:0:0:
192,192,88452,1,0,0:0:0:0:
448,192,88534,1,0,0:0:0:0:
320,192,88615,1,0,0:0:0:0:
64,192,88615,1,0,0:0:0:0:
192,192,88697,1,0,0:0:0:0:
320,192,88778,1,0,0:0:0:0:
448,192,88860,1,0,0:0:0:0:
320,192,88942,1,0,0:0:0:0:
64,192,88942,1,0,0:0:0:0:
192,192,88942,1,0,0:0:0:0:
448,192,89023,1,0,0:0:0:0:
320,192,89105,1,0,0:0:0:0:
192,192,89186,1,0,0:0:0:0:
320,192,89268,1,0,0:0:0:0:
448,192,89268,1,0,0:0:0:0:
192,192,89350,1,0,0:0:0:0:
64,192,89431,1,0,0:0:0:0:
320,192,89513,1,0,0:0:0:0:
192,192,89595,1,0,0:0:0:0:
448,192,89595,1,0,0:0:0:0:
320,192,89676,1,0,0:0:0:0:
64,192,89758,1,0,0:0:0:0:
192,192,89839,1,0,0:0:0:0:
320,192,89921,1,0,0:0:0:0:
448,192,89921,1,0,0:0:0:0:
64,192,90003,1,0,0:0:0:0:
192,192,90084,1,0,0:0:0:0:
448,192,90166,1,0,0:0:0:0:
320,192,90247,1,0,0:0:0:0:
192,192,90247,1,0,0:0:0:0:
64,192,90247,1,0,0:0:0:0:
448,192,90329,1,0,0:0:0:0:
320,192,90411,1,0,0:0:0:0:
448,192,90492,1,0,0:0:0:0:
320,192,90574,1,0,0:0:0:0:
64,192,90574,1,0,0:0:0:0:
192,192,90655,1,0,0:0:0:0:
448,192,90737,1,0,0:0:0:0:
192,192,90819,1,0,0:0:0:0:
320,192,90900,1,0,0:0:0:0:
448,192,90900,1,0,0:0:0:0:
192,192,90982,1,0,0:0:0:0:
64,192,91064,1,0,0:0:0:0:
448,192,91145,1,0,0:0:0:0:
192,192,91227,1,0,0:0:0:0:
320,192,91227,1,0,0:0:0:0:
64,192,91308,1,0,0:0:0:0:
320,192,91390,1,0,0:0:0:0:
192,192,91472,1,0,0:0:0:0:
448,192,91553,1,0,0:0:0:0:
64,192,91553,1,0,0:0:0:0:
320,192,91553,1,0,0:0:0:0:
192,192,91635,1,0,0:0:0:0:
320,192,91716,1,0,0:0:0:0:
192,192,91798,1,0,0:0:0:0:
320,192,91880,1,0,0:0:0:0:
448,192,91880,1,0,0:0:0:0:
64,192,91961,1,0,0:0:0:0:
320,192,92043,1,0,0:0:0:0:
448,192,92043,1,0,0:0:0:0:
192,192,92124,1,0,0:0:0:0:
320,192,92206,1,0,0:0:0:0:
448,192,92206,1,0,0:0:0:0:
320,192,92288,1,0,0:0:0:0:
448,192,92288,1,0,0:0:0:0:
320,192,92369,5,0,0:0:0:0:
448,192,92369,1,0,0:0:0:0:
192,192,92533,1,0,0:0:0:0:
64,192,92533,1,0,0:0:0:0:
192,192,92614,1,0,0:0:0:0:
64,192,92614,1,0,0:0:0:0:
192,192,92696,1,0,0:0:0:0:
64,192,92696,1,0,0:0:0:0:
64,192,92859,5,0,0:0:0:0:
192,192,92859,1,0,0:0:0:0:
448,192,92859,1,0,0:0:0:0:
448,192,92941,1,0,0:0:0:0:
64,192,92941,1,0,0:0:0:0:
192,192,92941,1,0,0:0:0:0:
64,192,93022,1,0,0:0:0:0:
192,192,93022,1,0,0:0:0:0:
448,192,93022,1,0,0:0:0:0:
64,192,93185,1,0,0:0:0:0:
448,192,93185,1,0,0:0:0:0:
320,192,93185,1,0,0:0:0:0:
448,192,93267,1,0,0:0:0:0:
320,192,93267,1,0,0:0:0:0:
64,192,93267,1,0,0:0:0:0:
64,192,93349,1,0,0:0:0:0:
320,192,93349,1,0,0:0:0:0:
448,192,93349,1,0,0:0:0:0:
64,192,93512,1,0,0:0:0:0:
192,192,93512,1,0,0:0:0:0:
448,192,93512,1,0,0:0:0:0:
448,192,93593,1,0,0:0:0:0:
192,192,93593,1,0,0:0:0:0:
64,192,93593,1,0,0:0:0:0:
64,192,93675,1,0,0:0:0:0:
192,192,93675,1,0,0:0:0:0:
448,192,93675,1,0,0:0:0:0:
64,192,93838,1,0,0:0:0:0:
192,192,93838,1,0,0:0:0:0:
320,192,93879,1,0,0:0:0:0:
448,192,93879,1,0,0:0:0:0:
192,192,93920,1,0,0:0:0:0:
64,192,93920,1,0,0:0:0:0:
320,192,93961,1,0,0:0:0:0:
448,192,93961,1,0,0:0:0:0:
192,192,94002,1,0,0:0:0:0:
64,192,94002,1,0,0:0:0:0:
320,192,94042,1,0,0:0:0:0:
448,192,94042,1,0,0:0:0:0:
192,192,94083,1,0,0:0:0:0:
64,192,94083,1,0,0:0:0:0:
320,192,94124,1,0,0:0:0:0:
448,192,94124,1,0,0:0:0:0:
192,192,94165,1,0,0:0:0:0:
64,192,94165,1,0,0:0:0:0:
