osu file format v14

[General]
AudioFilename: audio.mp3
AudioLeadIn: 0
PreviewTime: 129254
Countdown: 0
SampleSet: Drum
StackLeniency: 0.7
Mode: 0
LetterboxInBreaks: 0
WidescreenStoryboard: 0

[Editor]
Bookmarks: 83119,111735,114504
DistanceSpacing: 0.7
BeatDivisor: 4
GridSize: 16
TimelineZoom: 2.4

[Metadata]
Title:Tualetnyy Mrak
TitleUnicode:Туалетный Мрак
Artist:Precious Toilet
ArtistUnicode:Казённый Унитаз
Creator:hipster_spaps
Version:Unexpected?!
Source:
Tags:特別 おまけ special bonus казенный kazenniy kazennyy unitaz zm zvon mechey mechei
BeatmapID:1737997
BeatmapSetID:829565

[Difficulty]
HPDrainRate:1
CircleSize:4
OverallDifficulty:10
ApproachRate:10
SliderMultiplier:2.39999990463257
SliderTickRate:1

[Events]
//Background and Video events
0,0,"maxresdefault.jpg",0,0
//Break Periods
//Storyboard Layer 0 (Background)
//Storyboard Layer 1 (Fail)
//Storyboard Layer 2 (Pass)
//Storyboard Layer 3 (Foreground)
//Storyboard Layer 4 (Overlay)
//Storyboard Sound Samples

[TimingPoints]
24,230.769230769231,4,3,1,100,1,0
16639,-133.333333333333,4,3,1,100,0,0
19870,-200,4,3,1,100,0,0
20331,-133.333333333333,4,3,1,100,0,0
31408,-100,4,3,1,100,0,0
75716,-333.333333333333,4,3,1,100,0,0
76870,-250,4,3,1,100,0,0
81024,-133.333333333333,4,3,1,100,0,0
83100,-100,4,3,1,50,0,1
113562,-100,4,3,1,100,0,0
129254,-100,4,3,1,50,0,1
155100,-100,4,3,1,100,0,0
159716,-100,4,3,1,50,0,0
160870,-100,4,3,1,5,0,0

[Colours]
Combo1 : 0,0,128
Combo2 : 128,128,128
Combo3 : 0,64,128
Combo4 : 128,0,128

[HitObjects]
253,179,831,5,0,0:0:0:0:
253,179,889,1,0,0:0:0:0:
253,179,947,1,0,0:0:0:0:
353,228,1177,1,0,0:0:0:0:
155,247,1408,1,0,0:0:0:0:
371,182,1639,1,0,0:0:0:0:
70,37,1870,6,0,B|54:78|54:78|81:133|54:184,1,119.999995231629
222,238,2100,2,0,B|238:197|238:197|211:142|238:91,1,119.999995231629
70,259,2331,1,0,0:0:0:0:
137,112,2447,1,0,0:0:0:0:
155,275,2562,1,0,0:0:0:0:
48,173,2677,1,0,0:0:0:0:
291,40,2793,6,0,L|372:183,1,119.999995231629
400,341,3024,2,0,L|332:225,1,119.999995231629
456,257,3254,1,0,0:0:0:0:
379,115,3370,1,0,0:0:0:0:
417,326,3485,1,0,0:0:0:0:
451,79,3600,1,0,0:0:0:0:
77,262,3716,6,0,P|181:331|210:330,1,119.999995231629
264,309,3947,2,0,P|160:240|131:241,1,119.999995231629
150,103,4177,1,0,0:0:0:0:
281,173,4293,1,0,0:0:0:0:
424,63,4408,1,0,0:0:0:0:
260,71,4524,1,0,0:0:0:0:
314,341,4639,6,0,L|454:258,1,119.999995231629
434,82,4870,2,0,L|391:222,1,119.999995231629
292,119,5100,1,0,0:0:0:0:
257,300,5216,1,0,0:0:0:0:
355,87,5331,1,0,0:0:0:0:
161,71,5447,6,0,L|96:60,2,59.9999976158143
223,33,5620,1,0,0:0:0:0:
259,43,5677,1,0,0:0:0:0:
294,53,5735,1,0,0:0:0:0:
329,64,5793,1,0,0:0:0:0:
363,76,5850,1,0,0:0:0:0:
382,109,5908,1,0,0:0:0:0:
394,140,5966,1,0,0:0:0:0:
416,171,6023,1,0,0:0:0:0:
447,189,6081,1,0,0:0:0:0:
471,204,6139,1,0,0:0:0:0:
470,241,6196,1,0,0:0:0:0:
465,276,6254,1,0,0:0:0:0:
449,309,6312,5,0,0:0:0:0:
427,339,6369,1,0,0:0:0:0:
397,359,6427,1,0,0:0:0:0:
370,260,6485,2,0,P|338:247|291:272,1,59.9999976158143
291,344,6600,2,0,P|247:357|187:326,1,59.9999976158143
189,280,6716,1,0,0:0:0:0:
151,281,6773,5,0,0:0:0:0:
115,286,6831,1,0,0:0:0:0:
78,291,6889,1,0,0:0:0:0:
44,282,6946,1,0,0:0:0:0:
24,252,7004,1,0,0:0:0:0:
31,221,7062,1,0,0:0:0:0:
62,201,7119,1,0,0:0:0:0:
98,194,7177,5,0,0:0:0:0:
134,197,7235,1,0,0:0:0:0:
170,203,7293,1,0,0:0:0:0:
207,201,7350,1,0,0:0:0:0:
236,125,7408,2,0,L|320:167,1,59.9999976158143
338,253,7524,2,0,L|391:226,1,59.9999976158143
470,163,7639,5,0,0:0:0:0:
441,163,7696,1,0,0:0:0:0:
412,164,7754,1,0,0:0:0:0:
383,165,7812,1,0,0:0:0:0:
354,165,7869,1,0,0:0:0:0:
324,137,7927,5,0,0:0:0:0:
295,137,7985,1,0,0:0:0:0:
266,138,8042,1,0,0:0:0:0:
237,139,8100,1,0,0:0:0:0:
209,110,8158,5,0,0:0:0:0:
181,111,8215,1,0,0:0:0:0:
152,112,8273,1,0,0:0:0:0:
123,113,8331,1,0,0:0:0:0:
19,357,8447,1,0,0:0:0:0:
197,211,8562,1,0,0:0:0:0:
53,274,8677,1,0,0:0:0:0:
364,186,8793,1,0,0:0:0:0:
325,168,8850,1,0,0:0:0:0:
286,184,8908,1,0,0:0:0:0:
320,318,9024,5,0,0:0:0:0:
81,167,9139,2,0,P|132:70|177:49,1,119.999995231629
262,207,9370,1,0,0:0:0:0:
450,324,9485,2,0,P|479:215|465:187,1,119.999995231629
262,207,9716,1,0,0:0:0:0:
244,95,9831,2,0,P|328:114|362:134,1,119.999995231629
290,324,10062,2,0,P|188:296|162:252,1,119.999995231629
95,220,10293,1,0,0:0:0:0:
397,166,10408,1,0,0:0:0:0:
136,109,10524,1,0,0:0:0:0:
337,267,10639,1,0,0:0:0:0:
228,83,10754,1,0,0:0:0:0:
267,329,10870,1,0,0:0:0:0:
342,66,10985,1,0,0:0:0:0:
96,63,11100,6,0,B|97:149|97:149|138:206,1,119.999995231629
26,235,11331,2,0,B|25:321|25:321|-16:378,1,119.999995231629
304,241,11562,1,0,0:0:0:0:
365,366,11677,1,0,0:0:0:0:
428,181,11793,1,0,0:0:0:0:
489,305,11908,1,0,0:0:0:0:
294,52,12024,6,0,L|430:28,1,119.999995231629
482,182,12254,2,0,L|351:127,1,119.999995231629
47,171,12485,1,0,0:0:0:0:
252,81,12600,1,0,0:0:0:0:
165,225,12716,1,0,0:0:0:0:
92,58,12831,1,0,0:0:0:0:
299,84,12947,6,0,B|365:109|363:191|428:169,1,119.999995231629
83,263,13177,6,0,B|149:288|147:370|212:348,1,119.999995231629
327,358,13408,1,0,0:0:0:0:
472,287,13524,1,0,0:0:0:0:
326,176,13639,1,0,0:0:0:0:
410,293,13754,1,0,0:0:0:0:
342,94,13870,2,0,L|225:45,1,119.999995231629
479,141,14100,1,0,0:0:0:0:
54,148,14216,1,0,0:0:0:0:
342,94,14331,2,0,L|225:45,2,119.999995231629
479,141,14677,1,0,0:0:0:0:
67,266,14793,6,0,L|88:397,1,119.999995231629
220,207,15024,2,0,L|185:331,1,119.999995231629
317,257,15254,2,0,L|365:384,1,119.999995231629
470,221,15485,2,0,L|455:357,1,119.999995231629
156,247,15716,1,0,0:0:0:0:
375,4,15831,1,0,0:0:0:0:
102,153,15947,1,0,0:0:0:0:
429,98,16062,1,0,0:0:0:0:
156,59,16177,1,0,0:0:0:0:
375,192,16293,1,0,0:0:0:0:
21,138,16408,2,0,L|16:13,1,119.999995231629
341,333,16639,6,0,P|421:291|414:203,1,179.999999713898
264,209,17100,1,0,0:0:0:0:
345,54,17331,2,0,P|260:29|176:58,1,179.999999713898
28,356,17793,1,0,0:0:0:0:
161,336,17909,1,0,0:0:0:0:
90,225,18024,1,0,0:0:0:0:
340,67,18254,6,0,P|393:33|460:66,1,89.9999998569489
390,116,18485,2,0,P|470:83|495:0,1,179.999999713898
91,58,18947,1,0,0:0:0:0:
93,188,19177,1,0,0:0:0:0:
269,130,19408,1,0,0:0:0:0:
302,273,19639,1,0,0:0:0:0:
231,289,19754,1,0,0:0:0:0:
175,244,19870,2,0,L|340:128,1,179.999999713898
443,180,20331,6,0,B|393:277|340:186|295:283,1,179.999999713898
402,345,20793,1,0,0:0:0:0:
290,106,21024,1,0,0:0:0:0:
290,106,21254,1,0,0:0:0:0:
72,62,21485,1,0,0:0:0:0:
103,160,21600,1,0,0:0:0:0:
136,258,21716,1,0,0:0:0:0:
287,331,21947,6,0,L|415:331,1,89.9999998569489
425,300,22177,2,0,P|324:281|204:313,1,179.999999713898
66,353,22639,1,0,0:0:0:0:
0,234,22870,1,0,0:0:0:0:
92,135,23100,1,0,0:0:0:0:
215,192,23331,1,0,0:0:0:0:
512,7,23562,6,0,B|471:30|471:30|447:15|447:15|421:29|421:29|409:17|399:14|399:14|373:22|373:22|354:10|354:10|325:17|325:17|305:1|305:1|275:15,1,269.999999570847
278,20,23966,1,0,0:0:0:0:
278,21,24024,1,0,0:0:0:0:
90,111,24139,2,0,B|128:157|128:157|75:210|148:308,1,224.999999642372
445,291,24600,1,0,0:0:0:0:
389,326,24716,2,0,P|471:352|495:248,2,179.999999713898
157,260,25408,1,0,0:0:0:0:
410,52,25524,2,0,B|378:1|378:1|218:-1,1,179.999999713898
0,8,25870,2,0,B|32:59|32:59|192:61,1,179.999999713898
360,245,26331,6,0,L|352:132,2,89.9999998569489
260,330,26677,1,0,0:0:0:0:
158,155,26793,2,0,L|152:245,2,89.9999998569489
501,186,27197,1,0,0:0:0:0:
501,186,27254,1,0,0:0:0:0:
393,136,27370,1,0,0:0:0:0:
397,249,27485,1,0,0:0:0:0:
207,326,27716,2,0,P|83:272|79:244,1,179.999999713898
16,24,28062,6,0,L|28:111,1,44.9999999284745
232,142,28350,5,0,0:0:0:0:
232,142,28408,2,0,B|263:74|323:85|323:85|375:124|345:209,2,224.999999642372
219,169,29043,2,0,L|249:121,1,44.9999999284745
503,354,29216,6,0,L|472:253,1,89.9999998569489
448,186,29562,1,0,0:0:0:0:
447,10,29677,2,0,P|450:57|405:113,1,89.9999998569489
296,6,29908,2,0,L|380:38,1,89.9999998569489
323,119,30254,1,0,0:0:0:0:
66,368,30485,5,0,0:0:0:0:
1,229,30600,1,0,0:0:0:0:
140,164,30716,1,0,0:0:0:0:
204,303,30831,1,0,0:0:0:0:
496,182,30947,5,0,0:0:0:0:
287,340,31062,1,0,0:0:0:0:
512,231,31177,1,0,0:0:0:0:
262,241,31293,1,0,0:0:0:0:
16,55,31408,6,0,P|69:21|178:20,1,119.999995231629
182,133,31639,1,0,0:0:0:0:
264,74,31754,1,0,0:0:0:0:
99,91,31870,1,0,0:0:0:0:
404,31,31985,2,0,B|471:25|471:25|508:124,2,119.999995231629
279,126,32331,2,0,L|412:199,1,119.999995231629
477,362,32562,1,0,0:0:0:0:
345,292,32677,1,0,0:0:0:0:
459,219,32793,2,0,B|440:161|485:126|485:126|459:94|466:52|466:52|425:19|382:56,1,239.999990463257
33,360,33254,6,0,L|148:258,1,119.999995231629
201,211,33485,1,0,0:0:0:0:
247,349,33600,1,0,0:0:0:0:
89,152,33716,2,0,L|237:110,1,119.999995231629
311,33,33947,1,0,0:0:0:0:
252,207,34062,1,0,0:0:0:0:
0,101,34177,2,0,L|116:1,1,119.999995231629
419,29,34408,2,0,B|461:52|461:52|498:95|487:165,1,119.999995231629
512,307,34639,2,0,B|481:365|481:365|379:385,1,119.999995231629
244,307,34870,2,0,B|202:284|202:284|165:241|176:171,1,119.999995231629
359,109,35100,6,0,L|367:243,1,119.999995231629
157,340,35331,1,0,0:0:0:0:
0,196,35447,1,0,0:0:0:0:
78,371,35562,1,0,0:0:0:0:
92,158,35677,1,0,0:0:0:0:
0,340,35793,1,0,0:0:0:0:
184,195,35908,1,0,0:0:0:0:
378,366,36024,5,0,0:0:0:0:
371,148,36139,1,0,0:0:0:0:
259,341,36254,1,0,0:0:0:0:
252,200,36370,1,0,0:0:0:0:
464,282,36485,2,0,B|455:317|501:342|501:342|394:404|327:304,1,239.999990463257
438,117,36947,5,0,0:0:0:0:
385,124,37004,1,0,0:0:0:0:
341,132,37062,1,0,0:0:0:0:
289,133,37120,1,0,0:0:0:0:
250,137,37177,2,0,B|170:162|170:162|219:224|279:213|279:213|337:240,1,239.999990463257
68,51,37524,1,0,0:0:0:0:
192,252,37639,1,0,0:0:0:0:
65,161,37754,2,0,P|109:122|168:121,1,119.999995231629
380,181,37985,5,0,0:0:0:0:
512,225,38100,1,0,0:0:0:0:
380,44,38216,1,0,0:0:0:0:
512,2,38331,1,0,0:0:0:0:
406,267,38447,2,0,B|365:362|365:362|443:407|470:290,1,239.999990463257
257,384,38793,5,0,0:0:0:0:
120,195,38908,1,0,0:0:0:0:
341,267,39024,1,0,0:0:0:0:
120,339,39139,1,0,0:0:0:0:
257,151,39254,1,0,0:0:0:0:
234,283,39370,1,0,0:0:0:0:
366,104,39485,1,0,0:0:0:0:
180,60,39600,1,0,0:0:0:0:
407,359,39716,2,0,L|496:250,1,119.999995231629
34,282,39947,2,0,L|173:384,1,119.999995231629
259,235,40177,2,0,B|314:76|240:70|269:0,1,239.999990463257
3,292,40639,5,0,0:0:0:0:
255,295,40754,1,0,0:0:0:0:
179,162,40870,1,0,0:0:0:0:
255,31,40985,1,0,0:0:0:0:
3,29,41100,1,0,0:0:0:0:
79,160,41216,1,0,0:0:0:0:
233,107,41331,5,0,0:0:0:0:
325,30,41447,1,0,0:0:0:0:
250,218,41562,1,0,0:0:0:0:
123,75,41677,1,0,0:0:0:0:
505,174,41793,2,0,L|418:92,1,119.999995231629
363,326,42024,2,0,P|269:349|117:328,1,239.999990463257
331,235,42485,5,0,0:0:0:0:
510,287,42600,1,0,0:0:0:0:
446,171,42716,1,0,0:0:0:0:
395,351,42831,1,0,0:0:0:0:
409,204,42947,1,0,0:0:0:0:
316,45,43062,1,0,0:0:0:0:
510,89,43177,1,0,0:0:0:0:
387,0,43293,1,0,0:0:0:0:
307,154,43408,1,0,0:0:0:0:
493,169,43524,1,0,0:0:0:0:
27,74,43639,1,0,0:0:0:0:
244,80,43754,1,0,0:0:0:0:
91,191,43870,1,0,0:0:0:0:
120,0,43985,1,0,0:0:0:0:
80,118,44100,1,0,0:0:0:0:
267,0,44216,1,0,0:0:0:0:
0,204,44331,6,0,P|54:228|113:228,1,119.999995231629
493,125,44562,2,0,P|438:100|379:100,1,119.999995231629
254,327,44793,2,0,P|355:373|467:372,1,119.999995231629
288,48,45024,2,0,P|186:1|74:2,1,119.999995231629
512,335,45254,2,0,L|309:398,1,119.999995231629
0,56,45485,2,0,L|208:-14,1,119.999995231629
512,96,45716,2,0,P|505:175|432:97,1,239.999990463257
483,280,46062,1,0,0:0:0:0:
483,280,46177,6,0,L|310:291,1,119.999995231629
93,347,46408,2,0,P|70:260|101:199,1,119.999995231629
160,126,46639,1,0,0:0:0:0:
116,6,46754,1,0,0:0:0:0:
33,110,46870,1,0,0:0:0:0:
194,229,46985,1,0,0:0:0:0:
297,46,47100,5,0,0:0:0:0:
427,91,47216,1,0,0:0:0:0:
487,207,47331,1,0,0:0:0:0:
440,343,47447,1,0,0:0:0:0:
100,162,47562,6,0,L|270:135,1,119.999995231629
392,288,47793,2,0,L|264:304,1,119.999995231629
54,355,48024,5,0,0:0:0:0:
145,210,48139,1,0,0:0:0:0:
172,377,48254,1,0,0:0:0:0:
91,242,48370,1,0,0:0:0:0:
232,339,48485,1,0,0:0:0:0:
192,164,48600,1,0,0:0:0:0:
172,308,48716,1,0,0:0:0:0:
70,59,48831,1,0,0:0:0:0:
235,73,48947,1,0,0:0:0:0:
27,141,49062,1,0,0:0:0:0:
167,22,49177,1,0,0:0:0:0:
288,239,49293,1,0,0:0:0:0:
375,52,49408,6,0,P|377:230|385:240,1,119.999995231629
397,352,49639,2,0,P|434:289|424:213,1,119.999995231629
100,130,49870,5,0,0:0:0:0:
261,16,49985,1,0,0:0:0:0:
100,130,50100,1,0,0:0:0:0:
261,16,50216,1,0,0:0:0:0:
240,128,50331,5,0,0:0:0:0:
501,131,50446,1,0,0:0:0:0:
240,128,50561,1,0,0:0:0:0:
501,131,50677,1,0,0:0:0:0:
369,237,50793,5,0,0:0:0:0:
72,294,50908,1,0,0:0:0:0:
369,237,51023,1,0,0:0:0:0:
72,294,51139,1,0,0:0:0:0:
512,384,51254,6,0,L|446:283,3,119.999995231629
115,66,51716,6,0,L|70:214,1,119.999995231629
380,357,51947,2,0,L|423:222,1,119.999995231629
97,295,52177,2,0,L|229:377,1,119.999995231629
447,114,52408,2,0,L|328:38,1,119.999995231629
123,268,52639,5,0,0:0:0:0:
179,59,52754,1,0,0:0:0:0:
388,115,52870,1,0,0:0:0:0:
332,324,52985,1,0,0:0:0:0:
426,220,53100,5,0,0:0:0:0:
223,24,53216,1,0,0:0:0:0:
156,328,53331,1,0,0:0:0:0:
268,192,53447,1,0,0:0:0:0:
124,54,53562,6,0,P|36:158|-26:171,1,119.999995231629
388,54,53793,2,0,P|476:158|538:171,1,119.999995231629
283,331,54024,5,0,0:0:0:0:
505,230,54139,1,0,0:0:0:0:
346,188,54254,1,0,0:0:0:0:
460,294,54370,1,0,0:0:0:0:
119,284,54485,6,0,L|99:154,1,119.999995231629
197,345,54716,2,0,L|54:375,1,119.999995231629
30,34,54947,1,0,0:0:0:0:
101,166,55062,1,0,0:0:0:0:
91,0,55177,1,0,0:0:0:0:
233,111,55293,1,0,0:0:0:0:
232,230,55408,6,0,L|233:86,1,119.999995231629
166,277,55639,1,0,0:0:0:0:
233,111,55755,1,0,0:0:0:0:
344,252,55870,1,0,0:0:0:0:
145,228,55985,1,0,0:0:0:0:
286,117,56101,1,0,0:0:0:0:
311,295,56216,1,0,0:0:0:0:
414,98,56331,5,0,0:0:0:0:
444,336,56447,1,0,0:0:0:0:
156,295,56562,5,0,0:0:0:0:
371,190,56678,1,0,0:0:0:0:
98,209,56793,5,0,0:0:0:0:
313,314,56909,1,0,0:0:0:0:
73,49,57023,5,0,0:0:0:0:
43,287,57139,1,0,0:0:0:0:
483,132,57254,5,0,0:0:0:0:
233,51,57370,1,0,0:0:0:0:
388,264,57485,1,0,0:0:0:0:
388,1,57600,1,0,0:0:0:0:
233,213,57716,1,0,0:0:0:0:
398,356,57831,2,0,P|448:317|485:240,1,119.999995231629
135,193,58062,5,0,0:0:0:0:
134,23,58177,1,0,0:0:0:0:
50,108,58293,1,0,0:0:0:0:
219,108,58408,1,0,0:0:0:0:
430,53,58524,2,0,P|382:204|331:226,1,119.999995231629
167,276,58754,2,0,P|110:414|119:435,2,119.999995231629
226,18,59100,5,0,0:0:0:0:
98,181,59216,1,0,0:0:0:0:
263,38,59331,1,0,0:0:0:0:
61,147,59447,1,0,0:0:0:0:
319,96,59562,1,0,0:0:0:0:
54,86,59677,1,0,0:0:0:0:
381,349,59793,5,0,0:0:0:0:
410,147,59908,1,0,0:0:0:0:
258,241,60024,1,0,0:0:0:0:
123,146,60139,1,0,0:0:0:0:
145,308,60254,2,0,L|-31:412,1,119.999995231629
380,53,60485,5,0,0:0:0:0:
441,142,60600,1,0,0:0:0:0:
421,255,60716,1,0,0:0:0:0:
476,338,60831,1,0,0:0:0:0:
110,378,60947,6,0,L|65:237,1,119.999995231629
212,307,61177,2,0,L|293:182,1,119.999995231629
139,157,61408,2,0,L|71:14,1,119.999995231629
364,22,61639,2,0,L|274:101,1,119.999995231629
512,312,61870,5,0,0:0:0:0:
405,277,61985,1,0,0:0:0:0:
405,166,62100,1,0,0:0:0:0:
262,294,62216,1,0,0:0:0:0:
327,384,62331,1,0,0:0:0:0:
3,379,62562,5,0,0:0:0:0:
438,160,62793,5,0,0:0:0:0:
438,160,62908,1,0,0:0:0:0:
438,160,63024,1,0,0:0:0:0:
438,160,63139,1,0,0:0:0:0:
311,160,63254,5,0,0:0:0:0:
311,160,63369,1,0,0:0:0:0:
311,160,63485,1,0,0:0:0:0:
311,160,63600,1,0,0:0:0:0:
459,265,63716,5,0,0:0:0:0:
342,291,63831,1,0,0:0:0:0:
248,216,63947,1,0,0:0:0:0:
248,96,64062,1,0,0:0:0:0:
342,22,64177,1,0,0:0:0:0:
459,48,64293,1,0,0:0:0:0:
511,157,64408,1,0,0:0:0:0:
65,42,64524,6,0,L|13:255,1,119.999995231629
0,285,64754,1,0,0:0:0:0:
143,164,64870,1,0,0:0:0:0:
188,309,64985,1,0,0:0:0:0:
281,56,65100,2,0,L|267:202,1,119.999995231629
340,325,65331,1,0,0:0:0:0:
464,60,65446,1,0,0:0:0:0:
479,226,65561,2,0,L|474:371,1,119.999995231629
306,0,65793,6,0,L|186:0,2,119.999995231629
495,75,66254,2,0,P|513:135|491:222,1,119.999995231629
89,194,66485,5,0,0:0:0:0:
244,306,66600,1,0,0:0:0:0:
12,215,66716,1,0,0:0:0:0:
245,384,66831,1,0,0:0:0:0:
458,384,66947,5,0,0:0:0:0:
349,195,67062,1,0,0:0:0:0:
349,384,67177,1,0,0:0:0:0:
458,195,67293,1,0,0:0:0:0:
294,289,67408,1,0,0:0:0:0:
492,297,67524,2,0,L|484:135,1,119.999995231629
459,50,67754,2,0,P|410:82|401:140,2,119.999995231629
512,143,68100,1,0,0:0:0:0:
56,56,68331,6,0,P|118:44|230:125,1,119.999995231629
56,328,68562,2,0,P|118:340|230:259,1,119.999995231629
112,113,68793,1,0,0:0:0:0:
110,274,68908,1,0,0:0:0:0:
320,64,69024,5,0,0:0:0:0:
448,64,69139,1,0,0:0:0:0:
448,320,69254,1,0,0:0:0:0:
320,320,69369,1,0,0:0:0:0:
130,192,69485,6,0,L|384:192,2,239.999990463257
453,185,70177,5,0,0:0:0:0:
334,66,70292,1,0,0:0:0:0:
393,251,70407,1,0,0:0:0:0:
393,0,70523,1,0,0:0:0:0:
275,244,70638,1,0,0:0:0:0:
512,7,70754,1,0,0:0:0:0:
75,81,70870,2,0,L|180:22,1,119.999995231629
193,338,71100,5,0,0:0:0:0:
168,211,71216,1,0,0:0:0:0:
293,186,71331,1,0,0:0:0:0:
318,313,71447,1,0,0:0:0:0:
391,174,71562,1,0,0:0:0:0:
236,84,71678,1,0,0:0:0:0:
236,264,71793,1,0,0:0:0:0:
394,345,71908,1,0,0:0:0:0:
501,15,72024,6,0,P|441:63|442:151,1,119.999995231629
179,90,72254,1,0,0:0:0:0:
70,93,72370,1,0,0:0:0:0:
13,1,72485,1,0,0:0:0:0:
156,184,72600,1,0,0:0:0:0:
262,180,72716,1,0,0:0:0:0:
320,272,72831,1,0,0:0:0:0:
0,318,72947,5,0,0:0:0:0:
165,384,73062,1,0,0:0:0:0:
338,367,73177,1,0,0:0:0:0:
484,267,73293,1,0,0:0:0:0:
512,103,73408,1,0,0:0:0:0:
208,128,73639,5,0,0:0:0:0:
62,384,73870,6,0,P|24:192|31:182,1,119.999995231629
0,62,74100,2,0,P|191:24|201:31,1,119.999995231629
399,12,74331,2,0,P|561:120|562:133,1,119.999995231629
486,271,74562,2,0,P|377:433|364:434,1,119.999995231629
174,312,74793,5,0,0:0:0:0:
259,61,74908,1,0,0:0:0:0:
336,314,75024,1,0,0:0:0:0:
125,154,75139,1,0,0:0:0:0:
390,159,75254,1,0,0:0:0:0:
255,354,75370,1,0,0:0:0:0:
257,129,75485,1,0,0:0:0:0:
456,0,75716,6,0,B|397:96|334:171|267:114|267:114|236:77|265:31,1,341.99997597313
314,71,76870,2,0,L|319:256,1,167.99999332428
320,281,77331,2,0,B|183:341|41:314|105:143|363:176|130:388,1,479.999980926514
85,134,78716,1,0,0:0:0:0:
73,302,78947,1,0,0:0:0:0:
55,66,79177,1,0,0:0:0:0:
254,101,79408,5,0,0:0:0:0:
512,0,79639,2,0,P|519:68|501:99,2,95.9999961853028
0,0,80331,2,0,P|-7:68|11:99,2,95.9999961853028
26,249,81024,6,0,B|158:141|25:386|25:386|172:343|242:440|140:316|621:99|-173:209|335:376|335:376|371:211|371:211|395:361|459:273|412:381|412:381|562:419|459:223,1,1439.99999771118
0,209,83100,6,0,P|29:178|45:165,3,59.9999976158143
87,137,83331,1,0,0:0:0:0:
119,121,83388,1,0,0:0:0:0:
154,108,83446,1,0,0:0:0:0:
190,100,83504,1,0,0:0:0:0:
226,96,83561,1,0,0:0:0:0:
263,97,83619,1,0,0:0:0:0:
299,101,83677,1,0,0:0:0:0:
335,113,83735,1,0,0:0:0:0:
302,172,83793,6,0,L|368:195,3,59.9999976158143
387,236,84024,1,0,0:0:0:0:
415,273,84081,1,0,0:0:0:0:
415,318,84139,1,0,0:0:0:0:
375,340,84197,1,0,0:0:0:0:
328,341,84254,1,0,0:0:0:0:
282,332,84312,1,0,0:0:0:0:
239,312,84370,1,0,0:0:0:0:
203,282,84427,1,0,0:0:0:0:
180,242,84485,1,0,0:0:0:0:
179,195,84543,1,0,0:0:0:0:
197,152,84600,1,0,0:0:0:0:
225,114,84658,1,0,0:0:0:0:
260,83,84716,1,0,0:0:0:0:
298,55,84774,1,0,0:0:0:0:
339,30,84831,1,0,0:0:0:0:
369,11,84889,1,0,0:0:0:0:
250,270,84947,6,0,L|229:338,2,59.9999976158143
183,152,85120,2,0,L|120:117,2,59.9999976158143
349,212,85293,2,0,L|418:232,2,59.9999976158143
295,101,85466,2,0,L|312:43,3,59.9999976158143
272,184,85697,1,0,0:0:0:0:
272,184,85754,1,0,0:0:0:0:
272,184,85812,1,0,0:0:0:0:
272,184,85870,5,0,0:0:0:0:
322,196,85927,1,0,0:0:0:0:
371,203,85985,1,0,0:0:0:0:
414,175,86043,1,0,0:0:0:0:
450,138,86100,1,0,0:0:0:0:
447,91,86158,1,0,0:0:0:0:
404,64,86216,1,0,0:0:0:0:
355,48,86273,1,0,0:0:0:0:
305,37,86331,1,0,0:0:0:0:
254,52,86389,1,0,0:0:0:0:
223,97,86446,1,0,0:0:0:0:
188,148,86504,1,0,0:0:0:0:
135,180,86562,1,0,0:0:0:0:
73,188,86620,1,0,0:0:0:0:
36,244,86677,1,0,0:0:0:0:
78,287,86735,1,0,0:0:0:0:
144,307,86793,1,0,0:0:0:0:
211,323,86850,1,0,0:0:0:0:
263,302,86908,1,0,0:0:0:0:
291,241,86966,1,0,0:0:0:0:
345,207,87024,5,0,0:0:0:0:
317,182,87081,1,0,0:0:0:0:
290,158,87139,1,0,0:0:0:0:
263,133,87197,1,0,0:0:0:0:
236,109,87254,1,0,0:0:0:0:
209,85,87312,1,0,0:0:0:0:
182,60,87370,1,0,0:0:0:0:
154,35,87427,1,0,0:0:0:0:
115,0,87485,5,0,0:0:0:0:
128,44,87542,1,0,0:0:0:0:
139,86,87600,1,0,0:0:0:0:
149,128,87658,1,0,0:0:0:0:
166,180,87715,5,0,0:0:0:0:
119,160,87773,1,0,0:0:0:0:
71,137,87831,1,0,0:0:0:0:
21,116,87888,1,0,0:0:0:0:
38,167,87947,5,0,0:0:0:0:
62,211,88005,1,0,0:0:0:0:
86,259,88063,1,0,0:0:0:0:
112,305,88120,1,0,0:0:0:0:
139,336,88177,5,0,0:0:0:0:
175,318,88234,1,0,0:0:0:0:
213,306,88292,1,0,0:0:0:0:
253,304,88350,1,0,0:0:0:0:
293,311,88407,1,0,0:0:0:0:
332,319,88465,1,0,0:0:0:0:
372,321,88523,1,0,0:0:0:0:
412,317,88580,1,0,0:0:0:0:
465,269,88639,6,0,L|481:200,3,59.9999976158143
370,207,88870,2,0,L|349:126,3,59.9999976158143
443,120,89100,1,0,0:0:0:0:
434,101,89157,1,0,0:0:0:0:
426,83,89215,1,0,0:0:0:0:
417,65,89273,1,0,0:0:0:0:
403,51,89331,5,0,0:0:0:0:
381,82,89388,1,0,0:0:0:0:
355,110,89446,1,0,0:0:0:0:
320,125,89504,1,0,0:0:0:0:
283,118,89561,1,0,0:0:0:0:
248,100,89619,1,0,0:0:0:0:
203,69,89677,1,0,0:0:0:0:
154,45,89734,1,0,0:0:0:0:
101,42,89792,1,0,0:0:0:0:
53,65,89850,1,0,0:0:0:0:
19,107,89907,1,0,0:0:0:0:
0,158,89965,1,0,0:0:0:0:
13,228,90024,1,0,0:0:0:0:
60,281,90082,1,0,0:0:0:0:
138,292,90139,1,0,0:0:0:0:
205,260,90197,1,0,0:0:0:0:
245,200,90255,1,0,0:0:0:0:
261,124,90312,1,0,0:0:0:0:
305,58,90370,1,0,0:0:0:0:
383,48,90427,1,0,0:0:0:0:
362,128,90485,2,0,B|339:218|339:218|355:304|277:297,1,179.999992847443
222,320,90716,5,0,0:0:0:0:
222,320,90774,1,0,0:0:0:0:
222,320,90831,1,0,0:0:0:0:
222,320,90889,1,0,0:0:0:0:
108,238,90947,2,0,L|79:320,3,59.9999976158143
78,145,91177,5,0,0:0:0:0:
137,147,91234,1,0,0:0:0:0:
190,174,91292,1,0,0:0:0:0:
229,220,91350,1,0,0:0:0:0:
257,263,91408,1,0,0:0:0:0:
294,217,91465,1,0,0:0:0:0:
297,158,91523,1,0,0:0:0:0:
267,107,91581,1,0,0:0:0:0:
213,83,91638,1,0,0:0:0:0:
155,93,91696,1,0,0:0:0:0:
113,135,91754,1,0,0:0:0:0:
102,193,91811,1,0,0:0:0:0:
125,247,91869,1,0,0:0:0:0:
154,269,91927,1,0,0:0:0:0:
171,278,91984,1,0,0:0:0:0:
190,284,92042,1,0,0:0:0:0:
210,286,92100,1,0,0:0:0:0:
230,285,92157,1,0,0:0:0:0:
249,280,92215,1,0,0:0:0:0:
267,272,92273,1,0,0:0:0:0:
339,232,92331,6,0,L|259:174,3,59.9999976158143
331,130,92562,2,0,L|398:173,3,59.9999976158143
268,59,92793,2,0,L|277:-41,1,59.9999976158143
365,55,92908,2,0,L|407:-38,1,59.9999976158143
448,121,93024,2,0,L|499:76,1,59.9999976158143
451,220,93139,2,0,L|543:202,1,59.9999976158143
490,289,93254,5,0,0:0:0:0:
468,307,93311,1,0,0:0:0:0:
446,323,93369,1,0,0:0:0:0:
422,337,93427,1,0,0:0:0:0:
396,348,93484,1,0,0:0:0:0:
368,354,93542,1,0,0:0:0:0:
340,357,93600,1,0,0:0:0:0:
313,357,93657,1,0,0:0:0:0:
285,356,93715,1,0,0:0:0:0:
257,354,93773,1,0,0:0:0:0:
229,351,93830,1,0,0:0:0:0:
201,348,93888,1,0,0:0:0:0:
173,344,93946,1,0,0:0:0:0:
145,340,94004,1,0,0:0:0:0:
118,336,94061,1,0,0:0:0:0:
90,332,94119,1,0,0:0:0:0:
0,304,94177,2,0,L|2:229,1,59.9999976158143
71,187,94293,2,0,L|176:134,1,59.9999976158143
203,121,94408,5,0,0:0:0:0:
222,116,94465,1,0,0:0:0:0:
241,112,94523,1,0,0:0:0:0:
261,107,94581,1,0,0:0:0:0:
282,138,94639,5,0,0:0:0:0:
298,148,94696,1,0,0:0:0:0:
315,159,94754,1,0,0:0:0:0:
332,169,94812,1,0,0:0:0:0:
314,197,94870,5,0,0:0:0:0:
318,215,94927,1,0,0:0:0:0:
322,235,94985,1,0,0:0:0:0:
327,254,95043,1,0,0:0:0:0:
287,252,95100,5,0,0:0:0:0:
277,267,95157,1,0,0:0:0:0:
265,284,95215,1,0,0:0:0:0:
255,301,95273,1,0,0:0:0:0:
226,263,95331,5,0,0:0:0:0:
208,266,95388,1,0,0:0:0:0:
187,270,95446,1,0,0:0:0:0:
168,275,95504,1,0,0:0:0:0:
184,234,95562,5,0,0:0:0:0:
169,223,95619,1,0,0:0:0:0:
151,211,95677,1,0,0:0:0:0:
134,201,95735,1,0,0:0:0:0:
177,178,95793,5,0,0:0:0:0:
174,159,95850,1,0,0:0:0:0:
169,138,95908,1,0,0:0:0:0:
164,119,95966,1,0,0:0:0:0:
342,97,96024,6,0,L|284:109,2,59.9999976158143
384,186,96197,2,0,L|334:153,2,59.9999976158143
350,278,96370,2,0,L|339:220,2,59.9999976158143
261,320,96543,2,0,L|294:270,2,59.9999976158143
236,351,96716,5,0,0:0:0:0:
203,354,96773,1,0,0:0:0:0:
170,355,96831,1,0,0:0:0:0:
136,354,96889,1,0,0:0:0:0:
105,347,96946,1,0,0:0:0:0:
77,329,97004,1,0,0:0:0:0:
71,297,97062,1,0,0:0:0:0:
77,268,97119,1,0,0:0:0:0:
105,251,97177,1,0,0:0:0:0:
136,232,97235,1,0,0:0:0:0:
152,200,97292,1,0,0:0:0:0:
152,151,97350,1,0,0:0:0:0:
145,112,97408,1,0,0:0:0:0:
152,78,97466,1,0,0:0:0:0:
181,54,97523,1,0,0:0:0:0:
218,46,97581,1,0,0:0:0:0:
255,57,97639,1,0,0:0:0:0:
280,85,97696,1,0,0:0:0:0:
290,121,97754,1,0,0:0:0:0:
284,159,97812,1,0,0:0:0:0:
253,183,97870,5,0,0:0:0:0:
209,201,97927,1,0,0:0:0:0:
165,187,97985,1,0,0:0:0:0:
137,185,98043,1,0,0:0:0:0:
154,228,98100,1,0,0:0:0:0:
149,274,98158,1,0,0:0:0:0:
117,306,98216,1,0,0:0:0:0:
71,311,98273,1,0,0:0:0:0:
29,292,98331,1,0,0:0:0:0:
4,254,98389,1,0,0:0:0:0:
11,209,98446,1,0,0:0:0:0:
43,176,98504,1,0,0:0:0:0:
55,146,98562,1,0,0:0:0:0:
29,108,98620,1,0,0:0:0:0:
3,69,98677,1,0,0:0:0:0:
28,27,98735,1,0,0:0:0:0:
86,24,98793,5,0,0:0:0:0:
130,57,98850,1,0,0:0:0:0:
158,103,98908,1,0,0:0:0:0:
179,153,98966,1,0,0:0:0:0:
220,188,99023,1,0,0:0:0:0:
272,198,99081,1,0,0:0:0:0:
326,190,99139,1,0,0:0:0:0:
378,174,99196,1,0,0:0:0:0:
431,180,99254,1,0,0:0:0:0:
471,215,99312,1,0,0:0:0:0:
481,267,99370,1,0,0:0:0:0:
467,318,99427,1,0,0:0:0:0:
435,361,99485,1,0,0:0:0:0:
387,384,99543,1,0,0:0:0:0:
334,375,99600,1,0,0:0:0:0:
301,334,99658,1,0,0:0:0:0:
261,286,99716,5,0,0:0:0:0:
240,226,99773,1,0,0:0:0:0:
250,163,99831,1,0,0:0:0:0:
288,110,99889,1,0,0:0:0:0:
347,83,99946,1,0,0:0:0:0:
412,89,100004,1,0,0:0:0:0:
469,119,100062,1,0,0:0:0:0:
502,176,100120,1,0,0:0:0:0:
504,241,100177,1,0,0:0:0:0:
484,302,100235,1,0,0:0:0:0:
424,321,100293,1,0,0:0:0:0:
359,311,100350,1,0,0:0:0:0:
295,310,100408,1,0,0:0:0:0:
242,345,100466,1,0,0:0:0:0:
187,346,100523,1,0,0:0:0:0:
130,316,100581,1,0,0:0:0:0:
84,260,100639,5,0,0:0:0:0:
57,200,100696,1,0,0:0:0:0:
50,136,100754,1,0,0:0:0:0:
69,72,100812,1,0,0:0:0:0:
133,37,100870,1,0,0:0:0:0:
207,58,100928,1,0,0:0:0:0:
269,101,100986,1,0,0:0:0:0:
304,172,101043,1,0,0:0:0:0:
291,249,101101,1,0,0:0:0:0:
219,283,101159,1,0,0:0:0:0:
148,245,101216,1,0,0:0:0:0:
133,159,101273,1,0,0:0:0:0:
189,95,101331,1,0,0:0:0:0:
277,110,101389,1,0,0:0:0:0:
375,105,101446,1,0,0:0:0:0:
457,50,101504,1,0,0:0:0:0:
432,91,101562,5,0,0:0:0:0:
427,127,101619,1,0,0:0:0:0:
409,159,101677,1,0,0:0:0:0:
387,187,101735,1,0,0:0:0:0:
364,215,101792,1,0,0:0:0:0:
346,247,101850,1,0,0:0:0:0:
346,282,101908,1,0,0:0:0:0:
368,312,101965,1,0,0:0:0:0:
401,328,102023,1,0,0:0:0:0:
437,327,102081,1,0,0:0:0:0:
461,301,102138,1,0,0:0:0:0:
462,265,102196,1,0,0:0:0:0:
437,232,102255,1,0,0:0:0:0:
392,231,102312,1,0,0:0:0:0:
349,220,102370,1,0,0:0:0:0:
308,205,102428,1,0,0:0:0:0:
267,186,102485,5,0,0:0:0:0:
228,166,102543,1,0,0:0:0:0:
187,147,102601,1,0,0:0:0:0:
145,135,102658,1,0,0:0:0:0:
102,142,102716,1,0,0:0:0:0:
75,177,102774,1,0,0:0:0:0:
98,201,102831,1,0,0:0:0:0:
138,220,102889,1,0,0:0:0:0:
176,243,102947,1,0,0:0:0:0:
205,276,103005,1,0,0:0:0:0:
206,319,103062,1,0,0:0:0:0:
175,350,103120,1,0,0:0:0:0:
132,358,103178,1,0,0:0:0:0:
95,338,103235,1,0,0:0:0:0:
99,296,103293,1,0,0:0:0:0:
133,269,103351,1,0,0:0:0:0:
175,253,103408,5,0,0:0:0:0:
219,245,103466,1,0,0:0:0:0:
262,239,103524,1,0,0:0:0:0:
305,226,103581,1,0,0:0:0:0:
339,197,103639,1,0,0:0:0:0:
361,159,103697,1,0,0:0:0:0:
363,112,103755,1,0,0:0:0:0:
333,78,103812,1,0,0:0:0:0:
298,51,103870,1,0,0:0:0:0:
258,33,103928,1,0,0:0:0:0:
215,22,103985,1,0,0:0:0:0:
170,21,104043,1,0,0:0:0:0:
127,29,104101,1,0,0:0:0:0:
86,45,104158,1,0,0:0:0:0:
49,70,104216,1,0,0:0:0:0:
18,101,104274,1,0,0:0:0:0:
0,148,104332,5,0,0:0:0:0:
43,189,104389,1,0,0:0:0:0:
90,226,104447,1,0,0:0:0:0:
140,259,104505,1,0,0:0:0:0:
195,282,104562,1,0,0:0:0:0:
254,292,104620,1,0,0:0:0:0:
310,274,104678,1,0,0:0:0:0:
338,223,104735,1,0,0:0:0:0:
308,175,104793,1,0,0:0:0:0:
251,183,104851,1,0,0:0:0:0:
248,248,104908,1,0,0:0:0:0:
310,274,104965,1,0,0:0:0:0:
358,248,105023,1,0,0:0:0:0:
378,200,105081,1,0,0:0:0:0:
436,204,105138,1,0,0:0:0:0:
481,178,105196,1,0,0:0:0:0:
487,145,105254,5,0,0:0:0:0:
456,108,105311,1,0,0:0:0:0:
419,78,105369,1,0,0:0:0:0:
378,53,105427,1,0,0:0:0:0:
333,35,105484,1,0,0:0:0:0:
287,25,105542,1,0,0:0:0:0:
239,22,105600,1,0,0:0:0:0:
191,27,105657,1,0,0:0:0:0:
145,40,105715,1,0,0:0:0:0:
101,59,105773,1,0,0:0:0:0:
61,86,105830,1,0,0:0:0:0:
25,115,105889,1,0,0:0:0:0:
0,165,105946,1,0,0:0:0:0:
0,224,106004,1,0,0:0:0:0:
6,280,106062,1,0,0:0:0:0:
48,322,106119,1,0,0:0:0:0:
104,342,106177,5,0,0:0:0:0:
163,335,106235,1,0,0:0:0:0:
213,304,106292,1,0,0:0:0:0:
245,253,106350,1,0,0:0:0:0:
251,194,106408,1,0,0:0:0:0:
244,142,106466,1,0,0:0:0:0:
265,74,106523,1,0,0:0:0:0:
320,28,106581,1,0,0:0:0:0:
390,18,106639,1,0,0:0:0:0:
455,48,106696,1,0,0:0:0:0:
493,107,106754,1,0,0:0:0:0:
493,178,106812,1,0,0:0:0:0:
456,238,106869,1,0,0:0:0:0:
391,269,106927,1,0,0:0:0:0:
318,276,106985,1,0,0:0:0:0:
245,251,107042,1,0,0:0:0:0:
177,213,107100,5,0,0:0:0:0:
118,162,107158,1,0,0:0:0:0:
69,101,107215,1,0,0:0:0:0:
20,43,107273,1,0,0:0:0:0:
19,120,107330,1,0,0:0:0:0:
41,195,107388,1,0,0:0:0:0:
87,257,107446,1,0,0:0:0:0:
152,300,107503,1,0,0:0:0:0:
228,317,107561,1,0,0:0:0:0:
303,301,107619,1,0,0:0:0:0:
366,250,107677,1,0,0:0:0:0:
390,177,107734,1,0,0:0:0:0:
363,105,107792,1,0,0:0:0:0:
296,67,107850,1,0,0:0:0:0:
221,79,107907,1,0,0:0:0:0:
158,124,107966,1,0,0:0:0:0:
148,202,108023,5,0,0:0:0:0:
190,267,108081,1,0,0:0:0:0:
253,316,108139,1,0,0:0:0:0:
331,334,108196,1,0,0:0:0:0:
410,326,108254,1,0,0:0:0:0:
363,261,108312,1,0,0:0:0:0:
336,181,108369,1,0,0:0:0:0:
325,98,108427,1,0,0:0:0:0:
346,18,108485,1,0,0:0:0:0:
425,0,108542,1,0,0:0:0:0:
488,53,108600,1,0,0:0:0:0:
466,142,108658,1,0,0:0:0:0:
388,163,108715,1,0,0:0:0:0:
309,140,108773,1,0,0:0:0:0:
237,93,108831,1,0,0:0:0:0:
159,65,108888,1,0,0:0:0:0:
132,275,108947,6,0,L|60:366,7,59.9999976158143
379,109,109408,2,0,L|451:18,7,59.9999976158143
133,110,109870,2,0,L|61:19,7,59.9999976158143
380,274,110331,2,0,L|452:365,7,59.9999976158143
42,174,110793,6,0,L|-32:83,1,59.9999976158143
47,44,110908,2,0,L|74:97,1,59.9999976158143
156,154,111024,2,0,L|124:41,1,59.9999976158143
206,23,111139,2,0,L|209:82,1,59.9999976158143
268,157,111254,2,0,L|285:41,1,59.9999976158143
361,32,111370,2,0,L|340:88,1,59.9999976158143
371,170,111485,2,0,L|433:71,1,59.9999976158143
504,101,111600,2,0,L|461:143,1,59.9999976158143
470,210,111716,6,0,L|544:300,1,59.9999976158143
465,340,111831,2,0,L|437:286,1,59.9999976158143
356,230,111947,2,0,L|387:342,1,59.9999976158143
306,361,112062,2,0,L|302:301,1,59.9999976158143
244,227,112177,2,0,L|226:342,1,59.9999976158143
151,352,112293,2,0,L|171:295,1,59.9999976158143
141,214,112408,2,0,L|78:312,1,59.9999976158143
8,283,112523,2,0,L|50:240,1,59.9999976158143
256,192,112639,12,0,114254,0:0:0:0:
195,45,114485,6,0,P|263:37|373:66,1,119.999995231629
317,339,114716,2,0,P|249:347|139:318,1,119.999995231629
330,13,114947,2,0,P|395:64|465:184,1,119.999995231629
181,370,115178,2,0,P|116:319|46:199,1,119.999995231629
462,167,115408,5,0,0:0:0:0:
462,0,115524,1,0,0:0:0:0:
318,83,115639,1,0,0:0:0:0:
366,0,115754,1,0,0:0:0:0:
366,167,115870,1,0,0:0:0:0:
256,368,116100,5,0,0:0:0:0:
129,17,116331,6,0,P|26:122|19:142,1,119.999995231629
383,367,116562,2,0,P|486:262|493:242,1,119.999995231629
333,289,116793,5,0,0:0:0:0:
228,313,116908,1,0,0:0:0:0:
143,245,117024,1,0,0:0:0:0:
143,138,117139,1,0,0:0:0:0:
233,208,117254,1,0,0:0:0:0:
232,99,117370,1,0,0:0:0:0:
147,31,117485,1,0,0:0:0:0:
65,97,117600,1,0,0:0:0:0:
401,37,117716,6,0,P|442:76|461:170,1,119.999995231629
111,346,117947,2,0,P|70:307|51:213,1,119.999995231629
304,201,118177,5,0,0:0:0:0:
188,201,118293,1,0,0:0:0:0:
130,100,118408,1,0,0:0:0:0:
188,0,118524,1,0,0:0:0:0:
248,102,118639,1,0,0:0:0:0:
306,2,118754,1,0,0:0:0:0:
366,115,118870,1,0,0:0:0:0:
425,211,118985,1,0,0:0:0:0:
366,303,119100,1,0,0:0:0:0:
295,211,119216,1,0,0:0:0:0:
226,299,119332,1,0,0:0:0:0:
295,384,119447,1,0,0:0:0:0:
152,382,119562,2,0,B|80:288|80:288|174:178,1,239.999990463257
328,248,120024,5,0,0:0:0:0:
208,80,120139,1,0,0:0:0:0:
300,286,120254,1,0,0:0:0:0:
248,50,120370,1,0,0:0:0:0:
255,317,120485,1,0,0:0:0:0:
302,41,120600,1,0,0:0:0:0:
192,328,120716,1,0,0:0:0:0:
363,55,120831,1,0,0:0:0:0:
110,323,120947,1,0,0:0:0:0:
437,92,121062,1,0,0:0:0:0:
66,256,121177,1,0,0:0:0:0:
497,167,121293,1,0,0:0:0:0:
3,180,121408,1,0,0:0:0:0:
512,273,121524,1,0,0:0:0:0:
3,79,121639,1,0,0:0:0:0:
505,379,121754,1,0,0:0:0:0:
110,276,121870,6,0,P|52:143|189:115,1,239.999990463257
152,188,122216,1,0,0:0:0:0:
409,144,122331,1,0,0:0:0:0:
152,188,122447,1,0,0:0:0:0:
383,292,122562,1,0,0:0:0:0:
152,188,122677,1,0,0:0:0:0:
187,30,122793,2,0,L|239:153,1,119.999995231629
179,353,123024,2,0,L|249:215,1,119.999995231629
388,118,123255,2,0,B|377:166|299:195|299:195|385:209|397:295,1,239.999990463257
218,256,123716,5,0,0:0:0:0:
218,127,123831,1,0,0:0:0:0:
330,192,123947,1,0,0:0:0:0:
208,332,124062,1,0,3:0:0:0:
121,159,124177,1,0,3:0:0:0:
286,75,124293,1,0,3:0:0:0:
370,240,124408,1,0,3:0:0:0:
512,384,124524,1,0,0:0:0:0:
175,142,124639,6,0,L|106:24,1,119.999995231629
0,96,124870,1,0,0:0:0:0:
260,6,124985,1,0,0:0:0:0:
0,188,125100,1,0,0:0:0:0:
340,50,125216,1,0,0:0:0:0:
114,38,125331,2,0,L|174:141,1,119.999995231629
400,304,125562,5,0,0:0:0:0:
112,304,125677,1,0,0:0:0:0:
52,200,125793,1,0,0:0:0:0:
461,201,125908,1,0,0:0:0:0:
401,97,126024,1,0,0:0:0:0:
112,96,126139,1,0,0:0:0:0:
201,376,126254,2,0,L|351:374,1,119.999995231629
322,17,126485,2,0,L|188:13,1,119.999995231629
256,293,126716,5,0,0:0:0:0:
256,90,126831,1,0,0:0:0:0:
154,191,126947,1,0,0:0:0:0:
357,192,127062,1,0,0:0:0:0:
116,75,127177,1,0,0:0:0:0:
275,266,127408,5,0,0:0:0:0:
296,157,127524,1,0,0:0:0:0:
368,356,127639,1,0,0:0:0:0:
162,306,127754,1,0,0:0:0:0:
100,216,127870,5,0,0:0:0:0:
278,66,127985,1,0,0:0:0:0:
403,323,128101,1,0,0:0:0:0:
506,112,128216,1,0,0:0:0:0:
236,231,128332,1,0,0:0:0:0:
117,6,128447,5,0,0:0:0:0:
318,282,128562,1,0,0:0:0:0:
0,176,128677,1,0,0:0:0:0:
318,71,128793,1,0,0:0:0:0:
117,346,128908,1,0,0:0:0:0:
512,104,129024,6,0,P|514:45|477:0,1,119.999995231629
263,187,129254,5,0,0:0:0:0:
148,82,129370,1,0,0:0:0:0:
241,336,129485,1,0,0:0:0:0:
414,112,129600,1,0,0:0:0:0:
56,186,129716,5,0,0:0:0:0:
422,336,129831,1,0,0:0:0:0:
287,45,129947,1,0,0:0:0:0:
125,368,130062,1,0,0:0:0:0:
134,37,130177,5,0,0:0:0:0:
211,315,130293,1,0,0:0:0:0:
43,118,130408,1,0,0:0:0:0:
289,213,130524,1,0,0:0:0:0:
499,122,130639,5,0,0:0:0:0:
208,24,130754,1,0,0:0:0:0:
390,266,130870,1,0,0:0:0:0:
400,5,130985,1,0,0:0:0:0:
84,136,131100,5,0,0:0:0:0:
335,79,131215,1,0,0:0:0:0:
55,191,131331,1,0,0:0:0:0:
0,0,131447,1,0,0:0:0:0:
161,195,131562,5,0,0:0:0:0:
504,190,131677,1,0,0:0:0:0:
300,367,131793,1,0,0:0:0:0:
306,126,131908,5,0,0:0:0:0:
424,383,132024,1,0,0:0:0:0:
180,379,132139,1,0,0:0:0:0:
440,67,132254,5,0,0:0:0:0:
302,268,132370,1,0,0:0:0:0:
158,5,132485,1,0,0:0:0:0:
299,120,132600,1,0,0:0:0:0:
26,205,132716,5,0,0:0:0:0:
56,12,132831,1,0,0:0:0:0:
78,372,132947,1,0,0:0:0:0:
512,266,133062,5,0,0:0:0:0:
166,336,133177,1,0,0:0:0:0:
492,124,133293,1,0,0:0:0:0:
101,125,133408,1,0,0:0:0:0:
302,22,133524,1,0,0:0:0:0:
201,212,133639,1,0,0:0:0:0:
392,314,133754,1,0,0:0:0:0:
512,51,133870,6,0,L|359:53,1,119.999995231629
220,53,134100,1,0,0:0:0:0:
20,51,134216,1,0,0:0:0:0:
0,333,134331,6,0,L|228:333,1,119.999995231629
288,336,134562,1,0,0:0:0:0:
496,336,134677,1,0,0:0:0:0:
149,256,134793,5,0,0:0:0:0:
215,27,134908,1,0,0:0:0:0:
376,189,135024,1,0,0:0:0:0:
433,0,135139,1,0,0:0:0:0:
241,176,135254,2,0,L|346:82,1,119.999995231629
476,295,135485,5,0,0:0:0:0:
68,177,135600,1,0,0:0:0:0:
313,384,135716,5,0,0:0:0:0:
131,325,135831,1,0,0:0:0:0:
131,134,135947,1,0,0:0:0:0:
313,75,136062,1,0,0:0:0:0:
425,230,136177,6,0,P|492:92|484:72,1,119.999995231629
109,237,136408,1,0,0:0:0:0:
405,148,136524,1,0,0:0:0:0:
16,244,136639,2,0,P|39:189|86:154,1,119.999995231629
255,347,136870,5,0,0:0:0:0:
257,110,136985,1,0,0:0:0:0:
42,46,137100,1,0,0:0:0:0:
255,191,137216,1,0,0:0:0:0:
490,45,137331,1,0,0:0:0:0:
254,268,137447,1,0,0:0:0:0:
21,373,137562,6,0,L|127:288,1,119.999995231629
508,380,137793,2,0,L|396:292,1,119.999995231629
256,4,138024,2,0,L|255:146,1,119.999995231629
67,122,138254,5,0,0:0:0:0:
428,120,138370,1,0,0:0:0:0:
263,383,138485,1,0,0:0:0:0:
171,9,138600,1,0,0:0:0:0:
427,262,138716,1,0,0:0:0:0:
125,333,138831,1,0,0:0:0:0:
325,3,138947,1,0,0:0:0:0:
326,363,139063,1,0,0:0:0:0:
64,199,139178,1,0,0:0:0:0:
387,156,139293,5,0,0:0:0:0:
220,60,139408,1,0,0:0:0:0:
124,227,139524,1,0,0:0:0:0:
291,323,139639,1,0,0:0:0:0:
149,376,139754,1,0,0:0:0:0:
71,85,139869,1,0,0:0:0:0:
362,7,139985,1,0,0:0:0:0:
440,298,140100,1,0,0:0:0:0:
254,191,140216,1,0,0:0:0:0:
407,328,140331,5,0,0:0:0:0:
135,56,140447,1,0,0:0:0:0:
271,384,140562,1,0,0:0:0:0:
271,0,140677,1,0,0:0:0:0:
135,328,140793,1,0,0:0:0:0:
407,56,140908,1,0,0:0:0:0:
79,192,141024,1,0,0:0:0:0:
463,192,141139,1,0,0:0:0:0:
182,261,141254,5,0,0:0:0:0:
62,18,141370,1,0,0:0:0:0:
0,197,141485,1,0,0:0:0:0:
242,80,141600,1,0,0:0:0:0:
85,381,141716,1,0,0:0:0:0:
147,110,141831,1,0,0:0:0:0:
345,297,141947,1,0,0:0:0:0:
411,0,142062,1,0,0:0:0:0:
242,228,142178,1,0,0:0:0:0:
512,140,142293,1,0,0:0:0:0:
242,54,142409,1,0,0:0:0:0:
411,284,142524,1,0,0:0:0:0:
136,384,142639,1,0,0:0:0:0:
294,109,142754,1,0,0:0:0:0:
294,384,142870,1,0,0:0:0:0:
136,109,142985,1,0,0:0:0:0:
372,246,143100,1,0,0:0:0:0:
59,246,143216,1,0,0:0:0:0:
364,379,143331,5,0,0:0:0:0:
148,379,143447,1,0,0:0:0:0:
472,192,143562,1,0,0:0:0:0:
40,191,143677,1,0,0:0:0:0:
364,4,143793,1,0,0:0:0:0:
148,4,143908,1,0,0:0:0:0:
95,99,144024,5,0,0:0:0:0:
416,99,144139,1,0,0:0:0:0:
348,352,144254,1,0,0:0:0:0:
348,31,144370,5,0,0:0:0:0:
70,192,144485,1,0,0:0:0:0:
256,377,144600,1,0,0:0:0:0:
256,6,144716,5,0,0:0:0:0:
404,262,144831,1,0,0:0:0:0:
163,352,144947,1,0,0:0:0:0:
449,192,145062,5,0,0:0:0:0:
68,181,145177,1,0,0:0:0:0:
399,307,145293,1,0,0:0:0:0:
1,344,145408,1,0,0:0:0:0:
497,30,145524,1,0,0:0:0:0:
157,60,145639,1,0,0:0:0:0:
317,382,145754,5,0,0:0:0:0:
92,72,145870,1,0,0:0:0:0:
456,192,145985,1,0,0:0:0:0:
92,310,146100,1,0,0:0:0:0:
317,0,146216,1,0,0:0:0:0:
214,383,146331,5,0,0:0:0:0:
175,11,146447,1,0,0:0:0:0:
425,289,146562,1,0,0:0:0:0:
60,212,146677,1,0,0:0:0:0:
401,59,146793,1,0,0:0:0:0:
124,337,146908,5,0,0:0:0:0:
276,0,147024,1,0,0:0:0:0:
353,361,147139,1,0,0:0:0:0:
76,112,147254,1,0,0:0:0:0:
447,151,147370,1,0,0:0:0:0:
171,231,147485,5,0,0:0:0:0:
187,255,147542,1,0,0:0:0:0:
211,273,147600,1,0,0:0:0:0:
239,283,147658,1,0,0:0:0:0:
273,288,147716,2,0,P|321:280|374:224,1,119.999995231629
511,109,147947,5,0,0:0:0:0:
406,324,148062,1,0,0:0:0:0:
104,324,148177,5,0,0:0:0:0:
0,109,148292,1,0,0:0:0:0:
466,195,148408,5,0,0:0:0:0:
199,127,148524,1,0,0:0:0:0:
355,250,148639,1,0,0:0:0:0:
235,11,148754,1,0,0:0:0:0:
273,383,148870,1,0,0:0:0:0:
89,237,148985,1,0,0:0:0:0:
322,166,149100,1,0,0:0:0:0:
240,0,149216,5,0,0:0:0:0:
430,3,149331,1,0,0:0:0:0:
512,176,149447,1,0,0:0:0:0:
54,333,149562,5,0,0:0:0:0:
1,149,149677,1,0,0:0:0:0:
237,378,149793,1,0,0:0:0:0:
512,361,149908,5,0,0:0:0:0:
445,229,150024,1,0,0:0:0:0:
357,331,150139,1,0,0:0:0:0:
223,154,150255,1,0,0:0:0:0:
57,337,150370,1,0,0:0:0:0:
197,34,150486,1,0,0:0:0:0:
155,302,150600,1,0,0:0:0:0:
14,0,150716,1,0,0:0:0:0:
386,182,150831,5,0,0:0:0:0:
96,382,150946,1,0,0:0:0:0:
512,299,151061,5,0,0:0:0:0:
133,173,151176,1,0,0:0:0:0:
209,22,151293,5,0,3:0:0:0:
375,384,151408,1,0,3:0:0:0:
48,276,151524,5,0,0:0:0:0:
120,25,151639,1,0,0:0:0:0:
230,362,151754,1,0,0:0:0:0:
292,1,151870,1,0,0:0:0:0:
457,98,151985,1,0,0:0:0:0:
16,164,152100,2,0,L|129:202,1,119.999995231629
222,343,152331,5,0,0:0:0:0:
512,225,152446,1,0,0:0:0:0:
246,91,152562,1,0,0:0:0:0:
378,383,152677,1,0,0:0:0:0:
453,80,152792,1,0,0:0:0:0:
188,281,152908,1,0,0:0:0:0:
127,13,153024,5,0,0:0:0:0:
109,216,153139,1,0,0:0:0:0:
232,370,153254,1,0,0:0:0:0:
353,13,153370,5,0,0:0:0:0:
336,216,153485,1,0,0:0:0:0:
459,370,153600,1,0,0:0:0:0:
70,54,153716,5,0,0:0:0:0:
439,87,153831,1,0,0:0:0:0:
44,185,153947,1,0,0:0:0:0:
441,226,154062,1,0,0:0:0:0:
27,114,154177,1,0,0:0:0:0:
466,160,154293,1,0,0:0:0:0:
366,271,154408,5,0,0:0:0:0:
284,139,154524,1,0,0:0:0:0:
288,384,154639,1,0,0:0:0:0:
512,270,154754,1,0,0:0:0:0:
0,311,154870,2,0,L|172:338,1,119.999995231629
208,211,155100,5,0,0:0:0:0:
126,229,155216,1,0,0:0:0:0:
60,177,155331,1,0,0:0:0:0:
60,93,155446,1,0,0:0:0:0:
126,40,155562,1,0,0:0:0:0:
208,59,155677,1,0,0:0:0:0:
244,135,155792,5,0,0:0:0:0:
322,103,155908,1,0,0:0:0:0:
400,135,156024,1,0,0:0:0:0:
432,213,156139,1,0,0:0:0:0:
400,291,156254,1,0,0:0:0:0:
322,323,156369,1,0,0:0:0:0:
249,279,156485,6,0,L|129:183,1,119.999995231629
277,131,156716,2,0,P|283:90|157:35,1,119.999995231629
122,349,156947,2,0,P|50:354|9:245,1,119.999995231629
257,384,157177,5,0,0:0:0:0:
256,0,157408,1,0,0:0:0:0:
4,193,157639,1,0,0:0:0:0:
323,91,157870,6,0,B|276:-54|459:-69|512:40|482:106|332:117|423:281,1,479.999980926514
443,351,158562,1,0,0:0:0:0:
256,192,158793,12,0,161100,0:0:0:0:
