osu file format v14

[General]
AudioFilename: audio.mp3
AudioLeadIn: 0
PreviewTime: 158263
Countdown: 0
SampleSet: Soft
StackLeniency: 0.7
Mode: 0
LetterboxInBreaks: 0
WidescreenStoryboard: 1

[Editor]
Bookmarks: 196553
DistanceSpacing: 1.3
BeatDivisor: 4
GridSize: 32
TimelineZoom: 1.4

[Metadata]
Title:Snowing Heart
TitleUnicode:Snowing Heart
Artist:Pratanallis feat. eupe
ArtistUnicode:Pratanallis feat. eupe
Creator:FuJu
Version:Hard
Source:
Tags:japanese rock jrock NexusQI Akito Zelq mpg mappers' guild fa featured artist Deep White Fairies
BeatmapID:3242144
BeatmapSetID:1501327

[Difficulty]
HPDrainRate:4.5
CircleSize:3.5
OverallDifficulty:7
ApproachRate:8
SliderMultiplier:1.3
SliderTickRate:1

[Events]
//Background and Video events
0,0,"bg.jpg",0,0
//Break Periods
2,130753,137382
2,216647,225803
//Storyboard Layer 0 (Background)
//Storyboard Layer 1 (Fail)
//Storyboard Layer 2 (Pass)
//Storyboard Layer 3 (Foreground)
//Storyboard Layer 4 (Overlay)
//Storyboard Sound Samples

[TimingPoints]
1711,315.789473684211,4,2,1,40,1,0
11816,-100,4,2,1,50,0,0
16868,-100,4,2,1,75,0,0
37079,-99.9999999999999,4,2,1,65,0,0
57289,-99.9999999999999,4,2,1,70,0,0
77500,-111.111111111111,4,2,1,55,0,0
87605,-100,4,2,1,65,0,0
92658,-100,4,2,1,60,0,0
97711,-90.9090909090909,4,2,1,80,0,0
117921,-99.9999999999999,4,2,1,80,0,0
128026,-99.9999999999999,4,2,1,75,0,0
138132,-142.857142857143,4,2,1,65,0,0
140658,-99.9999999999999,4,2,1,65,0,0
158342,-99.9999999999999,4,2,1,75,0,0
178553,-100,4,2,1,75,0,0
188658,-100,4,2,1,70,0,0
193711,-100,4,2,1,75,0,0
198763,-100,4,2,1,70,0,0
208868,315.789473684211,3,2,1,70,1,0
208868,-111.111111111111,4,2,1,70,0,0
216447,315.789473684211,4,2,1,60,1,0
216447,-111.111111111111,4,2,1,60,0,0
226553,-100,4,2,1,70,0,0
231605,-100,4,2,1,65,0,0
236658,-90.9090909090909,4,2,1,80,0,0
256474,-100,4,2,1,80,0,0
268237,-100,4,2,1,75,0,0
288763,-100,4,2,1,55,0,0

[Colours]
Combo1 : 247,140,140
Combo2 : 210,150,243
Combo3 : 192,249,151
Combo4 : 164,196,249

[HitObjects]
501,184,16868,6,0,P|471:170|440:159,1,65,14|0,0:0|1:0,0:0:0:0:
381,94,17184,2,0,P|351:107|320:118,1,65,8|0,0:0|1:0,0:0:0:0:
236,93,17500,1,10,0:0:0:0:
236,93,17658,2,0,P|222:99|207:106,2,32.5,2|0|10,0:0|1:0|0:0,0:0:0:0:
212,193,17974,2,0,B|221:261|171:246|176:313,1,130,14|0,0:0|1:0,0:0:0:0:
253,357,18447,2,0,P|283:346|315:338,1,65,10|0,1:2|1:0,0:0:0:0:
368,266,18763,2,0,P|357:235|349:203,1,65,10|8,1:2|0:0,0:0:0:0:
402,133,19079,1,2,0:0:0:0:
249,0,19395,6,0,P|241:31|230:62,1,65,14|2,0:2|1:2,0:0:0:0:
142,135,19711,2,0,P|131:104|123:72,1,65,10|2,0:2|1:2,0:0:0:0:
123,72,19947,1,0,1:0:0:0:
123,72,20026,1,10,0:0:0:0:
44,35,20184,2,0,P|28:40|13:45,2,32.5,2|0|10,0:0|1:0|0:0,0:0:0:0:
42,133,20500,6,0,P|61:195|73:258,1,130,14|0,0:0|1:0,0:0:0:0:
73,258,20895,1,0,1:0:0:0:
73,258,20974,1,8,1:2:0:0:
163,319,21132,1,2,1:2:0:0:
163,319,21211,1,2,1:2:0:0:
163,319,21289,2,0,L|225:301,1,65,10|8,0:2|0:3,0:0:0:0:
304,344,21605,2,0,L|366:326,1,65,10|8,0:2|0:3,0:0:0:0:
444,384,21921,6,0,P|476:350|468:304,1,97.5,14|0,0:2|1:0,0:0:0:0:
468,304,22237,2,0,L|483:240,1,65,10|0,0:2|1:0,0:0:0:0:
400,165,22553,2,0,L|385:228,1,65,10|0,0:2|1:0,0:0:0:0:
309,205,22868,1,10,0:2:0:0:
238,266,23026,6,0,B|201:268|180:247|192:233|173:203|132:205,1,130,6|0,1:2|1:0,0:0:0:0:
68,137,23500,2,0,P|97:123|127:112,1,65,10|0,0:2|1:0,0:0:0:0:
127,112,23737,1,0,1:0:0:0:
127,112,23816,1,2,1:2:0:0:
204,56,23974,1,0,1:0:0:0:
204,56,24132,2,0,P|233:69|263:80,1,65,10|0,0:2|0:0,0:0:0:0:
345,16,24447,6,0,P|376:50|368:97,1,97.5,14|0,0:2|0:0,0:0:0:0:
368,97,24763,2,0,P|379:127|387:159,1,65,10|0,0:2|1:0,0:0:0:0:
477,180,25079,2,0,P|487:210|495:242,1,65,10|2,0:2|1:2,0:0:0:0:
449,307,25395,1,10,0:2:0:0:
359,373,25553,6,0,P|299:346|237:328,1,130,14|0,0:0|1:2,0:0:0:0:
151,255,26026,2,0,P|182:246|212:235,1,65,10|2,0:0|1:2,0:0:0:0:
271,166,26342,1,10,0:2:0:0:
271,166,26421,1,8,0:0:0:0:
271,166,26500,2,0,L|259:135,2,32.5,10|8|10,0:2|0:0|0:2,0:0:0:0:
339,101,26816,5,10,0:2:0:0:
339,101,26895,1,0,0:0:0:0:
339,101,26974,2,0,L|315:40,1,65,14|0,0:0|1:0,0:0:0:0:
431,153,27289,2,0,P|432:199|394:227,1,97.5,8|0,0:0|1:0,0:0:0:0:
394,227,27605,1,10,0:0:0:0:
311,269,27763,1,2,0:0:0:0:
343,353,27921,1,10,0:0:0:0:
295,264,28079,6,0,P|233:286|172:307,1,130,14|0,0:0|1:0,0:0:0:0:
72,278,28553,2,0,L|62:246,3,32.5,10|0|0|0,1:2|1:0|1:0|1:0,0:0:0:0:
83,210,28868,2,0,L|73:178,3,32.5,10|0|0|0,1:2|1:0|1:0|1:0,0:0:0:0:
39,152,29184,2,0,L|29:120,3,32.5,10|0|0|0,1:2|1:0|1:0|1:0,0:0:0:0:
38,79,29500,6,0,P|68:67|98:55,1,65,14|2,0:2|1:2,0:0:0:0:
180,95,29816,2,0,P|210:106|240:118,1,65,10|2,0:2|1:2,0:0:0:0:
240,118,30053,1,0,1:0:0:0:
240,118,30132,1,10,0:0:0:0:
329,87,30289,2,0,P|340:56|352:26,1,65,2|10,0:0|0:0,0:0:0:0:
460,72,30605,2,0,P|448:102|436:132,1,65,14|0,0:0|0:0,0:0:0:0:
357,177,30921,5,0,1:0:0:0:
357,177,31000,1,0,1:0:0:0:
357,177,31079,2,0,P|363:191|369:206,2,32.5,10|0|0,1:2|1:0|1:0,0:0:0:0:
443,255,31395,2,0,P|474:246|505:235,1,65,10|0,3:2|3:0,0:0:0:0:
342,290,31711,2,0,P|310:298|279:309,1,65,2|0,3:2|3:0,0:0:0:0:
163,380,32026,6,0,B|160:310|196:332|189:255,1,130,2|8,1:2|0:0,0:0:0:0:
113,218,32500,1,0,1:0:0:0:
113,218,32658,2,0,P|122:186|131:155,1,65,0|0,1:0|1:0,0:0:0:0:
131,155,32895,1,0,1:0:0:0:
131,155,32974,1,10,0:0:0:0:
76,100,33132,1,0,1:0:0:0:
140,41,33289,2,0,P|170:51|202:60,1,65,2|0,1:2|1:0,0:0:0:0:
281,109,33605,6,0,P|342:88|404:69,1,130,10|2,0:2|1:2,0:0:0:0:
404,69,34000,1,0,1:0:0:0:
404,69,34079,1,0,1:0:0:0:
370,167,34237,2,0,P|379:197|392:227,1,65,10|0,0:2|1:0,0:0:0:0:
423,321,34553,6,0,P|427:258|478:221,1,130,2|12,1:2|0:0,0:0:0:0:
454,147,35026,1,0,0:0:0:0:
454,147,35105,1,0,0:0:0:0:
454,147,35184,1,8,0:0:0:0:
512,87,35342,1,2,1:3:0:0:
351,14,35658,6,0,P|291:38|230:59,1,130,6|0,1:2|3:0,0:0:0:0:
158,118,36132,2,0,P|128:105|97:94,1,65,0|0,3:0|3:0,0:0:0:0:
47,208,36447,2,0,P|76:220|107:231,1,65,8|8,0:3|0:3,0:0:0:0:
190,203,36763,1,4,0:3:0:0:
190,203,36921,1,4,0:3:0:0:
249,272,37079,6,0,P|295:259|343:247,1,97.5,6|0,1:2|0:0,0:0:0:0:
343,247,37395,2,0,P|334:216|328:184,1,65,8|0,0:0|0:0,0:0:0:0:
392,125,37711,2,0,P|398:93|407:61,1,65,2|0,1:2|1:0,0:0:0:0:
281,28,38026,2,0,P|274:59|265:91,1,65,10|0,0:2|0:0,0:0:0:0:
197,154,38342,6,0,P|134:153|93:105,1,130,2|8,1:2|0:0,0:0:0:0:
176,294,38974,1,2,1:2:0:0:
176,294,39132,1,0,1:0:0:0:
235,242,39289,2,0,P|265:253|294:267,1,65,8|0,0:2|0:0,0:0:0:0:
382,242,39605,6,0,P|405:181|430:121,1,130,2|8,1:2|0:0,0:0:0:0:
327,20,40079,2,0,P|341:49|351:79,1,65,2|0,0:0|1:2,0:0:0:0:
311,149,40395,1,0,1:0:0:0:
236,117,40553,1,10,0:2:0:0:
84,239,40868,6,0,P|143:213|206:198,1,130,2|8,1:2|0:0,0:0:0:0:
227,285,41342,1,0,1:2:0:0:
227,285,41500,2,0,P|258:290|289:300,1,65,2|0,0:0|1:0,0:0:0:0:
362,238,41816,2,0,P|353:206|348:174,1,65,10|0,0:2|0:0,0:0:0:0:
438,113,42132,6,0,P|374:98|314:74,1,130,6|8,1:2|0:0,0:0:0:0:
259,146,42605,2,0,P|226:151|195:160,1,65,2|0,0:0|1:2,0:0:0:0:
122,125,42921,1,0,1:0:0:0:
159,52,43079,1,10,0:2:0:0:
246,232,43395,6,0,B|248:302|211:285|207:353,2,130,2|10|2,1:2|0:0|1:2,0:0:0:0:
333,275,44184,1,0,1:0:0:0:
333,275,44342,2,0,P|363:265|395:257,1,65,10|0,0:2|0:0,0:0:0:0:
512,204,44658,2,0,P|471:155|408:153,1,130,2|8,1:2|0:0,0:0:0:0:
330,109,45132,2,0,P|340:78|348:46,1,65,2|0,0:0|1:2,0:0:0:0:
270,4,45447,1,0,1:0:0:0:
197,51,45605,2,0,P|165:43|134:32,1,65,10|0,0:2|0:0,0:0:0:0:
61,139,45921,6,0,P|123:155|185:176,1,130,2|8,1:2|0:0,0:0:0:0:
280,363,46553,1,0,1:2:0:0:
280,363,46711,1,0,1:0:0:0:
218,307,46868,2,0,P|226:275|237:245,1,65,8|0,0:2|0:0,0:0:0:0:
343,201,47184,6,0,P|329:154|307:110,1,97.5,6|0,1:2|0:0,0:0:0:0:
307,110,47500,2,0,P|338:101|368:88,1,65,8|0,0:0|0:0,0:0:0:0:
449,138,47816,2,0,P|436:167|427:199,1,65,2|0,1:2|1:0,0:0:0:0:
369,266,48132,2,0,P|381:295|390:327,1,65,10|0,0:2|0:0,0:0:0:0:
290,319,48447,6,0,B|253:321|227:299|243:289|214:266|174:271,1,130,2|8,1:2|0:0,0:0:0:0:
23,196,49079,1,2,1:2:0:0:
23,196,49237,1,0,1:0:0:0:
78,138,49395,2,0,P|66:107|58:76,1,65,8|0,0:2|0:0,0:0:0:0:
146,79,49711,6,0,P|176:67|207:59,1,65,2|0,1:2|0:0,0:0:0:0:
284,107,50026,1,8,0:0:0:0:
284,107,50184,2,0,P|327:152|390:147,1,130,2|0,0:0|1:0,0:0:0:0:
451,86,50658,2,0,P|441:54|432:23,1,65,10|0,0:2|0:0,0:0:0:0:
390,146,50974,6,0,P|407:209|421:272,1,130,2|8,1:2|0:0,0:0:0:0:
363,345,51447,1,0,1:0:0:0:
363,345,51605,2,0,P|331:335|300:328,1,65,2|0,0:0|1:0,0:0:0:0:
235,263,51921,2,0,P|203:272|172:279,1,65,10|0,0:0|0:0,0:0:0:0:
89,235,52237,6,0,B|81:169|127:184|116:111,1,130,6|8,1:2|0:0,0:0:0:0:
255,4,52868,1,0,1:2:0:0:
255,4,53026,1,0,1:0:0:0:
204,65,53184,2,0,L|221:127,1,65,10|2,0:2|0:0,0:0:0:0:
305,188,53500,6,0,P|367:168|430:154,1,130,2|8,1:2|0:0,0:0:0:0:
433,287,53974,2,0,P|402:297|370:305,1,65,2|0,0:0|1:2,0:0:0:0:
290,279,54289,1,0,1:0:0:0:
290,279,54447,1,10,0:2:0:0:
145,384,54763,6,0,P|126:321|94:265,2,130,2|8|0,1:2|0:0|1:0,0:0:0:0:
197,279,55553,1,0,1:0:0:0:
197,278,55711,2,0,P|203:246|216:216,1,65,8|0,0:0|0:0,0:0:0:0:
136,143,56026,2,0,P|106:156|74:162,1,65,10|0,0:0|1:0,0:0:0:0:
219,121,56342,2,0,P|248:107|280:101,1,65,10|0,0:0|1:0,0:0:0:0:
363,142,56658,1,10,0:0:0:0:
433,197,56816,1,10,0:0:0:0:
378,267,56974,1,10,0:0:0:0:
308,212,57132,1,10,0:0:0:0:
225,250,57289,6,0,P|210:296|197:343,1,97.5,6|0,1:2|0:0,0:0:0:0:
197,343,57605,2,0,P|167:332|135:323,1,65,8|0,0:0|0:0,0:0:0:0:
75,254,57921,2,0,P|86:224|95:192,1,65,2|0,1:2|1:0,0:0:0:0:
161,95,58237,2,0,P|169:126|180:156,1,65,10|0,0:2|0:0,0:0:0:0:
276,186,58553,6,0,P|338:192|382:147,1,130,2|8,1:2|0:0,0:0:0:0:
453,331,59184,1,2,1:2:0:0:
453,331,59342,1,0,1:0:0:0:
388,277,59500,2,0,P|357:288|326:298,1,65,8|0,0:2|0:0,0:0:0:0:
272,365,59816,6,0,P|211:353|193:293,1,130,2|8,1:2|0:0,0:0:0:0:
134,230,60289,2,0,P|143:198|150:167,1,65,2|0,0:0|1:2,0:0:0:0:
93,102,60605,1,0,1:0:0:0:
145,33,60763,1,10,0:2:0:0:
246,151,61079,6,0,B|318:153|296:113|366:110,2,130,2|8|2,1:2|0:0|0:0,0:0:0:0:
340,214,61868,1,0,1:0:0:0:
340,214,62026,2,0,P|350:244|355:276,1,65,10|0,0:2|0:0,0:0:0:0:
413,384,62342,6,0,P|417:322|473:295,1,130,6|8,1:2|0:0,0:0:0:0:
512,220,62816,2,0,P|483:205|452:193,1,65,2|0,0:0|1:2,0:0:0:0:
410,116,63132,1,0,1:0:0:0:
410,116,63289,2,0,P|424:87|436:56,1,65,10|0,0:2|0:0,0:0:0:0:
328,0,63605,6,0,P|306:42|290:89,1,97.5,2|0,1:2|0:0,0:0:0:0:
290,89,63921,2,0,P|259:79|229:68,1,65,10|0,0:0|0:0,0:0:0:0:
171,124,64237,1,2,1:2:0:0:
171,124,64395,1,0,1:0:0:0:
111,177,64553,2,0,P|80:165|49:155,1,65,10|0,0:2|0:0,0:0:0:0:
137,258,64868,6,0,P|199:261|237:211,1,130,2|8,1:2|0:0,0:0:0:0:
321,230,65342,2,0,P|352:220|384:214,1,65,2|0,0:0|1:2,0:0:0:0:
468,251,65658,1,0,1:0:0:0:
468,251,65816,2,0,P|477:282|483:314,1,65,10|0,0:2|0:0,0:0:0:0:
365,335,66132,6,0,P|355:269|385:211,2,130,2|8|0,1:2|0:0|1:2,0:0:0:0:
293,380,66921,1,0,1:0:0:0:
293,380,67079,2,0,P|262:368|231:359,1,65,8|0,0:2|0:0,0:0:0:0:
138,384,67395,6,0,B|152:337|152:337|119:301,1,97.5,6|0,1:2|0:0,0:0:0:0:
119,301,67711,2,0,P|127:269|137:238,1,65,8|0,0:0|0:0,0:0:0:0:
66,107,68026,2,0,P|57:138|47:169,1,65,2|0,1:2|1:0,0:0:0:0:
155,144,68342,2,0,P|185:154|217:162,1,65,10|0,0:2|0:0,0:0:0:0:
286,238,68658,6,0,P|348:239|379:185,1,130,2|8,1:2|0:0,0:0:0:0:
361,86,69132,1,2,0:0:0:0:
361,85,69289,2,0,P|371:54|381:23,1,65,0|0,1:2|1:0,0:0:0:0:
493,60,69605,2,0,P|482:90|472:121,1,65,10|0,0:2|0:0,0:0:0:0:
379,185,69921,6,0,B|312:173|339:141|265:127,1,130,2|8,1:2|0:0,0:0:0:0:
199,65,70395,2,0,P|169:78|138:88,1,65,2|0,0:0|1:2,0:0:0:0:
73,141,70711,1,0,1:0:0:0:
121,209,70868,1,10,0:2:0:0:
220,335,71184,6,0,P|236:272|265:214,1,130,2|8,1:2|0:0,0:0:0:0:
326,307,71658,1,0,1:0:0:0:
326,307,71816,2,0,P|357:316|387:328,1,65,2|0,0:0|1:0,0:0:0:0:
467,287,72132,2,0,P|476:255|488:225,1,65,10|0,0:0|0:0,0:0:0:0:
439,137,72447,6,0,P|377:116|318:89,1,130,6|8,1:2|0:0,0:0:0:0:
253,140,72921,2,0,P|221:149|191:160,1,65,2|0,0:0|1:2,0:0:0:0:
114,126,73237,1,0,1:0:0:0:
143,46,73395,1,10,0:2:0:0:
255,234,73711,6,0,B|261:308|223:288|223:360,2,130,2|8|2,1:2|0:0|1:2,0:0:0:0:
169,248,74500,1,0,1:0:0:0:
168,248,74658,2,0,P|137:258|107:272,1,65,8|0,0:2|0:0,0:0:0:0:
29,239,74974,5,2,1:2:0:0:
29,239,75132,1,0,1:0:0:0:
101,175,75289,2,0,P|83:129|68:83,1,97.5
68,83,75605,2,0,P|100:73|129:61,1,65,8|0,0:0|1:0,0:0:0:0:
299,144,76079,6,0,P|360:164|418:193,1,130,12|0,0:0|0:0,0:0:0:0:
442,281,76553,1,0,1:2:0:0:
442,281,76711,1,0,1:2:0:0:
365,326,76868,2,0,P|333:317|303:305,1,65,10|2,0:0|0:0,0:0:0:0:
229,344,77184,1,10,0:0:0:0:
163,298,77342,5,8,0:0:0:0:
163,298,77421,1,8,0:0:0:0:
163,298,77500,2,0,P|153:242|191:199,1,116.999996429443,6|8,1:2|0:0,0:0:0:0:
153,114,77974,2,0,P|95:125|40:144,1,116.999996429443,2|0,1:2|1:0,0:0:0:0:
12,68,78447,1,10,0:0:0:0:
217,44,78763,6,0,P|245:39|274:32,1,58.4999982147217,2|0,1:2|1:0,0:0:0:0:
331,93,79079,2,0,P|387:99|417:147,1,116.999996429443,10|2,0:0|1:2,0:0:0:0:
361,215,79553,1,0,1:0:0:0:
412,282,79711,1,10,0:0:0:0:
306,366,80026,6,0,B|247:365|263:328|198:325,1,116.999996429443,2|8,1:2|0:0,0:0:0:0:
137,276,80500,1,2,1:2:0:0:
136,276,80658,2,0,P|107:282|79:290,1,58.4999982147217,0|0,1:2|1:0,0:0:0:0:
55,201,80974,2,0,P|83:194|111:186,1,58.4999982147217,10|0,0:0|1:0,0:0:0:0:
192,129,81289,2,0,P|210:76|173:33,2,116.999996429443,2|8|2,1:2|0:0|1:2,0:0:0:0:
244,195,82079,1,0,1:0:0:0:
194,260,82237,1,10,0:0:0:0:
288,366,82553,6,0,P|343:346|400:333,1,116.999996429443,2|8,1:2|0:0,0:0:0:0:
488,350,83026,2,0,P|444:313|446:257,1,116.999996429443,2|0,1:2|1:0,0:0:0:0:
399,188,83500,2,0,P|406:159|413:131,1,58.4999982147217,8|0,0:0|1:0,0:0:0:0:
313,136,83816,6,0,P|284:128|256:121,1,58.4999982147217,2|0,1:2|1:0,0:0:0:0:
200,55,84132,2,0,P|171:62|143:69,1,58.4999982147217,10|0,0:0|1:0,0:0:0:0:
87,132,84447,1,2,1:2:0:0:
87,132,84605,1,0,1:0:0:0:
144,195,84763,2,0,P|134:237|123:280,1,87.7499973220826,10|0,0:0|0:0,0:0:0:0:
123,280,85079,6,0,P|165:242|221:247,1,116.999996429443,2|8,1:2|0:0,0:0:0:0:
416,384,85711,1,0,1:2:0:0:
416,384,85868,1,0,1:0:0:0:
416,384,86026,1,8,0:0:0:0:
331,215,86342,6,0,P|323:243|313:270,1,58.4999982147217,2|0,1:2|1:0,0:0:0:0:
404,290,86658,2,0,P|411:261|421:234,1,58.4999982147217,10|0,0:0|1:0,0:0:0:0:
314,351,86974,1,2,1:2:0:0:
314,351,87132,2,0,L|286:360,5,29.2499991073609,0|0|8|8|8|8,1:0|1:0|0:0|0:0|0:0|0:0,0:0:0:0:
260,377,87605,6,0,B|268:312|218:333|233:254,1,130,6|8,1:2|0:0,0:0:0:0:
301,197,88079,2,0,P|361:220|424:237,1,130,2|0,0:0|1:0,0:0:0:0:
496,183,88553,1,10,0:0:0:0:
354,88,88868,6,0,L|292:109,1,65,2|0,1:2|0:0,0:0:0:0:
325,8,89184,2,0,L|263:29,1,65,10|0,0:0|0:0,0:0:0:0:
208,90,89500,1,2,1:2:0:0:
208,90,89658,1,0,1:0:0:0:
138,141,89816,2,0,P|122:112|120:80,1,65,10|0,0:0|0:0,0:0:0:0:
271,153,90132,6,0,P|264:220|222:268,1,130,2|8,1:2|0:0,0:0:0:0:
149,310,90605,1,2,0:0:0:0:
149,310,90763,2,0,L|89:283,1,65,0|0,1:0|1:0,0:0:0:0:
28,338,91079,1,10,0:0:0:0:
200,384,91395,6,0,P|238:354|285:345,1,97.5,2|0,1:2|0:0,0:0:0:0:
285,345,91711,2,0,P|294:314|302:282,1,65,8|4,0:0|0:3,0:0:0:0:
302,282,91947,1,4,0:3:0:0:
302,282,92026,1,2,1:2:0:0:
377,242,92184,1,0,1:0:0:0:
340,165,92342,1,14,0:0:0:0:
196,66,92658,6,0,B|126:78|143:104|75:113,2,130,6|2|10,1:2|1:2|0:2,0:0:0:0:
340,165,93605,2,0,L|402:146,1,65,2|0,1:2|1:0,0:0:0:0:
485,195,93921,2,0,P|448:144|465:83,1,130,2|0,1:2|1:0,0:0:0:0:
421,0,94395,1,0,1:0:0:0:
334,23,94553,2,0,P|316:49|306:80,1,65,10|0,0:0|1:0,0:0:0:0:
224,123,94868,2,0,P|213:92|195:65,1,65,8|0,0:0|0:0,0:0:0:0:
119,43,95184,5,2,1:3:0:0:
249,210,95658,1,2,1:3:0:0:
379,377,96132,1,2,1:3:0:0:
249,210,96605,1,2,1:3:0:0:
249,210,97079,5,8,0:0:0:0:
249,210,97237,1,8,0:0:0:0:
177,259,97395,2,0,L|115:236,1,65,2|0,0:0|0:0,0:0:0:0:
59,167,97711,6,0,P|62:114|100:77,1,107.25000327301,4|0,1:0|0:0,0:0:0:0:
100,77,98026,2,0,P|92:42|82:7,1,71.5000021820069,10|0,0:0|1:0,0:0:0:0:
177,128,98342,2,0,B|219:139|247:113|234:98|261:74|303:81,1,143.000004364014,2|8,1:0|0:0,0:0:0:0:
377,137,98816,5,0,1:0:0:0:
377,137,98974,2,0,P|365:170|351:203,1,71.5000021820069,2|0,1:0|1:0,0:0:0:0:
418,275,99289,2,0,P|403:307|392:341,1,71.5000021820069,8|0,0:0|1:0,0:0:0:0:
301,371,99605,2,0,P|232:365|199:305,1,143.000004364014,0|10,1:0|0:2,0:0:0:0:
126,259,100079,5,2,1:2:0:0:
126,259,100237,2,0,P|91:267|57:278,1,71.5000021820069,2|0,1:2|1:0,0:0:0:0:
69,179,100553,1,10,0:2:0:0:
69,179,100711,2,0,P|50:110|24:43,1,143.000004364014,2|2,1:2|1:2,0:0:0:0:
158,0,101184,2,0,P|144:33|132:66,1,71.5000021820069,10|2,0:2|1:2,0:0:0:0:
197,138,101500,6,0,P|265:117|334:99,1,143.000004364014,0|8,1:0|0:0,0:0:0:0:
466,277,102132,1,2,1:2:0:0:
392,243,102289,1,2,1:2:0:0:
318,209,102447,1,10,0:2:0:0:
318,209,102605,6,0,B|245:212|259:258|187:259,1,143.000004364014,14|0,0:2|1:0,0:0:0:0:
119,310,103079,1,10,0:0:0:0:
119,310,103158,1,0,1:0:0:0:
119,310,103237,1,0,1:0:0:0:
47,257,103395,2,0,P|58:223|66:188,1,71.5000021820069,2|0,1:2|1:0,0:0:0:0:
14,124,103711,1,10,0:0:0:0:
14,124,103789,1,0,1:0:0:0:
14,124,103868,1,2,1:2:0:0:
81,68,104026,6,0,P|114:80|149:88,1,71.5000021820069,0|0,1:0|1:0,0:0:0:0:
227,62,104342,2,0,L|237:27,2,35.7500010910034,10|0|0,0:2|1:0|1:0,0:0:0:0:
287,122,104658,2,0,L|276:156,2,35.7500010910034,2|0|0,1:2|1:0|1:0,0:0:0:0:
372,91,104974,2,0,L|382:56,2,35.7500010910034,10|0|0,0:2|1:0|1:0,0:0:0:0:
439,154,105290,6,0,L|405:294,1,143.000004364014,2|8,1:2|0:0,0:0:0:0:
335,343,105763,1,0,1:0:0:0:
335,343,105921,2,0,P|302:333|270:316,1,71.5000021820069,0|0,1:0|1:0,0:0:0:0:
193,347,106237,2,0,P|161:330|127:319,1,71.5000021820069,8|0,0:0|1:0,0:0:0:0:
62,250,106553,6,0,L|75:216,3,35.7500010910034,4|0|0|0,1:2|1:0|1:0|1:0,0:0:0:0:
52,176,106868,2,0,L|65:142,3,35.7500010910034,8|0|0|0,1:2|1:0|1:0|1:0,0:0:0:0:
44,100,107184,1,10,0:0:0:0:
114,39,107342,1,0,1:0:0:0:
114,39,107421,1,0,1:0:0:0:
114,39,107500,2,0,L|196:56,1,71.5000021820069,10|2,0:0|0:0,0:0:0:0:
245,116,107816,5,4,1:0:0:0:
245,116,107974,1,0,1:0:0:0:
296,180,108132,2,0,L|378:197,1,71.5000021820069,8|0,0:0|1:0,0:0:0:0:
352,295,108447,2,0,L|270:278,1,71.5000021820069,2|0,1:2|1:0,0:0:0:0:
202,315,108763,2,0,L|187:385,1,71.5000021820069,10|0,0:2|1:0,0:0:0:0:
97,328,109079,6,0,P|59:271|92:212,1,143.000004364014,2|8,1:2|0:0,0:0:0:0:
142,143,109553,1,0,1:0:0:0:
89,80,109711,1,0,1:0:0:0:
218,6,110026,6,0,P|251:17|286:25,1,71.5000021820069,10|0,0:0|1:0,0:0:0:0:
345,98,110342,2,0,P|391:45|460:46,1,143.000004364014,2|10,1:2|0:2,0:0:0:0:
435,134,110816,2,0,P|424:167|416:202,1,71.5000021820069,2|0,1:2|1:0,0:0:0:0:
332,240,111132,2,0,P|324:274|312:308,1,71.5000021820069,2|8,1:2|0:0,0:0:0:0:
242,243,111447,5,2,1:2:0:0:
242,243,111605,2,0,B|249:165|197:185|213:107,1,143.000004364014,0|8,1:0|0:0,0:0:0:0:
150,48,112079,1,0,1:0:0:0:
150,48,112237,2,0,P|115:58|80:66,1,71.5000021820069,2|0,1:2|1:0,0:0:0:0:
52,171,112553,2,0,P|86:160|121:152,1,71.5000021820069,8|0,0:0|1:0,0:0:0:0:
105,243,112868,6,0,P|122:312|137:382,1,143.000004364014,2|10,1:2|0:2,0:0:0:0:
219,354,113342,2,0,P|253:343|288:337,1,71.5000021820069,2|0,1:2|1:0,0:0:0:0:
356,287,113658,1,0,1:0:0:0:
300,222,113816,1,10,0:2:0:0:
300,222,113895,1,0,1:0:0:0:
300,222,113974,1,0,1:0:0:0:
373,171,114132,6,0,P|390:104|344:52,1,143.000004364014,2|8,1:2|0:0,0:0:0:0:
270,92,114605,2,0,P|237:80|203:71,1,71.5000021820069,2|0,1:2|1:0,0:0:0:0:
126,127,114921,1,0,1:0:0:0:
126,127,115079,2,0,L|92:115,4,35.7500010910034,10|0|0|0|14,0:0|1:0|1:0|1:0|0:0,0:0:0:0:
148,214,115553,2,0,L|136:247,2,35.7500010910034,0|0|8,1:0|1:0|0:0,0:0:0:0:
235,192,115868,2,0,L|268:203,2,35.7500010910034,2|0|10,1:2|1:0|0:2,0:0:0:0:
213,105,116184,2,0,L|224:71,2,35.7500010910034,2|0|10,0:0|1:0|0:0,0:0:0:0:
301,33,116500,1,14,0:0:0:0:
429,112,116816,5,8,0:0:0:0:
429,112,116974,1,8,0:0:0:0:
429,112,117132,1,8,0:0:0:0:
363,167,117289,2,0,L|387:240,1,71.5000021820069,10|0,0:0|1:0,0:0:0:0:
385,234,117500,2,0,L|408:228,2,23.833334060669,0|0|12,1:0|1:0|0:0,0:0:0:0:
326,299,117763,5,0,0:0:0:0:
326,299,117921,2,0,P|294:307|263:317,1,65,6|8,1:2|1:2,0:0:0:0:
183,283,118237,1,0,1:2:0:0:
183,283,118395,2,0,P|174:251|164:220,1,65,10|0,1:2|1:2,0:0:0:0:
93,178,118711,1,8,1:2:0:0:
124,100,118868,1,2,1:2:0:0:
204,143,119026,5,8,1:2:0:0:
204,143,119105,1,0,1:2:0:0:
204,143,119184,2,0,P|265:123|328:106,1,130,2|0,1:2|1:2,0:0:0:0:
379,178,119658,2,0,P|421:132|410:70,1,130,10|8,1:2|1:2,0:0:0:0:
308,25,120132,2,0,P|277:35|245:43,1,65,2|8,1:2|1:2,0:0:0:0:
245,43,120368,5,0,1:2:0:0:
245,43,120447,2,0,P|183:26|119:12,1,130,2|0,1:2|1:2,0:0:0:0:
41,47,120921,2,0,P|28:76|19:108,1,65,10|0,1:2|1:2,0:0:0:0:
94,176,121237,1,8,1:2:0:0:
94,176,121395,2,0,P|81:205|72:237,1,65,2|8,1:2|1:2,0:0:0:0:
72,237,121632,5,0,1:2:0:0:
72,237,121711,2,0,P|117:281|179:274,1,130,2|0,1:2|1:2,0:0:0:0:
251,335,122184,2,0,P|280:322|311:313,1,65,10|0,1:2|1:2,0:0:0:0:
402,341,122500,1,8,1:2:0:0:
402,341,122658,1,2,1:2:0:0:
444,267,122816,5,8,1:2:0:0:
444,267,122895,1,0,1:2:0:0:
444,267,122974,2,0,P|424:205|409:141,1,130,2|0,1:2|1:2,0:0:0:0:
288,70,123447,1,8,1:2:0:0:
288,70,123526,1,0,1:2:0:0:
288,70,123605,2,0,P|298:100|306:132,1,65,0|8,1:2|1:2,0:0:0:0:
246,199,123921,2,0,L|214:204,3,32.5,0|0|8|0,1:2|1:2|1:2|1:2,0:0:0:0:
187,239,124237,6,0,P|125:234|94:180,1,130,2|0,1:2|1:2,0:0:0:0:
28,127,124711,1,10,1:2:0:0:
71,55,124868,2,0,P|103:46|134:36,1,65,2|8,1:2|1:2,0:0:0:0:
134,36,125105,1,2,1:2:0:0:
134,36,125184,2,0,P|164:25|196:17,1,65,0|10,1:2|1:2,0:0:0:0:
273,60,125500,6,0,P|278:75|283:90,3,32.5,10|0|0|0,0:0|1:0|1:0|1:0,0:0:0:0:
319,114,125816,2,0,P|324:129|329:144,3,32.5,0|0|0|0,1:0|1:0|1:0|1:0,0:0:0:0:
369,160,126132,2,0,P|374:175|379:190,3,32.5,0|0|0|0,1:0|1:0|1:0|1:0,0:0:0:0:
416,210,126447,1,2,1:2:0:0:
416,210,126526,1,0,1:0:0:0:
416,210,126605,1,10,0:0:0:0:
212,361,127079,6,0,P|150:339|88:322,2,130
212,361,128026,1,14,0:0:0:0:
256,192,128105,12,14,130553,0:2:0:0:
256,192,138132,5,2,1:2:0:0:
256,192,138763,2,0,P|232:154|239:110,1,90.9999972229005
240,109,139395,2,0,B|300:97|331:131|315:144|350:177|402:166,1,181.999994445801,10|0,0:0|0:0,0:0:0:0:
402,166,140658,5,14,0:0:0:0:
460,238,140816,1,0,1:0:0:0:
388,296,140974,1,0,1:0:0:0:
331,224,141132,2,0,P|269:204|208:180,1,130,10|0,0:0|1:0,0:0:0:0:
124,169,141605,2,0,P|122:201|140:228,1,65,10|0,0:0|1:0,0:0:0:0:
214,184,141921,5,10,0:0:0:0:
214,184,142079,2,0,P|198:120|188:56,1,130,0|0,1:0|1:0,0:0:0:0:
280,106,142553,2,0,P|311:97|343:90,1,65,2|0,0:0|1:0,0:0:0:0:
343,90,142789,1,0,1:0:0:0:
343,90,142868,1,14,0:0:0:0:
512,212,143184,6,0,P|464:223|416:233,1,97.5,6|0,1:2|0:0,0:0:0:0:
416,233,143500,1,8,0:0:0:0:
361,303,143658,2,0,P|368:334|374:366,1,65,2|0,0:0|1:2,0:0:0:0:
283,270,143974,1,0,1:0:0:0:
283,270,144132,2,0,P|275:238|269:206,1,65,10|0,0:2|0:0,0:0:0:0:
194,142,144447,6,0,P|195:80|245:42,2,130,2|10|2,1:2|0:0|1:2,0:0:0:0:
281,125,145237,1,0,1:0:0:0:
281,125,145395,2,0,P|311:114|343:107,1,65,10|0,0:2|0:0,0:0:0:0:
432,141,145711,6,0,P|454:202|471:264,1,130,2|8,1:2|0:0,0:0:0:0:
387,325,146184,2,0,P|375:294|365:263,1,65,2|0,0:0|1:2,0:0:0:0:
278,241,146500,1,0,1:0:0:0:
278,241,146658,2,0,P|247:252|216:262,1,65,10|0,0:2|0:0,0:0:0:0:
122,322,146974,6,0,P|183:343|242:369,2,130,2|8|0,1:2|0:0|1:2,0:0:0:0:
56,264,147763,1,0,1:0:0:0:
117,199,147921,1,8,0:2:0:0:
0,94,148237,6,0,P|46:79|91:60,1,97.5,6|0,1:2|0:0,0:0:0:0:
91,60,148553,2,0,P|122:69|152:81,1,65,8|0,0:0|0:0,0:0:0:0:
228,45,148868,1,2,1:2:0:0:
228,45,149026,1,0,1:0:0:0:
299,0,149184,2,0,P|330:9|360:21,1,65,10|0,0:2|0:0,0:0:0:0:
423,99,149500,6,0,P|428:161|381:202,1,130,2|8,1:2|0:0,0:0:0:0:
292,233,149974,1,0,0:0:0:0:
292,233,150132,2,0,P|281:202|288:170,1,65,2|0,1:2|1:0,0:0:0:0:
343,108,150447,1,8,0:2:0:0:
202,209,150763,6,0,P|172:197|142:185,1,65,2|0,1:2|0:0,0:0:0:0:
106,267,151079,1,8,0:0:0:0:
106,267,151237,2,0,P|106:203|64:155,1,130,2|0,0:0|1:0,0:0:0:0:
120,73,151711,2,0,P|150:85|180:96,1,65,10|0,0:2|0:0,0:0:0:0:
259,137,152026,6,0,P|320:114|384:104,1,130,2|8,1:2|0:0,0:0:0:0:
419,17,152500,2,0,P|470:52|471:115,1,130,2|0,1:2|1:0,0:0:0:0:
415,183,152974,2,0,P|424:214|432:245,1,65,10|0,0:0|0:0,0:0:0:0:
462,325,153289,2,0,B|430:326|397:305|416:287|388:262|353:265,2,130,6|8|0,1:2|0:0|1:2,0:0:0:0:
512,260,154079,1,0,1:0:0:0:
470,189,154237,2,0,L|491:125,1,65,10|2,0:2|0:0,0:0:0:0:
420,11,154553,6,0,L|381:134,1,130,2|8,1:2|0:0,0:0:0:0:
300,175,155026,2,0,P|270:165|240:151,1,65,2|0,0:0|1:2,0:0:0:0:
168,193,155342,1,0,1:0:0:0:
168,193,155500,2,0,P|138:179|107:168,1,65,10|0,0:2|0:0,0:0:0:0:
77,293,155816,6,0,P|140:280|205:270,1,130,2|8,1:2|0:0,0:0:0:0:
309,384,156447,1,0,1:0:0:0:
308,383,156605,2,0,P|291:355|288:323,1,65,0|8,1:0|0:0,0:0:0:0:
362,286,156921,1,0,0:0:0:0:
362,286,157079,2,0,P|364:253|381:226,1,65,10|0,0:0|1:0,0:0:0:0:
338,94,157395,2,0,P|335:126|318:153,1,65,10|0,0:0|1:0,0:0:0:0:
235,177,157711,5,10,0:0:0:0:
160,139,157868,1,10,0:0:0:0:
85,101,158026,1,10,0:0:0:0:
85,101,158184,1,10,0:0:0:0:
31,166,158342,6,0,P|45:212|57:259,1,97.5,6|0,1:2|0:0,0:0:0:0:
57,259,158658,2,0,P|49:290|39:321,1,65,8|0,0:0|0:0,0:0:0:0:
137,351,158974,2,0,P|144:319|154:288,1,65,2|0,1:2|1:0,0:0:0:0:
238,246,159289,2,0,P|269:253|300:263,1,65,10|0,0:2|0:0,0:0:0:0:
375,197,159605,6,0,P|382:134|334:94,2,130,2|8|2,1:2|0:0|1:2,0:0:0:0:
290,175,160395,1,0,1:0:0:0:
290,175,160553,2,0,P|259:165|227:157,1,65,8|0,0:2|0:0,0:0:0:0:
177,85,160868,2,0,P|115:105|51:118,1,130,2|8,1:2|0:0,0:0:0:0:
6,189,161342,2,0,P|16:219|23:251,1,65,2|0,0:0|1:2,0:0:0:0:
92,315,161658,1,0,1:0:0:0:
92,315,161816,2,0,P|99:283|109:252,1,65,10|0,0:2|0:0,0:0:0:0:
200,217,162132,6,0,P|260:240|322:261,1,130,2|8,1:2|0:0,0:0:0:0:
391,327,162605,1,0,1:2:0:0:
391,327,162763,2,0,P|400:295|412:265,1,65,2|0,0:0|1:0,0:0:0:0:
489,228,163079,2,0,P|477:197|467:166,1,65,10|0,0:2|0:0,0:0:0:0:
488,69,163395,2,0,B|419:77|439:114|369:114,1,130,6|8,1:2|0:0,0:0:0:0:
301,172,163868,2,0,P|240:147|178:128,1,130,2|0,0:0|1:0,0:0:0:0:
106,179,164342,1,10,0:2:0:0:
196,306,164658,6,0,P|227:297|259:290,1,65,2|0,1:2|0:0,0:0:0:0:
327,345,164974,2,0,P|358:338|390:329,1,65,10|0,0:0|0:0,0:0:0:0:
446,267,165289,1,2,1:2:0:0:
446,267,165447,1,0,1:0:0:0:
388,206,165605,2,0,P|401:159|414:112,1,97.5,10|0,0:2|0:0,0:0:0:0:
414,112,165921,6,0,P|351:111|312:61,1,130,2|8,1:2|0:0,0:0:0:0:
240,13,166395,2,0,P|209:22|177:31,1,65,2|0,0:0|1:2,0:0:0:0:
126,96,166711,1,0,1:0:0:0:
126,96,166868,2,0,P|135:126|143:158,1,65,10|0,0:2|0:0,0:0:0:0:
197,235,167184,2,0,P|240:189|233:127,2,130,2|8|0,1:2|0:0|1:2,0:0:0:0:
129,288,167974,1,0,1:0:0:0:
181,355,168132,1,8,0:2:0:0:
340,301,168447,6,0,P|350:253|366:207,1,97.5,6|0,1:2|0:0,0:0:0:0:
366,207,168763,2,0,P|361:175|355:143,1,65,8|0,0:0|0:0,0:0:0:0:
404,66,169079,2,0,P|436:60|467:54,1,65,2|0,1:2|1:0,0:0:0:0:
336,11,169395,2,0,P|303:16|272:22,1,65,10|0,0:2|0:0,0:0:0:0:
214,95,169711,6,0,P|151:94|119:40,1,130,2|8,1:2|0:0,0:0:0:0:
0,190,170342,1,2,1:2:0:0:
0,190,170500,1,0,1:0:0:0:
62,140,170658,2,0,P|55:108|47:76,1,65,8|0,0:2|0:0,0:0:0:0:
139,179,170974,6,0,P|153:242|174:303,1,130,2|8,1:2|0:0,0:0:0:0:
251,345,171447,2,0,P|281:334|312:323,1,65,2|0,0:0|1:2,0:0:0:0:
394,360,171763,1,0,1:0:0:0:
394,360,171921,2,0,P|424:348|455:338,1,65,10|0,0:2|0:0,0:0:0:0:
512,264,172237,6,0,B|477:268|451:247|461:231|438:204|402:208,1,130,2|8,1:2|0:0,0:0:0:0:
336,144,172711,1,0,1:0:0:0:
336,143,172868,2,0,P|344:111|350:79,1,65,2|0,0:0|1:0,0:0:0:0:
268,6,173184,2,0,P|259:37|253:69,1,65,10|0,0:0|0:0,0:0:0:0:
172,125,173500,6,0,P|109:106|46:89,1,130,6|8,1:2|0:0,0:0:0:0:
85,188,173974,2,0,P|78:219|68:250,1,65,2|0,0:0|1:2,0:0:0:0:
132,311,174289,1,0,1:0:0:0:
132,311,174447,2,0,P|122:342|115:373,1,65,10|0,0:2|0:0,0:0:0:0:
210,275,174763,6,0,P|272:290|336:303,1,130,2|8,1:2|0:0,0:0:0:0:
479,211,175395,1,2,1:2:0:0:
479,211,175553,1,0,1:0:0:0:
479,211,175711,1,8,0:2:0:0:
372,80,176026,2,0,P|361:110|352:142,1,65,2|0,1:2|1:0,0:0:0:0:
260,112,176342,2,0,P|270:81|279:49,1,65,0|0,0:0|1:0,0:0:0:0:
189,55,176658,1,8,0:0:0:0:
189,55,176816,1,0,1:0:0:0:
79,183,177132,6,0,B|74:256|111:239|111:306,1,130,12|0,0:0|0:0,0:0:0:0:
178,358,177605,2,0,P|208:346|239:338,1,65,0|0,1:2|1:2,0:0:0:0:
302,280,177921,2,0,P|332:291|363:299,1,65,10|2,0:0|0:0,0:0:0:0:
437,258,178237,1,10,0:0:0:0:
396,183,178395,5,8,0:0:0:0:
396,183,178474,1,8,0:0:0:0:
396,182,178553,2,0,P|420:122|437:60,1,130,2|8,1:2|0:0,0:0:0:0:
333,47,179026,2,0,P|320:76|308:107,1,65,2|0,1:2|0:0,0:0:0:0:
221,140,179342,1,2,1:2:0:0:
221,140,179500,2,0,P|191:127|160:115,1,65,10|2,0:2|1:2,0:0:0:0:
116,205,179816,6,0,P|55:229|0:261,1,130,2|10,1:2|0:0,0:0:0:0:
182,337,180447,2,0,P|193:306|203:275,1,65,2|0,0:0|1:0,0:0:0:0:
270,364,180763,2,0,P|279:333|291:302,1,65,10|2,0:0|1:2,0:0:0:0:
291,302,181000,5,0,1:0:0:0:
291,302,181079,2,0,P|316:268|311:226,1,86.6666666666667,2|0,1:2|1:0,0:0:0:0:
270,188,181395,1,10,0:0:0:0:
426,126,181711,2,0,P|421:84|387:58,1,86.6666666666667,2|0,1:2|1:0,0:0:0:0:
335,80,182026,1,10,0:0:0:0:
166,73,182342,6,0,P|182:135|194:199,1,130,2|10,1:2|0:0,0:0:0:0:
141,268,182816,1,4,1:2:0:0:
141,268,182974,2,0,L|109:276,7,32.5,2|2|2|2|10|2|2|2,0:0|0:0|1:2|0:0|0:0|0:0|0:0|0:0,0:0:0:0:
181,297,183605,6,0,P|243:300|278:352,1,130,6|8,1:2|0:0,0:0:0:0:
365,384,184079,2,0,P|397:330|373:272,1,130,2|0,1:2|1:0,0:0:0:0:
373,272,184474,1,0,1:0:0:0:
373,272,184553,1,10,0:0:0:0:
309,105,184868,6,0,P|317:73|330:43,1,65,2|0,1:2|0:0,0:0:0:0:
330,43,185105,1,0,1:0:0:0:
330,43,185184,2,0,P|298:34|268:22,1,65,10|0,0:0|1:0,0:0:0:0:
192,65,185500,2,0,P|161:53|130:44,1,65,2|0,0:0|1:0,0:0:0:0:
60,95,185816,2,0,B|56:150|82:138|85:187,1,97.5,10|0,0:0|0:0,0:0:0:0:
85,186,186132,6,0,P|147:188|176:243,1,130,2|8,1:2|0:0,0:0:0:0:
97,281,186605,1,2,1:2:0:0:
97,281,186684,1,2,0:2:0:0:
97,281,186763,2,0,P|108:311|118:342,1,65,2|0,0:2|1:0,0:0:0:0:
118,342,187000,1,0,1:0:0:0:
118,342,187079,1,8,0:0:0:0:
218,367,187237,5,0,1:0:0:0:
218,367,187395,2,0,P|248:355|279:345,1,65,2|0,1:2|0:0,0:0:0:0:
353,384,187711,2,0,P|371:357|373:325,1,65,10|0,0:0|1:0,0:0:0:0:
433,262,188026,2,0,P|417:234|388:218,1,65,10|0,0:0|1:0,0:0:0:0:
388,218,188263,1,0,1:0:0:0:
388,218,188342,2,0,L|408:156,1,65,10|0,0:2|1:0,0:0:0:0:
324,60,188658,6,0,L|288:185,1,130,4|0,1:2|0:0,0:0:0:0:
209,229,189132,1,2,1:2:0:0:
209,229,189289,2,0,P|146:232|107:183,1,130,10|0,0:0|0:0,0:0:0:0:
0,141,189763,1,2,1:2:0:0:
0,141,189921,2,0,B|36:145|61:127|47:112|76:87|114:96,1,130,2|2,1:2|1:2,0:0:0:0:
234,0,190553,2,0,P|224:31|213:61,1,65,10|0,0:2|0:0,0:0:0:0:
268,139,190868,2,0,P|314:154|360:170,1,97.5,2|0,1:2|0:0,0:0:0:0:
360,170,191184,6,0,P|372:231|327:274,1,130,6|0,1:2|0:0,0:0:0:0:
251,331,191658,1,2,1:2:0:0:
251,331,191737,1,2,1:2:0:0:
251,331,191816,2,0,L|236:267,1,65,10|0,0:2|0:0,0:0:0:0:
161,226,192132,1,0,0:0:0:0:
161,226,192289,1,0,1:0:0:0:
80,184,192447,6,0,L|52:56,1,130,2|2,1:2|1:2,0:0:0:0:
52,56,192842,1,0,0:0:0:0:
52,56,192921,1,0,0:0:0:0:
156,113,193079,2,0,P|187:103|217:93,1,65,10|0,0:0|0:0,0:0:0:0:
290,149,193395,2,0,P|336:163|381:181,1,97.5,2|0,1:2|0:0,0:0:0:0:
381,181,193711,6,0,P|431:145|426:83,1,130,6|8,1:2|0:0,0:0:0:0:
304,241,194342,2,0,P|311:272|320:303,1,65,0|0,1:0|1:0,0:0:0:0:
262,368,194658,1,8,0:0:0:0:
262,368,194737,1,0,0:0:0:0:
262,368,194816,1,0,0:0:0:0:
184,324,194974,6,0,P|152:331|121:342,1,65,0|0,1:0|0:0,0:0:0:0:
99,245,195289,2,0,P|130:237|161:226,1,65,8|0,0:0|0:0,0:0:0:0:
221,155,195605,2,0,P|213:123|202:92,1,65,0|0,1:0|1:0,0:0:0:0:
202,92,195842,1,0,0:0:0:0:
202,92,195921,1,8,0:0:0:0:
309,68,196079,5,0,1:0:0:0:
309,68,196158,1,0,1:0:0:0:
309,68,196237,2,0,P|316:99|327:130,1,65,8|0,0:0|1:0,0:0:0:0:
424,181,196553,2,0,P|454:170|486:162,1,65,8|0,0:0|1:0,0:0:0:0:
378,276,196868,2,0,P|388:306|396:338,1,65,8|0,0:0|1:0,0:0:0:0:
280,231,197184,2,0,P|249:241|217:249,1,65,8|0,0:0|1:0,0:0:0:0:
152,305,197500,5,8,0:0:0:0:
152,305,197579,1,0,0:0:0:0:
152,305,197658,1,0,0:0:0:0:
70,264,197816,1,0,1:0:0:0:
70,264,197895,1,0,1:0:0:0:
70,264,197974,2,0,P|60:233|52:201,1,65,8|0,0:0|0:0,0:0:0:0:
99,135,198289,2,0,P|91:103|81:72,1,65,0|8,1:0|0:0,0:0:0:0:
134,1,198605,5,8,0:0:0:0:
134,1,198684,1,8,0:0:0:0:
134,1,198763,2,0,B|205:0|187:37|259:36,1,130,6|8,1:2|0:0,0:0:0:0:
324,99,199237,1,0,1:0:0:0:
324,99,199395,2,0,P|387:86|450:70,1,130,2|8,0:0|0:0,0:0:0:0:
285,178,200026,6,0,P|297:225|306:273,1,97.5,2|0,1:2|1:0,0:0:0:0:
306,273,200342,2,0,L|243:288,1,65,10|0,0:0|0:0,0:0:0:0:
197,360,200658,2,0,P|165:353|141:334,1,65,2|0,1:2|1:0,0:0:0:0:
36,337,200974,2,0,P|28:305|35:275,1,65,10|0,0:2|0:0,0:0:0:0:
36,274,201211,5,0,0:0:0:0:
36,274,201289,2,0,P|97:267|120:209,1,130,2|8,1:2|0:0,0:0:0:0:
68,141,201763,2,0,L|83:77,1,65,2|2,1:2|1:2,0:0:0:0:
83,77,202000,1,0,1:2:0:0:
83,77,202079,1,0,1:2:0:0:
191,0,202237,2,0,L|175:63,1,65,8|0,0:0|0:0,0:0:0:0:
238,130,202553,6,0,P|285:135|324:108,1,97.5,0|0,1:0|1:0,0:0:0:0:
324,108,202868,2,0,P|340:135|335:167,1,65,10|0,0:0|1:0,0:0:0:0:
282,236,203184,1,2,1:2:0:0:
282,236,203263,1,0,1:0:0:0:
282,236,203342,1,0,1:0:0:0:
328,305,203500,2,0,P|374:290|421:278,1,97.5,10|0,0:0|0:0,0:0:0:0:
421,278,203816,6,0,B|426:210|384:224|397:154,1,130,6|8,1:2|0:0,0:0:0:0:
333,87,204289,1,0,1:0:0:0:
333,87,204447,2,0,P|301:95|269:101,1,65,2|0,0:0|1:0,0:0:0:0:
211,162,204763,2,0,P|179:168|147:176,1,65,8|2,0:0|1:2,0:0:0:0:
72,136,205079,6,0,P|67:73|118:38,1,130,0|10,1:0|0:0,0:0:0:0:
147,176,205711,2,0,P|155:207|158:239,1,65,2|0,1:2|1:0,0:0:0:0:
231,291,206026,2,0,P|234:323|242:354,1,65,10|0,0:2|0:0,0:0:0:0:
242,354,206263,5,0,0:0:0:0:
242,354,206342,2,0,B|308:358|294:319|366:320,1,130,2|8,1:2|0:2,0:0:0:0:
430,263,206816,2,0,P|423:231|415:199,1,65,2|2,1:2|1:2,0:0:0:0:
415,199,207053,1,0,1:2:0:0:
415,199,207132,1,0,1:2:0:0:
337,163,207289,2,0,P|326:115|313:68,1,97.5,8|0,0:0|0:0,0:0:0:0:
313,68,207605,6,0,P|375:51|437:32,1,130,0|10,1:0|0:0,0:0:0:0:
453,219,208237,1,2,1:2:0:0:
453,219,208395,1,0,1:0:0:0:
384,266,208553,2,0,P|353:256|321:247,1,65,8|0,0:0|1:0,0:0:0:0:
256,192,208868,6,0,P|220:147|164:146,2,116.999996429443,6|10|10,1:2|0:0|0:0,0:0:0:0:
353,308,209816,2,0,P|410:291|466:277,1,116.999996429443,2|10,1:2|0:0,0:0:0:0:
485,163,210342,1,8,0:0:0:0:
485,163,210447,2,0,P|472:137|470:109,1,58.4999982147217,8|0,0:0|1:0,0:0:0:0:
467,20,210763,6,0,P|439:69|383:78,2,116.999996429443,6|10|10,1:2|0:0|0:0,0:0:0:0:
312,130,211711,2,0,P|255:113|199:99,1,116.999996429443,2|8,1:2|0:0,0:0:0:0:
112,174,212237,1,8,0:0:0:0:
112,174,212342,2,0,L|128:230,1,58.4999982147217,10|0,0:0|0:0,0:0:0:0:
200,288,212658,6,0,P|241:273|284:263,1,87.7499973220826,2|0,1:2|0:0,0:0:0:0:
284,263,212974,2,0,L|300:319,1,58.4999982147217,8|0,0:0|0:0,0:0:0:0:
391,290,213289,2,0,L|374:233,1,58.4999982147217,8|0,0:0|0:0,0:0:0:0:
306,184,213605,1,0,1:0:0:0:
390,73,213921,6,0,L|446:56,1,58.4999982147217,8|0,0:0|0:0,0:0:0:0:
313,32,214237,2,0,L|256:48,1,58.4999982147217,8|0,0:0|0:0,0:0:0:0:
195,111,214553,2,0,P|138:115|100:73,2,116.999996429443,2|8|8,1:2|0:0|0:0,0:0:0:0:
103,204,215500,2,0,P|120:259|133:316,1,116.999996429443,2|10,1:2|0:2,0:0:0:0:
133,316,215895,1,0,0:0:0:0:
133,316,215974,1,0,0:0:0:0:
231,352,216132,2,0,P|273:338|316:328,1,87.7499973220826,10|0,0:2|0:0,0:0:0:0:
315,328,216447,5,6,1:2:0:0:
256,192,226553,6,0,P|223:157|226:109,1,97.5,4|0,1:2|0:0,0:0:0:0:
226,109,226868,2,0,P|288:131|348:156,1,130,10|0,0:0|1:0,0:0:0:0:
421,117,227342,1,0,1:0:0:0:
421,117,227500,1,8,0:0:0:0:
474,181,227658,1,0,0:0:0:0:
408,238,227816,6,0,L|437:373,1,130,2|8,1:2|0:2,0:0:0:0:
265,265,228447,2,0,L|251:201,1,65,2|0,1:2|1:2,0:0:0:0:
300,139,228763,1,8,0:2:0:0:
300,139,228921,1,2,0:0:0:0:
172,184,229079,2,0,P|109:176|81:120,1,130,2|8,1:2|0:0,0:0:0:0:
255,247,229711,2,0,P|243:294|228:340,2,97.5,2|2|2,1:2|0:0|0:0,0:0:0:0:
325,358,230342,6,0,P|341:295|363:233,1,130,2|8,1:2|0:0,0:0:0:0:
438,191,230816,1,0,0:0:0:0:
438,191,230895,1,0,0:0:0:0:
438,191,230974,1,0,0:0:0:0:
380,118,231132,1,0,1:0:0:0:
431,49,231289,1,12,0:0:0:0:
290,106,231605,6,0,P|258:99|226:91,1,65,2|0,1:2|0:0,0:0:0:0:
151,132,231921,2,0,P|119:123|87:117,1,65,2|2,1:2|1:2,0:0:0:0:
25,179,232237,2,0,P|16:210|10:242,1,65,10|2,0:2|0:2,0:0:0:0:
67,311,232553,1,2,1:2:0:0:
67,311,232711,1,2,1:2:0:0:
136,365,232868,6,0,B|171:376|194:351|186:342|211:314|249:319,1,130,2|2,1:2|1:2,0:0:0:0:
384,216,233500,2,0,P|376:184|366:153,1,65,10|2,0:2|1:2,0:0:0:0:
413,83,233816,1,10,0:2:0:0:
413,83,233974,1,10,0:2:0:0:
348,27,234132,1,2,1:3:0:0:
348,27,234605,1,2,1:3:0:0:
348,27,235079,1,2,1:3:0:0:
137,167,235553,5,2,1:3:0:0:
79,115,235711,2,0,P|88:83|96:52,1,65,8|0,0:0|1:0,0:0:0:0:
96,52,235947,1,0,1:0:0:0:
96,52,236026,1,8,0:0:0:0:
185,45,236184,1,8,0:0:0:0:
273,37,236342,1,2,0:0:0:0:
273,37,236658,6,0,P|259:88|247:141,1,107.25000327301,4|0,1:0|0:0,0:0:0:0:
246,140,236974,2,0,P|281:149|315:161,1,71.5000021820069,10|0,0:0|1:0,0:0:0:0:
319,280,237289,2,0,P|251:257|182:238,1,143.000004364014,2|8,1:0|0:0,0:0:0:0:
121,306,237763,5,0,1:0:0:0:
121,306,237921,2,0,P|98:279|93:244,1,71.5000021820069,2|0,1:0|1:0,0:0:0:0:
27,194,238237,2,0,P|41:161|71:143,1,71.5000021820069,8|0,0:0|1:0,0:0:0:0:
137,70,238553,2,0,P|205:88|276:100,1,143.000004364014,0|10,1:0|0:2,0:0:0:0:
337,168,239026,5,2,1:2:0:0:
337,168,239184,2,0,P|373:174|407:185,1,71.5000021820069,2|0,1:2|1:0,0:0:0:0:
467,315,239500,1,10,0:2:0:0:
467,315,239658,2,0,P|398:318|355:264,1,143.000004364014,2|2,1:2|1:2,0:0:0:0:
261,214,240131,2,0,P|227:226|194:240,1,71.5000021820069,10|2,0:2|1:2,0:0:0:0:
132,157,240447,6,0,P|197:128|266:108,1,143.000004364014,0|8,1:0|0:0,0:0:0:0:
426,30,241079,1,2,1:2:0:0:
360,81,241236,1,2,1:2:0:0:
408,155,241394,1,10,0:2:0:0:
408,155,241552,6,0,P|351:192|355:260,1,143.000004364014,14|0,0:2|1:0,0:0:0:0:
422,330,242026,1,10,0:0:0:0:
422,330,242105,1,0,1:0:0:0:
422,330,242184,1,0,1:0:0:0:
352,380,242342,2,0,P|318:369|283:361,1,71.5000021820069,2|0,1:2|1:0,0:0:0:0:
238,294,242658,1,10,0:0:0:0:
238,294,242736,1,0,1:0:0:0:
238,294,242815,1,2,1:2:0:0:
170,353,242974,6,0,P|147:326|146:291,1,71.5000021820069,0|0,1:0|1:0,0:0:0:0:
81,214,243289,2,0,L|46:204,2,35.7500010910034,10|0|0,0:2|1:0|1:0,0:0:0:0:
141,154,243605,2,0,L|175:165,2,35.7500010910034,2|0|0,1:2|1:0|1:0,0:0:0:0:
110,74,243921,2,0,L|75:64,2,35.7500010910034,10|0|0,0:2|1:0|1:0,0:0:0:0:
225,88,244237,6,0,P|208:155|251:209,1,143.000004364014,2|8,1:2|0:0,0:0:0:0:
329,284,244710,1,0,1:0:0:0:
328,284,244868,2,0,P|341:250|356:218,1,71.5000021820069,0|0,1:0|1:0,0:0:0:0:
433,182,245184,2,0,P|445:148|460:116,1,71.5000021820069,8|0,0:0|1:0,0:0:0:0:
412,42,245500,6,0,L|378:29,3,35.7500010910034,4|0|0|0,1:2|1:0|1:0|1:0,0:0:0:0:
338,52,245816,2,0,L|304:39,3,35.7500010910034,8|0|0|0,1:2|1:0|1:0|1:0,0:0:0:0:
262,60,246131,1,10,0:0:0:0:
183,104,246289,1,0,1:0:0:0:
183,104,246368,1,0,1:0:0:0:
183,103,246447,2,0,P|161:131|164:165,1,71.5000021820069,10|2,0:0|0:0,0:0:0:0:
231,228,246763,5,4,1:0:0:0:
231,228,246921,1,0,1:0:0:0:
180,299,247079,2,0,P|145:290|110:284,1,71.5000021820069,8|0,0:0|1:0,0:0:0:0:
53,219,247395,2,0,P|60:184|67:148,1,71.5000021820069,2|0,1:2|1:0,0:0:0:0:
146,92,247711,2,0,P|180:100|215:106,1,71.5000021820069,10|0,0:2|1:0,0:0:0:0:
284,170,248026,6,0,P|352:172|387:114,1,143.000004364014,2|8,1:2|0:0,0:0:0:0:
475,142,248500,1,0,1:0:0:0:
460,234,248658,1,0,1:0:0:0:
344,381,248974,6,0,P|354:346|363:312,1,71.5000021820069,10|0,0:0|1:0,0:0:0:0:
286,266,249289,2,0,B|212:268|230:318|154:312,1,143.000004364014,2|10,1:2|0:2,0:0:0:0:
66,288,249763,2,0,P|49:257|59:224,1,71.5000021820069,2|0,1:2|1:0,0:0:0:0:
119,154,250079,2,0,P|130:120|139:85,1,71.5000021820069,2|8,1:2|0:0,0:0:0:0:
259,85,250394,5,2,1:2:0:0:
259,85,250553,2,0,P|236:152|220:222,1,143.000004364014,0|8,1:0|0:0,0:0:0:0:
281,295,251026,1,0,1:0:0:0:
281,295,251184,2,0,P|315:303|350:312,1,71.5000021820069,2|0,1:2|1:0,0:0:0:0:
429,262,251500,2,0,P|438:227|446:192,1,71.5000021820069,8|0,0:0|1:0,0:0:0:0:
512,114,251816,6,0,B|436:121|455:78|375:81,1,143.000004364014,2|10,1:2|0:2,0:0:0:0:
313,18,252289,2,0,P|278:27|243:35,1,71.5000021820069,2|0,1:2|1:0,0:0:0:0:
193,105,252605,1,0,1:0:0:0:
257,172,252763,1,10,0:2:0:0:
257,172,252842,1,0,1:0:0:0:
257,172,252921,1,0,1:0:0:0:
190,237,253079,6,0,P|123:253|73:205,1,143.000004364014,2|8,1:2|0:0,0:0:0:0:
18,132,253553,2,0,P|52:122|86:110,1,71.5000021820069,2|0,1:2|1:0,0:0:0:0:
138,39,253868,1,0,1:0:0:0:
138,39,254026,2,0,P|154:32|171:27,4,35.7500010910034,10|0|0|0|14,0:0|1:0|1:0|1:0|0:0,0:0:0:0:
253,60,254500,2,0,P|269:53|286:48,2,35.7500010910034,0|0|8,1:0|1:0|0:0,0:0:0:0:
363,90,254816,2,0,P|369:106|374:123,2,35.7500010910034,2|0|10,1:2|1:0|0:2,0:0:0:0:
336,199,255132,2,0,P|319:205|302:210,2,35.7500010910034,2|0|10,0:0|1:0|0:0,0:0:0:0:
228,156,255447,1,14,0:0:0:0:
125,265,255763,5,8,0:0:0:0:
77,328,255921,1,8,0:0:0:0:
140,384,256079,1,0,1:0:0:0:
140,384,256237,2,0,L|207:361,1,71.5000021820069,8|4,0:3|0:3,0:0:0:0:
207,361,256474,1,4,0:3:0:0:
207,361,256553,1,8,0:0:0:0:
264,291,256710,5,8,0:0:0:0:
264,291,256868,2,0,L|325:269,1,65,6|8,1:2|1:2,0:0:0:0:
386,194,257184,1,0,1:2:0:0:
386,194,257342,2,0,L|364:132,1,65,10|0,1:2|1:2,0:0:0:0:
309,64,257658,1,8,1:2:0:0:
240,115,257815,1,2,1:2:0:0:
180,180,257973,5,8,1:2:0:0:
180,180,258052,1,0,1:2:0:0:
180,180,258131,2,0,P|116:167|52:157,1,130,2|0,1:2|1:2,0:0:0:0:
96,255,258605,2,0,P|54:301|65:363,1,130,10|8,1:2|1:2,0:0:0:0:
160,384,259079,2,0,P|191:374|222:366,1,65,2|8,1:2|1:2,0:0:0:0:
222,366,259315,5,0,1:2:0:0:
222,366,259395,2,0,P|264:320|253:258,1,130,2|0,1:2|1:2,0:0:0:0:
309,188,259868,2,0,P|296:159|286:127,1,65,10|0,1:2|1:2,0:0:0:0:
377,95,260184,1,8,1:2:0:0:
377,94,260342,2,0,P|389:124|399:156,1,65,2|8,1:2|1:2,0:0:0:0:
399,156,260579,5,0,1:2:0:0:
398,156,260658,2,0,P|407:218|369:268,1,130,2|0,1:2|1:2,0:0:0:0:
285,306,261131,2,0,P|256:293|225:284,1,65,10|0,1:2|1:2,0:0:0:0:
157,335,261447,1,8,1:2:0:0:
157,335,261605,1,2,1:2:0:0:
83,287,261763,5,8,1:2:0:0:
83,287,261842,1,0,1:2:0:0:
82,286,261921,2,0,P|52:231|73:172,1,130,2|0,1:2|1:2,0:0:0:0:
73,81,262394,1,8,1:2:0:0:
73,81,262473,1,0,1:2:0:0:
73,81,262553,2,0,P|103:91|135:99,1,65,0|8,1:2|1:2,0:0:0:0:
202,158,262868,2,0,P|217:161|233:165,3,32.5,0|0|8|0,1:2|1:2|1:2|1:2,0:0:0:0:
232,164,263184,6,0,P|249:104|308:87,1,130,2|0,1:2|1:2,0:0:0:0:
393,108,263658,1,10,1:2:0:0:
417,195,263816,2,0,P|407:225|398:257,1,65,2|8,1:2|1:2,0:0:0:0:
398,257,264052,1,2,1:2:0:0:
398,257,264131,2,0,P|368:246|336:238,1,65,0|10,1:2|1:2,0:0:0:0:
251,290,264447,6,0,P|236:285|221:280,3,32.5,10|0|0|0,0:0|1:0|1:0|1:0,0:0:0:0:
181,297,264763,2,0,P|166:292|151:287,3,32.5,0|0|0|0,1:0|1:0|1:0|1:0,0:0:0:0:
113,309,265079,2,0,P|98:304|83:299,3,32.5,0|0|0|0,1:0|1:0|1:0|1:0,0:0:0:0:
51,323,265394,1,2,1:2:0:0:
51,323,265473,1,0,1:0:0:0:
51,323,265552,1,10,0:0:0:0:
244,158,266026,6,0,P|285:112|271:51,2,130
244,158,266973,1,0,0:0:0:0:
59,315,268236,6,0,P|89:303|120:295,1,65,14|0,0:2|1:0,0:0:0:0:
171,226,268552,2,0,P|159:195|151:164,1,65,8|0,0:0|1:0,0:0:0:0:
272,145,268868,2,0,P|260:175|252:206,1,65,10|0,0:0|0:0,0:0:0:0:
211,305,269183,1,10,0:0:0:0:
211,305,269341,2,0,B|275:318|265:348|328:356,1,130,14|0,0:2|1:0,0:0:0:0:
422,384,269815,6,0,P|427:353|438:322,1,65,10|0,1:2|1:0,0:0:0:0:
379,251,270131,1,10,1:2:0:0:
407,171,270289,1,8,0:0:0:0:
342,116,270447,1,2,0:0:0:0:
206,198,270762,2,0,P|175:187|143:179,1,65,14|2,0:2|1:2,0:0:0:0:
168,84,271078,2,0,P|198:94|230:102,1,65,10|2,0:2|1:2,0:0:0:0:
298,39,271394,1,10,0:0:0:0:
396,60,271552,1,2,1:2:0:0:
396,60,271631,1,0,1:0:0:0:
396,60,271710,1,10,0:0:0:0:
360,165,271868,6,0,B|358:237|324:216|317:285,1,130,14|0,0:0|1:0,0:0:0:0:
317,285,272262,1,0,1:0:0:0:
317,285,272341,1,8,1:2:0:0:
254,347,272499,1,2,1:2:0:0:
254,347,272578,1,2,1:2:0:0:
254,347,272657,2,0,L|191:327,1,65,10|2,0:2|0:0,0:0:0:0:
130,266,272973,2,0,L|67:285,1,65,10|8,0:2|0:0,0:0:0:0:
186,194,273289,6,0,P|198:132|156:85,2,130,14|10|10,0:2|0:2|0:2,0:0:0:0:
254,347,274236,1,10,0:2:0:0:
253,347,274394,2,0,P|316:331|379:319,1,130,6|0,1:2|1:0,0:0:0:0:
426,245,274868,2,0,P|404:221|400:189,1,65,10|0,0:2|1:0,0:0:0:0:
400,189,275104,1,0,1:0:0:0:
400,189,275183,1,10,0:2:0:0:
512,133,275341,1,0,1:0:0:0:
512,133,275499,2,0,P|507:164|486:188,1,65,10|0,0:2|0:0,0:0:0:0:
313,196,275815,6,0,B|273:197|251:175|263:163|242:138|202:139,1,130,14|10,0:2|0:2,0:0:0:0:
67,248,276447,2,0,P|98:240|129:228,1,65,10|2,0:2|1:2,0:0:0:0:
181,314,276762,1,10,0:2:0:0:
181,314,276920,2,0,P|242:293|305:277,1,130,14|2,0:0|1:2,0:0:0:0:
368,337,277394,2,0,P|388:312|391:280,1,65,10|2,0:0|1:2,0:0:0:0:
444,207,277710,2,0,L|435:175,6,32.5,10|8|10|8|10|8|10,0:2|0:0|0:2|0:0|0:2|0:0|0:2,0:0:0:0:
363,129,278341,6,0,P|304:148|238:164,1,130,14|8,0:0|0:0,0:0:0:0:
72,82,278973,2,0,P|63:50|53:19,1,65,10|2,0:0|0:0,0:0:0:0:
100,163,279289,1,10,0:0:0:0:
100,163,279447,2,0,P|117:225|137:287,1,130,14|0,0:0|1:0,0:0:0:0:
218,326,279920,2,0,P|233:322|249:317,3,32.5,10|0|0|0,1:2|1:0|1:0|1:0,0:0:0:0:
296,345,280236,2,0,P|311:340|327:336,3,32.5,10|0|0|0,1:2|1:0|1:0|1:0,0:0:0:0:
361,291,280552,2,0,P|376:287|392:282,3,32.5,10|0|0|0,1:2|1:0|1:0|1:0,0:0:0:0:
445,297,280868,6,0,P|483:247|466:187,1,130,14|10,0:2|0:2,0:0:0:0:
406,123,281341,1,2,1:2:0:0:
406,123,281420,1,0,1:0:0:0:
406,122,281499,2,0,P|412:90|421:59,1,65,10|2,0:0|0:0,0:0:0:0:
345,6,281815,1,10,0:0:0:0:
281,70,281973,6,0,P|218:51|156:33,1,130,14|0,0:0|1:0,0:0:0:0:
156,33,282368,1,0,1:0:0:0:
156,33,282447,2,0,L|144:63,4,32.5,10|0|0|0|10,1:2|1:0|1:0|1:0|3:2,0:0:0:0:
72,166,283078,2,0,L|54:103,1,65,2|0,3:2|3:0,0:0:0:0:
149,205,283394,5,2,1:2:0:0:
149,205,283552,1,0,1:0:0:0:
223,247,283710,2,0,L|285:229,1,65,8|0,0:0|1:0,0:0:0:0:
314,330,284025,2,0,L|251:347,1,65,0|0,1:0|1:0,0:0:0:0:
251,347,284262,1,0,1:0:0:0:
251,347,284341,1,10,0:0:0:0:
174,323,284499,1,0,1:0:0:0:
223,247,284657,6,0,L|190:121,2,130,2|10|2,1:2|0:2|1:2,0:0:0:0:
336,116,285604,2,0,L|352:178,1,65,10|0,0:2|1:0,0:0:0:0:
403,255,285920,2,0,P|449:212|443:150,1,130,2|12,1:2|0:0,0:0:0:0:
247,27,286552,1,8,0:0:0:0:
247,27,286710,2,0,L|170:51,1,65,2|0,1:3|0:0,0:0:0:0:
83,116,287025,6,0,P|145:115|185:164,1,130,6|0,1:2|3:0,0:0:0:0:
133,232,287499,2,0,L|150:294,1,65,0|0,3:0|3:0,0:0:0:0:
232,319,287815,2,0,L|249:381,1,65,8|8,0:3|0:3,0:0:0:0:
342,368,288131,1,4,0:3:0:0:
349,280,288289,1,4,0:3:0:0:
349,280,288368,1,4,0:3:0:0:
349,280,288447,1,14,0:2:0:0:
256,192,288604,12,6,293499,0:0:0:0:
