osu file format v14

[General]
AudioFilename: audio.mp3
AudioLeadIn: 0
PreviewTime: 117035
Countdown: 0
SampleSet: Soft
StackLeniency: 0.7
Mode: 2
LetterboxInBreaks: 0
WidescreenStoryboard: 0

[Editor]
Bookmarks: 25136,56304,277408
DistanceSpacing: 0.6
BeatDivisor: 4
GridSize: 16
TimelineZoom: 1.9

[Metadata]
Title:Orion
TitleUnicode:Orion
Artist:Pratanallis feat. eupe
ArtistUnicode:Pratanallis feat. eupe
Creator:Secre
Version:Promise
Source:
Tags:chickenbible casa blanca hilpe れいあじゅ Reiaju 4th album fourth メタル Classical Gothic Symphonic Japanese Rock J-Rock fa featured artist mappers' guild mg mpg soft soft-rock
BeatmapID:3226354
BeatmapSetID:1580048

[Difficulty]
HPDrainRate:5
CircleSize:3.9
OverallDifficulty:8.4
ApproachRate:8.4
SliderMultiplier:2.1
SliderTickRate:2

[Events]
//Background and Video events
0,0,"mel and pekora in an alternate dimension.jpg",0,0
//Break Periods
//Storyboard Layer 0 (Background)
//Storyboard Layer 1 (Fail)
//Storyboard Layer 2 (Pass)
//Storyboard Layer 3 (Foreground)
//Storyboard Layer 4 (Overlay)
//Storyboard Sound Samples

[TimingPoints]
201,389.61038961039,4,2,1,50,1,0
54746,-100,4,2,1,40,0,0
56304,-100,4,2,1,75,0,1
78123,-100,4,2,1,50,0,0
79681,-100,4,2,1,40,0,0
81239,-100,4,2,1,50,0,0
118642,-100,4,2,1,75,0,1
127433,-100,4,2,1,5,0,1
127506,-100,4,2,1,75,0,1
127603,-100,4,2,1,5,0,1
127798,-100,4,2,1,75,0,1
165395,-100,4,2,1,50,0,0
195006,-100,4,2,1,30,0,0
196564,-100,4,2,1,75,0,1
243317,-100,4,2,1,50,0,0

[Colours]
Combo1 : 214,50,50
Combo2 : 253,203,149
Combo3 : 217,183,221

[HitObjects]
310,264,201,5,2,0:0:0:0:
410,265,395,1,0,0:0:0:0:
460,179,590,1,0,0:0:0:0:
408,93,785,1,0,0:0:0:0:
308,96,980,1,0,0:0:0:0:
142,167,1175,2,0,L|133:25,1,105,2|0,0:0|0:0,0:0:0:0:
298,183,1564,1,2,0:0:0:0:
198,191,1759,6,0,L|186:62,1,105
284,61,2149,1,0,0:0:0:0:
124,118,2343,1,2,0:0:0:0:
218,131,2538,2,0,L|219:-1,1,105
123,14,2928,1,0,0:0:0:0:
33,57,3122,1,0,0:0:0:0:
33,157,3317,5,2,0:0:0:0:
122,202,3512,1,0,0:0:0:0:
218,185,3707,1,0,0:0:0:0:
122,202,3902,1,0,0:0:0:0:
33,157,4097,1,0,0:0:0:0:
169,121,4316,2,0,L|171:75,1,26.25
35,60,4681,1,2,0:0:0:0:
136,47,4876,6,0,L|135:180,1,105
38,157,5265,1,0,0:0:0:0:
187,149,5460,1,2,0:0:0:0:
341,133,5655,2,0,L|353:270,1,105,2|0,0:0|0:0,0:0:0:0:
253,255,6045,1,0,0:0:0:0:
347,241,6239,1,0,0:0:0:0:
180,265,6434,5,2,0:0:0:0:
85,242,6628,1,0,0:0:0:0:
85,145,6823,1,0,0:0:0:0:
180,123,7018,1,0,0:0:0:0:
340,107,7213,1,2,0:0:0:0:
180,123,7408,1,2,0:0:0:0:
280,114,7603,1,0,0:0:0:0:
121,210,7798,1,2,0:0:0:0:
221,191,7993,6,0,L|222:47,1,105,2|2,0:0|0:0,0:0:0:0:
122,78,8382,1,2,0:0:0:0:
286,108,8577,2,0,L|410:103,1,105,2|0,0:0|0:0,0:0:0:0:
286,108,8967,2,0,L|158:114,1,105
345,258,9356,1,0,0:0:0:0:
435,220,9550,5,2,0:0:0:0:
435,122,9745,1,0,0:0:0:0:
343,86,9940,1,0,0:0:0:0:
181,188,10136,2,0,L|176:68,1,105
312,78,10550,2,0,L|315:36,1,26.25
161,104,10915,1,2,0:0:0:0:
261,160,11110,6,0,L|264:28,1,105,2|2,0:0|0:0,0:0:0:0:
364,51,11499,1,2,0:0:0:0:
201,206,11694,2,0,L|75:208,1,105,2|0,0:0|0:0,0:0:0:0:
272,240,12084,2,0,L|277:357,1,105,2|2,0:0|0:0,0:0:0:0:
383,338,12473,1,2,0:0:0:0:
111,270,12668,6,0,L|100:131,1,105,2|0,0:0|0:0,0:0:0:0:
10,157,13058,1,0,0:0:0:0:
103,159,13252,1,0,0:0:0:0:
413,166,13642,1,2,0:0:0:0:
313,172,13837,1,0,0:0:0:0:
481,181,14032,6,0,L|484:313,1,105,2|2,0:0|0:0,0:0:0:0:
378,285,14421,2,0,L|496:286,1,105
322,209,14811,1,2,0:0:0:0:
220,195,15006,2,0,L|216:71,1,105,0|2,0:0|0:0,0:0:0:0:
119,94,15395,1,2,0:0:0:0:
217,87,15590,1,2,0:0:0:0:
56,190,15785,5,2,0:0:0:0:
154,175,15980,2,0,L|156:55,1,105
258,122,16369,2,0,L|264:-15,1,105
124,70,16783,2,0,L|119:23,1,26.25
275,132,17149,1,2,0:0:0:0:
376,137,17343,6,0,L|378:21,1,105
483,29,17733,1,0,0:0:0:0:
312,195,17928,1,2,0:0:0:0:
209,163,18123,2,0,L|206:40,1,105
106,55,18512,1,2,0:0:0:0:
207,42,18707,1,0,0:0:0:0:
497,185,18902,5,2,0:0:0:0:
408,177,19097,2,0,L|405:63,1,105
300,72,19486,2,0,L|431:71,1,105
244,190,19876,2,0,L|368:189,1,105,2|0,0:0|0:0,0:0:0:0:
193,247,20265,1,2,0:0:0:0:
103,206,20460,6,0,L|103:70,1,105,2|0,0:0|0:0,0:0:0:0:
10,84,20850,1,0,0:0:0:0:
174,118,21045,1,2,0:0:0:0:
272,111,21239,2,0,L|270:-7,1,105
375,6,21629,2,0,L|247:6,1,105
433,223,22019,6,0,L|436:108,1,105,2|0,0:0|0:0,0:0:0:0:
331,114,22408,2,0,L|454:112,2,105
190,171,23017,2,0,L|184:123,1,26.25
331,91,23382,1,2,0:0:0:0:
171,232,23577,6,0,L|163:108,1,105,2|0,0:0|0:0,0:0:0:0:
271,100,23967,1,2,0:0:0:0:
103,131,24162,1,2,0:0:0:0:
206,137,24356,2,0,L|205:0,1,105
366,37,24746,2,0,L|486:38,1,105,2|0,0:0|0:0,0:0:0:0:
170,269,25136,6,0,P|99:240|182:172,1,210,0|0,1:0|0:0,0:0:0:0:
265,163,25720,1,0,0:0:0:0:
80,269,25915,2,0,L|204:263,1,105,8|0,0:0|0:0,0:0:0:0:
351,210,26304,2,0,L|231:210,1,105
418,295,26694,5,0,0:0:0:0:
511,263,26888,1,0,0:0:0:0:
509,165,27083,1,0,0:0:0:0:
414,138,27278,1,0,0:0:0:0:
222,142,27473,1,8,0:0:0:0:
320,201,27668,2,0,L|323:63,1,105,2|2,0:0|0:0,0:0:0:0:
222,142,28058,1,2,0:0:0:0:
405,140,28252,5,0,1:0:0:0:
301,213,28447,1,2,0:0:0:0:
270,198,28511,1,2,0:0:0:0:
269,165,28576,1,2,0:0:0:0:
298,149,28642,2,0,L|418:152,1,105,2|2,0:0|0:0,0:0:0:0:
239,239,29032,2,0,L|241:201,3,35,8|2|2|2,0:0|0:0|0:0|0:0,0:0:0:0:
64,176,29421,2,0,L|66:138,3,35,2|2|2|2,0:0|0:0|0:0|0:0,0:0:0:0:
242,143,29811,5,2,0:0:0:0:
145,139,30006,2,0,L|148:91,3,35,2|2|2|2,0:0|0:0|0:0|0:0,0:0:0:0:
242,143,30395,1,2,0:0:0:0:
409,155,30590,2,0,L|417:287,1,105,8|2,0:0|0:0,0:0:0:0:
236,265,30980,2,0,L|130:263,1,105,2|2,0:0|0:0,0:0:0:0:
423,322,31369,6,0,P|475:298|407:202,1,210,8|0,0:0|1:0,0:0:0:0:
321,200,31954,1,0,1:0:0:0:
486,138,32149,2,0,L|493:269,1,105,8|0,0:0|1:0,0:0:0:0:
321,200,32538,1,0,1:0:0:0:
146,207,32733,6,0,L|388:197,1,210,8|8,0:0|0:0,0:0:0:0:
194,268,33317,2,0,L|184:132,1,105,0|0,1:0|1:0,0:0:0:0:
354,113,33707,2,0,L|362:231,1,105,8|0,0:0|1:0,0:0:0:0:
203,221,34097,1,0,1:0:0:0:
363,226,34291,1,0,1:0:0:0:
80,288,34486,6,0,L|69:153,1,105,8|8,0:0|0:0,0:0:0:0:
174,141,34876,1,0,1:0:0:0:
70,137,35071,1,0,1:0:0:0:
238,190,35265,2,0,L|238:58,1,105,8|0,0:0|1:0,0:0:0:0:
136,106,35655,2,0,L|130:-22,1,105,0|8,1:0|0:0,0:0:0:0:
318,170,36045,6,0,L|87:162,1,210,0|0,1:0|1:0,0:0:0:0:
212,232,36629,1,0,1:0:0:0:
382,213,36824,2,0,L|384:78,1,105,8|0,0:0|1:0,0:0:0:0:
278,107,37213,2,0,L|399:108,1,105,0|8,1:0|0:0,0:0:0:0:
100,278,37603,6,0,P|24:250|109:196,1,210,8|0,0:0|1:0,0:0:0:0:
193,178,38188,1,0,1:0:0:0:
354,179,38382,2,0,L|363:45,1,105,8|0,0:0|1:0,0:0:0:0:
196,57,38772,2,0,L|70:58,1,105,0|8,1:0|0:0,0:0:0:0:
272,246,39162,5,0,1:0:0:0:
295,147,39356,1,8,0:0:0:0:
234,66,39551,1,0,1:0:0:0:
132,63,39746,1,0,1:0:0:0:
296,87,39941,2,0,L|419:83,1,105,8|0,0:0|1:0,0:0:0:0:
296,87,40330,2,0,L|172:89,1,105,0|0,1:0|1:0,0:0:0:0:
475,293,40720,6,0,P|478:239|340:169,1,210,8|0,0:0|1:0,0:0:0:0:
185,238,41304,2,0,L|430:229,1,210,0|0,1:0|1:0,0:0:0:0:
230,179,41889,2,0,L|224:55,1,105,0|8,1:0|0:0,0:0:0:0:
385,115,42278,6,0,L|393:-2,1,105,0|8,1:0|0:0,0:0:0:0:
287,14,42668,2,0,L|406:9,1,105,0|0,1:0|1:0,0:0:0:0:
222,189,43058,2,0,L|214:50,1,105,8|0,0:0|1:0,0:0:0:0:
380,68,43447,2,0,L|508:69,1,105,0|0,1:0|1:0,0:0:0:0:
186,192,43837,6,0,L|61:199,1,105,8|8,0:0|0:0,0:0:0:0:
262,147,44226,2,0,L|266:203,2,52.5,2|0|2,0:0|0:0|0:0,0:0:0:0:
80,128,44616,2,0,L|193:125,1,105,8|2,0:0|0:0,0:0:0:0:
385,144,45006,2,0,L|254:138,1,105,2|8,0:0|0:0,0:0:0:0:
19,254,45395,5,0,1:0:0:0:
171,212,45590,2,0,L|176:93,1,105,8|2,0:0|0:0,0:0:0:0:
76,97,45980,1,2,0:0:0:0:
239,140,46175,2,0,L|367:142,1,105,8|0,0:0|1:0,0:0:0:0:
239,140,46564,2,0,L|121:140,1,105,0|0,1:0|1:0,0:0:0:0:
409,212,46954,6,0,L|417:86,1,105,8|8,0:0|0:0,0:0:0:0:
245,91,47343,2,0,L|108:93,1,105,2|2,0:0|0:0,0:0:0:0:
427,125,47733,2,0,L|432:251,1,105,8|2,0:0|0:0,0:0:0:0:
256,289,48123,2,0,L|386:281,1,105,2|8,0:0|0:0,0:0:0:0:
76,185,48512,6,0,L|273:175,2,157.5,0|0|2,1:0|0:0|0:0,0:0:0:0:
239,238,49291,2,0,L|251:93,1,105,8|2,0:0|0:0,0:0:0:0:
413,138,49681,2,0,L|427:-12,1,105,2|2,0:0|0:0,0:0:0:0:
126,280,50071,6,0,P|44:250|150:128,1,315,8|0,0:0|1:0,0:0:0:0:
305,140,50850,2,0,L|412:139,1,105,8|0,0:0|1:0,0:0:0:0:
244,212,51239,2,0,L|138:209,1,105,0|8,1:0|0:0,0:0:0:0:
431,286,51629,6,0,L|215:289,1,210,2|0,0:0|1:0,0:0:0:0:
325,224,52213,1,0,1:0:0:0:
160,148,52408,2,0,L|151:31,1,105,8|0,0:0|1:0,0:0:0:0:
311,48,52798,2,0,L|458:55,1,105,0|0,1:0|1:0,0:0:0:0:
132,208,53188,5,8,0:0:0:0:
281,138,53382,2,0,L|287:265,1,105,8|0,0:0|1:0,0:0:0:0:
124,149,53772,1,0,1:0:0:0:
283,52,53967,2,0,L|412:56,1,105,8|0,0:0|1:0,0:0:0:0:
207,151,54356,2,0,L|74:151,1,105,0|8,1:0|0:0,0:0:0:0:
386,289,54746,6,0,P|461:252|353:72,1,315,2|0,0:0|1:0,0:0:0:0:
225,252,55525,2,0,P|220:185|433:93,1,315,0|0,1:0|1:0,0:0:0:0:
101,235,56304,6,0,P|43:206|127:122,1,210,4|0,0:0|1:0,0:0:0:0:
283,116,56889,1,8,3:0:0:0:
111,124,57084,2,0,L|108:10,1,105,8|0,0:0|0:0,0:0:0:0:
377,78,57473,1,8,3:0:0:0:
202,202,57668,6,0,L|446:193,1,210,0|0,1:0|1:0,0:0:0:0:
308,126,58252,2,0,L|425:123,1,105,8|0,0:0|1:0,0:0:0:0:
241,118,58642,2,0,L|124:122,1,105,8|0,0:0|0:0,0:0:0:0:
309,208,59032,2,0,L|444:208,1,105,2|0,0:0|0:0,0:0:0:0:
129,295,59421,6,0,P|58:264|144:198,1,210,8|0,3:0|1:0,0:0:0:0:
296,218,60006,1,0,1:0:0:0:
123,188,60201,1,8,0:0:0:0:
296,218,60395,2,0,L|452:216,1,105,2|0,0:0|1:0,0:0:0:0:
144,282,60785,6,0,L|283:282,2,105,2|8|0,0:0|0:0|0:0,0:0:0:0:
322,217,61369,2,0,L|331:101,1,105,0|0,1:0|1:0,0:0:0:0:
153,69,61759,2,0,L|28:71,1,105,8|0,0:0|0:0,0:0:0:0:
318,172,62149,2,0,L|456:175,1,105,2|0,0:0|0:0,0:0:0:0:
140,267,62538,6,0,L|387:267,1,210,4|0,0:0|1:0,0:0:0:0:
86,208,63123,2,0,L|75:89,1,105,8|8,3:0|0:0,0:0:0:0:
255,61,63512,1,2,0:0:0:0:
432,58,63707,1,8,3:0:0:0:
154,142,63902,1,0,1:0:0:0:
325,165,64097,6,0,L|327:41,1,105,8|0,0:0|1:0,0:0:0:0:
156,46,64486,2,0,L|45:47,1,105,8|0,0:0|1:0,0:0:0:0:
360,137,64876,2,0,L|187:133,2,157.5,8|2|2,0:0|0:0|0:0,0:0:0:0:
91,264,65655,6,0,P|39:241|117:152,1,210,8|0,3:0|1:0,0:0:0:0:
274,130,66239,1,0,1:0:0:0:
103,143,66434,1,8,0:0:0:0:
274,130,66629,1,2,0:0:0:0:
103,143,66824,2,0,L|91:18,1,105,0|2,1:0|0:0,0:0:0:0:
349,31,67213,6,0,P|410:52|333:143,1,210,8|0,0:0|1:0,0:0:0:0:
183,149,67798,1,0,1:0:0:0:
437,163,67993,2,0,L|294:161,1,105,8|0,0:0|0:0,0:0:0:0:
28,158,68382,1,2,0:0:0:0:
482,234,68772,6,0,L|240:228,1,210,4|0,0:0|1:0,0:0:0:0:
76,287,69356,2,0,P|22:267|94:173,1,210,8|0,3:0|0:0,0:0:0:0:
275,155,69941,2,0,L|400:155,1,105,8|0,3:0|1:0,0:0:0:0:
76,287,70330,6,0,L|69:32,1,210,8|8,0:0|0:0,0:0:0:0:
175,35,70915,1,0,1:0:0:0:
477,185,71110,2,0,L|298:186,2,157.5,8|2|2,0:0|0:0|0:0,0:0:0:0:
166,310,71889,6,0,P|109:291|196:217,1,210,8|0,3:0|1:0,0:0:0:0:
346,180,72473,1,0,1:0:0:0:
42,205,72668,2,0,L|265:206,1,210,8|0,0:0|1:0,0:0:0:0:
101,284,73252,1,2,0:0:0:0:
410,295,73447,6,0,P|469:271|386:187,1,210,8|0,0:0|1:0,0:0:0:0:
302,168,74032,1,0,1:0:0:0:
38,240,74226,2,0,L|269:247,1,210,8|2,0:0|0:0,0:0:0:0:
145,174,74811,1,0,0:0:0:0:
436,264,75006,6,0,P|489:237|405:158,1,210,4|0,0:0|1:0,0:0:0:0:
232,196,75590,2,0,L|371:192,2,105,8|8|0,3:0|0:0|0:0,0:0:0:0:
56,211,76175,2,0,L|40:64,1,105,8|0,3:0|1:0,0:0:0:0:
310,105,76564,6,0,L|191:103,1,105,8|2,0:0|0:0,0:0:0:0:
389,207,76954,2,0,L|511:209,1,105,8|2,3:0|0:0,0:0:0:0:
187,299,77343,2,0,L|331:297,1,105,8|2,0:0|0:0,0:0:0:0:
31,204,77733,2,0,L|29:80,1,105,2|2,0:0|0:0,0:0:0:0:
362,80,78123,5,4,0:0:0:0:
256,192,78317,12,0,79291,0:0:0:0:
164,235,79681,6,0,L|154:18,1,210,2|2,0:0|0:0,0:0:0:0:
367,33,80460,2,0,L|136:37,1,210,2|2,0:0|0:0,0:0:0:0:
157,36,81045,1,0,0:0:0:0:
417,207,81239,6,0,L|424:80,1,105,4|0,0:0|0:0,0:0:0:0:
322,108,81629,2,0,L|315:-14,1,105
412,2,82019,1,8,0:0:0:0:
210,75,82213,1,2,0:0:0:0:
311,52,82408,2,0,L|323:179,1,105,0|0,1:0|1:0,0:0:0:0:
136,253,82798,5,0,0:0:0:0:
240,249,82992,1,8,0:0:0:0:
345,245,83187,1,0,1:0:0:0:
345,245,83382,1,0,1:0:0:0:
79,200,83577,2,0,L|205:197,1,105,8|0,0:0|0:0,0:0:0:0:
79,200,83967,2,0,L|73:59,1,105,2|0,0:0|0:0,0:0:0:0:
337,203,84356,5,0,1:0:0:0:
326,100,84550,1,0,0:0:0:0:
256,24,84745,1,0,1:0:0:0:
155,6,84940,1,0,1:0:0:0:
62,52,85135,1,8,0:0:0:0:
246,201,85355,2,0,L|249:173,1,26.25
165,146,85525,2,0,L|159:38,1,105,0|0,1:0|1:0,0:0:0:0:
335,42,85915,5,2,0:0:0:0:
428,76,86109,1,0,0:0:0:0:
433,175,86304,1,0,1:0:0:0:
345,220,86499,1,0,1:0:0:0:
172,268,86694,1,8,0:0:0:0:
181,165,86888,1,0,0:0:0:0:
258,98,87083,1,0,1:0:0:0:
361,104,87278,1,0,0:0:0:0:
95,207,87473,6,0,L|88:80,1,105,4|0,0:0|0:0,0:0:0:0:
190,108,87863,2,0,L|197:-14,1,105
100,2,88253,1,8,0:0:0:0:
302,75,88447,1,2,0:0:0:0:
201,52,88642,2,0,L|189:179,1,105,0|0,1:0|1:0,0:0:0:0:
376,253,89032,5,0,1:0:0:0:
271,249,89226,1,8,0:0:0:0:
166,245,89421,1,0,1:0:0:0:
166,245,89616,1,0,1:0:0:0:
433,200,89811,2,0,L|307:197,1,105,8|0,0:0|0:0,0:0:0:0:
433,200,90201,2,0,L|439:59,1,105,2|0,0:0|0:0,0:0:0:0:
175,203,90590,5,0,1:0:0:0:
185,100,90784,1,0,0:0:0:0:
255,24,90979,1,0,1:0:0:0:
356,6,91174,1,0,1:0:0:0:
449,52,91369,1,8,0:0:0:0:
270,240,91564,1,0,0:0:0:0:
268,187,91661,1,0,0:0:0:0:
266,158,91710,1,0,0:0:0:0:
266,135,91758,1,0,1:0:0:0:
370,97,91954,1,0,1:0:0:0:
196,267,92149,5,2,0:0:0:0:
108,220,92343,1,0,0:0:0:0:
117,121,92538,1,0,1:0:0:0:
212,91,92733,1,0,1:0:0:0:
366,224,92928,1,8,0:0:0:0:
363,122,93122,1,0,0:0:0:0:
265,56,93317,1,0,1:0:0:0:
168,52,93512,1,0,0:0:0:0:
451,194,93707,6,0,L|341:197,1,105,8|8,0:0|0:0,0:0:0:0:
346,196,94097,1,0,1:0:0:0:
173,128,94291,1,0,1:0:0:0:
346,196,94486,2,0,L|351:318,1,105,8|0,0:0|1:0,0:0:0:0:
60,253,94876,2,0,L|187:254,1,105,0|8,1:0|0:0,0:0:0:0:
164,253,95265,5,0,1:0:0:0:
337,141,95460,2,0,L|210:142,1,105,8|0,0:0|1:0,0:0:0:0:
232,141,95849,1,0,1:0:0:0:
496,101,96045,2,0,L|499:225,1,105,8|0,0:0|1:0,0:0:0:0:
229,239,96434,2,0,L|101:239,1,105,0|0,1:0|1:0,0:0:0:0:
437,207,96824,6,0,L|321:210,2,105,10|8|0,0:0|0:0|1:0,0:0:0:0:
266,167,97408,1,2,1:0:0:0:
438,207,97603,2,0,L|441:98,1,105,8|0,0:0|1:0,0:0:0:0:
266,167,97993,2,0,L|137:168,1,105,2|8,1:0|0:0,0:0:0:0:
420,268,98382,5,2,1:0:0:0:
507,219,98576,1,8,0:0:0:0:
502,120,98771,1,0,1:0:0:0:
411,80,98966,1,0,1:0:0:0:
157,103,99162,2,0,L|43:100,1,105,8|0,0:0|1:0,0:0:0:0:
221,187,99551,2,0,L|328:191,1,105,0|8,1:0|0:0,0:0:0:0:
56,256,99941,6,0,L|48:135,1,105,8|8,0:0|0:0,0:0:0:0:
156,98,100330,1,0,1:0:0:0:
331,99,100525,1,0,1:0:0:0:
156,98,100720,2,0,L|153:-20,1,105,8|0,0:0|1:0,0:0:0:0:
331,99,101110,2,0,L|442:108,1,105,0|8,1:0|0:0,0:0:0:0:
144,287,101499,5,0,1:0:0:0:
51,254,101693,1,8,0:0:0:0:
52,156,101888,1,0,1:0:0:0:
146,127,102083,1,0,1:0:0:0:
333,153,102278,2,0,L|450:150,1,105,8|0,0:0|1:0,0:0:0:0:
251,236,102668,2,0,L|380:236,1,105,0|0,1:0|1:0,0:0:0:0:
55,186,103058,5,8,0:0:0:0:
148,159,103252,1,8,0:0:0:0:
147,61,103447,1,0,1:0:0:0:
52,38,103642,1,0,1:0:0:0:
346,164,103837,2,0,L|453:165,1,105,8|0,0:0|1:0,0:0:0:0:
189,132,104226,2,0,L|187:8,1,105,0|8,1:0|0:0,0:0:0:0:
346,12,104616,5,0,1:0:0:0:
84,212,104811,2,0,L|201:209,2,105,8|0|0,0:0|1:0|1:0,0:0:0:0:
342,112,105395,2,0,L|467:111,1,105,8|0,0:0|1:0,0:0:0:0:
183,59,105785,2,0,L|66:61,1,105,0|0,1:0|1:0,0:0:0:0:
382,260,106175,5,8,0:0:0:0:
472,220,106369,1,8,0:0:0:0:
464,121,106564,1,2,0:0:0:0:
370,95,106759,1,2,0:0:0:0:
81,206,106954,2,0,L|71:83,1,105,8|2,0:0|0:0,0:0:0:0:
240,88,107343,2,0,L|366:88,1,105,2|8,0:0|0:0,0:0:0:0:
35,268,107733,5,0,1:0:0:0:
44,165,107927,1,8,0:0:0:0:
119,95,108122,1,2,0:0:0:0:
222,93,108317,1,2,0:0:0:0:
497,122,108512,2,0,L|500:238,1,105,8|0,0:0|1:0,0:0:0:0:
321,250,108902,2,0,L|202:249,1,105,0|0,1:0|1:0,0:0:0:0:
482,277,109291,6,0,L|490:167,1,105,8|8,0:0|0:0,0:0:0:0:
336,150,109681,2,0,L|330:46,1,105,2|2,0:0|0:0,0:0:0:0:
172,117,110071,2,0,L|171:10,1,105,8|2,0:0|0:0,0:0:0:0:
15,134,110460,2,0,L|8:22,1,105,2|8,0:0|0:0,0:0:0:0:
316,56,110850,6,0,L|136:54,2,157.5,0|0|2,1:0|0:0|0:0,0:0:0:0:
36,272,111629,1,8,0:0:0:0:
22,170,111823,1,2,0:0:0:0:
85,90,112018,1,2,0:0:0:0:
187,79,112213,1,2,0:0:0:0:
456,187,112408,6,0,L|332:186,1,105,8|8,0:0|0:0,0:0:0:0:
183,203,112798,2,0,L|177:88,1,105,0|0,1:0|1:0,0:0:0:0:
441,141,113188,2,0,L|450:35,1,105,8|0,0:0|1:0,0:0:0:0:
187,52,113577,2,0,L|63:53,1,105,0|8,1:0|0:0,0:0:0:0:
385,256,113967,5,2,0:0:0:0:
291,225,114161,1,8,0:0:0:0:
291,126,114356,1,0,1:0:0:0:
384,95,114551,1,0,1:0:0:0:
91,163,114746,2,0,L|209:155,1,105,8|0,0:0|1:0,0:0:0:0:
364,129,115136,2,0,L|371:253,1,105,0|0,1:0|1:0,0:0:0:0:
42,205,115525,5,8,0:0:0:0:
94,204,115622,1,0,0:0:0:0:
146,203,115719,1,8,0:0:0:0:
312,173,115915,2,0,L|194:174,1,105,0|0,1:0|1:0,0:0:0:0:
471,139,116304,2,0,L|482:257,1,105,8|0,0:0|1:0,0:0:0:0:
207,247,116694,2,0,L|98:246,1,105,0|8,1:0|0:0,0:0:0:0:
400,150,117084,5,2,0:0:0:0:
230,122,117278,2,0,L|342:122,2,105,0|2|0,1:0|0:0|1:0,0:0:0:0:
488,113,117863,2,0,L|495:239,1,105,8|0,0:0|0:0,0:0:0:0:
189,182,118252,1,8,0:0:0:0:
365,122,118447,2,0,L|373:196,1,52.5,0|8,1:0|0:0,0:0:0:0:
181,235,118642,6,0,L|61:235,1,105,4|0,0:0|1:0,0:0:0:0:
262,168,119032,2,0,L|387:168,1,105,0|8,1:0|3:0,0:0:0:0:
87,190,119421,2,0,L|83:60,1,105,8|0,0:0|1:0,0:0:0:0:
353,85,119811,1,8,3:0:0:0:
184,197,120006,6,0,P|133:167|217:75,1,210,0|0,1:0|1:0,0:0:0:0:
360,126,120590,2,0,L|484:128,1,105,8|0,0:0|1:0,0:0:0:0:
154,193,120980,2,0,L|137:42,1,105,8|0,0:0|1:0,0:0:0:0:
411,114,121369,2,0,L|427:1,1,105,2|0,0:0|1:0,0:0:0:0:
146,168,121759,6,0,L|387:168,1,210,8|0,3:0|1:0,0:0:0:0:
188,278,122343,2,0,L|181:157,1,105,0|8,1:0|0:0,0:0:0:0:
356,129,122733,1,2,0:0:0:0:
190,117,122928,2,0,L|77:118,1,105,0|2,1:0|0:0,0:0:0:0:
365,262,123317,6,0,P|433:238|348:174,1,210,8|0,0:0|1:0,0:0:0:0:
187,171,123902,1,0,1:0:0:0:
455,258,124097,2,0,L|216:257,1,210,8|2,0:0|0:0,0:0:0:0:
418,174,124681,1,0,0:0:0:0:
154,252,124876,6,0,P|97:228|165:137,1,210,4|0,0:0|1:0,0:0:0:0:
349,104,125460,2,0,L|348:241,1,105,8|8,3:0|0:0,0:0:0:0:
73,246,125850,2,0,L|201:247,1,105,2|8,0:0|3:0,0:0:0:0:
437,303,126239,6,0,L|186:301,1,210,0|0,1:0|1:0,0:0:0:0:
387,231,126824,2,0,L|396:111,1,105,8|0,0:0|1:0,0:0:0:0:
95,140,127213,2,0,L|297:136,2,157.5,8|2|2,0:0|0:0|0:0,0:0:0:0:
359,261,127993,6,0,P|422:239|341:159,1,210,8|0,3:0|1:0,0:0:0:0:
191,157,128577,1,0,1:0:0:0:
458,153,128772,1,8,0:0:0:0:
296,156,128967,1,2,0:0:0:0:
458,153,129162,2,0,L|469:305,1,105,0|2,1:0|0:0,0:0:0:0:
181,248,129551,6,0,L|333:242,1,105,8|0,0:0|1:0,0:0:0:0:
121,156,129941,2,0,L|2:156,1,105,0|0,1:0|1:0,0:0:0:0:
332,151,130330,1,8,0:0:0:0:
30,155,130720,1,2,0:0:0:0:
494,135,131110,6,0,P|496:211|365:265,1,210,4|0,0:0|1:0,0:0:0:0:
204,247,131694,1,8,3:0:0:0:
492,178,131889,2,0,L|369:179,1,105,8|0,0:0|0:0,0:0:0:0:
189,175,132278,2,0,L|176:55,1,105,8|0,3:0|1:0,0:0:0:0:
447,47,132668,5,8,0:0:0:0:
252,165,133058,2,0,L|379:166,1,105,8|0,0:0|1:0,0:0:0:0:
97,257,133447,2,0,L|82:134,1,105,8|0,0:0|0:0,0:0:0:0:
267,108,133837,2,0,L|147:112,1,105,2|2,0:0|0:0,0:0:0:0:
436,262,134226,6,0,P|501:192|418:124,1,210,8|0,3:0|1:0,0:0:0:0:
325,84,134811,1,0,1:0:0:0:
14,195,135006,2,0,L|271:197,1,210,8|0,0:0|1:0,0:0:0:0:
113,277,135590,1,2,0:0:0:0:
367,302,135785,5,8,0:0:0:0:
356,199,135979,1,0,1:0:0:0:
281,130,136174,1,0,1:0:0:0:
178,128,136369,1,0,1:0:0:0:
468,93,136564,2,0,L|472:343,1,210,8|2,0:0|0:0,0:0:0:0:
366,320,137149,1,0,1:0:0:0:
90,258,137343,6,0,P|29:230|107:153,1,210,8|0,0:0|1:0,0:0:0:0:
389,147,137928,2,0,L|269:147,2,105,0|8|2,1:0|0:0|0:0,0:0:0:0:
215,220,138512,2,0,L|96:219,1,105,2|0,0:0|1:0,0:0:0:0:
385,299,138902,6,0,P|451:277|382:197,1,210,8|0,0:0|1:0,0:0:0:0:
229,166,139486,1,0,1:0:0:0:
483,186,139681,2,0,L|487:55,1,105,8|2,0:0|0:0,0:0:0:0:
319,57,140071,2,0,L|440:55,1,105,2|0,0:0|1:0,0:0:0:0:
140,187,140460,5,10,0:0:0:0:
290,177,140655,2,0,L|291:52,1,105,2|2,1:0|1:0,0:0:0:0:
140,187,141045,1,2,1:0:0:0:
440,187,141239,1,10,0:0:0:0:
290,177,141434,2,0,L|289:52,1,105,2|2,0:0|0:0,0:0:0:0:
440,187,141824,1,2,1:0:0:0:
103,316,142019,5,10,0:0:0:0:
11,277,142213,1,2,1:0:0:0:
13,178,142408,1,2,1:0:0:0:
105,143,142603,1,2,1:0:0:0:
373,143,142798,1,10,0:0:0:0:
105,143,143188,1,2,0:0:0:0:
105,143,143382,2,0,L|157:143,1,52.5,2|0,1:0|1:0,0:0:0:0:
411,235,143577,6,0,P|469:206|385:122,1,210,4|0,0:0|1:0,0:0:0:0:
229,116,144162,1,8,3:0:0:0:
401,124,144357,2,0,L|404:10,1,105,8|0,0:0|1:0,0:0:0:0:
135,78,144746,1,8,3:0:0:0:
310,202,144941,6,0,L|66:193,1,210,0|0,1:0|1:0,0:0:0:0:
204,126,145525,2,0,L|87:123,1,105,8|0,0:0|1:0,0:0:0:0:
271,118,145915,2,0,L|388:122,1,105,8|0,0:0|1:0,0:0:0:0:
203,208,146305,2,0,L|68:208,1,105,2|0,0:0|1:0,0:0:0:0:
383,295,146694,6,0,P|454:264|368:198,1,210,8|0,3:0|1:0,0:0:0:0:
216,218,147279,1,0,1:0:0:0:
389,188,147474,1,8,0:0:0:0:
216,218,147668,2,0,L|60:216,1,105,2|0,0:0|1:0,0:0:0:0:
368,282,148058,6,0,L|229:282,2,105,2|8|0,0:0|0:0|1:0,0:0:0:0:
190,217,148642,2,0,L|181:101,1,105,0|0,1:0|1:0,0:0:0:0:
359,69,149032,2,0,L|484:71,1,105,8|0,0:0|0:0,0:0:0:0:
194,172,149422,2,0,L|56:175,1,105,2|0,0:0|0:0,0:0:0:0:
372,267,149811,6,0,L|125:267,1,210,4|0,0:0|1:0,0:0:0:0:
426,208,150396,2,0,L|437:89,1,105,8|8,3:0|0:0,0:0:0:0:
257,61,150785,1,2,0:0:0:0:
80,58,150980,1,8,3:0:0:0:
358,142,151175,1,0,1:0:0:0:
187,165,151370,6,0,L|185:41,1,105,8|0,0:0|1:0,0:0:0:0:
356,46,151759,2,0,L|467:47,1,105,8|0,0:0|1:0,0:0:0:0:
152,137,152149,2,0,L|325:133,2,157.5,8|2|2,0:0|0:0|0:0,0:0:0:0:
421,264,152928,6,0,P|473:241|395:152,1,210,8|0,3:0|1:0,0:0:0:0:
238,130,153512,1,0,1:0:0:0:
409,143,153707,1,8,0:0:0:0:
238,130,153902,1,2,0:0:0:0:
409,143,154097,2,0,L|421:18,1,105,0|2,1:0|0:0,0:0:0:0:
165,59,154486,6,0,P|104:80|181:171,1,210,8|0,0:0|1:0,0:0:0:0:
331,177,155071,1,0,1:0:0:0:
77,183,155266,2,0,L|220:181,1,105,8|0,0:0|0:0,0:0:0:0:
483,148,155655,1,2,0:0:0:0:
30,234,156045,6,0,L|272:228,1,210,4|0,0:0|1:0,0:0:0:0:
436,287,156629,2,0,P|490:267|418:173,1,210,8|0,3:0|0:0,0:0:0:0:
237,155,157214,2,0,L|112:155,1,105,8|0,3:0|1:0,0:0:0:0:
436,287,157603,6,0,L|443:32,1,210,8|8,0:0|0:0,0:0:0:0:
337,35,158188,1,0,1:0:0:0:
35,185,158383,2,0,L|214:186,2,157.5,8|2|2,0:0|0:0|0:0,0:0:0:0:
346,310,159162,6,0,P|403:291|316:217,1,210,8|0,3:0|1:0,0:0:0:0:
166,180,159746,1,0,1:0:0:0:
470,205,159941,2,0,L|247:206,1,210,8|0,0:0|1:0,0:0:0:0:
411,284,160525,1,2,0:0:0:0:
102,295,160720,6,0,P|43:271|126:187,1,210,8|0,0:0|1:0,0:0:0:0:
210,168,161305,1,0,1:0:0:0:
474,240,161499,2,0,L|243:247,1,210,8|2,0:0|0:0,0:0:0:0:
367,174,162084,1,0,1:0:0:0:
76,264,162279,6,0,P|23:237|107:158,1,210,8|0,0:0|1:0,0:0:0:0:
280,196,162863,2,0,L|141:192,2,105,0|8|2,1:0|0:0|0:0,0:0:0:0:
456,211,163448,2,0,L|472:64,1,105,2|0,0:0|1:0,0:0:0:0:
202,105,163837,6,0,L|321:103,1,105,10|2,0:0|1:0,0:0:0:0:
123,207,164227,2,0,L|1:209,1,105,2|2,1:0|1:0,0:0:0:0:
325,299,164616,2,0,L|181:297,1,105,10|2,0:0|0:0,0:0:0:0:
481,204,165006,2,0,L|483:80,1,105,2|2,0:0|1:0,0:0:0:0:
150,80,165396,5,4,0:0:0:0:
256,192,165590,12,0,166564,0:0:0:0:
256,192,166954,12,0,168123,0:0:0:0:
143,232,168512,6,0,P|82:204|163:117,1,210,8|0,0:0|1:0,0:0:0:0:
320,90,169097,1,0,1:0:0:0:
39,174,169291,2,0,L|251:174,1,210,8|0,0:0|1:0,0:0:0:0:
146,129,169876,1,0,1:0:0:0:
319,240,170071,6,0,L|321:114,1,105,8|0,0:0|0:0,0:0:0:0:
146,129,170460,2,0,L|141:0,1,105,0|0,1:0|1:0,0:0:0:0:
412,30,170850,2,0,P|475:46|394:121,1,210,8|0,0:0|1:0,0:0:0:0:
320,145,171434,1,0,1:0:0:0:
42,204,171629,6,0,L|291:204,1,210,8|0,0:0|1:0,0:0:0:0:
446,251,172213,2,0,L|226:252,1,210,0|0,1:0|1:0,0:0:0:0:
351,176,172798,2,0,L|356:62,1,105,0|0,1:0|1:0,0:0:0:0:
87,85,173188,5,8,0:0:0:0:
253,84,173382,2,0,L|254:211,1,105,0|0,0:0|1:0,0:0:0:0:
146,202,173772,1,0,1:0:0:0:
428,111,173967,2,0,L|435:252,1,105,8|0,0:0|1:0,0:0:0:0:
267,243,174356,1,2,1:0:0:0:
433,215,174551,1,2,1:0:0:0:
171,161,174746,6,0,L|429:157,1,210,8|0,0:0|1:0,0:0:0:0:
222,83,175330,1,0,1:0:0:0:
491,226,175525,2,0,L|296:222,2,157.5,10|2|2,0:0|1:0|1:0,0:0:0:0:
181,172,176304,6,0,L|380:169,2,157.5,8|2|2,0:0|1:0|1:0,0:0:0:0:
468,83,177084,1,8,0:0:0:0:
254,45,177376,1,0,1:0:0:0:
40,74,177668,1,0,1:0:0:0:
373,247,177863,6,0,P|427:232|349:153,1,210,8|0,0:0|1:0,0:0:0:0:
195,157,178447,1,0,1:0:0:0:
473,119,178642,1,8,0:0:0:0:
474,171,178739,1,2,1:0:0:0:
475,223,178836,1,2,1:0:0:0:
166,253,179032,6,0,L|390:254,1,210,4|0,0:0|0:0,0:0:0:0:
375,253,179616,1,0,0:0:0:0:
191,122,179811,2,0,L|116:122,2,70,0|0|0,1:0|1:0|1:0,0:0:0:0:
333,164,180201,1,8,0:0:0:0:
259,168,180330,1,0,1:0:0:0:
187,169,180460,1,0,1:0:0:0:
333,164,180590,2,0,L|417:165,2,70,0|0|0,1:0|1:0|1:0,0:0:0:0:
61,255,180980,6,0,L|250:254,2,157.5,8|2|2,0:0|1:0|1:0,0:0:0:0:
335,151,181759,2,0,L|462:152,1,105,8|0,0:0|1:0,0:0:0:0:
171,89,182149,2,0,L|90:91,1,52.5,2|2,1:0|1:0,0:0:0:0:
225,164,182343,2,0,L|309:166,1,52.5,2|2,1:0|1:0,0:0:0:0:
64,265,182538,6,0,L|239:266,2,157.5,8|2|2,0:0|1:0|1:0,0:0:0:0:
371,206,183317,2,0,L|377:72,1,105,8|0,0:0|1:0,0:0:0:0:
108,107,183707,2,0,L|209:103,1,52.5,2|2,1:0|1:0,0:0:0:0:
268,73,183902,2,0,L|353:72,1,52.5,2|2,1:0|1:0,0:0:0:0:
134,248,184097,6,0,P|75:224|161:136,1,210,8|2,0:0|1:0,0:0:0:0:
302,115,184681,1,0,1:0:0:0:
30,134,184876,2,0,L|172:134,1,105,8|0,0:0|1:0,0:0:0:0:
309,169,185265,2,0,L|164:166,1,105,2|0,1:0|1:0,0:0:0:0:
485,262,185655,6,0,L|490:136,1,105,8|0,0:0|1:0,0:0:0:0:
321,133,186045,2,0,L|448:128,1,105,2|0,1:0|1:0,0:0:0:0:
143,196,186434,2,0,L|140:65,1,105,8|0,0:0|1:0,0:0:0:0:
308,56,186824,2,0,L|435:58,1,105,2|0,1:0|1:0,0:0:0:0:
108,243,187213,6,0,L|111:125,1,105,10|2,0:0|1:0,0:0:0:0:
276,138,187603,1,2,1:0:0:0:
111,139,187798,1,2,1:0:0:0:
429,201,187993,2,0,L|292:201,1,105,10|2,0:0|1:0,0:0:0:0:
159,228,188382,1,2,1:0:0:0:
324,201,188577,1,2,1:0:0:0:
46,145,188772,5,10,0:0:0:0:
204,124,188967,1,2,1:0:0:0:
360,107,189162,1,2,1:0:0:0:
204,124,189356,1,2,1:0:0:0:
486,228,189551,2,0,L|493:85,1,105,10|2,0:0|1:0,0:0:0:0:
330,118,189941,1,2,1:0:0:0:
491,123,190136,1,2,1:0:0:0:
176,94,190330,6,0,L|44:97,1,105,10|2,0:0|1:0,0:0:0:0:
372,221,190720,2,0,L|143:218,1,210,2|8,1:0|3:0,0:0:0:0:
293,133,191265,2,0,L|332:97,2,42,2|2|2,0:0|0:0|0:0,0:0:0:0:
136,210,191499,2,0,L|131:85,1,105,10|10,3:0|0:0,0:0:0:0:
239,64,191889,5,10,3:0:0:0:
494,230,192084,2,0,L|377:232,2,105,2|10|2,1:0|0:0|1:0,0:0:0:0:
219,151,192668,2,0,L|213:78,1,52.5,10|0,3:0|0:0,0:0:0:0:
310,62,192863,2,0,L|316:-2,1,52.5,10|0,0:0|0:0,0:0:0:0:
143,31,193058,2,0,L|72:30,1,52.5,10|0,0:0|0:0,0:0:0:0:
294,123,193252,2,0,L|374:124,1,52.5,10|10,3:0|3:0,0:0:0:0:
110,250,193447,5,4,0:0:0:0:
256,192,193642,12,0,194616,0:0:0:0:
208,214,195006,6,0,P|151:178|276:39,1,315,2|0,0:0|0:0,0:0:0:0:
445,53,195785,2,0,P|493:102|362:284,1,315,0|0,1:0|0:0,0:0:0:0:
68,239,196564,6,0,L|311:238,1,210,4|0,0:0|1:0,0:0:0:0:
172,160,197149,1,8,3:0:0:0:
452,206,197343,2,0,L|458:66,1,105,8|0,0:0|1:0,0:0:0:0:
297,84,197733,1,8,3:0:0:0:
456,101,197928,1,0,1:0:0:0:
164,227,198123,5,8,0:0:0:0:
259,218,198317,1,0,1:0:0:0:
259,122,198512,1,8,0:0:0:0:
164,113,198707,1,0,1:0:0:0:
439,168,198902,2,0,L|450:32,1,105,8|0,0:0|1:0,0:0:0:0:
179,41,199291,2,0,L|38:42,1,105,2|0,0:0|1:0,0:0:0:0:
402,245,199681,6,0,L|404:109,1,105,8|0,3:0|1:0,0:0:0:0:
143,139,200071,1,0,1:0:0:0:
299,139,200265,1,0,1:0:0:0:
28,142,200460,1,8,0:0:0:0:
190,188,200655,2,0,L|192:67,1,105,2|0,0:0|1:0,0:0:0:0:
28,142,201045,1,2,0:0:0:0:
326,177,201239,6,0,L|456:173,1,105,8|0,0:0|0:0,0:0:0:0:
249,103,201629,2,0,L|134:104,1,105,0|0,1:0|1:0,0:0:0:0:
424,129,202019,2,0,L|430:16,1,105,8|0,0:0|0:0,0:0:0:0:
159,32,202408,2,0,L|34:32,1,105,2|0,0:0|1:0,0:0:0:0:
323,185,202798,6,0,L|96:176,1,210,4|0,0:0|1:0,0:0:0:0:
389,279,203382,2,0,L|391:150,1,105,8|8,3:0|0:0,0:0:0:0:
127,140,203772,1,2,0:0:0:0:
284,132,203967,1,8,3:0:0:0:
17,145,204162,1,0,1:0:0:0:
284,132,204356,6,0,P|352:147|281:226,1,210,8|8,0:0|0:0,0:0:0:0:
129,229,204941,1,0,1:0:0:0:
432,230,205136,2,0,L|263:232,2,157.5,8|2|2,0:0|0:0|0:0,0:0:0:0:
98,291,205915,6,0,P|41:256|123:173,1,210,8|0,3:0|1:0,0:0:0:0:
279,174,206499,1,0,1:0:0:0:
16,163,206694,2,0,L|161:164,1,105,8|2,0:0|0:0,0:0:0:0:
279,174,207084,2,0,L|145:172,1,105,0|2,1:0|0:0,0:0:0:0:
452,272,207473,6,0,L|457:146,1,105,8|0,0:0|1:0,0:0:0:0:
292,161,207863,1,0,1:0:0:0:
456,167,208058,1,0,1:0:0:0:
87,180,208252,1,8,0:0:0:0:
259,119,208642,2,0,L|124:117,1,105,2|8,0:0|3:0,0:0:0:0:
417,292,209032,6,0,P|475:271|394:190,1,210,4|0,0:0|1:0,0:0:0:0:
234,179,209616,1,8,3:0:0:0:
504,209,209811,2,0,L|506:80,1,105,8|0,0:0|0:0,0:0:0:0:
345,94,210201,2,0,L|467:92,1,105,8|0,3:0|1:0,0:0:0:0:
167,273,210590,6,0,P|111:250|183:157,1,210,8|8,0:0|0:0,0:0:0:0:
336,154,211175,1,0,1:0:0:0:
67,184,211369,2,0,L|60:51,1,105,8|0,0:0|0:0,0:0:0:0:
223,50,211759,1,2,0:0:0:0:
61,79,211954,1,2,0:0:0:0:
376,206,212149,5,8,3:0:0:0:
281,177,212343,1,0,1:0:0:0:
278,78,212538,1,0,1:0:0:0:
370,43,212733,1,0,1:0:0:0:
82,231,212928,1,8,0:0:0:0:
176,202,213122,1,2,0:0:0:0:
179,103,213317,1,0,1:0:0:0:
87,68,213512,1,2,0:0:0:0:
382,209,213707,5,8,0:0:0:0:
279,218,213901,1,0,1:0:0:0:
195,159,214096,1,0,1:0:0:0:
170,59,214291,1,0,1:0:0:0:
480,142,214486,2,0,L|342:135,1,105,8|2,0:0|0:0,0:0:0:0:
199,93,214876,2,0,L|69:91,1,105,2|0,0:0|1:0,0:0:0:0:
372,229,215265,6,0,P|439:210|362:131,1,210,8|0,0:0|1:0,0:0:0:0:
218,128,215850,1,0,1:0:0:0:
491,160,216045,2,0,L|358:160,1,105,8|2,0:0|0:0,0:0:0:0:
221,227,216434,2,0,L|366:227,1,105,2|0,0:0|1:0,0:0:0:0:
47,173,216824,6,0,L|43:31,1,105,8|0,0:0|1:0,0:0:0:0:
201,74,217213,2,0,L|70:69,1,105,0|0,1:0|1:0,0:0:0:0:
383,179,217603,2,0,L|385:50,1,105,8|2,0:0|0:0,0:0:0:0:
212,73,217993,2,0,L|77:71,1,105,2|0,0:0|1:0,0:0:0:0:
455,192,218382,6,0,L|314:187,1,105,10|2,0:0|1:0,0:0:0:0:
187,217,218772,1,2,1:0:0:0:
350,188,218967,1,2,1:0:0:0:
82,163,219162,2,0,L|223:158,1,105,10|2,0:0|0:0,0:0:0:0:
350,188,219552,1,2,0:0:0:0:
187,159,219747,1,2,1:0:0:0:
461,125,219941,5,10,0:0:0:0:
187,159,220136,1,2,1:0:0:0:
346,127,220330,2,0,L|347:-7,1,105,2|2,1:0|1:0,0:0:0:0:
25,94,220720,2,0,L|169:94,1,105,10|2,0:0|0:0,0:0:0:0:
407,181,221110,1,2,0:0:0:0:
237,127,221304,2,0,L|152:128,1,52.5,2|0,1:0|1:0,0:0:0:0:
393,258,221499,6,0,P|450:232|369:142,1,210,4|0,0:0|1:0,0:0:0:0:
224,146,222084,1,8,3:0:0:0:
502,151,222278,2,0,L|353:150,1,105,8|0,0:0|1:0,0:0:0:0:
129,181,222668,1,8,3:0:0:0:
285,121,222863,1,0,1:0:0:0:
16,147,223058,6,0,L|11:21,1,105,8|0,0:0|1:0,0:0:0:0:
174,78,223447,2,0,L|54:76,1,105,8|0,0:0|1:0,0:0:0:0:
402,127,223837,2,0,L|403:4,1,105,8|0,0:0|1:0,0:0:0:0:
147,28,224226,2,0,L|9:28,1,105,2|0,0:0|1:0,0:0:0:0:
341,221,224616,6,0,L|104:222,1,210,8|0,3:0|1:0,0:0:0:0:
296,143,225201,1,0,1:0:0:0:
31,127,225395,1,8,0:0:0:0:
296,143,225590,1,2,0:0:0:0:
131,149,225785,2,0,L|119:16,1,105,0|2,1:0|0:0,0:0:0:0:
425,148,226175,6,0,L|196:145,1,210,8|0,0:0|1:0,0:0:0:0:
375,69,226759,1,0,1:0:0:0:
84,191,226954,2,0,L|77:58,1,105,8|0,0:0|0:0,0:0:0:0:
355,78,227343,2,0,L|481:77,1,105,2|0,0:0|0:0,0:0:0:0:
128,243,227733,6,0,P|63:210|159:137,1,210,4|0,0:0|1:0,0:0:0:0:
394,105,228317,1,8,3:0:0:0:
115,112,228512,1,8,0:0:0:0:
267,122,228707,2,0,L|123:118,1,105,2|8,0:0|3:0,0:0:0:0:
452,252,229097,1,0,1:0:0:0:
287,193,229291,6,0,L|282:63,1,105,8|0,0:0|1:0,0:0:0:0:
454,89,229681,2,0,L|323:85,1,105,8|0,0:0|1:0,0:0:0:0:
45,204,230071,2,0,L|243:205,2,157.5,8|2|2,0:0|0:0|0:0,0:0:0:0:
359,273,230850,6,0,P|428:252|339:187,1,210,8|0,3:0|1:0,0:0:0:0:
186,153,231434,1,0,1:0:0:0:
456,177,231629,2,0,L|313:172,1,105,8|2,0:0|0:0,0:0:0:0:
178,211,232019,2,0,L|334:209,1,105,0|2,1:0|0:0,0:0:0:0:
16,133,232408,5,8,0:0:0:0:
206,170,232798,2,0,L|86:167,1,105,0|0,1:0|1:0,0:0:0:0:
413,114,233188,1,8,0:0:0:0:
74,111,233577,2,0,L|196:110,1,105,2|8,0:0|3:0,0:0:0:0:
464,248,233967,6,0,L|212:238,1,210,4|0,0:0|1:0,0:0:0:0:
80,182,234551,1,8,3:0:0:0:
371,157,234746,2,0,L|492:155,1,105,8|0,0:0|0:0,0:0:0:0:
184,93,235136,2,0,L|64:91,1,105,8|0,3:0|1:0,0:0:0:0:
367,276,235525,6,0,L|115:272,1,210,8|8,0:0|0:0,0:0:0:0:
443,180,236110,1,0,1:0:0:0:
176,151,236304,2,0,L|31:150,1,105,8|0,0:0|0:0,0:0:0:0:
353,94,236694,2,0,L|476:98,1,105,2|2,0:0|0:0,0:0:0:0:
142,267,237084,6,0,L|387:254,1,210,8|0,3:0|1:0,0:0:0:0:
51,179,237668,1,0,1:0:0:0:
352,135,237863,2,0,L|482:132,1,105,8|2,0:0|0:0,0:0:0:0:
164,83,238252,2,0,L|25:79,1,105,0|2,1:0|0:0,0:0:0:0:
377,281,238642,6,0,P|428:258|349:167,1,210,8|0,0:0|1:0,0:0:0:0:
193,158,239226,1,0,1:0:0:0:
466,192,239421,2,0,L|480:78,1,105,8|2,0:0|0:0,0:0:0:0:
177,54,239811,2,0,L|40:54,1,105,2|0,0:0|1:0,0:0:0:0:
388,216,240201,5,8,0:0:0:0:
235,175,240395,2,0,L|235:64,1,105,0|0,1:0|1:0,0:0:0:0:
388,216,240785,1,0,1:0:0:0:
82,216,240980,1,8,0:0:0:0:
235,175,241174,2,0,L|235:64,1,105,2|2,0:0|0:0,0:0:0:0:
82,216,241564,1,0,1:0:0:0:
452,161,241759,5,10,0:0:0:0:
294,156,241954,1,2,1:0:0:0:
452,161,242149,1,2,1:0:0:0:
294,156,242343,1,2,1:0:0:0:
25,159,242538,1,10,0:0:0:0:
183,154,242733,1,2,0:0:0:0:
452,161,242928,1,2,0:0:0:0:
294,156,243122,1,2,1:0:0:0:
25,159,243317,5,4,0:0:0:0:
256,192,243512,12,0,244486,0:0:0:0:
195,255,244876,6,0,P|131:223|229:38,1,315,2|0,1:0|0:0,0:0:0:0:
384,40,245655,2,0,P|469:78|341:213,1,315,2|0,0:0|0:0,0:0:0:0:
202,264,246434,5,2,0:0:0:0:
102,265,246628,1,0,0:0:0:0:
52,179,246823,1,0,0:0:0:0:
104,93,247018,1,0,0:0:0:0:
204,96,247213,1,0,0:0:0:0:
370,167,247408,2,0,L|379:25,1,105,2|0,0:0|0:0,0:0:0:0:
214,183,247797,1,2,0:0:0:0:
314,191,247993,6,0,L|326:62,1,105
228,61,248382,1,0,0:0:0:0:
388,118,248576,1,2,0:0:0:0:
294,131,248772,2,0,L|293:-1,1,105
389,14,249161,1,0,0:0:0:0:
479,57,249355,1,0,0:0:0:0:
479,157,249550,5,2,0:0:0:0:
390,202,249745,1,0,0:0:0:0:
294,185,249940,1,0,0:0:0:0:
390,202,250135,1,0,0:0:0:0:
479,157,250330,1,0,0:0:0:0:
343,121,250550,2,0,L|341:75,1,26.25
477,60,250914,1,2,0:0:0:0:
376,47,251109,6,0,L|377:180,1,105
474,157,251498,1,0,0:0:0:0:
325,149,251693,1,2,0:0:0:0:
171,133,251889,2,0,L|159:270,1,105,2|0,0:0|0:0,0:0:0:0:
259,255,252278,1,0,0:0:0:0:
165,241,252472,1,0,0:0:0:0:
332,265,252667,5,2,0:0:0:0:
427,242,252863,1,0,0:0:0:0:
427,145,253058,1,0,0:0:0:0:
332,123,253251,1,0,0:0:0:0:
172,107,253446,1,2,0:0:0:0:
332,123,253641,1,2,0:0:0:0:
232,114,253836,1,0,0:0:0:0:
391,210,254031,1,2,0:0:0:0:
291,191,254226,6,0,L|290:47,1,105,2|2,0:0|0:0,0:0:0:0:
390,78,254615,1,2,0:0:0:0:
226,108,254811,2,0,L|102:103,1,105,2|0,0:0|0:0,0:0:0:0:
226,108,255200,2,0,L|354:114,1,105
167,258,255589,1,0,0:0:0:0:
76,220,255785,5,2,0:0:0:0:
77,122,255980,1,0,0:0:0:0:
169,86,256175,1,0,0:0:0:0:
331,188,256369,2,0,L|336:68,1,105
200,78,256783,2,0,L|197:36,1,26.25
351,104,257148,1,2,0:0:0:0:
251,160,257343,6,0,L|248:28,1,105,2|2,0:0|0:0,0:0:0:0:
148,51,257732,1,2,0:0:0:0:
311,206,257928,2,0,L|437:208,1,105,2|0,0:0|0:0,0:0:0:0:
240,240,258317,2,0,L|235:357,1,105,2|2,0:0|0:0,0:0:0:0:
129,338,258706,1,2,0:0:0:0:
401,270,258902,6,0,L|412:131,1,105,2|0,0:0|0:0,0:0:0:0:
502,157,259291,1,0,0:0:0:0:
409,159,259485,1,0,0:0:0:0:
99,166,259875,1,2,0:0:0:0:
199,172,260070,1,0,0:0:0:0:
31,181,260265,6,0,L|28:313,1,105,2|2,0:0|0:0,0:0:0:0:
134,285,260655,2,0,L|16:286,1,105
190,209,261044,1,2,0:0:0:0:
292,195,261239,2,0,L|296:71,1,105,0|2,0:0|0:0,0:0:0:0:
393,94,261628,1,2,0:0:0:0:
295,87,261823,1,2,0:0:0:0:
456,190,262018,5,2,0:0:0:0:
358,175,262213,2,0,L|356:55,1,105
254,122,262603,2,0,L|248:-15,1,105
388,70,263017,2,0,L|393:23,1,26.25
237,132,263382,1,2,0:0:0:0:
136,137,263577,6,0,L|134:21,1,105
29,29,263966,1,0,0:0:0:0:
200,195,264161,1,2,0:0:0:0:
303,163,264356,2,0,L|306:40,1,105
406,55,264745,1,2,0:0:0:0:
305,42,264940,1,0,0:0:0:0:
15,185,265135,5,2,0:0:0:0:
104,177,265330,2,0,L|107:63,1,105
212,72,265720,2,0,L|81:71,1,105
268,190,266109,2,0,L|144:189,1,105,2|0,0:0|0:0,0:0:0:0:
319,247,266498,1,2,0:0:0:0:
409,206,266694,6,0,L|409:70,1,105,2|0,0:0|0:0,0:0:0:0:
502,84,267083,1,0,0:0:0:0:
338,118,267278,1,2,0:0:0:0:
240,111,267473,2,0,L|242:-7,1,105
137,6,267863,2,0,L|265:6,1,105
79,223,268252,6,0,L|76:108,1,105,2|0,0:0|0:0,0:0:0:0:
181,114,268642,2,0,L|58:112,2,105
322,171,269251,2,0,L|328:123,1,26.25
181,91,269615,1,2,0:0:0:0:
341,232,269811,6,0,L|349:108,1,105,2|0,0:0|0:0,0:0:0:0:
241,100,270200,1,2,0:0:0:0:
409,131,270395,1,2,0:0:0:0:
306,137,270590,2,0,L|307:0,1,105,2|0,0:0|0:0,0:0:0:0:
146,37,270980,2,0,L|26:38,1,105,2|0,0:0|0:0,0:0:0:0:
346,238,271369,6,0,L|344:117,1,105,8|0,0:0|0:0,0:0:0:0:
240,128,271759,1,2,0:0:0:0:
426,177,271954,2,0,L|427:57,1,105,2|0,0:0|0:0,0:0:0:0:
327,59,272343,1,2,0:0:0:0:
142,240,272538,2,0,L|144:119,1,105,2|0,0:0|0:0,0:0:0:0:
248,130,272928,5,2,0:0:0:0:
62,179,273123,2,0,L|61:59,1,105,2|0,0:0|0:0,0:0:0:0:
161,61,273512,1,2,0:0:0:0:
332,183,273707,2,0,L|337:62,1,105,2|2,0:0|0:0,0:0:0:0:
166,165,274097,2,0,L|160:42,1,105,2|2,0:0|0:0,0:0:0:0:
343,125,274486,6,0,L|208:126,2,105,2|0|2,0:0|0:0|0:0,0:0:0:0:
167,201,275071,2,0,L|302:202,2,105,2|0|2,0:0|0:0|0:0,0:0:0:0:
354,147,275655,6,0,L|467:145,2,105,2|0|2,0:0|0:0|0:0,0:0:0:0:
180,114,276239,2,0,L|67:112,2,105,2|0|2,0:0|0:0|0:0,0:0:0:0:
365,178,276824,5,2,0:0:0:0:
260,177,277018,1,0,0:0:0:0:
155,176,277213,1,2,0:0:0:0:
336,105,277408,5,2,0:0:0:0:
