osu file format v14

[General]
AudioFilename: audio.mp3
AudioLeadIn: 0
PreviewTime: 178519
Countdown: 0
SampleSet: Soft
StackLeniency: 0.7
Mode: 0
LetterboxInBreaks: 0
WidescreenStoryboard: 1

[Editor]
Bookmarks: 1397,12559,40466,62792,90699,118606,140931,167443,180001,199535,228663,237210,274884
DistanceSpacing: 1
BeatDivisor: 4
GridSize: 16
TimelineZoom: 2.599999

[Metadata]
Title:Meet Again
TitleUnicode:Meet Again
Artist:Pratanallis feat. Rina Komatsu
ArtistUnicode:Pratanallis feat. 狛茉璃奈
Creator:Zekk
Version:Normal
Source:
Tags:featured artist fa japanese rock ckharv dear white faieries vtuber こまつ りな
BeatmapID:3655113
BeatmapSetID:1784645

[Difficulty]
HPDrainRate:3
CircleSize:3.5
OverallDifficulty:4
ApproachRate:4
SliderMultiplier:1
SliderTickRate:1

[Events]
//Background and Video events
0,0,"72392328_p0.jpg",0,0
//Break Periods
2,219270,227343
//Storyboard Layer 0 (Background)
//Storyboard Layer 1 (Fail)
//Storyboard Layer 2 (Pass)
//Storyboard Layer 3 (Foreground)
//Storyboard Layer 4 (Overlay)
//Storyboard Sound Samples

[TimingPoints]
1397,348.837209302326,4,2,1,50,1,0
12559,-100,4,2,1,70,0,0
18141,-100,4,2,1,60,0,0
40466,-100,4,2,1,55,0,0
62792,-100,4,2,1,80,0,0
89303,-100,4,2,1,75,0,0
90699,-100,4,2,1,70,0,0
96280,-100,4,2,1,60,0,0
118606,-100,4,2,1,55,0,0
140931,-100,4,2,1,80,0,0
167443,-100,4,2,1,75,0,0
168141,-100,4,2,1,70,0,0
168838,-100,4,2,1,60,0,0
180001,-100,4,2,1,75,0,0
185583,348.837209302326,3,2,1,75,1,0
185583,-100,4,2,1,75,0,0
188373,348.837209302326,4,2,1,75,1,0
188373,-100,4,2,1,75,0,0
219070,-100,4,2,1,50,0,0
228663,-100,4,2,1,80,0,0
230233,-100,4,2,1,80,0,0
245582,-100,4,2,1,75,0,0
246977,-100,4,2,1,70,0,0
269303,-100,4,2,1,80,0,0
272093,-100,4,2,1,60,0,0
274419,-100,4,2,1,60,0,0
278460,-100,4,2,1,5,0,0

[Colours]
Combo1 : 240,140,140
Combo2 : 200,180,220
Combo3 : 174,228,167
Combo4 : 150,185,220

[HitObjects]
68,76,12559,6,0,P|94:117|153:120,1,100,6|8,1:2|0:2,0:0:0:0:
228,73,13257,2,0,P|252:71|278:52,1,50,2|2,1:2|1:2,0:0:0:0:
319,34,13606,1,8,0:2:0:0:
319,34,13780,6,0,B|349:77|307:106|355:174,1,100,6|2,1:2|1:2,0:0:0:0:
380,148,14303,1,10,0:2:0:0:
371,247,14652,2,0,L|355:307,2,50,2|0|10,1:2|1:2|0:2,0:0:0:0:
278,208,15350,6,0,P|251:234|170:231,1,100,6|10,1:2|0:2,0:0:0:0:
104,189,16048,2,0,L|87:259,1,50,2|2,1:2|1:2,0:0:0:0:
55,270,16397,1,8,0:2:0:0:
55,270,16571,2,0,B|32:314|32:314|62:367,1,100,6|2,1:2|1:2,0:0:0:0:
106,367,17094,1,10,0:2:0:0:
197,327,17443,2,0,L|274:306,1,50,0|2,1:2|1:2,0:0:0:0:
295,316,17792,1,10,0:2:0:0:
388,280,18141,6,0,P|427:264|436:205,1,100,6|8,1:2|0:2,0:0:0:0:
357,152,18838,2,0,P|315:167|255:180,1,100,2|8,1:2|0:2,0:0:0:0:
215,200,19362,1,2,1:2:0:0:
125,155,19710,1,0,1:2:0:0:
125,155,19885,2,0,P|76:137|17:128,1,100,10|2,0:2|1:2,0:0:0:0:
13,29,20583,1,10,0:2:0:0:
108,56,20931,6,0,P|156:24|207:24,1,100,2|8,1:2|0:2,0:0:0:0:
270,89,21629,2,0,P|291:122|362:131,1,100,2|8,1:2|0:2,0:0:0:0:
436,89,22327,2,0,P|471:162|453:264,1,150,2|0,1:2|0:2,0:0:0:0:
433,265,23024,1,2,1:2:0:0:
355,327,23373,1,10,0:2:0:0:
276,264,23722,6,0,P|227:264|150:181,1,150,2|0,1:2|3:2,0:0:0:0:
128,157,24420,1,2,1:2:0:0:
50,220,24769,1,8,0:2:0:0:
121,289,25117,2,0,B|200:295|181:336|292:343,1,150,2|0,0:2|0:2,0:0:0:0:
307,357,25815,1,2,1:2:0:0:
399,318,26164,1,10,0:2:0:0:
453,233,26513,6,0,P|447:180|401:105,1,100,2|8,1:2|0:2,0:0:0:0:
354,70,27210,1,0,1:2:0:0:
302,156,27559,1,8,0:0:0:0:
302,156,27734,2,0,B|248:157|248:157|201:135,1,100,2|0,0:2|1:2,0:0:0:0:
163,162,28257,1,8,0:2:0:0:
73,117,28606,2,0,P|78:71|130:14,1,100,2|10,1:2|0:2,0:0:0:0:
204,56,29303,6,0,B|275:70|276:18|394:58,1,150,6|0,1:2|0:2,0:0:0:0:
400,35,30001,1,2,1:2:0:0:
501,14,30350,1,8,0:2:0:0:
501,14,30524,2,0,B|519:59|519:59|490:118,1,100,6|0,1:2|1:2,0:0:0:0:
450,125,31048,1,10,0:2:0:0:
386,201,31397,2,0,P|346:189|275:145,1,100,2|10,1:2|0:2,0:0:0:0:
195,165,32094,6,0,P|156:191|96:190,1,100,6|8,1:2|0:2,0:0:0:0:
55,179,32617,1,2,0:2:0:0:
10,268,32966,1,2,1:2:0:0:
92,324,33315,2,0,B|164:324|164:364|244:371,1,150,6|8,1:2|0:2,0:0:0:0:
305,302,34187,1,2,1:2:0:0:
259,212,34536,1,10,0:2:0:0:
357,159,34885,6,0,P|392:187|457:195,1,100,6|8,1:2|0:2,0:0:0:0:
503,115,35583,2,0,P|461:83|409:75,1,100,2|8,1:2|0:2,0:0:0:0:
328,25,36280,2,0,P|278:51|217:57,1,100,2|8,1:2|0:2,0:0:0:0:
185,53,36803,1,2,0:2:0:0:
59,136,37327,2,0,L|46:204,1,50,10|0,0:2|0:2,0:0:0:0:
20,225,37676,6,0,P|15:276|58:313,1,100,2|8,1:2|0:2,0:0:0:0:
138,347,38373,2,0,P|181:325|236:309,1,100,2|8,1:2|0:2,0:0:0:0:
321,267,39071,1,2,1:2:0:0:
394,334,39420,1,8,0:2:0:0:
469,267,39769,2,0,P|461:224|393:175,1,100,2|10,0:2|0:2,0:0:0:0:
326,157,40466,6,0,B|251:161|246:206|153:200,1,150,6|0,1:2|1:2,0:0:0:0:
94,245,41338,1,2,0:2:0:0:
27,170,41687,1,2,1:2:0:0:
27,170,41862,2,0,P|27:121|82:61,1,100,0|2,1:2|0:2,0:0:0:0:
151,60,42559,1,10,0:2:0:0:
238,108,42908,1,2,0:2:0:0:
325,59,43257,6,0,P|380:54|431:32,1,100,2|2,1:2|0:2,0:0:0:0:
472,41,43780,1,2,1:2:0:0:
501,136,44129,1,2,0:2:0:0:
410,177,44478,1,0,1:2:0:0:
410,177,44652,2,0,B|359:168|360:194|283:174,1,100,0|2,1:2|0:2,0:0:0:0:
224,231,45350,1,10,0:2:0:0:
143,171,45699,1,2,0:2:0:0:
56,221,46048,6,0,P|68:256|81:323,1,100,2|0,1:2|0:2,0:0:0:0:
123,343,46571,1,2,1:2:0:0:
263,291,47094,1,2,0:2:0:0:
351,337,47443,2,0,P|404:342|454:294,1,100,2|0,1:2|1:2,0:0:0:0:
445,267,47966,1,2,1:2:0:0:
322,180,48490,1,2,0:2:0:0:
232,224,48838,6,0,P|186:205|124:188,1,100,2|0,1:2|0:2,0:0:0:0:
89,205,49362,1,2,1:2:0:0:
47,61,49885,1,2,0:2:0:0:
140,24,50234,2,0,P|181:65|226:69,1,100,2|2,1:2|0:2,0:0:0:0:
316,39,50931,1,8,0:2:0:0:
370,122,51280,2,0,L|350:190,1,50,8|8,0:2|0:2,0:0:0:0:
325,209,51629,6,0,P|345:263|357:348,1,100,6|2,1:2|0:2,0:0:0:0:
379,347,52152,1,2,0:2:0:0:
471,309,52501,1,2,1:2:0:0:
472,208,52850,1,6,1:2:0:0:
322,219,53373,2,0,L|253:193,1,50,2|0,1:2|0:2,0:0:0:0:
230,179,53722,2,0,P|188:202|113:197,1,100,10|2,0:2|0:2,0:0:0:0:
66,132,54420,6,0,P|87:86|92:34,1,100,6|8,1:2|0:2,0:0:0:0:
141,28,54943,1,10,0:2:0:0:
228,76,55292,1,2,1:2:0:0:
312,22,55641,2,0,P|350:51|413:53,1,100,6|2,1:2|0:2,0:0:0:0:
256,192,57210,12,4,60001,1:2:0:0:
65,175,60699,5,2,0:3:0:0:
159,207,61048,1,2,0:3:0:0:
228,135,61397,1,8,0:2:0:0:
447,338,62792,6,0,P|419:303|425:235,1,100,6|8,1:2|0:2,0:0:0:0:
457,219,63315,1,2,3:2:0:0:
457,219,63490,1,2,1:2:0:0:
397,138,63838,1,8,0:2:0:0:
312,190,64187,2,0,P|258:206|201:248,1,100,2|10,1:2|0:2,0:0:0:0:
143,293,64885,1,2,1:2:0:0:
71,223,65234,1,10,0:2:0:0:
142,153,65583,6,0,P|135:117|177:64,1,100,2|8,1:2|0:2,0:0:0:0:
217,72,66106,1,2,0:2:0:0:
217,72,66280,1,2,1:2:0:0:
313,45,66629,1,8,0:2:0:0:
400,93,66978,2,0,P|435:121|501:138,1,100,2|8,1:2|0:2,0:0:0:0:
495,185,67501,1,2,0:2:0:0:
495,185,67676,1,2,1:2:0:0:
427,258,68024,2,0,L|438:315,1,50,10|2,0:2|0:2,0:0:0:0:
391,330,68373,6,0,B|337:318|358:292|281:291,1,100,2|8,1:2|0:2,0:0:0:0:
260,320,68897,1,2,0:0:0:0:
260,320,69071,1,2,1:2:0:0:
167,281,69420,1,8,0:2:0:0:
227,200,69769,2,0,P|246:157|240:93,1,100,2|10,1:2|0:2,0:0:0:0:
171,36,70466,1,2,1:2:0:0:
87,86,70815,1,10,0:2:0:0:
52,185,71164,6,0,P|76:230|85:307,1,100,2|8,1:2|0:2,0:0:0:0:
86,327,71687,1,2,0:2:0:0:
132,344,71862,1,2,1:2:0:0:
179,360,72036,1,8,0:2:0:0:
267,312,72385,2,0,P|312:299|349:254,1,100,4|0,1:2|1:2,0:0:0:0:
365,213,72908,1,8,0:2:0:0:
365,213,73083,2,0,P|355:166|366:78,1,100,4|8,1:2|0:2,0:0:0:0:
404,98,73606,1,10,0:2:0:0:
449,119,73780,1,8,0:2:0:0:
492,144,73955,6,0,B|485:201|454:202|438:270,1,100,6|8,1:2|0:2,0:0:0:0:
479,329,74652,2,0,P|439:361|367:353,1,100,2|8,1:2|0:2,0:0:0:0:
321,292,75350,2,0,P|282:280|221:244,1,100,2|10,1:2|0:2,0:0:0:0:
155,184,76048,1,2,1:2:0:0:
81,252,76397,1,10,0:2:0:0:
42,159,76745,6,0,P|40:119|92:84,1,100,2|8,1:2|0:2,0:0:0:0:
132,64,77269,1,2,0:2:0:0:
132,64,77443,1,2,1:2:0:0:
223,103,77792,1,8,0:2:0:0:
318,72,78141,2,0,B|371:54|375:33|434:34,1,100,2|10,1:2|0:2,0:0:0:0:
456,124,78838,2,0,L|445:183,1,50,2|0,1:2|0:0,0:0:0:0:
405,200,79187,1,10,0:2:0:0:
312,163,79536,6,0,P|266:153|217:127,1,100,2|8,1:2|0:2,0:0:0:0:
123,98,80234,2,0,P|83:133|28:127,1,100,0|10,1:2|0:2,0:0:0:0:
14,175,80757,2,0,P|44:215|55:274,1,100,2|0,0:2|0:0,0:0:0:0:
46,312,81280,1,10,0:2:0:0:
134,358,81629,1,2,1:2:0:0:
201,284,81978,1,10,0:2:0:0:
190,182,82327,6,0,P|201:135|210:80,1,100,2|10,1:2|0:2,0:0:0:0:
251,56,82850,1,2,0:2:0:0:
344,92,83199,1,10,0:2:0:0:
443,81,83548,2,0,P|463:114|465:177,1,100,4|0,1:2|1:2,0:0:0:0:
446,220,84071,1,8,0:2:0:0:
366,281,84420,1,2,1:2:0:0:
319,262,84594,1,2,1:2:0:0:
273,240,84769,1,8,0:2:0:0:
183,196,85117,6,0,P|134:211|70:215,1,100,10|8,0:2|0:2,0:0:0:0:
30,299,85815,2,0,P|54:358|106:372,1,100,8|10,0:2|0:2,0:0:0:0:
131,355,86338,1,0,1:2:0:0:
131,355,86513,2,0,P|167:331|235:323,1,100,10|8,0:2|0:2,0:0:0:0:
270,307,87036,1,2,0:2:0:0:
367,328,87385,1,0,1:2:0:0:
367,328,87559,2,0,L|435:345,1,50,10|0,0:2|1:2,0:0:0:0:
459,316,87908,2,0,P|460:285|297:231,1,200,12|2,0:2|0:0,0:0:0:0:
145,142,89303,5,2,0:2:0:0:
329,64,90001,1,8,0:3:0:0:
300,159,90350,1,4,0:3:0:0:
293,208,90524,1,8,0:3:0:0:
283,257,90699,6,0,B|233:263|245:288|158:291,1,100,6|8,1:2|0:2,0:0:0:0:
94,323,91397,2,0,P|68:305|62:275,1,50,2|2,1:2|1:2,0:0:0:0:
54,239,91745,1,8,0:2:0:0:
54,239,91920,2,0,P|69:194|76:108,1,100,6|2,1:2|1:2,0:0:0:0:
74,91,92443,1,10,0:2:0:0:
164,133,92792,2,0,L|222:144,2,50,2|0|10,1:2|1:2|0:2,0:0:0:0:
172,33,93490,6,0,P|212:12|267:20,1,100,6|10,1:2|0:2,0:0:0:0:
346,76,94187,2,0,P|358:87|406:95,1,50,2|2,1:2|1:2,0:0:0:0:
439,95,94536,1,8,0:2:0:0:
439,95,94710,2,0,P|462:119|460:198,1,100,6|2,1:2|1:2,0:0:0:0:
446,228,95234,1,10,0:2:0:0:
355,270,95583,2,0,L|286:243,2,50,0|2|10,1:2|1:2|0:2,0:0:0:0:
278,334,96280,6,0,P|224:346|163:368,1,100,6|8,1:2|0:2,0:0:0:0:
118,282,96978,2,0,P|112:230|176:172,1,100,2|8,1:2|0:2,0:0:0:0:
185,184,97501,1,2,1:2:0:0:
285,210,97849,1,0,1:2:0:0:
285,210,98024,2,0,P|334:228|393:237,1,100,10|2,0:2|1:2,0:0:0:0:
456,301,98722,1,10,0:2:0:0:
482,204,99071,6,0,P|470:162|399:133,1,100,2|8,1:2|0:2,0:0:0:0:
331,93,99769,2,0,P|284:102|232:154,1,100,2|8,1:2|0:2,0:0:0:0:
190,218,100466,2,0,P|128:203|44:190,1,100,2|8,1:2|0:2,0:0:0:0:
60,101,101163,1,2,1:2:0:0:
146,50,101512,1,10,0:2:0:0:
223,113,101861,6,0,P|272:113|344:193,1,150,2|0,1:2|3:2,0:0:0:0:
367,222,102559,1,2,1:2:0:0:
449,164,102908,1,8,0:2:0:0:
389,83,103256,2,0,B|310:77|329:36|218:29,1,150,2|0,0:2|0:2,0:0:0:0:
201,16,103954,1,2,1:2:0:0:
110,59,104303,1,10,0:2:0:0:
59,151,104652,6,0,P|65:204|111:279,1,100,2|8,1:2|0:2,0:0:0:0:
172,292,105350,1,0,1:0:0:0:
231,211,105699,1,10,0:0:0:0:
231,211,105873,2,0,B|281:207|281:207|330:234,1,100,2|0,0:2|1:2,0:0:0:0:
372,216,106396,1,8,0:2:0:0:
455,271,106745,2,0,P|450:317|398:374,1,100,2|10,1:2|0:2,0:0:0:0:
324,329,107442,6,0,B|253:315|252:367|134:327,1,150,6|0,1:2|0:2,0:0:0:0:
126,346,108140,1,2,1:2:0:0:
32,374,108489,1,8,0:2:0:0:
32,374,108663,2,0,B|14:329|14:329|43:270,1,100,6|0,1:2|1:2,0:0:0:0:
79,255,109187,1,10,0:2:0:0:
138,174,109536,2,0,P|178:186|249:230,1,100,2|10,1:2|0:2,0:0:0:0:
328,222,110233,6,0,P|367:196|427:197,1,100,6|8,1:2|0:2,0:0:0:0:
466,208,110756,1,2,0:2:0:0:
506,116,111105,1,2,1:2:0:0:
423,62,111454,2,0,B|351:62|351:22|271:15,1,150,6|8,1:2|0:2,0:0:0:0:
207,82,112326,1,2,1:2:0:0:
252,172,112675,1,10,0:2:0:0:
155,225,113024,6,0,P|120:197|55:189,1,100,6|8,1:2|0:2,0:0:0:0:
9,269,113722,2,0,P|51:301|103:309,1,100,2|8,1:2|0:2,0:0:0:0:
184,359,114419,2,0,P|234:333|295:327,1,100,2|8,1:2|0:2,0:0:0:0:
327,331,114942,1,2,0:2:0:0:
453,248,115466,2,0,L|466:180,1,50,10|0,0:2|0:2,0:0:0:0:
492,159,115815,6,0,P|497:108|454:71,1,100,2|8,1:2|0:2,0:0:0:0:
374,37,116512,2,0,P|331:59|276:75,1,100,2|8,1:2|0:2,0:0:0:0:
191,117,117210,1,2,1:2:0:0:
118,50,117559,1,8,0:2:0:0:
43,117,117908,2,0,P|51:160|119:209,1,100,2|10,0:2|0:2,0:0:0:0:
186,227,118605,6,0,B|261:223|266:178|359:184,1,150,6|0,1:2|1:2,0:0:0:0:
418,139,119477,1,2,0:2:0:0:
485,214,119826,1,2,1:2:0:0:
485,214,120001,2,0,P|485:263|430:323,1,100,0|2,1:2|0:2,0:0:0:0:
361,324,120698,1,10,0:2:0:0:
274,276,121047,1,2,0:2:0:0:
187,325,121396,6,0,P|132:330|81:352,1,100,2|2,1:2|0:2,0:0:0:0:
40,343,121919,1,2,1:2:0:0:
11,248,122268,1,2,0:2:0:0:
102,207,122617,1,0,1:2:0:0:
102,207,122791,2,0,B|153:216|152:190|229:210,1,100,0|2,1:2|0:2,0:0:0:0:
288,153,123489,1,10,0:2:0:0:
369,213,123838,1,2,0:2:0:0:
456,163,124187,6,0,P|444:128|431:61,1,100,2|0,1:2|0:2,0:0:0:0:
389,41,124710,1,2,1:2:0:0:
249,93,125233,1,2,0:2:0:0:
161,47,125582,2,0,P|108:42|58:90,1,100,2|0,1:2|1:2,0:0:0:0:
67,117,126105,1,2,1:2:0:0:
190,204,126629,1,2,0:2:0:0:
280,160,126977,6,0,P|326:179|388:196,1,100,2|0,1:2|0:2,0:0:0:0:
423,179,127501,1,2,1:2:0:0:
465,323,128024,1,2,0:2:0:0:
372,360,128373,2,0,P|331:319|286:315,1,100,2|2,1:2|0:2,0:0:0:0:
196,345,129070,1,8,0:2:0:0:
142,262,129419,2,0,L|162:194,1,50,8|8,0:2|0:2,0:0:0:0:
187,175,129768,6,0,P|167:121|155:36,1,100,6|2,1:2|0:2,0:0:0:0:
133,37,130291,1,2,0:2:0:0:
41,75,130640,1,2,1:2:0:0:
40,176,130989,1,6,1:2:0:0:
190,165,131512,2,0,L|259:191,1,50,2|0,1:2|0:2,0:0:0:0:
282,205,131861,2,0,P|324:182|399:187,1,100,10|2,0:2|0:2,0:0:0:0:
446,252,132559,6,0,P|425:298|420:350,1,100,6|8,1:2|0:2,0:0:0:0:
371,356,133082,1,10,0:2:0:0:
284,308,133431,1,2,1:2:0:0:
200,362,133780,2,0,P|162:333|99:331,1,100,6|2,1:2|0:2,0:0:0:0:
256,192,135350,12,4,138141,1:2:0:0:
488,72,138838,5,2,0:3:0:0:
398,115,139187,1,2,0:3:0:0:
337,37,139536,1,8,0:2:0:0:
19,189,140931,6,0,P|74:195|136:238,1,100,6|8,1:2|0:2,0:0:0:0:
160,231,141455,1,2,3:2:0:0:
160,231,141629,2,0,P|191:273|190:336,1,100,2|8,1:2|0:2,0:0:0:0:
287,356,142327,1,2,1:2:0:0:
386,369,142676,1,10,0:2:0:0:
414,273,143024,2,0,P|397:235|391:159,1,100,2|10,1:2|0:2,0:0:0:0:
462,109,143722,6,0,P|425:106|391:49,1,100,2|8,1:2|0:2,0:0:0:0:
364,14,144245,1,2,0:2:0:0:
364,14,144420,1,2,1:2:0:0:
287,78,144769,1,8,0:2:0:0:
188,64,145117,2,0,P|141:58|84:104,1,100,2|8,1:2|0:2,0:0:0:0:
52,107,145641,1,2,0:2:0:0:
52,107,145815,1,2,1:2:0:0:
67,205,146164,1,10,0:2:0:0:
115,217,146338,1,2,0:2:0:0:
163,231,146513,6,0,B|215:222|210:198|268:191,1,100,2|8,1:2|0:2,0:0:0:0:
303,181,147036,1,2,0:2:0:0:
303,181,147210,1,2,1:2:0:0:
402,167,147559,1,8,0:2:0:0:
449,254,147908,2,0,P|446:294|411:351,1,100,2|10,1:2|0:2,0:0:0:0:
319,368,148606,1,2,1:2:0:0:
265,283,148955,1,10,0:2:0:0:
175,326,149303,6,0,P|100:334|58:353,1,100,2|8,1:2|0:2,0:0:0:0:
27,343,149827,1,2,0:2:0:0:
24,293,150001,1,2,1:2:0:0:
19,243,150176,1,8,0:2:0:0:
105,192,150524,2,0,P|151:191|208:234,1,100,4|0,1:2|1:2,0:0:0:0:
246,217,151048,1,8,0:2:0:0:
246,217,151222,2,0,P|286:206|308:136,1,100,4|8,1:2|0:2,0:0:0:0:
275,121,151745,1,10,0:2:0:0:
355,60,152094,6,0,P|407:60|452:110,1,100,6|8,1:2|0:2,0:0:0:0:
459,136,152617,1,2,0:2:0:0:
459,136,152792,1,2,1:2:0:0:
384,202,153141,1,8,0:2:0:0:
447,279,153490,2,0,B|436:328|427:318|408:386,1,100,2|10,1:2|0:2,0:0:0:0:
328,317,154187,1,2,1:2:0:0:
236,356,154536,1,10,0:2:0:0:
152,301,154885,6,0,P|100:294|66:247,1,100,2|8,1:2|0:2,0:0:0:0:
30,229,155408,1,2,0:2:0:0:
30,229,155583,2,0,P|25:179|87:122,1,100,2|8,1:2|0:2,0:0:0:0:
138,90,156280,1,2,1:2:0:0:
223,142,156629,1,10,0:2:0:0:
301,80,156978,2,0,L|372:64,1,50,2|0,1:2|0:0,0:0:0:0:
391,41,157327,1,10,0:2:0:0:
453,119,157676,6,0,B|465:164|465:164|414:225,1,100,2|8,1:2|0:2,0:0:0:0:
386,229,158199,1,0,0:0:0:0:
386,229,158373,2,0,P|339:197|296:188,1,100,0|10,1:2|0:2,0:0:0:0:
249,171,158897,1,2,0:2:0:0:
127,259,159420,1,10,0:2:0:0:
41,207,159769,2,0,P|16:174|37:103,1,100,2|10,1:2|0:2,0:0:0:0:
113,75,160466,6,0,P|161:102|211:113,1,100,2|10,1:2|0:2,0:0:0:0:
250,93,160990,1,0,0:2:0:0:
346,66,161338,1,10,0:2:0:0:
439,101,161687,2,0,P|450:156|470:212,1,100,4|0,1:2|1:2,0:0:0:0:
429,234,162210,1,8,0:2:0:0:
331,217,162559,1,2,1:2:0:0:
264,291,162908,1,10,0:2:0:0:
175,336,163257,6,0,B|139:324|139:324|117:306|117:306|67:291,1,100,10|8,0:2|0:2,0:0:0:0:
38,299,163780,1,0,0:2:0:0:
38,299,163955,1,8,0:2:0:0:
7,204,164303,1,10,0:2:0:0:
100,169,164652,2,0,P|135:200|216:215,1,100,10|8,0:2|0:2,0:0:0:0:
233,203,165176,1,2,0:2:0:0:
233,203,165350,1,8,0:2:0:0:
289,120,165699,1,10,0:2:0:0:
281,70,165873,1,0,1:2:0:0:
270,20,166048,2,0,P|351:23|382:153,1,200,12|2,0:2|0:0,0:0:0:0:
473,364,167443,5,6,0:2:0:0:
289,284,168141,2,0,P|189:292|126:357,1,150,8|0,0:2|0:0,0:0:0:0:
102,330,168838,6,0,P|45:308|30:202,1,150,4|0,1:2|1:2,0:0:0:0:
45,185,169536,1,8,0:2:0:0:
140,155,169885,2,0,L|201:177,1,50,0|8,0:2|0:2,0:0:0:0:
233,192,170234,2,0,B|311:186|291:130|406:141,1,150,0|0,1:2|1:2,0:0:0:0:
412,167,170931,1,8,0:2:0:0:
463,81,171280,2,0,L|476:14,1,50,0|0,0:2|1:2,0:0:0:0:
432,1,171629,2,0,P|366:36|270:45,1,150,0|0,1:2|1:2,0:0:0:0:
245,28,172327,1,8,0:2:0:0:
192,113,172676,2,0,L|210:171,1,50,0|8,0:2|0:2,0:0:0:0:
253,178,173024,6,0,P|268:232|203:314,1,150,0|0,1:2|1:2,0:0:0:0:
184,342,173722,1,8,0:2:0:0:
103,282,174071,2,0,L|27:309,1,50,0|0,0:2|1:2,0:0:0:0:
7,312,174420,6,0,P|23:221|26:130,1,150,0|0,1:2|1:2,0:0:0:0:
19,114,175117,1,8,0:2:0:0:
112,77,175466,1,0,1:2:0:0:
203,116,175815,1,0,1:2:0:0:
203,116,175990,2,0,L|269:103,2,50,8|0|0,0:2|1:2|1:2,0:0:0:0:
187,163,176513,1,8,0:2:0:0:
234,250,176862,1,0,0:2:0:0:
220,298,177036,1,0,1:2:0:0:
208,346,177210,1,4,1:2:0:0:
5,209,178606,6,0,P|41:200|118:161,1,100,8|8,0:2|0:2,0:0:0:0:
165,99,179303,2,0,L|234:115,1,50,8|8,0:2|0:3,0:0:0:0:
261,94,179652,2,0,L|317:133,1,50,8|8,0:2|0:2,0:0:0:0:
341,153,180001,6,0,P|349:202|312:273,1,100,6|8,1:2|0:2,0:0:0:0:
298,284,180524,1,0,0:2:0:0:
298,284,180699,1,0,1:2:0:0:
201,258,181048,1,8,0:2:0:0:
138,336,181397,2,0,P|89:348|34:380,1,100,0|8,1:2|0:2,0:0:0:0:
2,345,181920,2,0,B|17:291|40:304|49:232,1,100,2|2,0:2|0:2,0:0:0:0:
79,219,182443,1,8,0:2:0:0:
24,134,182792,6,0,P|68:138|126:83,1,100,0|8,1:2|0:2,0:0:0:0:
139,66,183315,1,2,0:2:0:0:
139,66,183490,1,0,1:2:0:0:
219,125,183838,1,8,0:2:0:0:
302,69,184187,2,0,P|347:100|411:119,1,100,2|8,1:2|0:2,0:0:0:0:
485,87,184885,1,2,1:2:0:0:
499,185,185234,1,10,0:2:0:0:
409,229,185583,6,0,P|366:243|328:310,1,100,6|0,1:2|1:2,0:0:0:0:
315,331,186106,1,10,0:2:0:0:
223,291,186455,1,0,0:2:0:0:
223,291,186629,2,0,B|165:284|189:263|116:259,1,100,2|0,1:2|1:2,0:0:0:0:
80,272,187152,2,0,P|72:229|129:162,1,100,10|0,0:2|1:2,0:0:0:0:
144,165,187676,1,10,0:2:0:0:
235,203,188024,1,10,0:2:0:0:
326,161,188373,6,0,P|378:148|456:110,1,100,6|8,1:2|0:2,0:0:0:0:
455,94,188896,2,0,P|448:52|390:25,1,100,2|2,0:2|1:2,0:0:0:0:
353,38,189419,1,10,0:2:0:0:
353,38,189593,1,6,1:2:0:0:
274,99,189942,2,0,L|212:117,1,50,8|0,0:2|1:2,0:0:0:0:
185,93,190291,1,2,1:2:0:0:
185,93,190466,1,10,0:2:0:0:
99,144,190814,1,10,0:2:0:0:
111,192,190989,1,8,0:2:0:0:
129,238,191163,6,0,P|177:252|251:282,1,100,6|10,1:2|0:2,0:0:0:0:
259,304,191686,1,2,0:2:0:0:
259,304,191861,1,2,1:2:0:0:
346,256,192210,1,8,0:2:0:0:
441,285,192559,2,0,P|468:250|453:197,1,100,0|10,1:0|0:2,0:0:0:0:
414,170,193082,1,2,0:2:0:0:
414,170,193256,2,0,P|358:180|308:205,1,100,2|10,1:2|0:2,0:0:0:0:
235,143,193954,6,0,B|225:104|256:99|246:34,1,100,2|10,1:2|0:2,0:0:0:0:
201,26,194477,2,0,P|156:49|101:59,1,100,2|0,0:2|0:2,0:0:0:0:
57,61,195000,1,8,0:2:0:0:
45,160,195349,1,2,1:2:0:0:
118,227,195698,1,10,0:2:0:0:
210,189,196047,1,2,1:2:0:0:
304,222,196396,1,10,0:2:0:0:
332,317,196745,6,0,P|303:359|235:356,1,100,6|8,1:2|0:2,0:0:0:0:
207,370,197268,2,0,P|160:346|105:338,1,100,0|0,0:2|0:2,0:0:0:0:
64,347,197791,1,10,0:2:0:0:
27,253,198140,2,0,B|44:194|66:222|89:137,1,100,0|10,1:2|0:2,0:0:0:0:
172,132,198838,2,0,P|219:161|275:177,1,100,2|10,1:2|0:2,0:0:0:0:
353,212,199535,6,0,P|396:208|428:146,1,100,2|10,1:2|0:2,0:0:0:0:
466,131,200059,2,0,P|458:97|403:57,1,100,2|0,0:2|1:2,0:0:0:0:
359,49,200582,1,10,0:2:0:0:
359,49,200756,1,6,1:2:0:0:
276,105,201105,1,0,1:2:0:0:
276,105,201279,2,0,L|216:94,1,50,8|8,0:0|0:3,0:0:0:0:
177,86,201628,1,0,1:2:0:0:
82,52,201977,1,10,0:2:0:0:
35,140,202326,6,0,P|59:185|67:248,1,100,6|8,1:2|0:2,0:0:0:0:
37,328,203024,1,2,1:2:0:0:
132,357,203373,1,10,0:2:0:0:
187,274,203721,2,0,P|214:250|296:245,1,100,2|8,1:2|0:2,0:0:0:0:
321,260,204245,1,2,0:2:0:0:
321,260,204419,1,2,1:2:0:0:
408,308,204768,1,8,1:2:0:0:
475,233,205117,6,0,B|468:184|437:196|433:112,1,100,0|8,1:2|0:2,0:0:0:0:
481,53,205814,1,2,1:2:0:0:
385,21,206163,1,10,0:2:0:0:
303,78,206512,2,0,P|256:87|202:113,1,100,2|10,1:2|0:2,0:0:0:0:
184,152,207035,1,2,0:2:0:0:
184,152,207210,1,2,1:2:0:0:
106,88,207559,1,10,0:2:0:0:
28,150,207907,6,0,P|6:182|13:252,1,100,2|8,1:2|0:2,0:0:0:0:
83,306,208605,1,0,1:2:0:0:
130,290,208779,1,2,0:2:0:0:
178,275,208954,2,0,L|257:299,1,50,10|2,0:2|0:2,0:0:0:0:
270,311,209303,6,0,B|325:315|331:355|410:353,1,100,0|8,1:2|0:2,0:0:0:0:
433,277,210000,1,2,1:2:0:0:
450,229,210175,1,2,0:2:0:0:
468,182,210349,2,0,L|454:118,1,50,10|2,0:2|0:2,0:0:0:0:
426,93,210698,6,0,P|378:84|331:52,1,100,2|8,1:2|0:2,0:0:0:0:
271,133,211396,2,0,P|255:179|252:255,1,100,2|8,1:2|0:2,0:0:0:0:
276,272,211919,1,0,0:2:0:0:
276,272,212093,2,0,P|311:278|338:303,1,50,8|8,0:2|0:3,0:0:0:0:
342,331,212442,2,0,P|339:354|297:385,1,50,8|8,0:2|0:3,0:0:0:0:
273,377,212791,1,12,0:3:0:0:
201,306,213140,1,8,0:3:0:0:
104,332,213489,6,0,P|70:332|18:271,1,100,6|8,1:2|0:2,0:0:0:0:
71,202,214186,2,0,P|79:150|105:88,1,100,2|10,1:2|0:2,0:0:0:0:
184,59,214884,2,0,P|234:91|289:109,1,100,2|10,1:2|0:2,0:0:0:0:
332,184,215582,2,0,B|349:234|307:232|341:304,1,100,2|10,1:2|0:2,0:0:0:0:
402,352,216279,6,0,P|439:355|495:307,1,100,2|10,1:2|0:2,0:0:0:0:
496,270,216803,1,0,0:2:0:0:
496,270,216977,1,0,1:2:0:0:
428,196,217326,1,10,0:2:0:0:
472,106,217675,1,2,1:2:0:0:
395,42,218024,2,0,L|336:26,1,50,0|8,1:2|0:2,0:0:0:0:
304,55,218373,2,0,P|275:83|205:75,1,100,8|8,0:2|0:2,0:0:0:0:
131,32,219070,1,6,0:2:0:0:
244,360,228663,6,0,P|255:313|286:250,1,100,8|0,0:2|1:2,0:0:0:0:
321,244,229186,1,0,1:2:0:0:
321,244,229361,2,0,P|351:209|333:148,1,100,8|0,0:2|0:2,0:0:0:0:
293,148,229884,1,2,0:2:0:0:
208,202,230233,6,0,P|155:221|116:244,1,100,6|8,1:2|0:2,0:0:0:0:
67,240,230756,1,2,0:2:0:0:
67,240,230931,2,0,P|45:199|3:162,1,100,2|8,1:2|0:2,0:0:0:0:
69,86,231628,1,2,1:2:0:0:
133,162,231977,1,10,0:2:0:0:
232,153,232326,1,2,1:2:0:0:
280,65,232675,1,10,0:2:0:0:
371,24,233024,6,0,P|430:22|464:62,1,100,2|8,1:2|0:2,0:0:0:0:
483,91,233547,1,2,0:2:0:0:
483,91,233721,1,2,1:2:0:0:
413,162,234070,1,8,0:2:0:0:
329,217,234419,2,0,P|291:195|213:180,1,100,2|10,1:2|0:2,0:0:0:0:
162,113,235117,1,2,1:2:0:0:
81,172,235466,2,0,L|17:191,1,50,10|0,0:2|0:2,0:0:0:0:
28,235,235814,6,0,P|41:285|79:314,1,100,2|8,1:2|0:2,0:0:0:0:
129,333,236338,1,0,0:0:0:0:
129,333,236512,1,0,1:2:0:0:
230,360,236861,1,10,0:2:0:0:
230,360,237035,2,0,B|301:341|280:328|369:315,1,100,2|0,0:2|0:0,0:0:0:0:
370,340,237559,1,10,0:2:0:0:
425,256,237907,1,2,1:2:0:0:
356,183,238256,1,10,0:2:0:0:
267,223,238605,6,0,P|213:234|165:253,1,100,2|10,1:2|0:2,0:0:0:0:
134,283,239128,1,2,0:2:0:0:
77,200,239477,1,10,0:2:0:0:
96,101,239826,2,0,P|146:85|204:52,1,100,4|0,1:2|1:2,0:0:0:0:
232,39,240349,1,8,0:2:0:0:
331,24,240698,1,2,1:2:0:0:
404,91,241047,1,10,0:2:0:0:
354,177,241396,6,0,P|336:214|323:294,1,100,8|8,0:2|0:2,0:0:0:0:
343,317,241919,1,0,0:2:0:0:
343,317,242093,1,8,0:2:0:0:
257,369,242442,1,10,0:2:0:0:
186,298,242791,2,0,P|145:289|88:251,1,100,10|8,0:2|0:2,0:0:0:0:
49,239,243314,2,0,P|31:201|51:119,1,100,2|0,0:2|1:2,0:0:0:0:
81,124,243838,1,10,0:2:0:0:
128,109,244012,1,0,1:2:0:0:
176,96,244186,2,0,P|213:143|367:165,1,200,14|2,0:2|0:0,0:0:0:0:
498,45,245582,5,2,0:2:0:0:
450,239,246279,1,2,0:0:0:0:
291,116,246977,6,0,B|231:127|246:148|166:162,1,100,6|8,1:2|0:2,0:0:0:0:
153,173,247500,1,0,0:2:0:0:
153,173,247675,2,0,P|112:161|52:124,1,100,0|8,1:2|0:2,0:0:0:0:
22,224,248373,2,0,P|13:258|51:312,1,100,2|8,1:2|0:2,0:0:0:0:
142,337,249070,2,0,P|188:347|273:381,1,100,2|8,1:2|0:2,0:0:0:0:
323,311,249768,6,0,B|371:316|371:316|440:268,1,100,2|8,1:2|0:2,0:0:0:0:
449,251,250291,1,0,0:2:0:0:
449,251,250466,2,0,P|447:213|404:150,1,100,0|8,1:2|0:2,0:0:0:0:
321,189,251163,2,0,B|272:195|281:219|212:223,1,100,2|8,1:2|0:2,0:0:0:0:
180,237,251686,1,0,0:2:0:0:
180,237,251861,2,0,P|136:213|84:204,1,100,2|8,1:2|0:2,0:0:0:0:
40,115,252559,6,0,P|41:56|82:39,1,100,2|8,1:2|0:2,0:0:0:0:
119,21,253082,2,0,P|173:25|199:84,1,100,0|0,0:2|0:0,0:0:0:0:
216,106,253605,1,8,0:2:0:0:
302,156,253954,2,0,B|358:144|340:135|417:125,1,100,2|8,1:2|0:2,0:0:0:0:
470,196,254652,2,0,P|497:229|481:287,1,100,2|8,1:2|0:2,0:0:0:0:
394,322,255349,6,0,P|349:298|265:287,1,100,2|8,1:2|0:2,0:0:0:0:
202,269,256047,1,0,1:2:0:0:
202,269,256221,1,8,0:2:0:0:
115,319,256570,2,0,P|83:321|37:268,1,100,2|0,1:2|1:2,0:0:0:0:
54,228,257093,1,10,0:2:0:0:
54,228,257268,2,0,P|100:215|160:173,1,100,2|8,1:2|0:2,0:0:0:0:
180,153,257791,1,8,0:3:0:0:
279,148,258140,6,0,P|326:153|369:207,1,100,6|8,1:2|0:2,0:0:0:0:
400,221,258663,1,0,0:2:0:0:
400,221,258838,1,0,1:2:0:0:
466,146,259186,1,8,0:2:0:0:
413,61,259535,2,0,B|362:53|376:40|295:22,1,100,2|8,1:2|0:2,0:0:0:0:
230,75,260233,2,0,P|185:77|141:130,1,100,2|8,1:2|0:2,0:0:0:0:
71,179,260931,6,0,P|87:221|91:289,1,100,2|8,1:2|0:2,0:0:0:0:
67,319,261454,1,0,0:2:0:0:
67,319,261628,2,0,P|96:359|168:375,1,100,0|8,1:2|0:2,0:0:0:0:
228,326,262326,2,0,P|258:310|348:283,1,100,2|8,1:2|0:2,0:0:0:0:
416,316,263024,2,0,P|470:318|495:261,1,100,2|8,1:2|0:2,0:0:0:0:
427,210,263721,6,0,B|409:161|392:180|380:120,1,100,2|8,1:2|0:2,0:0:0:0:
346,93,264245,1,2,0:2:0:0:
346,93,264419,1,0,1:2:0:0:
277,165,264768,1,8,0:2:0:0:
180,138,265117,2,0,P|136:149|78:182,1,100,2|8,1:2|0:2,0:0:0:0:
40,159,265640,1,2,0:2:0:0:
40,159,265814,1,2,1:2:0:0:
22,257,266163,1,10,0:2:0:0:
106,310,266512,6,0,B|171:324|147:337|230:348,1,100,2|8,1:2|0:2,0:0:0:0:
244,320,267035,1,2,0:2:0:0:
221,222,267384,1,8,0:2:0:0:
256,128,267733,2,0,P|311:130|343:94,1,100,2|0,1:2|1:2,0:0:0:0:
380,70,268256,1,8,0:0:0:0:
457,132,268605,1,0,1:2:0:0:
482,228,268954,1,8,0:2:0:0:
416,303,269303,6,0,P|351:281|293:271,1,100,10|8,0:2|0:2,0:0:0:0:
281,306,269826,1,0,0:2:0:0:
281,306,270000,1,10,0:2:0:0:
202,368,270349,1,8,0:2:0:0:
128,299,270698,2,0,P|101:265|112:205,1,100,10|10,0:2|0:2,0:0:0:0:
156,199,271221,1,2,0:2:0:0:
156,199,271396,1,10,0:2:0:0:
242,250,271745,1,10,0:2:0:0:
290,237,271919,1,2,1:2:0:0:
339,229,272093,2,0,P|367:172|244:97,1,200,6|2,1:2|0:2,0:0:0:0:
102,170,273489,5,2,0:2:0:0:
237,235,274012,1,0,1:2:0:0:
237,235,274186,2,0,P|268:225|312:198,2,66.6666666666667,8|8|4,0:2|0:3|0:3,0:0:0:0:
217,299,274884,1,6,1:2:0:0:
256,192,274971,12,0,278460,0:0:0:0:
