osu file format v14

[General]
AudioFilename: audio.mp3
AudioLeadIn: 0
PreviewTime: 178519
Countdown: 0
SampleSet: Soft
StackLeniency: 0.7
Mode: 0
LetterboxInBreaks: 0
WidescreenStoryboard: 1

[Editor]
Bookmarks: 1397,12559
DistanceSpacing: 1
BeatDivisor: 2
GridSize: 16
TimelineZoom: 2.599999

[Metadata]
Title:Meet Again
TitleUnicode:Meet Again
Artist:Pratanallis feat. Rina Komatsu
ArtistUnicode:Pratanallis feat. 狛茉璃奈
Creator:Zekk
Version:Insane
Source:
Tags:featured artist fa japanese rock ckharv dear white faieries vtuber こまつ りな
BeatmapID:3655112
BeatmapSetID:1784645

[Difficulty]
HPDrainRate:5
CircleSize:4
OverallDifficulty:8
ApproachRate:8.4
SliderMultiplier:1.7
SliderTickRate:1

[Events]
//Background and Video events
0,0,"72392328_p0.jpg",0,0
//Break Periods
2,219270,227913
//Storyboard Layer 0 (Background)
//Storyboard Layer 1 (Fail)
//Storyboard Layer 2 (Pass)
//Storyboard Layer 3 (Foreground)
//Storyboard Layer 4 (Overlay)
//Storyboard Sound Samples

[TimingPoints]
1397,348.837209302326,4,2,1,70,1,0
12559,-100,4,2,1,70,0,0
18141,-111.111111111111,4,2,1,60,0,0
40466,-117.647058823529,4,2,1,55,0,0
62792,-100,4,2,1,80,0,0
89303,-142.857142857143,4,2,1,75,0,0
90699,-100,4,2,1,70,0,0
96280,-111.111111111111,4,2,1,60,0,0
118606,-117.647058823529,4,2,1,55,0,0
140931,-100,4,2,1,80,0,0
167443,-142.857142857143,4,2,1,75,0,0
168141,-100,4,2,1,70,0,0
168373,-111.111111111111,4,2,1,70,0,0
168606,-125,4,2,1,70,0,0
168838,-111.111111111111,4,2,1,60,0,0
180001,-95.2380952380952,4,2,1,75,0,0
185583,348.837209302326,3,2,1,75,1,0
185583,-95.2380952380952,4,2,1,75,0,0
188373,348.837209302326,4,2,1,75,1,0
188373,-95.2380952380952,4,2,1,75,0,0
219070,-125,4,2,1,50,0,0
228663,-125,4,2,1,80,0,0
230233,-100,4,2,1,80,0,0
245582,-142.857142857143,4,2,1,75,0,0
246977,-100,4,2,1,70,0,0
269303,-100,4,2,1,80,0,0
272093,-142.857142857143,4,2,1,60,0,0
274419,-111.111111111111,4,2,1,60,0,0
278460,-111.111111111111,4,2,1,5,0,0

[Colours]
Combo1 : 240,140,140
Combo2 : 200,180,220
Combo3 : 174,228,167
Combo4 : 150,185,220

[HitObjects]
431,103,12559,6,0,L|257:73,1,170,6|8,1:2|0:2,0:0:0:0:
164,99,13083,1,0,0:2:0:0:
211,234,13257,2,0,P|234:209|263:138,1,85,2|2,1:2|1:2,0:0:0:0:
257,163,13606,1,8,0:2:0:0:
318,264,13780,6,0,B|239:256|233:290|137:269,1,170,6|2,1:2|1:2,0:0:0:0:
31,191,14303,1,10,0:2:0:0:
157,176,14478,1,2,3:2:0:0:
42,272,14652,2,0,P|17:298|14:366,1,85,2|0,1:2|1:2,0:0:0:0:
181,356,15001,2,0,P|136:361|95:376,1,85,10|0,0:2|0:2,0:0:0:0:
236,257,15350,6,0,P|315:280|336:358,1,170,6|10,1:2|0:2,0:0:0:0:
363,218,15873,1,0,0:2:0:0:
448,302,16048,1,2,1:2:0:0:
512,221,16222,2,0,P|507:180|483:134,1,85,2|8,1:2|0:2,0:0:0:0:
512,50,16571,6,0,B|444:57|436:-1|337:11,1,170,6|2,1:2|1:2,0:0:0:0:
244,146,17094,2,0,P|255:109|259:36,1,85,10|2,0:2|0:2,0:0:0:0:
260,62,17443,1,0,1:2:0:0:
164,94,17617,1,2,1:2:0:0:
164,94,17705,1,0,3:0:0:0:
164,94,17792,1,10,0:2:0:0:
335,132,17966,1,0,0:2:0:0:
205,168,18141,6,0,P|125:189|27:189,1,152.999995330811,6|8,1:2|0:2,0:0:0:0:
55,191,18664,1,0,3:2:0:0:
141,236,18838,2,0,P|205:262|223:365,1,152.999995330811,2|8,1:2|0:2,0:0:0:0:
0,369,19362,6,0,P|72:360|166:318,1,152.999995330811,2|0,1:2|1:2,0:0:0:0:
252,263,19885,2,0,P|241:304|228:343,1,76.4999976654053,10|0,0:2|1:2,0:0:0:0:
375,368,20234,2,0,B|381:325|381:325|324:296,1,76.4999976654053,2|0,1:2|0:2,0:0:0:0:
228,254,20583,2,0,L|102:273,1,114.749996498108,10|0,0:2|0:0,0:0:0:0:
114,271,20931,6,0,B|80:187|141:197|99:96,1,152.999995330811,2|8,1:2|0:0,0:0:0:0:
35,34,21455,1,0,3:2:0:0:
180,85,21629,2,0,P|263:72|257:-8,1,152.999995330811,2|8,1:2|0:2,0:0:0:0:
271,14,22152,1,0,0:2:0:0:
263,117,22327,6,0,P|282:182|280:273,1,152.999995330811,2|8,1:2|0:2,0:0:0:0:
210,308,22850,1,0,0:2:0:0:
142,217,23024,2,0,P|158:184|166:131,1,76.4999976654053,2|0,1:2|0:2,0:0:0:0:
17,192,23373,2,0,P|39:225|44:276,1,76.4999976654053,10|0,0:2|0:2,0:0:0:0:
160,322,23722,6,0,P|224:324|325:271,1,152.999995330811,2|8,1:2|0:2,0:0:0:0:
406,221,24245,1,0,3:2:0:0:
467,283,24420,2,0,P|400:281|375:189,1,152.999995330811,2|8,1:2|0:2,0:0:0:0:
465,151,24943,1,0,0:2:0:0:
396,98,25117,2,0,P|384:62|382:7,1,76.4999976654053,2|0,0:2|1:2,0:0:0:0:
263,177,25466,2,0,P|267:139|279:102,1,76.4999976654053,8|0,0:2|0:2,0:0:0:0:
75,88,25815,6,0,P|104:50|211:52,1,152.999995330811,2|10,1:2|0:2,0:0:0:0:
202,45,26338,1,0,0:2:0:0:
169,197,26513,2,0,B|95:205|100:158|22:165,1,152.999995330811,2|8,1:2|0:2,0:0:0:0:
95,274,27036,1,0,3:2:0:0:
95,274,27123,1,0,3:0:0:0:
95,274,27210,1,0,1:2:0:0:
184,273,27385,2,0,P|218:282|285:312,1,76.4999976654053,0|8,1:0|0:2,0:0:0:0:
202,371,27734,6,0,P|208:311|246:209,1,152.999995330811,2|0,0:2|1:2,0:0:0:0:
409,239,28257,2,0,P|372:261|329:258,1,76.4999976654053,8|0,0:2|0:2,0:0:0:0:
329,251,28519,1,0,3:0:0:0:
319,240,28606,2,0,P|323:205|362:148,1,76.4999976654053,2|0,1:2|1:2,0:0:0:0:
431,106,28955,1,10,0:2:0:0:
276,22,29303,6,0,B|214:28|206:71|108:68,1,152.999995330811,6|8,1:2|0:2,0:0:0:0:
41,102,29827,1,0,0:2:0:0:
96,164,30001,2,0,P|131:187|183:182,1,76.4999976654053,2|0,1:2|1:2,0:0:0:0:
276,266,30350,1,8,0:2:0:0:
208,314,30524,6,0,P|231:243|236:153,1,152.999995330811,6|0,1:2|1:2,0:0:0:0:
341,297,31048,2,0,P|379:303|425:324,1,76.4999976654053,10|0,0:2|0:2,0:0:0:0:
494,198,31397,2,0,P|458:213|421:219,1,76.4999976654053,2|0,1:2|1:2,0:0:0:0:
341,156,31745,1,10,0:2:0:0:
434,10,32094,6,0,P|433:59|350:40,1,152.999995330811,6|8,1:2|0:2,0:0:0:0:
243,74,32617,2,0,L|146:61,1,76.4999976654053,2|0,0:2|1:2,0:0:0:0:
203,245,32966,2,0,P|217:214|226:153,1,76.4999976654053,2|8,1:2|0:2,0:0:0:0:
0,131,33315,6,0,B|73:163|80:110|165:146,1,152.999995330811,6|0,1:2|1:2,0:0:0:0:
300,218,33838,1,8,0:2:0:0:
203,245,34013,1,0,0:2:0:0:
274,313,34187,2,0,P|306:331|356:339,1,76.4999976654053,2|0,1:2|1:2,0:0:0:0:
183,382,34536,2,0,P|169:348|158:295,1,76.4999976654053,10|0,0:2|0:2,0:0:0:0:
3,203,34885,6,0,P|74:208|179:228,1,152.999995330811,6|8,1:2|0:2,0:0:0:0:
261,154,35408,1,0,3:2:0:0:
261,154,35495,1,0,3:0:0:0:
261,154,35583,2,0,P|204:142|167:48,1,152.999995330811,2|8,1:2|0:2,0:0:0:0:
164,62,36106,1,0,0:2:0:0:
77,117,36280,6,0,P|34:102|0:82,1,76.4999976654053,2|0,1:2|1:2,0:0:0:0:
29,13,36629,1,8,0:2:0:0:
164,62,36803,2,0,B|194:113|154:150|199:229,1,152.999995330811,2|0,0:2|0:0,0:0:0:0:
278,93,37327,2,0,P|284:64|290:-6,1,76.4999976654053,10|0,0:2|0:2,0:0:0:0:
475,138,37676,6,0,P|401:143|326:199,1,152.999995330811,2|8,1:2|0:2,0:0:0:0:
271,290,38199,1,0,3:2:0:0:
271,290,38286,1,0,3:2:0:0:
271,290,38373,2,0,P|288:237|212:155,1,152.999995330811,2|8,1:2|0:2,0:0:0:0:
150,203,38897,1,0,0:2:0:0:
296,218,39071,6,0,L|396:234,1,76.4999976654053,2|0,1:2|1:2,0:0:0:0:
286,381,39420,2,0,P|270:338|263:290,1,76.4999976654053,8|0,0:2|0:2,0:0:0:0:
362,322,39769,1,2,0:2:0:0:
362,322,39943,1,0,1:2:0:0:
199,354,40117,2,0,P|171:349|104:326,1,76.4999976654053,10|8,0:2|0:2,0:0:0:0:
116,328,40379,1,8,0:2:0:0:
110,318,40466,6,0,P|110:273|186:185,1,144.500002756119,6|2,1:2|0:2,0:0:0:0:
45,115,40990,1,0,1:2:0:0:
45,115,41164,2,0,P|49:154|70:200,1,72.2500013780594,8|2,0:2|0:2,0:0:0:0:
60,184,41513,1,0,0:2:0:0:
134,101,41687,1,2,1:2:0:0:
200,160,41862,6,0,P|268:174|367:185,1,144.500002756119,0|2,1:2|0:2,0:0:0:0:
438,165,42385,1,0,1:2:0:0:
391,106,42559,2,0,P|381:72|374:16,1,72.2500013780594,10|0,0:2|0:2,0:0:0:0:
266,172,42908,2,0,P|271:136|282:102,1,72.2500013780594,2|0,0:2|1:2,0:0:0:0:
457,194,43257,6,0,P|437:252|346:265,1,144.500002756119,2|2,1:2|0:2,0:0:0:0:
265,347,43780,1,2,1:2:0:0:
334,377,43955,2,0,B|390:379|409:332|486:348,1,144.500002756119,8|0,0:2|0:2,0:0:0:0:
282,266,44478,5,0,1:2:0:0:
282,266,44652,2,0,P|234:264|155:326,1,144.500002756119,0|2,1:2|0:2,0:0:0:0:
54,376,45176,1,0,1:2:0:0:
0,286,45350,2,0,P|39:270|90:257,1,72.2500013780594,10|0,0:2|0:2,0:0:0:0:
139,172,45699,2,0,B|168:205|168:205|142:257,1,72.2500013780594,2|0,0:2|1:2,0:0:0:0:
155,230,46048,6,0,B|144:169|195:168|157:66,1,144.500002756119,2|0,1:2|0:2,0:0:0:0:
86,21,46571,1,2,1:2:0:0:
86,21,46745,2,0,P|98:52|201:42,1,144.500002756119,8|2,0:2|0:2,0:0:0:0:
281,4,47269,1,0,1:2:0:0:
330,67,47443,6,0,P|309:121|297:233,1,144.500002756119,2|0,1:2|1:2,0:0:0:0:
446,226,47966,2,0,P|376:245|345:310,1,144.500002756119,2|0,1:2|0:2,0:0:0:0:
422,370,48490,2,0,P|450:378|509:382,1,72.2500013780594,2|0,0:2|1:2,0:0:0:0:
275,350,48838,6,0,P|200:364|119:374,1,144.500002756119,2|0,1:2|0:2,0:0:0:0:
78,304,49362,1,2,1:2:0:0:
182,274,49536,2,0,P|127:276|92:183,1,144.500002756119,8|2,0:0|0:2,0:0:0:0:
85,205,50059,1,0,1:2:0:0:
4,117,50234,5,2,1:2:0:0:
4,117,50408,2,0,P|41:106|89:86,1,72.2500013780594,8|2,0:2|0:2,0:0:0:0:
189,84,50757,1,2,1:2:0:0:
136,33,50931,2,0,B|119:6|119:6|164:-9,1,72.2500013780594,8|2,0:2|1:2,0:0:0:0:
275,51,51280,2,0,L|352:66,1,72.2500013780594,8|8,0:2|0:2,0:0:0:0:
345,64,51542,1,8,0:2:0:0:
345,64,51629,6,0,B|292:77|287:126|188:122,1,144.500002756119,6|2,1:2|0:2,0:0:0:0:
108,201,52152,2,0,P|114:168|138:124,1,72.2500013780594,2|8,0:2|0:2,0:0:0:0:
269,215,52501,2,0,P|238:233|213:259,1,72.2500013780594,2|8,1:2|0:2,0:0:0:0:
288,347,52850,2,0,P|244:322|144:308,1,144.500002756119,6|0,1:2|0:2,0:0:0:0:
336,288,53373,1,2,1:2:0:0:
101,367,53722,1,10,0:2:0:0:
101,367,53897,2,0,P|112:312|199:288,1,144.500002756119,0|0,1:2|1:2,0:0:0:0:
306,347,54420,6,0,B|318:267|356:300|364:194,1,144.500002756119,6|8,1:2|0:2,0:0:0:0:
432,158,54943,1,10,0:2:0:0:
432,158,55030,1,8,0:2:0:0:
432,158,55117,1,8,0:2:0:0:
339,125,55292,2,0,P|306:133|268:135,1,72.2500013780594,2|0,1:2|0:2,0:0:0:0:
206,74,55641,2,0,P|214:107|221:237,1,144.500002756119,6|2,1:2|0:2,0:0:0:0:
96,372,57210,5,2,1:3:0:0:
108,347,57908,1,2,0:3:0:0:
111,317,58606,1,2,0:3:0:0:
92,287,59303,1,2,0:3:0:0:
32,156,59652,5,8,0:3:0:0:
32,156,59769,1,4,0:3:0:0:
32,156,59885,1,12,0:3:0:0:
32,156,60001,1,4,1:2:0:0:
251,206,60699,1,2,0:3:0:0:
251,206,61048,1,2,0:3:0:0:
348,169,61280,1,2,0:3:0:0:
348,169,61397,2,0,P|397:186|447:193,1,72.2500013780594,8|0,0:2|0:0,0:0:0:0:
131,380,62792,6,0,P|65:351|68:243,1,170,6|8,1:2|0:2,0:0:0:0:
171,166,63315,1,2,3:2:0:0:
246,245,63490,2,0,B|201:251|160:228|185:211|129:177|53:205,1,170,2|8,1:2|0:2,0:0:0:0:
115,29,64013,1,0,0:2:0:0:
115,29,64187,6,0,P|85:68|68:129,1,85,2|0,1:2|0:2,0:0:0:0:
232,202,64536,2,0,P|222:168|217:108,1,85,10|0,0:2|0:0,0:0:0:0:
366,13,64885,1,2,1:2:0:0:
332,156,65059,1,0,0:2:0:0:
500,132,65234,2,0,B|468:105|468:105|399:107,1,85,10|0,0:2|0:2,0:0:0:0:
248,261,65583,6,0,P|331:238|435:228,1,170,2|8,1:2|0:2,0:0:0:0:
129,301,66106,1,2,0:2:0:0:
220,361,66280,2,0,P|228:296|128:222,1,170,2|8,1:2|0:2,0:0:0:0:
46,133,66803,1,0,0:2:0:0:
0,197,66978,6,0,P|82:168|155:100,1,170,2|8,1:2|0:2,0:0:0:0:
201,20,67501,1,2,0:2:0:0:
268,117,67676,1,2,1:2:0:0:
274,130,67763,2,0,P|295:154|356:184,1,85,8|0,0:2|0:2,0:0:0:0:
340,180,68024,1,10,0:2:0:0:
456,218,68199,1,2,0:2:0:0:
297,341,68373,6,0,P|338:308|306:185,1,170,2|8,1:2|0:2,0:0:0:0:
186,278,68897,1,2,0:2:0:0:
186,278,69071,2,0,P|104:265|9:234,2,170,2|8|2,1:2|0:2|1:2,0:0:0:0:
128,115,69943,1,0,0:2:0:0:
4,156,70117,2,0,P|8:201|31:256,1,85,10|0,0:2|0:2,0:0:0:0:
187,185,70466,6,0,P|222:172|278:164,1,85,2|0,1:2|0:2,0:0:0:0:
233,3,70815,2,0,P|225:47|193:114,1,85,10|0,0:2|0:0,0:0:0:0:
393,222,71164,2,0,P|373:148|371:31,1,170,2|8,1:2|0:2,0:0:0:0:
461,144,71687,1,2,0:2:0:0:
268,164,71862,2,0,P|288:141|364:137,1,85,2|8,1:2|0:2,0:0:0:0:
339,128,72210,1,0,0:0:0:0:
487,283,72385,6,0,B|390:288|425:224|312:227,1,170,4|0,1:2|1:2,0:0:0:0:
172,303,72908,1,8,0:2:0:0:
257,216,73083,2,0,P|221:279|239:381,1,170,4|8,1:2|0:2,0:0:0:0:
124,232,73606,1,10,0:2:0:0:
270,298,73780,1,8,0:2:0:0:
124,232,73955,6,0,P|82:253|2:255,1,127.5,6|0,1:2|0:0,0:0:0:0:
4,260,74303,2,0,B|19:218|19:218|-10:164,1,85,8|2,0:2|0:2,0:0:0:0:
175,131,74652,2,0,P|160:216|160:327,1,170,2|8,1:2|0:2,0:0:0:0:
247,215,75176,1,0,0:2:0:0:
93,153,75350,6,0,P|130:139|188:130,1,85,2|0,1:2|0:2,0:0:0:0:
300,6,75699,2,0,P|274:44|254:119,1,85,10|0,0:2|0:0,0:0:0:0:
325,177,76048,2,0,P|346:212|385:240,1,85,2|0,1:2|0:2,0:0:0:0:
473,255,76397,2,0,P|397:275|350:345,1,127.5,10|0,0:2|0:2,0:0:0:0:
364,309,76745,6,0,B|295:310|279:373|176:358,1,170,2|8,1:2|0:2,0:0:0:0:
94,244,77269,1,2,0:2:0:0:
115,378,77443,2,0,B|133:323|133:323|173:295|173:295|197:215,1,170,2|8,1:2|0:2,0:0:0:0:
191,234,77966,1,0,0:0:0:0:
12,304,78141,6,0,P|56:292|116:266,1,85,2|0,1:2|0:2,0:0:0:0:
310,187,78490,2,0,P|277:172|202:152,1,85,10|0,0:2|0:2,0:0:0:0:
85,17,78838,1,2,1:2:0:0:
83,26,78926,2,0,P|91:71|117:132,1,85,8|0,0:2|0:2,0:0:0:0:
104,107,79187,1,10,0:2:0:0:
240,47,79362,1,0,0:2:0:0:
183,180,79536,6,0,P|206:118|162:22,1,170,2|8,1:2|0:2,0:0:0:0:
321,144,80059,1,0,0:0:0:0:
399,77,80234,1,0,1:2:0:0:
451,225,80408,1,0,0:2:0:0:
495,136,80583,2,0,P|451:142|391:160,1,85,10|2,0:2|0:2,0:0:0:0:
318,267,80931,6,0,P|328:222|336:160,1,85,0|0,1:2|0:0,0:0:0:0:
378,338,81280,1,10,0:2:0:0:
234,288,81455,1,0,3:2:0:0:
234,288,81542,1,0,3:0:0:0:
234,288,81629,1,2,1:2:0:0:
271,376,81803,1,0,0:2:0:0:
121,287,81978,1,10,0:2:0:0:
121,287,82327,6,0,P|55:292|1:384,1,170,2|10,1:2|0:2,0:0:0:0:
0,164,82850,2,0,P|39:188|83:202,1,85,2|0,0:2|1:2,0:0:0:0:
206,151,83199,1,10,0:2:0:0:
155,249,83373,1,0,0:2:0:0:
254,88,83548,6,0,P|243:147|291:268,1,170,4|0,1:2|1:2,0:0:0:0:
376,181,84071,1,8,0:2:0:0:
382,283,84245,1,8,0:3:0:0:
382,283,84333,1,8,0:3:0:0:
382,283,84420,1,2,1:2:0:0:
486,221,84594,2,0,L|439:215,1,42.5,2|0,1:2|0:2,0:0:0:0:
275,249,84769,1,8,0:2:0:0:
292,137,84943,1,0,0:2:0:0:
362,185,85117,5,10,0:2:0:0:
194,213,85292,1,0,0:2:0:0:
248,52,85466,1,8,0:2:0:0:
108,114,85641,1,0,0:2:0:0:
194,136,85815,2,0,P|239:137|296:111,1,85,8|0,0:2|1:2,0:0:0:0:
109,204,86164,2,0,P|94:243|95:302,1,85,10|0,0:2|1:2,0:0:0:0:
289,373,86513,5,10,0:2:0:0:
266,269,86687,1,0,0:2:0:0:
169,309,86862,1,8,0:2:0:0:
283,244,87036,5,2,0:2:0:0:
376,316,87210,1,8,0:2:0:0:
480,256,87385,1,0,1:2:0:0:
267,220,87559,5,10,0:2:0:0:
150,164,87734,1,0,1:2:0:0:
221,53,87908,1,12,0:2:0:0:
221,53,89303,6,0,P|277:68|335:169,1,178.499994552612,2|0,0:2|0:2,0:0:0:0:
271,232,90001,2,0,P|308:210|397:201,1,118.999996368408,8|4,0:3|0:3,0:0:0:0:
455,245,90524,1,8,0:3:0:0:
373,340,90699,6,0,B|297:348|299:298|195:309,1,170,6|8,1:2|0:2,0:0:0:0:
74,366,91222,1,0,0:2:0:0:
97,217,91397,2,0,P|118:255|131:316,1,85,2|2,1:2|1:2,0:0:0:0:
128,294,91745,1,8,0:2:0:0:
26,251,91920,6,0,P|132:230|217:194,1,170,6|2,1:2|1:2,0:0:0:0:
326,126,92443,2,0,P|278:163|269:253,1,127.5,10|0,0:2|3:2,0:0:0:0:
262,225,92792,2,0,P|257:186|237:137,1,85,2|0,1:2|1:2,0:0:0:0:
133,40,93141,2,0,B|92:68|92:68|149:106,1,85,10|0,0:2|0:2,0:0:0:0:
121,87,93490,6,0,B|183:90|224:69|197:47|256:21|310:46,1,170,6|10,1:2|0:2,0:0:0:0:
403,0,94013,1,0,0:2:0:0:
372,152,94187,2,0,P|363:115|409:71,1,85,2|2,1:2|1:2,0:0:0:0:
475,133,94536,1,8,0:2:0:0:
409,227,94710,6,0,P|360:191|226:162,1,170,6|2,1:2|1:2,0:0:0:0:
92,241,95234,2,0,P|126:226|163:184,1,85,10|2,0:2|0:2,0:0:0:0:
169,95,95583,1,0,1:2:0:0:
169,95,95757,1,2,1:2:0:0:
232,232,95931,2,0,P|248:268|252:337,1,85,10|0,0:2|0:2,0:0:0:0:
447,258,96280,6,0,P|408:217|311:223,1,152.999995330811,6|8,1:2|0:2,0:0:0:0:
316,219,96803,1,0,3:2:0:0:
381,163,96978,2,0,P|386:82|332:-3,1,152.999995330811,2|8,1:2|0:2,0:0:0:0:
464,67,97501,6,0,P|401:88|283:104,1,152.999995330811,2|0,1:2|1:2,0:0:0:0:
200,164,98024,2,0,P|211:123|224:84,1,76.4999976654053,10|0,0:2|1:2,0:0:0:0:
112,20,98373,2,0,B|79:44|79:44|132:83,1,76.4999976654053,2|0,1:2|0:2,0:0:0:0:
107,65,98722,2,0,P|169:47|213:17,1,114.749996498108,10|0,0:2|0:0,0:0:0:0:
210,19,99070,6,0,B|244:103|183:93|220:199,1,152.999995330811,2|8,1:2|0:0,0:0:0:0:
276,241,99594,1,0,3:2:0:0:
191,298,99769,2,0,P|112:290|87:206,1,152.999995330811,2|8,1:2|0:2,0:0:0:0:
82,229,100292,1,0,0:2:0:0:
261,348,100466,6,0,P|239:294|234:182,1,152.999995330811,2|8,1:2|0:2,0:0:0:0:
290,113,100989,1,0,0:2:0:0:
374,185,101163,2,0,P|358:218|350:271,1,76.4999976654053,2|0,1:2|0:2,0:0:0:0:
495,192,101512,2,0,P|473:159|468:108,1,76.4999976654053,10|0,0:2|0:2,0:0:0:0:
352,62,101861,6,0,P|288:60|187:113,1,152.999995330811,2|8,1:2|0:2,0:0:0:0:
106,163,102384,1,0,3:2:0:0:
45,101,102559,2,0,P|112:103|137:195,1,152.999995330811,2|8,1:2|0:2,0:0:0:0:
47,233,103082,1,0,0:2:0:0:
131,286,103256,2,0,P|143:322|145:377,1,76.4999976654053,2|0,0:2|1:2,0:0:0:0:
249,207,103605,2,0,P|245:245|233:282,1,76.4999976654053,8|0,0:2|0:2,0:0:0:0:
437,296,103954,6,0,P|408:334|301:332,1,152.999995330811,2|10,1:2|0:2,0:0:0:0:
310,339,104477,1,0,0:2:0:0:
354,191,104652,2,0,P|419:209|533:227,1,152.999995330811,2|8,1:2|0:2,0:0:0:0:
433,96,105176,2,0,L|379:106,2,38.2499988327027,0|0|0,3:2|3:0|3:2,0:0:0:0:
270,150,105524,2,0,P|275:120|322:87,1,76.4999976654053,0|8,0:0|0:2,0:0:0:0:
308,90,105873,6,0,P|253:88|209:-9,1,152.999995330811,2|0,0:2|1:2,0:0:0:0:
95,151,106396,2,0,P|132:129|175:132,1,76.4999976654053,8|0,0:2|3:2,0:0:0:0:
180,136,106658,1,0,3:0:0:0:
188,144,106745,2,0,P|184:179|145:236,1,76.4999976654053,2|0,1:2|1:2,0:0:0:0:
81,278,107094,1,10,0:2:0:0:
236,362,107442,6,0,B|298:356|306:313|404:316,1,152.999995330811,6|8,1:2|0:2,0:0:0:0:
471,282,107966,1,0,0:2:0:0:
416,220,108140,2,0,P|381:197|329:202,1,76.4999976654053,2|0,1:2|1:2,0:0:0:0:
236,118,108489,1,8,0:2:0:0:
304,70,108663,6,0,P|281:141|276:231,1,152.999995330811,6|0,1:2|1:2,0:0:0:0:
171,87,109187,2,0,P|133:81|87:60,1,76.4999976654053,10|0,0:2|0:2,0:0:0:0:
18,186,109536,2,0,P|54:171|91:165,1,76.4999976654053,2|0,1:2|1:2,0:0:0:0:
171,228,109884,1,10,0:2:0:0:
78,374,110233,6,0,P|79:325|162:344,1,152.999995330811,6|8,1:2|0:2,0:0:0:0:
261,336,110757,2,0,P|300:334|350:316,1,76.4999976654053,2|0,0:2|1:2,0:0:0:0:
249,182,111106,2,0,P|250:223|266:271,1,76.4999976654053,2|8,1:2|0:2,0:0:0:0:
512,253,111454,6,0,B|439:221|448:283|347:238,1,152.999995330811,6|0,1:2|0:2,0:0:0:0:
212,166,111977,1,8,0:2:0:0:
306,144,112152,1,0,0:2:0:0:
188,44,112327,2,0,P|203:76|258:79,1,76.4999976654053,2|0,1:2|1:2,0:0:0:0:
352,74,112676,2,0,P|358:36|370:0,1,76.4999976654053,10|0,0:2|0:2,0:0:0:0:
509,181,113024,6,0,P|438:176|333:156,1,152.999995330811,6|8,1:2|0:2,0:0:0:0:
251,230,113547,1,0,3:2:0:0:
251,230,113634,1,0,3:0:0:0:
251,230,113722,2,0,P|308:242|345:336,1,152.999995330811,2|8,1:2|0:2,0:0:0:0:
348,322,114245,1,0,0:2:0:0:
438,267,114420,6,0,P|483:273|509:299,1,76.4999976654053,2|0,1:2|1:2,0:0:0:0:
483,371,114768,1,8,0:2:0:0:
348,322,114942,2,0,B|351:242|298:269|306:162,1,152.999995330811,2|0,0:2|0:0,0:0:0:0:
222,302,115466,2,0,P|210:333|204:403,1,76.4999976654053,10|0,0:2|0:2,0:0:0:0:
52,238,115815,6,0,P|126:233|201:177,1,152.999995330811,2|8,1:2|0:2,0:0:0:0:
241,94,116338,1,0,3:2:0:0:
241,94,116425,1,0,3:2:0:0:
241,94,116512,2,0,P|224:147|300:229,1,152.999995330811,2|8,1:2|0:2,0:0:0:0:
362,181,117036,1,0,0:2:0:0:
331,37,117210,6,0,P|323:72|320:117,1,76.4999976654053,2|0,1:2|1:2,0:0:0:0:
472,203,117559,2,0,P|429:201|383:187,1,76.4999976654053,8|0,0:2|0:2,0:0:0:0:
275,222,117908,1,2,0:2:0:0:
275,222,118083,1,0,1:2:0:0:
369,360,118257,2,0,P|385:336|377:279,1,76.4999976654053,10|8,0:2|0:2,0:0:0:0:
373,287,118519,1,8,0:2:0:0:
360,285,118606,6,0,P|300:330|223:312,1,144.500002756119,6|2,1:2|0:2,0:0:0:0:
140,351,119129,2,0,P|102:310|133:204,1,144.500002756119,0|2,1:2|0:2,0:0:0:0:
187,166,119652,2,0,P|196:130|202:85,1,72.2500013780594,0|2,0:2|1:2,0:0:0:0:
201,95,120001,6,0,B|230:164|190:176|214:258,1,144.500002756119,0|2,1:2|0:2,0:0:0:0:
312,171,120524,1,0,1:2:0:0:
312,171,120699,2,0,P|387:183|476:192,1,144.500002756119,10|2,0:2|0:2,0:0:0:0:
512,116,121222,1,0,1:2:0:0:
349,14,121397,6,0,P|397:59|395:150,1,144.500002756119,2|2,1:2|0:2,0:0:0:0:
276,177,121920,2,0,P|281:134|307:80,1,72.2500013780594,2|8,1:2|0:2,0:0:0:0:
176,25,122269,2,0,P|181:68|207:122,1,72.2500013780594,2|0,0:2|0:2,0:0:0:0:
18,149,122617,6,0,P|92:163|178:208,1,144.500002756119,0|0,1:2|0:0,0:0:0:0:
242,265,123141,2,0,P|201:272|160:286,1,72.2500013780594,2|0,0:2|1:2,0:0:0:0:
103,340,123490,1,10,0:2:0:0:
103,340,123664,1,0,1:2:0:0:
65,195,123838,2,0,P|86:227|98:271,1,72.2500013780594,2|0,0:2|1:2,0:0:0:0:
239,352,124187,6,0,B|248:280|291:299|297:203,1,144.500002756119,2|0,1:2|0:2,0:0:0:0:
379,275,124710,1,2,1:2:0:0:
226,263,124885,2,0,P|177:224|205:133,1,144.500002756119,8|2,0:2|0:2,0:0:0:0:
296,83,125408,1,0,1:2:0:0:
296,83,125583,6,0,P|289:116|281:169,1,72.2500013780594,2|8,1:2|0:2,0:0:0:0:
458,139,125931,2,0,P|421:130|366:121,1,72.2500013780594,0|2,1:2|1:2,0:0:0:0:
197,52,126280,2,0,P|279:44|354:10,1,144.500002756119,8|2,0:2|0:2,0:0:0:0:
336,20,126803,1,0,1:2:0:0:
150,124,126978,6,0,B|82:115|97:72|3:76,1,144.500002756119,2|0,1:2|0:2,0:0:0:0:
160,209,127501,2,0,P|178:160|269:149,1,144.500002756119,2|0,1:2|0:2,0:0:0:0:
315,227,128024,2,0,P|280:224|240:216,1,72.2500013780594,2|0,0:2|1:2,0:0:0:0:
159,356,128373,6,0,P|167:323|174:279,1,72.2500013780594,2|8,1:2|0:2,0:0:0:0:
86,300,128722,1,2,0:2:0:0:
249,357,128897,1,2,1:2:0:0:
86,384,129071,6,0,P|51:338|-19:328,1,108.375002067089,8|0,0:2|0:0,0:0:0:0:
5,325,129420,2,0,B|-3:293|-3:293|29:242,1,72.2500013780594,8|8,0:2|0:2,0:0:0:0:
30,259,129681,1,8,0:2:0:0:
40,261,129769,6,0,P|136:247|200:202,1,144.500002756119,6|2,1:2|0:2,0:0:0:0:
246,150,130292,1,2,0:2:0:0:
170,90,130466,1,8,0:2:0:0:
170,90,130641,2,0,P|178:50|203:-4,1,72.2500013780594,2|8,1:2|0:2,0:0:0:0:
344,106,130990,1,6,1:2:0:0:
96,168,131513,6,0,P|60:163|14:135,1,72.2500013780594,2|0,1:2|0:2,0:0:0:0:
84,295,131862,2,0,P|117:270|138:237,1,72.2500013780594,10|0,0:2|1:2,0:0:0:0:
134,244,132210,1,2,0:2:0:0:
210,318,132385,1,0,1:2:0:0:
282,254,132559,6,0,B|329:256|357:240|349:218|387:203|435:206,1,144.500002756119,6|8,1:2|0:2,0:0:0:0:
497,148,133083,1,10,0:2:0:0:
497,148,133170,1,8,0:2:0:0:
497,148,133257,1,8,0:2:0:0:
410,88,133431,2,0,P|394:61|385:13,1,72.2500013780594,2|0,1:2|0:2,0:0:0:0:
385,21,133780,2,0,P|370:68|264:98,1,144.500002756119,6|2,1:2|0:2,0:0:0:0:
59,81,135350,5,2,1:3:0:0:
76,105,136048,1,2,0:3:0:0:
89,141,136745,1,2,0:3:0:0:
89,181,137443,1,2,0:3:0:0:
21,261,137792,5,8,0:3:0:0:
21,261,137908,1,4,0:3:0:0:
21,261,138024,1,12,0:3:0:0:
21,261,138141,1,4,1:2:0:0:
190,348,138838,1,2,0:3:0:0:
190,348,139187,1,2,0:3:0:0:
282,322,139420,1,2,0:3:0:0:
282,322,139536,2,0,P|278:282|269:236,1,72.2500013780594,8|0,0:2|0:0,0:0:0:0:
10,46,140931,6,0,P|46:106|166:97,1,170,6|8,1:2|0:2,0:0:0:0:
139,115,141455,1,2,3:2:0:0:
273,20,141629,2,0,B|277:121|233:104|226:198,1,170,2|8,1:2|0:2,0:0:0:0:
350,138,142152,1,0,0:2:0:0:
420,201,142327,6,0,P|449:219|528:235,1,85,2|0,1:2|0:2,0:0:0:0:
357,378,142676,2,0,P|344:341|360:265,1,85,10|0,0:2|0:0,0:0:0:0:
132,263,143024,2,0,B|180:266|180:266|228:229,1,85,2|0,1:2|0:2,0:0:0:0:
209,243,143373,2,0,P|197:281|189:354,1,85,10|0,0:2|0:2,0:0:0:0:
36,198,143722,6,0,P|96:185|110:70,1,170,2|8,1:2|0:2,0:0:0:0:
27,48,144245,1,2,0:2:0:0:
156,155,144420,2,0,B|225:169|250:136|238:122|278:102|341:114,1,170,2|8,1:2|0:2,0:0:0:0:
424,69,144943,1,0,0:2:0:0:
219,3,145117,6,0,P|227:49|254:106,1,85,2|0,1:2|0:2,0:0:0:0:
142,203,145466,2,0,P|108:216|53:229,1,85,8|2,0:2|0:2,0:0:0:0:
299,234,145815,1,2,1:2:0:0:
310,246,145902,2,0,P|339:282|356:335,1,85,8|0,0:2|0:2,0:0:0:0:
353,317,146164,1,10,0:2:0:0:
441,250,146338,1,2,0:2:0:0:
260,314,146513,6,0,P|152:336|65:378,1,170,2|8,1:2|0:2,0:0:0:0:
107,211,147036,1,2,0:2:0:0:
0,137,147210,2,0,P|49:179|44:304,1,170,2|8,1:2|0:2,0:0:0:0:
181,186,147734,1,0,0:2:0:0:
97,109,147908,6,0,P|105:68|127:17,1,85,2|0,1:2|0:2,0:0:0:0:
281,210,148257,2,0,P|263:168|255:125,1,85,10|0,0:2|0:2,0:0:0:0:
443,11,148606,2,0,P|422:59|333:80,1,127.5,2|0,1:2|0:0,0:0:0:0:
355,85,148955,2,0,B|403:84|403:84|437:116,1,85,10|0,0:2|0:0,0:0:0:0:
510,224,149303,6,0,B|430:225|437:269|328:270,1,170,2|8,1:2|0:2,0:0:0:0:
257,354,149827,1,2,0:2:0:0:
257,354,149914,1,0,0:0:0:0:
257,354,150001,1,2,1:2:0:0:
187,267,150176,2,0,B|212:231|212:231|198:166,1,85,8|0,0:2|0:0,0:0:0:0:
108,272,150524,6,0,P|191:241|278:219,1,170,4|0,1:2|1:2,0:0:0:0:
351,107,151048,1,8,0:2:0:0:
408,156,151222,2,0,P|352:160|281:62,1,170,4|8,1:2|0:2,0:0:0:0:
281,80,151658,1,8,0:0:0:0:
255,97,151745,1,10,0:2:0:0:
225,102,151832,1,8,0:0:0:0:
194,95,151919,1,8,0:2:0:0:
169,77,152006,1,8,0:0:0:0:
153,51,152094,6,0,B|117:145|186:122|147:239,1,170,6|8,1:2|0:2,0:0:0:0:
0,309,152617,1,2,0:2:0:0:
55,199,152792,2,0,L|87:320,1,85,2|0,1:2|0:0,0:0:0:0:
188,373,153141,2,0,P|207:333|218:255,1,85,8|0,0:2|0:2,0:0:0:0:
216,293,153490,6,0,P|279:323|403:348,1,170,2|10,1:2|0:2,0:0:0:0:
188,373,154013,1,0,0:0:0:0:
296,292,154187,2,0,P|314:262|291:204,1,85,2|0,1:2|0:2,0:0:0:0:
147,231,154536,2,0,P|98:245|28:248,1,85,10|0,0:2|0:0,0:0:0:0:
207,32,154885,6,0,P|216:102|217:223,1,170,2|8,1:2|0:2,0:0:0:0:
329,110,155408,1,2,0:2:0:0:
184,124,155583,2,0,P|124:95|3:82,1,170,2|8,1:2|0:2,0:0:0:0:
118,45,156106,1,0,0:0:0:0:
47,163,156280,6,0,P|54:209|111:237,1,85,2|0,1:2|0:2,0:0:0:0:
233,254,156629,2,0,P|271:246|336:220,1,85,10|0,0:2|0:2,0:0:0:0:
133,315,156978,1,2,1:2:0:0:
120,326,157065,2,0,P|85:352|48:391,1,85,8|0,0:2|0:2,0:0:0:0:
55,381,157327,1,10,0:2:0:0:
225,337,157501,1,0,0:2:0:0:
152,216,157676,6,0,P|129:144|119:26,1,170,2|8,1:2|0:2,0:0:0:0:
118,50,158199,1,0,0:0:0:0:
278,130,158373,2,0,B|332:133|372:109|350:93|398:70|460:80,1,170,0|10,1:2|0:2,0:0:0:0:
222,206,158897,6,0,P|242:148|179:50,1,170,2|0,0:2|0:0,0:0:0:0:
34,135,159420,2,0,P|72:137|151:154,1,85,10|0,0:2|0:2,0:0:0:0:
203,288,159769,2,0,P|210:249|232:171,1,85,2|0,1:2|0:2,0:0:0:0:
340,36,160117,2,0,P|295:71|209:109,1,127.5,10|0,0:2|0:0,0:0:0:0:
231,101,160466,6,0,P|300:122|333:241,1,170,2|10,1:2|0:2,0:0:0:0:
369,341,160990,1,0,0:2:0:0:
447,253,161164,1,0,1:2:0:0:
243,327,161338,2,0,B|202:343|202:343|254:366,1,85,10|0,0:2|0:2,0:0:0:0:
239,359,161687,6,0,B|212:269|273:281|234:181,1,170,4|0,1:2|1:2,0:0:0:0:
118,233,162210,1,8,0:2:0:0:
149,99,162385,1,8,0:3:0:0:
149,99,162472,1,8,0:3:0:0:
149,99,162559,1,2,1:2:0:0:
46,149,162734,2,0,L|109:161,1,42.5,0|0,1:2|0:2,0:0:0:0:
238,192,162908,1,10,0:2:0:0:
154,244,163083,1,0,0:2:0:0:
149,99,163257,6,0,P|142:58|141:-1,1,85,10|0,0:2|0:2,0:0:0:0:
296,99,163606,1,8,0:2:0:0:
210,193,163780,1,0,0:2:0:0:
386,123,163955,1,8,0:2:0:0:
260,99,164129,1,0,1:2:0:0:
371,199,164303,2,0,P|420:215|483:230,1,85,10|0,0:2|1:2,0:0:0:0:
253,374,164652,5,10,0:2:0:0:
197,258,164827,1,0,0:2:0:0:
88,294,165001,1,8,0:2:0:0:
278,356,165176,5,2,0:2:0:0:
364,262,165350,1,8,0:2:0:0:
298,163,165524,1,0,1:2:0:0:
307,370,165699,5,10,0:2:0:0:
450,384,165873,1,0,1:2:0:0:
503,250,166048,1,12,0:2:0:0:
80,162,167443,6,0,P|144:154|247:95,1,178.499994552612,6|0,0:2|0:0,0:0:0:0:
242,99,168141,6,0,P|228:126|223:184,1,56.6666666666667,8|0,0:2|0:2,0:0:0:0:
258,218,168373,6,0,P|277:239|322:255,1,50.9999984436036,8|0,0:3|0:2,0:0:0:0:
374,249,168606,6,0,P|395:236|413:197,1,45.3333333333333,4|0,0:3|0:0,0:0:0:0:
358,158,168838,6,0,P|344:234|351:342,1,152.999995330811,4|0,1:2|0:2,0:0:0:0:
188,366,169362,1,0,1:2:0:0:
269,335,169536,2,0,P|193:328|152:237,1,152.999995330811,8|0,0:2|0:2,0:0:0:0:
116,122,170059,1,8,0:2:0:0:
41,196,170234,6,0,B|129:201|112:146|206:151,1,152.999995330811,0|0,1:2|0:2,0:0:0:0:
342,74,170757,1,0,1:2:0:0:
307,5,170931,2,0,P|293:76|257:162,1,152.999995330811,8|0,0:2|0:2,0:0:0:0:
404,264,171455,1,0,1:2:0:0:
478,237,171629,6,0,P|412:226|374:154,1,152.999995330811,0|0,1:2|0:2,0:0:0:0:
374,154,172152,1,0,1:2:0:0:
327,232,172327,2,0,B|317:279|317:279|289:313|289:313|270:384,1,152.999995330811,8|0,0:2|0:2,0:0:0:0:
164,267,172850,6,0,L|219:253,2,38.2499988327027,8|8|0,0:2|0:2|1:2,0:0:0:0:
380,369,173199,2,0,P|299:340|204:325,1,152.999995330811,8|0,0:2|1:2,0:0:0:0:
72,384,173722,2,0,P|96:360|97:297,1,76.4999976654053,8|0,0:2|0:0,0:0:0:0:
43,261,174071,1,0,0:2:0:0:
43,261,174245,1,0,1:2:0:0:
147,208,174420,6,0,P|135:272|144:358,1,152.999995330811,0|0,1:2|0:2,0:0:0:0:
218,277,174943,1,0,1:2:0:0:
44,261,175117,2,0,P|117:280|221:295,1,152.999995330811,8|0,0:2|1:2,0:0:0:0:
99,84,175815,5,0,1:2:0:0:
16,121,175990,1,8,0:2:0:0:
161,125,176164,1,0,1:2:0:0:
63,61,176338,1,0,1:2:0:0:
216,12,176513,2,0,P|228:50|234:101,1,76.4999976654053,8|0,0:2|0:2,0:0:0:0:
214,177,176862,1,0,0:2:0:0:
214,177,177036,1,0,1:2:0:0:
320,89,177210,1,4,1:2:0:0:
320,89,178606,5,8,0:2:0:0:
414,176,178780,1,0,1:2:0:0:
329,268,178955,1,8,0:2:0:0:
445,165,179129,1,0,1:2:0:0:
297,189,179303,1,8,0:2:0:0:
297,189,179391,1,8,0:2:0:0:
297,189,179478,1,8,0:3:0:0:
297,189,179565,1,4,0:3:0:0:
297,189,179652,1,8,0:2:0:0:
406,292,179827,1,8,0:2:0:0:
406,292,179914,1,8,0:2:0:0:
406,292,180001,6,0,P|473:296|533:206,1,178.499994552612,6|8,1:2|0:2,0:0:0:0:
309,298,180699,2,0,P|296:340|293:410,1,89.2499972763062,0|0,1:2|0:2,0:0:0:0:
215,241,181048,2,0,P|178:232|109:205,1,89.2499972763062,8|0,0:2|0:2,0:0:0:0:
0,384,181397,6,0,P|47:330|7:212,1,178.499994552612,0|8,1:2|0:2,0:0:0:0:
134,122,181920,1,2,0:2:0:0:
28,68,182094,2,0,P|32:109|54:164,1,89.2499972763062,0|2,1:2|0:2,0:0:0:0:
186,243,182443,2,0,P|190:202|212:147,1,89.2499972763062,8|2,0:2|0:2,0:0:0:0:
337,89,182792,6,0,P|277:82|173:9,1,178.499994552612,0|8,1:2|0:2,0:0:0:0:
181,19,183315,1,2,0:2:0:0:
286,130,183490,2,0,B|311:215|248:225|301:325,1,178.499994552612,0|8,1:2|0:2,0:0:0:0:
403,202,184013,1,0,0:2:0:0:
465,265,184187,6,0,P|446:199|517:121,1,178.499994552612,2|8,1:2|0:2,0:0:0:0:
482,352,184710,1,0,0:2:0:0:
383,278,184885,2,0,P|339:273|278:245,1,89.2499972763062,2|0,1:2|0:2,0:0:0:0:
171,366,185234,2,0,P|180:323|209:273,1,89.2499972763062,10|0,0:2|0:0,0:0:0:0:
211,155,185583,6,0,P|186:179|133:178,1,89.2499972763062,6|0,1:2|0:0,0:0:0:0:
133,178,185931,1,0,1:2:0:0:
16,112,186106,2,0,B|62:119|117:92|91:67|158:38|209:60,1,178.499994552612,10|0,0:2|0:2,0:0:0:0:
329,3,186629,6,0,P|308:60|303:119,1,89.2499972763062,2|0,1:2|0:0,0:0:0:0:
303,87,186978,1,0,1:2:0:0:
452,52,187152,2,0,P|457:115|507:239,1,178.499994552612,10|0,0:2|1:2,0:0:0:0:
295,233,187676,6,0,P|328:213|395:202,1,89.2499972763062,10|0,0:2|1:2,0:0:0:0:
275,344,188024,2,0,P|319:358|361:394,1,89.2499972763062,10|0,0:2|0:2,0:0:0:0:
136,211,188373,6,0,P|161:278|169:388,1,178.499994552612,6|8,1:2|0:2,0:0:0:0:
14,273,188896,2,0,P|69:248|47:132,1,178.499994552612,2|2,0:2|1:2,0:0:0:0:
63,143,189419,1,10,0:2:0:0:
175,206,189593,6,0,B|273:203|241:147|369:143,1,178.499994552612,6|8,1:2|0:2,0:0:0:0:
435,106,190117,1,0,1:2:0:0:
325,47,190291,1,2,1:2:0:0:
325,47,190378,1,2,3:2:0:0:
325,47,190466,2,0,L|347:120,1,44.6249986381531,10|0,0:2|0:0,0:0:0:0:
250,85,190640,2,0,L|204:100,1,44.6249986381531,2|0,0:2|0:0,0:0:0:0:
136,64,190814,1,10,0:2:0:0:
44,143,190989,1,8,0:2:0:0:
44,143,191076,1,8,0:2:0:0:
44,143,191163,6,0,P|50:200|80:328,1,178.499994552612,6|10,1:2|0:2,0:0:0:0:
204,267,191686,1,2,0:2:0:0:
312,339,191861,2,0,P|353:354|425:369,1,89.2499972763062,2|2,1:2|0:2,0:0:0:0:
384,163,192210,2,0,P|366:214|357:273,1,89.2499972763062,8|2,0:2|0:2,0:0:0:0:
192,376,192559,6,0,B|145:290|218:285|149:189,1,178.499994552612,0|10,1:0|0:2,0:0:0:0:
60,145,193082,1,2,0:2:0:0:
26,244,193256,1,2,1:2:0:0:
26,244,193343,1,2,0:2:0:0:
26,244,193431,1,2,0:2:0:0:
159,205,193605,2,0,P|200:219|251:227,1,89.2499972763062,10|2,0:2|0:2,0:0:0:0:
317,154,193954,6,0,P|281:233|273:325,1,178.499994552612,2|10,1:2|0:2,0:0:0:0:
248,59,194477,2,0,P|174:97|95:182,1,178.499994552612,2|0,0:2|0:2,0:0:0:0:
419,64,195000,2,0,P|378:43|329:-4,1,89.2499972763062,8|0,0:2|0:2,0:0:0:0:
484,141,195349,6,0,P|468:171|429:198,2,59.4999981842042,2|2|2,1:2|0:2|0:2,0:0:0:0:
457,264,195698,2,0,P|446:287|438:349,2,59.4999981842042,10|2|2,0:2|0:2|0:2,0:0:0:0:
369,257,196047,1,2,1:2:0:0:
327,259,196163,1,2,0:2:0:0:
288,279,196279,1,2,0:2:0:0:
266,315,196396,1,10,0:2:0:0:
235,348,196512,1,2,0:2:0:0:
192,331,196628,1,2,0:2:0:0:
150,336,196745,1,6,1:2:0:0:
17,157,197093,6,0,P|62:164|116:186,1,89.2499972763062,8|0,0:2|0:2,0:0:0:0:
221,35,197442,2,0,P|214:79|199:121,1,89.2499972763062,0|0,1:2|0:2,0:0:0:0:
115,63,197791,1,10,0:2:0:0:
304,89,197966,2,0,P|352:114|356:241,1,178.499994552612,2|0,0:2|0:0,0:0:0:0:
178,215,198489,2,0,P|225:197|276:187,1,89.2499972763062,10|0,0:2|0:2,0:0:0:0:
428,146,198838,6,0,P|417:231|387:341,1,178.499994552612,2|10,1:2|0:2,0:0:0:0:
475,364,199361,1,0,0:2:0:0:
311,252,199535,6,0,P|286:308|178:314,1,178.499994552612,2|10,1:2|0:2,0:0:0:0:
64,259,200059,2,0,P|101:247|171:204,1,89.2499972763062,2|0,0:2|1:2,0:0:0:0:
234,70,200407,2,0,P|215:109|208:168,1,89.2499972763062,0|10,1:2|0:2,0:0:0:0:
0,83,200756,6,0,B|62:84|84:64|82:20|133:11|184:22,1,178.499994552612,6|0,1:2|1:2,0:0:0:0:
347,102,201279,2,0,P|299:98|249:82,1,89.2499972763062,8|8,0:0|0:3,0:0:0:0:
259,86,201541,1,4,0:3:0:0:
259,86,201628,1,0,1:2:0:0:
333,15,201803,1,0,1:2:0:0:
179,63,201977,1,10,0:2:0:0:
254,191,202152,1,8,0:3:0:0:
254,191,202239,1,8,0:3:0:0:
254,191,202326,6,0,P|332:160|435:155,1,178.499994552612,6|8,1:2|0:2,0:0:0:0:
485,288,202849,1,0,0:2:0:0:
490,197,203024,2,0,P|470:245|461:301,1,89.2499972763062,2|0,1:2|0:0,0:0:0:0:
372,384,203373,2,0,P|352:336|343:280,1,89.2499972763062,10|2,0:2|0:2,0:0:0:0:
244,238,203721,6,0,B|158:245|168:183|62:195,1,178.499994552612,2|8,1:2|0:2,0:0:0:0:
134,307,204245,1,2,0:2:0:0:
186,173,204419,2,0,P|188:95|148:-11,1,178.499994552612,2|8,1:2|1:2,0:0:0:0:
94,83,204942,1,2,0:2:0:0:
223,56,205117,6,0,P|306:75|325:172,1,178.499994552612,0|8,1:2|0:2,0:0:0:0:
243,244,205640,1,2,0:2:0:0:
243,244,205727,1,2,0:0:0:0:
243,244,205814,2,0,P|233:288|229:348,1,89.2499972763062,2|0,1:2|0:0,0:0:0:0:
344,305,206163,2,0,P|395:313|455:332,1,89.2499972763062,10|0,0:2|0:2,0:0:0:0:
181,184,206512,6,0,B|106:194|102:248|-3:250,1,178.499994552612,2|10,1:2|0:2,0:0:0:0:
85,74,207035,1,0,0:2:0:0:
0,7,207210,2,0,P|47:78|48:190,1,178.499994552612,2|10,1:2|0:2,0:0:0:0:
183,59,207733,1,0,0:2:0:0:
279,138,207907,6,0,B|333:121|333:121|367:73|367:73|437:48,1,178.499994552612,2|8,1:2|0:2,0:0:0:0:
426,51,208431,1,2,3:2:0:0:
504,164,208605,1,0,1:2:0:0:
341,224,208779,1,2,0:2:0:0:
424,146,208954,1,10,0:2:0:0:
279,138,209128,1,2,0:2:0:0:
427,275,209303,6,0,P|371:204|407:98,1,178.499994552612,0|8,1:2|0:2,0:0:0:0:
386,123,209826,1,0,0:2:0:0:
294,250,210000,1,2,1:2:0:0:
279,138,210175,1,2,0:2:0:0:
169,262,210349,1,10,0:2:0:0:
171,56,210524,1,2,0:2:0:0:
0,82,210698,6,0,P|76:126|176:157,1,178.499994552612,2|8,1:2|0:2,0:0:0:0:
161,154,211221,1,0,0:2:0:0:
55,222,211396,2,0,P|69:265|103:312,1,89.2499972763062,2|2,1:2|0:2,0:0:0:0:
273,366,211745,2,0,P|241:353|176:336,1,89.2499972763062,8|0,0:2|0:2,0:0:0:0:
273,228,212093,5,8,0:2:0:0:
273,228,212181,1,8,0:2:0:0:
273,228,212268,1,8,0:3:0:0:
273,228,212355,1,4,0:3:0:0:
273,228,212442,2,0,L|303:288,1,44.6249986381531,8|8,0:2|0:2,0:0:0:0:
358,225,212617,2,0,L|439:201,1,44.6249986381531,8|4,0:3|0:3,0:0:0:0:
467,255,212791,1,12,0:3:0:0:
486,120,212966,5,8,0:2:0:0:
460,126,213053,1,8,0:2:0:0:
433,126,213140,1,8,0:3:0:0:
407,120,213227,1,8,0:3:0:0:
384,107,213314,1,4,0:3:0:0:
364,88,213402,1,4,0:3:0:0:
347,63,213489,6,0,P|249:48|152:10,1,178.499994552612,6|8,1:2|0:2,0:0:0:0:
260,186,214012,1,0,0:2:0:0:
211,107,214186,2,0,P|230:152|175:276,1,178.499994552612,2|10,1:2|0:2,0:0:0:0:
93,202,214710,1,0,0:2:0:0:
281,193,214884,2,0,P|318:208|388:230,1,89.2499972763062,2|0,1:2|0:0,0:0:0:0:
215,350,215233,2,0,P|193:305|188:247,1,89.2499972763062,10|0,0:2|0:2,0:0:0:0:
22,306,215582,6,0,P|39:232|98:134,1,178.499994552612,2|10,1:2|0:2,0:0:0:0:
71,33,216105,1,2,0:2:0:0:
71,33,216192,1,2,0:0:0:0:
71,33,216279,2,0,B|145:53|144:93|246:117,1,178.499994552612,2|10,1:2|0:2,0:0:0:0:
347,77,216803,1,0,0:2:0:0:
323,228,216977,6,0,P|309:189|298:132,1,89.2499972763062,0|0,1:2|0:2,0:0:0:0:
427,224,217326,2,0,P|477:236|534:261,1,89.2499972763062,10|0,0:2|0:2,0:0:0:0:
311,306,217675,2,0,P|246:343|158:367,1,133.874995914459,2|0,1:2|0:0,0:0:0:0:
190,361,218024,1,0,1:2:0:0:
106,239,218198,1,8,0:2:0:0:
56,338,218373,5,8,0:2:0:0:
56,338,218460,1,8,0:2:0:0:
56,338,218547,1,8,0:3:0:0:
56,338,218634,1,8,0:3:0:0:
56,338,218721,1,8,0:2:0:0:
192,262,218896,2,0,P|219:270|256:278,2,44.6249986381531,4|4|6,0:3|0:3|0:2,0:0:0:0:
90,142,228663,6,0,P|182:129|240:94,1,136,8|0,0:2|1:2,0:0:0:0:
289,51,229186,1,0,1:2:0:0:
287,257,229361,6,0,P|322:197|284:127,1,136,8|0,0:2|0:2,0:0:0:0:
143,234,229884,2,0,P|110:224|76:219,1,68,2|0,0:2|0:2,0:0:0:0:
76,219,230233,6,0,B|131:233|167:198|144:172|205:151|260:173,1,170,6|8,1:2|0:2,0:0:0:0:
392,81,230756,1,2,0:2:0:0:
332,14,230931,2,0,P|362:79|320:199,1,170,2|8,1:2|0:2,0:0:0:0:
342,172,231454,1,0,0:2:0:0:
484,338,231628,6,0,P|436:328|376:306,1,85,2|0,1:2|0:2,0:0:0:0:
217,168,231977,2,0,P|250:195|263:271,1,85,10|0,0:2|0:0,0:0:0:0:
265,233,232326,2,0,P|257:190|253:124,1,85,2|0,1:2|0:2,0:0:0:0:
120,346,232675,2,0,P|81:356|23:380,1,85,10|0,0:2|0:0,0:0:0:0:
39,372,233024,6,0,P|117:324|79:240,1,170,2|8,1:2|0:2,0:0:0:0:
93,129,233547,1,2,0:2:0:0:
0,144,233721,2,0,P|80:174|180:191,1,170,2|8,1:2|0:2,0:0:0:0:
299,109,234245,1,0,0:0:0:0:
189,23,234419,6,0,P|198:68|214:120,1,85,2|0,1:2|0:2,0:0:0:0:
368,212,234768,2,0,P|377:167|393:115,1,85,10|0,0:2|0:2,0:0:0:0:
219,249,235117,1,2,1:2:0:0:
230,265,235204,2,0,P|263:298|305:319,1,85,8|0,0:2|0:2,0:0:0:0:
296,316,235466,1,10,0:2:0:0:
190,365,235640,1,0,0:2:0:0:
442,283,235814,6,0,P|359:312|350:411,1,170,2|8,1:2|0:2,0:0:0:0:
284,205,236338,1,0,0:0:0:0:
207,254,236512,2,0,B|134:261|139:303|35:316,1,170,0|10,1:2|0:2,0:0:0:0:
106,196,237035,6,0,P|128:293|156:383,1,170,2|0,0:2|0:0,0:0:0:0:
307,260,237559,2,0,P|267:254|207:241,1,85,10|0,0:2|0:2,0:0:0:0:
314,81,237907,2,0,P|308:125|295:170,1,85,2|0,1:2|0:2,0:0:0:0:
225,74,238256,1,10,0:2:0:0:
374,27,238431,1,0,0:2:0:0:
205,156,238605,6,0,P|191:88|101:49,1,170,2|10,1:2|0:2,0:0:0:0:
36,178,239128,2,0,P|76:165|118:142,1,85,2|0,0:2|1:2,0:0:0:0:
113,144,239477,1,10,0:2:0:0:
70,268,239652,1,0,0:2:0:0:
155,227,239826,6,0,B|238:243|209:288|325:324,1,170,4|0,1:2|1:2,0:0:0:0:
417,219,240349,2,0,B|376:218|376:218|325:175,1,85,8|8,0:2|0:3,0:0:0:0:
342,189,240611,1,8,0:3:0:0:
342,189,240698,1,2,1:2:0:0:
240,220,240873,1,0,1:2:0:0:
184,107,241047,1,10,0:2:0:0:
281,143,241221,1,0,0:2:0:0:
128,196,241396,6,0,P|77:203|19:220,1,85,8|0,0:2|0:2,0:0:0:0:
179,23,241745,1,8,0:2:0:0:
306,93,241919,1,0,0:2:0:0:
193,147,242093,1,8,0:2:0:0:
326,68,242268,1,0,1:2:0:0:
224,0,242442,2,0,P|227:41|229:84,1,85,10|0,0:2|1:2,0:0:0:0:
251,207,242791,5,10,0:2:0:0:
327,298,242966,1,0,0:2:0:0:
431,236,243140,1,8,0:2:0:0:
225,191,243314,5,2,0:2:0:0:
108,211,243489,1,8,0:2:0:0:
109,332,243663,1,0,1:2:0:0:
260,170,243838,5,10,0:2:0:0:
301,58,244013,1,0,1:2:0:0:
195,0,244187,1,14,0:2:0:0:
40,187,245582,6,0,P|91:196|210:259,1,178.499994552612,2|0,0:2|0:2,0:0:0:0:
283,218,246279,2,0,P|300:144|209:126,1,178.499994552612,2|0,0:2|0:2,0:0:0:0:
60,384,246977,6,0,B|154:379|135:328|239:326,1,170,6|8,1:2|0:2,0:0:0:0:
363,273,247500,1,0,0:2:0:0:
314,209,247675,2,0,P|319:258|281:353,1,127.5,0|0,1:2|0:0,0:0:0:0:
296,331,248024,2,0,P|342:344|403:377,1,85,8|0,0:2|0:2,0:0:0:0:
469,179,248373,6,0,P|470:285|493:367,1,170,2|8,1:2|0:2,0:0:0:0:
324,202,248896,1,0,0:2:0:0:
384,148,249070,2,0,B|394:111|394:111|365:73,1,85,2|0,1:2|0:2,0:0:0:0:
232,192,249419,2,0,P|212:223|227:293,1,85,8|0,0:2|0:2,0:0:0:0:
213,269,249768,6,0,P|177:225|56:230,1,170,2|8,1:2|0:2,0:0:0:0:
145,172,250291,1,0,0:2:0:0:
6,311,250466,2,0,P|45:327|102:337,1,85,0|0,1:2|0:0,0:0:0:0:
213,269,250814,2,0,P|200:310|193:368,1,85,8|0,0:2|0:2,0:0:0:0:
350,267,251163,6,0,P|310:219|342:102,1,170,2|8,1:2|0:2,0:0:0:0:
443,138,251686,1,0,0:2:0:0:
266,180,251861,1,2,1:2:0:0:
246,178,251948,2,0,P|202:167|159:137,1,85,8|0,0:2|0:2,0:0:0:0:
168,146,252210,1,8,0:2:0:0:
212,31,252384,1,0,0:2:0:0:
79,100,252559,6,0,P|92:190|96:292,1,170,2|8,1:2|0:2,0:0:0:0:
30,351,253082,1,0,0:2:0:0:
173,318,253256,2,0,P|211:325|276:346,1,85,0|0,1:2|0:0,0:0:0:0:
252,167,253605,2,0,P|239:205|233:259,1,85,8|0,0:2|0:2,0:0:0:0:
423,384,253954,6,0,B|411:303|350:338|350:218,1,170,2|8,1:2|0:2,0:0:0:0:
487,135,254477,1,0,0:2:0:0:
402,153,254652,2,0,B|359:153|359:153|314:115,1,85,2|0,1:2|0:0,0:0:0:0:
223,0,255000,2,0,P|239:49|249:114,1,85,8|0,0:2|0:2,0:0:0:0:
136,220,255349,6,0,P|149:166|35:107,1,170,2|8,1:2|0:2,0:0:0:0:
30,195,255873,1,0,0:2:0:0:
178,137,256047,1,0,1:2:0:0:
136,220,256221,2,0,P|146:273|174:339,1,85,8|0,0:2|0:2,0:0:0:0:
0,345,256570,6,0,P|69:354|178:391,1,170,2|0,1:2|1:2,0:0:0:0:
336,289,257093,1,10,0:2:0:0:
247,231,257268,2,0,P|290:299|274:395,1,170,2|8,1:2|0:2,0:0:0:0:
279,384,257704,1,8,0:2:0:0:
302,365,257791,1,8,0:3:0:0:
329,352,257878,1,8,0:3:0:0:
357,344,257965,1,8,0:0:0:0:
387,340,258052,1,8,0:0:0:0:
416,343,258140,6,0,B|430:266|476:296|482:162,1,170,6|8,1:2|0:2,0:0:0:0:
425,95,258663,1,0,0:2:0:0:
334,157,258838,2,0,P|291:164|233:190,1,85,0|0,1:2|0:2,0:0:0:0:
227,19,259186,2,0,P|251:62|263:108,1,85,8|0,0:2|0:2,0:0:0:0:
101,234,259535,6,0,P|146:176|109:84,1,170,2|8,1:2|0:2,0:0:0:0:
40,127,260059,1,0,0:2:0:0:
176,192,260233,2,0,B|267:196|258:243|360:253,1,170,2|8,1:2|0:2,0:0:0:0:
333,249,260756,1,0,0:2:0:0:
450,209,260931,6,0,P|430:264|422:380,1,170,2|8,1:2|0:2,0:0:0:0:
263,286,261454,1,0,0:2:0:0:
263,286,261628,2,0,P|229:314|170:302,1,85,0|0,1:2|0:0,0:0:0:0:
0,325,261977,2,0,P|42:337|83:365,1,85,8|0,0:2|0:2,0:0:0:0:
112,241,262326,6,0,B|87:159|152:169|111:60,1,170,2|8,1:2|0:2,0:0:0:0:
116,75,262849,1,0,0:2:0:0:
230,150,263024,1,2,1:2:0:0:
244,158,263111,2,0,P|288:168|330:190,1,85,8|0,0:2|0:2,0:0:0:0:
323,185,263373,1,8,0:2:0:0:
444,122,263547,1,0,0:2:0:0:
369,261,263721,6,0,P|366:156|338:86,1,170,2|8,1:2|0:2,0:0:0:0:
272,11,264245,1,2,0:2:0:0:
183,83,264419,2,0,P|135:94|97:108,1,85,0|0,1:2|0:0,0:0:0:0:
226,241,264768,2,0,P|236:199|257:152,1,85,8|0,0:2|0:2,0:0:0:0:
252,160,265117,1,2,1:2:0:0:
318,278,265291,1,2,0:2:0:0:
192,320,265466,1,8,0:2:0:0:
226,241,265640,1,2,0:2:0:0:
108,278,265814,6,0,P|71:266|12:256,1,85,2|0,1:2|0:0,0:0:0:0:
117,101,266163,2,0,P|112:139|93:196,1,85,10|0,0:2|0:2,0:0:0:0:
226,241,266512,2,0,B|204:163|272:169|232:67,1,170,2|8,1:2|0:2,0:0:0:0:
470,229,267035,2,0,P|397:202|295:180,1,170,2|8,0:2|0:2,0:0:0:0:
307,181,267559,1,0,0:2:0:0:
222,366,267733,6,0,B|212:314|212:314|173:282|173:282|149:199,1,170,2|0,1:2|1:2,0:0:0:0:
193,96,268256,1,8,0:0:0:0:
72,132,268431,1,8,0:3:0:0:
72,132,268518,1,8,0:3:0:0:
72,132,268605,1,0,1:2:0:0:
111,14,268779,2,0,L|118:66,1,42.5,0|0,1:2|0:2,0:0:0:0:
174,189,268954,1,8,0:2:0:0:
193,96,269128,1,0,0:2:0:0:
383,174,269303,6,0,P|341:166|300:155,1,85,10|0,0:2|0:2,0:0:0:0:
373,253,269652,1,8,0:2:0:0:
489,203,269826,1,0,0:2:0:0:
453,341,270000,1,10,0:2:0:0:
346,270,270175,1,0,1:2:0:0:
259,384,270349,2,0,P|251:345|233:291,1,85,8|0,0:2|1:2,0:0:0:0:
145,128,270698,5,10,0:2:0:0:
63,226,270873,1,2,0:2:0:0:
211,211,271047,1,10,0:2:0:0:
132,108,271221,1,2,0:2:0:0:
126,286,271396,1,10,0:2:0:0:
293,181,271570,1,0,1:2:0:0:
150,198,271745,1,10,0:2:0:0:
333,283,271919,1,2,1:2:0:0:
227,343,272093,6,0,P|248:273|221:110,1,237.999992736817,6|2,1:2|0:2,0:0:0:0:
38,37,273489,1,2,0:2:0:0:
38,37,274012,1,0,1:2:0:0:
118,81,274186,2,0,P|156:69|188:46,1,59.4999981842042,8|0,0:2|0:2,0:0:0:0:
172,58,274419,6,0,P|160:82|153:118,1,50.9999984436036,8|0,0:3|0:2,0:0:0:0:
206,161,274652,6,0,P|225:188|261:207,1,50.9999984436036,4|0,0:3|0:2,0:0:0:0:
313,181,274884,5,6,1:2:0:0:
256,192,274971,12,0,278460,0:2:0:0:
