osu file format v14

[General]
AudioFilename: audio.mp3
AudioLeadIn: 0
PreviewTime: 178519
Countdown: 0
SampleSet: Soft
StackLeniency: 0.7
Mode: 0
LetterboxInBreaks: 0
WidescreenStoryboard: 1

[Editor]
Bookmarks: 1397,12559
DistanceSpacing: 1
BeatDivisor: 4
GridSize: 16
TimelineZoom: 2.599999

[Metadata]
Title:Meet Again
TitleUnicode:Meet Again
Artist:Pratanallis feat. Rina Komatsu
ArtistUnicode:Pratanallis feat. 狛茉璃奈
Creator:Zekk
Version:Expert
Source:
Tags:featured artist fa japanese rock ckharv dear white faieries vtuber こまつ りな
BeatmapID:3655924
BeatmapSetID:1784645

[Difficulty]
HPDrainRate:6
CircleSize:4.1
OverallDifficulty:8.5
ApproachRate:9.1
SliderMultiplier:1.7
SliderTickRate:1

[Events]
//Background and Video events
0,0,"72392328_p0.jpg",0,0
//Break Periods
2,219270,228079
//Storyboard Layer 0 (Background)
//Storyboard Layer 1 (Fail)
//Storyboard Layer 2 (Pass)
//Storyboard Layer 3 (Foreground)
//Storyboard Layer 4 (Overlay)
//Storyboard Sound Samples

[TimingPoints]
1397,348.837209302326,4,2,1,50,1,0
12559,-100,4,2,1,70,0,0
18141,-111.111111111111,4,2,1,60,0,0
40466,-117.647058823529,4,2,1,55,0,0
62792,-95.238095238095,4,2,1,80,0,0
89303,-142.857142857143,4,2,1,75,0,0
90699,-100,4,2,1,70,0,0
96280,-111.111111111111,4,2,1,60,0,0
118606,-117.647058823529,4,2,1,55,0,0
140931,-95.238095238095,4,2,1,80,0,0
167443,-142.857142857143,4,2,1,75,0,0
168141,-100,4,2,1,70,0,0
168373,-111.111111111111,4,2,1,70,0,0
168606,-125,4,2,1,70,0,0
168838,-111.111111111111,4,2,1,60,0,0
180001,-95.2380952380952,4,2,1,75,0,0
185583,348.837209302326,3,2,1,75,1,0
185583,-95.2380952380952,4,2,1,75,0,0
188373,348.837209302326,4,2,1,75,1,0
188373,-95.2380952380952,4,2,1,75,0,0
219070,-125,4,2,1,50,0,0
228663,-125,4,2,1,80,0,0
230233,-95.2380952380952,4,2,1,80,0,0
245582,-142.857142857143,4,2,1,75,0,0
246977,-100,4,2,1,70,0,0
269303,-100,4,2,1,80,0,0
272093,-142.857142857143,4,2,1,60,0,0
274419,-111.111111111111,4,2,1,60,0,0
278460,-111.111111111111,4,2,1,5,0,0

[Colours]
Combo1 : 240,140,140
Combo2 : 200,180,220
Combo3 : 174,228,167
Combo4 : 150,185,220

[HitObjects]
0,205,12559,6,0,P|57:208|129:127,1,170,6|8,1:2|0:2,0:0:0:0:
83,52,13083,1,0,0:2:0:0:
257,133,13257,1,2,1:2:0:0:
215,196,13431,2,0,P|226:233|232:292,1,85,2|8,1:2|0:2,0:0:0:0:
350,384,13780,6,0,B|366:292|418:331|422:227,1,170,6|2,1:2|1:2,0:0:0:0:
512,90,14303,2,0,P|484:117|433:116,1,85,10|2,0:2|3:2,0:0:0:0:
238,56,14652,1,2,1:2:0:0:
371,13,14827,1,0,1:2:0:0:
252,178,15001,2,0,P|206:186|149:206,1,85,10|0,0:2|0:2,0:0:0:0:
5,306,15350,6,0,B|99:317|70:358|186:364,1,170,6|10,1:2|0:2,0:0:0:0:
403,240,15873,1,0,0:2:0:0:
290,378,16048,1,2,1:2:0:0:
249,311,16222,1,2,1:2:0:0:
430,359,16397,1,8,0:2:0:0:
319,241,16571,6,0,P|315:182|368:75,1,170,6|2,1:2|1:2,0:0:0:0:
214,191,17094,2,0,P|173:205|113:215,1,85,10|2,0:2|0:2,0:0:0:0:
36,74,17443,1,0,1:2:0:0:
255,3,17617,1,2,1:2:0:0:
244,78,17792,1,10,0:2:0:0:
512,233,18141,6,0,P|470:201|360:169,1,152.999995330811,6|8,1:2|0:2,0:0:0:0:
291,229,18664,1,0,3:2:0:0:
291,229,18751,1,0,3:2:0:0:
291,229,18838,1,2,1:2:0:0:
234,299,19013,1,0,1:2:0:0:
294,384,19187,1,8,0:2:0:0:
167,336,19362,6,0,B|121:334|97:302|107:292|67:270|9:280,1,152.999995330811,2|0,1:2|1:2,0:0:0:0:
5,184,19885,2,0,P|29:187|84:147,1,76.4999976654053,10|0,0:2|1:2,0:0:0:0:
190,49,20234,2,0,P|179:82|170:136,1,76.4999976654053,2|0,1:2|0:2,0:0:0:0:
291,268,20583,2,0,P|302:235|311:181,1,76.4999976654053,10|0,0:2|0:2,0:0:0:0:
512,129,20931,6,0,P|461:113|370:51,1,152.999995330811,2|8,1:2|0:2,0:0:0:0:
378,58,21455,1,0,3:2:0:0:
250,149,21629,2,0,B|265:194|265:194|249:247|249:247|269:320,1,152.999995330811,2|8,1:2|0:2,0:0:0:0:
365,338,22152,1,0,0:2:0:0:
222,374,22327,6,0,P|195:362|121:346,1,76.4999976654053,2|0,1:2|0:0,0:0:0:0:
58,240,22676,2,0,P|44:201|37:139,1,76.4999976654053,8|0,0:2|0:2,0:0:0:0:
0,384,23024,6,0,P|23:355|88:327,1,76.4999976654053,2|0,1:2|0:2,0:0:0:0:
253,232,23373,2,0,P|216:226|173:189,1,76.4999976654053,10|0,0:2|0:2,0:0:0:0:
5,22,23722,6,0,P|62:39|92:149,1,152.999995330811,2|8,1:2|0:2,0:0:0:0:
39,169,24245,1,0,3:2:0:0:
185,73,24420,2,0,P|241:66|361:28,1,152.999995330811,2|8,1:2|0:2,0:0:0:0:
460,160,24943,1,0,0:2:0:0:
415,221,25117,6,0,P|400:254|387:311,1,76.4999976654053,2|0,0:2|1:2,0:0:0:0:
248,169,25466,2,0,P|263:136|276:79,1,76.4999976654053,8|0,0:2|0:2,0:0:0:0:
285,303,25815,1,2,1:2:0:0:
215,335,25990,1,0,0:2:0:0:
171,271,26164,1,10,0:2:0:0:
9,180,26513,6,0,B|59:183|89:151|88:126|137:110|167:123,1,152.999995330811,2|8,1:2|0:2,0:0:0:0:
251,67,27036,1,0,3:2:0:0:
251,67,27123,1,0,3:0:0:0:
251,67,27210,1,0,1:2:0:0:
276,158,27385,1,0,0:0:0:0:
194,219,27559,1,8,0:2:0:0:
359,172,27734,6,0,P|408:194|514:225,1,152.999995330811,2|0,0:2|1:2,0:0:0:0:
398,374,28257,2,0,P|385:339|378:287,1,76.4999976654053,8|0,0:2|0:2,0:0:0:0:
182,334,28606,2,0,P|221:343|255:357,1,76.4999976654053,2|0,1:2|1:2,0:0:0:0:
112,179,28955,2,0,P|73:170|39:156,1,76.4999976654053,10|0,0:2|0:2,0:0:0:0:
242,231,29303,6,0,P|293:201|298:97,1,152.999995330811,6|8,1:2|0:2,0:0:0:0:
180,9,29827,1,0,0:2:0:0:
209,150,30001,1,2,1:2:0:0:
180,9,30176,1,0,1:2:0:0:
209,150,30350,1,8,0:2:0:0:
321,34,30524,6,0,B|385:46|388:89|470:98,1,152.999995330811,6|0,1:2|1:2,0:0:0:0:
368,241,31048,2,0,P|365:199|351:146,1,76.4999976654053,10|0,0:2|0:2,0:0:0:0:
458,341,31397,1,2,1:2:0:0:
366,326,31571,1,0,1:2:0:0:
291,378,31745,1,10,0:2:0:0:
147,303,32094,6,0,B|111:302|66:274|92:259|41:234|1:245,1,152.999995330811,6|8,1:2|0:2,0:0:0:0:
132,113,32617,2,0,P|166:129|170:180,1,76.4999976654053,2|0,0:2|1:2,0:0:0:0:
11,243,32966,2,0,P|23:209|81:194,1,76.4999976654053,2|8,1:2|0:2,0:0:0:0:
233,277,33315,6,0,P|283:289|388:327,1,152.999995330811,6|0,1:2|1:2,0:0:0:0:
502,242,33838,1,8,0:2:0:0:
383,131,34013,1,0,0:2:0:0:
377,225,34187,5,2,1:2:0:0:
452,181,34362,1,0,1:2:0:0:
383,131,34536,1,10,0:2:0:0:
255,203,34885,6,0,P|177:194|82:147,1,152.999995330811,6|8,1:2|0:2,0:0:0:0:
108,165,35408,1,0,0:2:0:0:
40,342,35583,2,0,B|95:342|126:319|112:302|145:278|206:295,1,152.999995330811,2|8,1:2|0:2,0:0:0:0:
262,381,36106,1,0,0:2:0:0:
324,338,36280,2,0,B|349:309|349:309|336:258,1,76.4999976654053,2|0,1:2|1:2,0:0:0:0:
339,271,36629,1,8,0:2:0:0:
232,186,36803,2,0,P|274:172|324:144,1,76.4999976654053,2|2,0:2|1:2,0:0:0:0:
475,198,37152,1,0,0:0:0:0:
417,98,37327,2,0,P|402:137|399:175,1,76.4999976654053,10|0,0:2|0:2,0:0:0:0:
283,73,37676,6,0,P|227:30|143:9,1,152.999995330811,2|8,1:2|0:2,0:0:0:0:
78,69,38199,1,0,3:2:0:0:
210,136,38373,2,0,P|145:153|71:223,1,152.999995330811,2|8,1:2|0:2,0:0:0:0:
37,280,38897,1,0,0:2:0:0:
226,244,39071,6,0,P|261:259|311:286,1,76.4999976654053,2|0,1:2|1:2,0:0:0:0:
451,232,39420,2,0,B|420:261|420:261|423:307,1,76.4999976654053,8|0,0:2|0:2,0:0:0:0:
422,294,39769,1,2,0:2:0:0:
322,368,39943,5,0,1:2:0:0:
277,182,40117,1,10,0:2:0:0:
166,291,40292,1,8,0:2:0:0:
166,291,40379,1,8,0:2:0:0:
166,291,40466,6,0,B|106:295|106:331|21:335,1,144.500002756119,6|2,1:2|0:2,0:0:0:0:
71,239,40990,1,0,1:2:0:0:
16,187,41164,2,0,P|26:155|29:104,1,72.2500013780594,8|2,0:2|0:2,0:0:0:0:
29,116,41513,1,0,0:2:0:0:
136,181,41687,1,2,1:2:0:0:
207,118,41862,2,0,P|254:89|350:84,1,144.500002756119,0|2,1:2|0:2,0:0:0:0:
427,27,42385,1,0,1:2:0:0:
483,83,42559,2,0,P|469:114|458:157,1,72.2500013780594,10|0,0:2|0:2,0:0:0:0:
512,267,42908,2,0,P|480:250|443:238,1,72.2500013780594,2|0,0:2|1:2,0:0:0:0:
339,171,43257,6,0,B|367:243|327:240|351:313,1,144.500002756119,2|2,1:2|0:2,0:0:0:0:
262,373,43780,2,0,P|241:365|213:322,1,72.2500013780594,2|8,1:2|0:2,0:0:0:0:
159,196,44129,2,0,P|148:230|140:265,1,72.2500013780594,2|0,0:2|0:2,0:0:0:0:
55,371,44478,1,0,1:2:0:0:
14,307,44652,2,0,P|61:267|158:274,1,144.500002756119,0|2,1:2|0:2,0:0:0:0:
245,204,45176,1,0,1:2:0:0:
313,240,45350,1,10,0:2:0:0:
358,177,45524,1,0,0:2:0:0:
275,101,45699,5,2,0:2:0:0:
179,143,45873,1,0,1:2:0:0:
110,81,46048,2,0,B|68:74|53:50|59:29|-20:16,1,144.500002756119,2|0,1:2|0:2,0:0:0:0:
107,191,46571,1,2,1:2:0:0:
179,143,46745,2,0,P|208:137|266:115,1,72.2500013780594,8|0,0:2|0:0,0:0:0:0:
357,21,47094,2,0,P|338:59|327:101,1,72.2500013780594,2|0,0:2|1:2,0:0:0:0:
481,243,47443,6,0,P|474:198|379:161,1,144.500002756119,2|0,1:2|1:2,0:0:0:0:
277,226,47966,1,0,0:0:0:0:
336,278,48141,2,0,P|380:295|419:307,1,72.2500013780594,8|0,0:2|0:2,0:0:0:0:
248,384,48490,2,0,P|239:348|230:294,1,72.2500013780594,2|0,0:2|1:2,0:0:0:0:
147,198,48838,6,0,B|131:274|97:248|86:337,1,144.500002756119,2|0,1:2|0:2,0:0:0:0:
0,190,49362,2,0,P|43:192|81:101,1,144.500002756119,2|0,1:2|0:2,0:0:0:0:
217,186,49885,2,0,P|264:200|296:205,1,72.2500013780594,2|0,0:2|1:2,0:0:0:0:
388,336,50234,5,2,1:2:0:0:
497,261,50408,1,8,0:2:0:0:
496,337,50583,1,2,0:2:0:0:
400,237,50757,1,2,1:2:0:0:
461,190,50931,2,0,B|458:153|458:153|489:107,1,72.2500013780594,8|2,0:2|1:2,0:0:0:0:
316,275,51280,1,8,0:2:0:0:
260,227,51455,1,8,0:2:0:0:
260,227,51542,1,8,0:2:0:0:
260,227,51629,6,0,P|195:235|102:283,1,144.500002756119,6|2,1:2|0:2,0:0:0:0:
73,321,52152,1,2,0:2:0:0:
18,223,52327,1,8,0:2:0:0:
161,347,52501,6,0,P|199:357|247:377,1,72.2500013780594,2|8,1:2|0:2,0:0:0:0:
389,260,52850,2,0,B|337:309|337:309|353:397,1,144.500002756119,6|0,1:2|0:2,0:0:0:0:
443,347,53373,2,0,L|531:334,1,72.2500013780594,2|0,1:2|0:2,0:0:0:0:
363,183,53722,6,0,P|416:223|508:274,1,144.500002756119,10|2,0:2|0:2,0:0:0:0:
433,124,54245,1,0,1:2:0:0:
286,195,54420,6,0,P|250:205|190:217,1,72.2500013780594,6|8,1:2|0:2,0:0:0:0:
215,212,54681,1,8,0:2:0:0:
215,212,54769,1,8,0:2:0:0:
119,142,54943,1,10,0:2:0:0:
111,152,55030,1,8,0:2:0:0:
114,163,55117,1,8,0:2:0:0:
235,97,55292,2,0,B|250:66|250:66|237:16,1,72.2500013780594,2|0,1:2|0:2,0:0:0:0:
0,175,55641,2,0,P|77:193|140:239,1,144.500002756119,6|2,1:2|0:2,0:0:0:0:
250,375,57210,5,2,1:3:0:0:
269,344,57908,1,2,0:3:0:0:
282,305,58606,1,2,0:3:0:0:
271,264,59303,1,2,0:3:0:0:
49,197,59652,5,8,0:3:0:0:
49,197,59769,1,4,0:3:0:0:
49,197,59885,1,12,0:3:0:0:
49,197,60001,1,4,1:2:0:0:
197,83,60699,1,2,0:3:0:0:
242,70,61048,1,2,0:3:0:0:
354,132,61280,1,2,0:3:0:0:
354,132,61397,2,0,P|343:178|336:227,1,72.2500013780594,8|0,0:2|0:0,0:0:0:0:
481,384,62792,6,0,B|428:389|404:348|416:323|355:304|311:313,1,178.499994552612,6|8,1:2|0:2,0:0:0:0:
198,182,63315,1,2,3:2:0:0:
179,255,63490,2,0,P|247:255|319:173,1,178.499994552612,2|8,1:2|0:2,0:0:0:0:
318,178,64013,1,0,0:2:0:0:
464,109,64187,6,0,P|419:96|373:71,1,89.2499972763062,2|0,1:2|0:2,0:0:0:0:
203,3,64536,2,0,P|216:48|238:99,1,89.2499972763062,10|0,0:2|0:0,0:0:0:0:
86,174,64885,1,2,1:2:0:0:
55,97,65059,1,0,0:2:0:0:
212,219,65234,2,0,B|257:216|257:216|318:251,1,89.2499972763062,10|0,0:2|0:2,0:0:0:0:
407,362,65583,6,0,P|452:337|470:207,1,178.499994552612,2|8,1:2|0:2,0:0:0:0:
419,164,66106,1,2,0:2:0:0:
295,237,66280,2,0,B|228:245|225:289|121:300,1,178.499994552612,2|8,1:2|0:2,0:0:0:0:
62,341,66803,1,0,0:2:0:0:
15,206,66978,2,0,P|29:164|55:111,1,89.2499972763062,2|0,1:2|0:2,0:0:0:0:
212,295,67327,2,0,P|254:311|313:325,1,89.2499972763062,8|2,0:2|0:2,0:0:0:0:
224,77,67676,1,2,1:2:0:0:
215,86,67763,2,0,P|196:124|182:189,1,89.2499972763062,8|0,0:2|0:2,0:0:0:0:
184,169,68024,1,10,0:2:0:0:
113,4,68199,1,2,0:2:0:0:
309,109,68373,6,0,B|369:116|403:92|404:59|437:46|493:45,1,178.499994552612,2|8,1:2|0:2,0:0:0:0:
470,46,68897,1,2,0:2:0:0:
511,263,69071,2,0,P|461:240|337:201,1,178.499994552612,2|8,1:2|0:2,0:0:0:0:
245,161,69594,1,0,0:2:0:0:
248,358,69769,2,0,P|284:341|302:288,1,89.2499972763062,2|0,1:2|0:2,0:0:0:0:
126,189,70117,2,0,P|133:225|209:262,1,89.2499972763062,10|0,0:2|0:2,0:0:0:0:
330,125,70466,6,0,P|368:115|420:95,1,89.2499972763062,2|0,1:2|0:2,0:0:0:0:
186,0,70815,2,0,P|201:40|214:97,1,89.2499972763062,10|0,0:2|0:0,0:0:0:0:
0,215,71164,2,0,B|45:236|92:207|77:184|122:156|174:172,1,178.499994552612,2|8,1:2|0:2,0:0:0:0:
292,250,71687,1,2,0:2:0:0:
177,352,71862,1,2,1:2:0:0:
121,305,72036,2,0,P|111:263|93:214,1,89.2499972763062,8|0,0:2|0:0,0:0:0:0:
290,146,72385,6,0,P|386:181|488:212,1,178.499994552612,4|0,1:2|1:2,0:0:0:0:
340,49,72908,1,8,0:2:0:0:
188,180,73083,2,0,P|146:122|225:23,1,178.499994552612,4|8,1:2|0:2,0:0:0:0:
409,122,73606,1,10,0:2:0:0:
267,253,73780,1,8,0:2:0:0:
330,299,73955,6,0,B|430:285|389:233|516:231,1,178.499994552612,6|8,1:2|0:2,0:0:0:0:
237,373,74478,1,2,0:2:0:0:
175,324,74652,2,0,B|187:277|187:277|159:235,1,89.2499972763062,2|0,1:2|0:0,0:0:0:0:
0,142,75001,2,0,P|33:175|79:175,1,89.2499972763062,8|0,0:2|0:2,0:0:0:0:
223,0,75350,6,0,P|212:39|194:124,1,89.2499972763062,2|0,1:2|0:2,0:0:0:0:
347,188,75699,2,0,P|383:180|456:153,1,89.2499972763062,10|0,0:2|0:0,0:0:0:0:
206,317,76048,2,0,P|170:325|97:352,1,89.2499972763062,2|0,1:2|0:2,0:0:0:0:
396,376,76397,2,0,P|428:352|414:305,1,89.2499972763062,10|0,0:2|0:0,0:0:0:0:
222,180,76745,6,0,B|229:268|301:232|296:357,1,178.499994552612,2|8,1:2|0:2,0:0:0:0:
307,144,77269,1,2,0:2:0:0:
143,222,77443,2,0,P|102:221|71:167,1,89.2499972763062,2|0,1:2|0:0,0:0:0:0:
213,23,77792,2,0,B|242:56|242:56|227:122,1,89.2499972763062,8|0,0:2|0:0,0:0:0:0:
355,231,78141,6,0,P|395:244|456:272,1,89.2499972763062,2|0,1:2|0:2,0:0:0:0:
418,53,78490,2,0,P|378:40|317:12,1,89.2499972763062,10|0,0:2|0:2,0:0:0:0:
210,177,78838,1,2,1:2:0:0:
207,184,78926,2,0,P|214:227|239:293,1,89.2499972763062,8|0,0:2|0:2,0:0:0:0:
228,270,79187,1,10,0:2:0:0:
113,381,79362,1,0,0:2:0:0:
43,328,79536,6,0,P|45:277|150:227,1,178.499994552612,2|8,1:2|0:2,0:0:0:0:
147,226,80059,1,0,0:0:0:0:
308,181,80234,2,0,B|257:187|225:151|245:142|196:108|137:119,1,178.499994552612,0|10,1:2|0:2,0:0:0:0:
450,8,80757,6,0,P|422:99|395:212,1,178.499994552612,2|0,0:2|0:0,0:0:0:0:
451,338,81280,2,0,P|484:327|508:268,1,89.2499972763062,10|0,0:2|0:2,0:0:0:0:
297,299,81629,2,0,P|312:344|324:406,1,89.2499972763062,2|0,1:2|0:2,0:0:0:0:
139,222,81978,2,0,P|124:177|112:115,1,89.2499972763062,10|0,0:2|0:2,0:0:0:0:
0,384,82327,6,0,B|94:363|72:329|166:317,1,178.499994552612,2|10,1:2|0:2,0:0:0:0:
380,211,82850,1,2,0:2:0:0:
212,149,83024,1,0,1:2:0:0:
261,324,83199,1,10,0:2:0:0:
261,324,83373,1,0,0:2:0:0:
407,297,83548,6,0,P|415:226|443:107,1,178.499994552612,4|0,1:2|1:2,0:0:0:0:
283,18,84071,1,8,0:2:0:0:
200,162,84245,1,8,0:3:0:0:
200,162,84333,1,8,0:3:0:0:
200,162,84420,1,2,1:2:0:0:
156,84,84594,1,2,1:2:0:0:
317,171,84769,2,0,P|360:180|424:211,1,89.2499972763062,8|0,0:2|0:2,0:0:0:0:
133,373,85117,5,10,0:2:0:0:
61,158,85292,1,0,0:2:0:0:
283,275,85466,1,8,0:2:0:0:
213,302,85641,1,0,0:2:0:0:
288,63,85815,1,8,0:2:0:0:
135,120,85990,1,0,1:2:0:0:
366,237,86164,2,0,P|406:227|473:202,1,89.2499972763062,10|0,0:2|1:2,0:0:0:0:
281,359,86513,5,10,0:2:0:0:
217,185,86687,1,0,0:2:0:0:
73,269,86862,1,8,0:2:0:0:
139,317,87036,1,2,0:2:0:0:
204,70,87210,1,8,0:2:0:0:
36,146,87385,1,0,1:2:0:0:
265,315,87559,1,10,0:2:0:0:
309,153,87734,1,0,1:2:0:0:
73,269,87908,1,12,0:2:0:0:
405,96,89303,6,0,P|328:84|221:27,1,178.499994552612,2|0,0:2|0:2,0:0:0:0:
161,93,90001,2,0,P|168:148|226:195,1,118.999996368408,8|4,0:3|0:3,0:0:0:0:
300,158,90524,1,8,0:3:0:0:
213,293,90699,6,0,B|165:297|137:249|155:227|102:205|49:223,1,170,6|8,1:2|0:2,0:0:0:0:
76,317,91222,1,0,0:2:0:0:
212,190,91397,2,0,P|207:152|155:123,1,85,2|2,1:2|1:2,0:0:0:0:
101,146,91745,1,8,0:2:0:0:
264,72,91920,6,0,B|322:59|322:59|354:16|354:16|442:-2,1,170,6|2,1:2|1:2,0:0:0:0:
468,123,92443,1,10,0:2:0:0:
468,123,92617,1,2,3:2:0:0:
395,165,92792,2,0,P|388:207|373:262,1,85,2|0,1:2|1:2,0:0:0:0:
493,384,93141,2,0,P|500:342|515:287,1,85,10|0,0:2|0:2,0:0:0:0:
281,261,93490,6,0,P|222:271|106:330,1,170,6|10,1:2|0:2,0:0:0:0:
57,363,94013,1,0,0:2:0:0:
0,192,94187,1,2,1:2:0:0:
76,219,94362,2,0,P|118:208|148:164,1,85,2|8,1:2|0:2,0:0:0:0:
261,27,94710,6,0,B|239:114|300:103|264:222,1,170,6|2,1:2|1:2,0:0:0:0:
461,133,95234,1,10,0:2:0:0:
379,84,95408,1,2,0:2:0:0:
383,260,95583,1,0,1:2:0:0:
469,226,95757,1,2,1:2:0:0:
424,378,95931,2,0,P|384:362|343:350,1,85,10|0,0:2|0:2,0:0:0:0:
240,235,96280,6,0,P|177:278|103:298,1,152.999995330811,6|8,1:2|0:2,0:0:0:0:
57,210,96803,1,0,3:2:0:0:
57,210,96890,1,0,3:2:0:0:
57,210,96977,1,2,1:2:0:0:
20,120,97152,1,0,0:0:0:0:
93,61,97326,1,8,0:2:0:0:
176,104,97501,6,0,B|242:116|238:152|342:170,1,152.999995330811,2|0,1:2|1:2,0:0:0:0:
427,205,98024,2,0,P|470:193|529:168,1,76.4999976654053,10|0,0:2|1:2,0:0:0:0:
322,335,98373,2,0,P|333:302|342:248,1,76.4999976654053,2|0,1:2|0:2,0:0:0:0:
192,118,98722,2,0,P|181:151|172:205,1,76.4999976654053,10|0,0:2|0:2,0:0:0:0:
18,363,99071,6,0,P|88:338|167:324,1,152.999995330811,2|8,1:2|0:2,0:0:0:0:
165,324,99594,1,0,3:2:0:0:
258,230,99769,2,0,P|276:172|211:84,1,152.999995330811,2|8,1:2|0:2,0:0:0:0:
150,54,100291,1,0,0:2:0:0:
290,10,100466,6,0,P|317:22|391:38,1,76.4999976654053,2|0,1:2|0:0,0:0:0:0:
454,144,100815,2,0,P|468:183|475:245,1,76.4999976654053,8|0,0:2|0:2,0:0:0:0:
512,0,101163,6,0,P|489:29|424:57,1,76.4999976654053,2|0,1:2|0:2,0:0:0:0:
259,152,101512,2,0,P|296:158|339:195,1,76.4999976654053,10|0,0:2|0:2,0:0:0:0:
507,362,101861,6,0,P|450:345|420:235,1,152.999995330811,2|8,1:2|0:2,0:0:0:0:
473,215,102384,1,0,3:2:0:0:
327,311,102559,2,0,P|271:318|151:356,1,152.999995330811,2|8,1:2|0:2,0:0:0:0:
52,224,103082,1,0,0:2:0:0:
97,163,103256,6,0,P|112:130|125:73,1,76.4999976654053,2|0,0:2|0:0,0:0:0:0:
264,215,103605,2,0,P|249:248|236:305,1,76.4999976654053,8|0,0:2|0:2,0:0:0:0:
227,81,103954,1,2,1:2:0:0:
310,95,104129,1,0,0:2:0:0:
346,22,104303,1,10,0:2:0:0:
503,204,104652,6,0,B|453:201|423:233|424:258|375:274|345:261,1,152.999995330811,2|8,1:2|0:2,0:0:0:0:
261,317,105175,1,0,3:2:0:0:
261,317,105262,1,0,3:0:0:0:
261,317,105349,1,0,1:2:0:0:
237,217,105524,1,0,0:0:0:0:
318,165,105698,1,8,0:2:0:0:
153,212,105873,6,0,P|104:190|-2:159,1,152.999995330811,2|0,0:2|1:2,0:0:0:0:
114,10,106396,2,0,P|127:45|134:97,1,76.4999976654053,8|0,0:2|0:2,0:0:0:0:
330,50,106745,2,0,P|291:41|257:27,1,76.4999976654053,2|0,1:2|1:2,0:0:0:0:
400,205,107094,2,0,P|439:214|473:228,1,76.4999976654053,10|0,0:2|0:2,0:0:0:0:
270,153,107442,6,0,P|219:183|214:287,1,152.999995330811,6|8,1:2|0:2,0:0:0:0:
332,375,107966,1,0,0:2:0:0:
303,236,108140,1,2,1:2:0:0:
332,375,108315,1,0,1:2:0:0:
303,236,108489,1,8,0:2:0:0:
191,350,108663,6,0,B|127:338|124:295|42:286,1,152.999995330811,6|0,1:2|0:0,0:0:0:0:
144,143,109187,2,0,P|147:185|161:238,1,76.4999976654053,10|0,0:2|0:2,0:0:0:0:
54,43,109536,1,2,1:2:0:0:
151,62,109710,1,0,1:2:0:0:
221,6,109884,1,10,0:2:0:0:
365,81,110233,6,0,B|401:82|446:110|420:125|471:150|511:139,1,152.999995330811,6|8,1:2|0:2,0:0:0:0:
380,271,110756,2,0,P|346:255|342:204,1,76.4999976654053,2|0,0:2|1:2,0:0:0:0:
501,141,111105,2,0,P|489:175|431:190,1,76.4999976654053,2|8,1:2|0:2,0:0:0:0:
279,107,111454,6,0,P|229:95|124:57,1,152.999995330811,6|0,1:2|0:2,0:0:0:0:
10,142,111977,1,8,0:2:0:0:
129,253,112152,1,0,0:2:0:0:
135,159,112326,5,2,1:2:0:0:
60,203,112501,1,0,1:2:0:0:
129,253,112675,1,10,0:2:0:0:
257,181,113024,6,0,P|335:190|430:237,1,152.999995330811,6|8,1:2|0:2,0:0:0:0:
404,219,113547,1,0,0:2:0:0:
481,42,113722,2,0,B|417:53|416:84|316:93,1,152.999995330811,2|8,1:2|0:2,0:0:0:0:
250,3,114245,1,0,0:2:0:0:
188,46,114419,2,0,B|163:75|163:75|176:126,1,76.4999976654053,2|0,1:2|1:2,0:0:0:0:
173,113,114768,1,8,0:2:0:0:
280,198,114942,2,0,P|238:212|188:240,1,76.4999976654053,2|2,0:2|1:2,0:0:0:0:
37,186,115291,1,0,0:0:0:0:
95,286,115466,2,0,P|110:247|113:209,1,76.4999976654053,10|0,0:2|0:2,0:0:0:0:
229,311,115815,6,0,P|285:354|369:375,1,152.999995330811,2|8,1:2|0:2,0:0:0:0:
434,315,116338,1,0,3:2:0:0:
302,248,116512,2,0,P|367:231|441:161,1,152.999995330811,2|8,1:2|0:2,0:0:0:0:
475,104,117036,1,0,0:2:0:0:
286,140,117210,6,0,P|251:125|201:98,1,76.4999976654053,2|0,1:2|0:0,0:0:0:0:
61,152,117559,2,0,B|92:123|92:123|89:77,1,76.4999976654053,8|0,0:2|0:2,0:0:0:0:
90,90,117908,1,2,0:2:0:0:
190,16,118082,5,0,1:2:0:0:
279,154,118256,1,10,0:2:0:0:
346,93,118431,1,8,0:2:0:0:
346,93,118518,1,8,0:2:0:0:
346,93,118606,6,0,P|406:92|466:153,1,144.500002756119,6|2,1:2|0:2,0:0:0:0:
510,235,119129,2,0,P|495:266|479:323,1,72.2500013780594,0|8,1:2|0:2,0:0:0:0:
473,383,119478,2,0,P|441:375|395:351,1,72.2500013780594,0|0,0:0|0:2,0:0:0:0:
355,280,119827,1,2,1:2:0:0:
253,341,120001,6,0,P|194:346|107:387,1,144.500002756119,0|2,1:2|0:2,0:0:0:0:
46,312,120524,1,0,1:2:0:0:
104,260,120699,2,0,P|114:223|136:175,1,72.2500013780594,10|0,0:2|0:0,0:0:0:0:
24,54,121048,2,0,P|14:91|-8:139,1,72.2500013780594,2|0,0:2|1:2,0:0:0:0:
151,108,121397,6,0,B|231:100|219:58|301:52,1,144.500002756119,2|2,1:2|0:2,0:0:0:0:
406,8,121920,2,0,B|386:41|386:41|393:92,1,72.2500013780594,2|8,1:2|0:2,0:0:0:0:
442,165,122269,2,0,P|479:177|530:185,1,72.2500013780594,0|0,0:0|0:2,0:0:0:0:
512,184,122617,1,0,1:2:0:0:
349,265,122792,6,0,P|290:222|305:151,1,144.500002756119,0|2,1:2|0:2,0:0:0:0:
298,158,123315,1,0,1:2:0:0:
201,204,123490,2,0,B|133:221|146:185|48:207,1,144.500002756119,10|2,0:2|0:2,0:0:0:0:
9,301,124013,1,0,1:2:0:0:
9,301,124100,1,0,0:0:0:0:
9,301,124187,6,0,P|28:335|131:342,1,144.500002756119,2|0,1:2|0:2,0:0:0:0:
204,300,124710,1,2,1:2:0:0:
290,348,124885,2,0,P|328:362|380:389,1,72.2500013780594,8|0,0:2|0:0,0:0:0:0:
321,228,125234,2,0,P|358:213|397:189,1,72.2500013780594,2|0,0:2|1:2,0:0:0:0:
512,294,125583,2,0,B|441:276|437:322|340:290,1,144.500002756119,2|0,1:2|1:2,0:0:0:0:
225,250,126106,5,2,1:2:0:0:
290,209,126280,2,0,P|291:171|246:142,1,72.2500013780594,8|0,0:2|0:2,0:0:0:0:
195,162,126629,1,2,0:2:0:0:
195,162,126803,1,0,1:2:0:0:
129,101,126978,2,0,P|63:82|-7:36,1,144.500002756119,2|0,1:2|0:2,0:0:0:0:
0,42,127501,1,2,1:2:0:0:
45,140,127676,2,0,P|49:195|-14:273,1,144.500002756119,8|2,0:0|0:2,0:0:0:0:
72,378,128199,5,0,1:0:0:0:
165,307,128373,1,2,1:2:0:0:
236,334,128548,2,0,B|274:338|274:338|321:318,1,72.2500013780594,8|2,0:2|0:2,0:0:0:0:
369,194,128897,1,2,1:2:0:0:
423,249,129071,2,0,P|409:287|399:338,1,72.2500013780594,8|2,0:2|1:2,0:0:0:0:
285,179,129420,2,0,P|299:141|309:90,1,72.2500013780594,8|8,0:2|0:2,0:0:0:0:
306,110,129681,1,8,0:2:0:0:
306,110,129769,6,0,B|265:107|234:83|256:74|217:44|159:54,1,144.500002756119,6|2,1:2|0:2,0:0:0:0:
79,107,130292,1,2,0:2:0:0:
151,190,130466,1,8,0:2:0:0:
99,250,130641,2,0,B|114:286|114:286|96:332,1,72.2500013780594,2|8,1:2|0:2,0:0:0:0:
186,378,130990,2,0,P|246:355|336:337,1,144.500002756119,6|0,1:2|0:2,0:0:0:0:
399,375,131513,1,2,1:2:0:0:
495,245,131862,1,10,0:2:0:0:
449,185,132036,1,0,1:2:0:0:
491,118,132210,1,2,0:2:0:0:
491,118,132385,1,0,1:2:0:0:
363,177,132559,6,0,P|335:167|282:140,1,72.2500013780594,6|8,1:2|0:2,0:0:0:0:
296,148,132821,1,8,0:2:0:0:
296,148,132908,1,8,0:2:0:0:
199,195,133083,1,10,0:2:0:0:
182,198,133170,1,8,0:2:0:0:
169,204,133257,1,8,0:2:0:0:
42,164,133431,6,0,P|15:137|23:88,1,72.2500013780594,2|0,1:2|0:2,0:0:0:0:
156,18,133780,2,0,B|137:97|180:81|157:178,1,144.500002756119,6|2,1:2|0:2,0:0:0:0:
483,278,135350,5,2,1:3:0:0:
449,297,136048,1,2,0:3:0:0:
404,316,136745,1,2,0:3:0:0:
360,307,137443,1,2,0:3:0:0:
213,242,137792,5,8,0:3:0:0:
213,242,137908,1,4,0:3:0:0:
213,242,138024,1,12,0:3:0:0:
213,242,138141,1,4,1:2:0:0:
321,148,138838,1,2,0:3:0:0:
306,112,139187,1,2,0:3:0:0:
247,40,139420,1,2,0:3:0:0:
247,40,139536,2,0,P|205:57|151:70,1,96.3333351707459,8|0,0:2|0:2,0:0:0:0:
25,193,140931,6,0,B|106:210|96:243|201:265,1,178.499994552612,6|8,1:2|0:2,0:0:0:0:
321,348,141455,1,2,3:2:0:0:
282,261,141629,2,0,P|288:192|316:78,1,178.499994552612,2|8,1:2|0:2,0:0:0:0:
452,7,142152,1,0,0:2:0:0:
503,65,142327,2,0,P|471:93|404:88,1,89.2499972763062,2|0,1:2|0:2,0:0:0:0:
261,161,142676,2,0,P|219:144|150:129,1,89.2499972763062,10|0,0:2|0:0,0:0:0:0:
383,295,143024,2,0,P|425:312|494:327,1,89.2499972763062,2|0,1:2|0:2,0:0:0:0:
205,384,143373,2,0,B|198:335|198:335|236:282,1,89.2499972763062,10|0,0:2|0:2,0:0:0:0:
0,245,143722,6,0,B|99:234|76:183|180:187,1,178.499994552612,2|8,1:2|0:2,0:0:0:0:
371,86,144245,1,2,0:2:0:0:
302,0,144420,2,0,P|292:76|255:201,1,178.499994552612,2|8,1:2|0:2,0:0:0:0:
265,174,144943,1,0,0:2:0:0:
160,76,145117,6,0,P|117:91|48:105,1,89.2499972763062,2|0,1:2|0:2,0:0:0:0:
357,180,145466,2,0,P|400:165|469:151,1,89.2499972763062,8|2,0:2|0:2,0:0:0:0:
200,346,145815,1,2,1:2:0:0:
190,336,145902,2,0,P|170:310|183:250,1,89.2499972763062,8|0,0:2|0:2,0:0:0:0:
177,256,146164,1,10,0:2:0:0:
400,344,146338,1,2,0:2:0:0:
313,170,146513,6,0,B|277:260|336:251|296:357,1,178.499994552612,2|8,1:2|0:2,0:0:0:0:
414,219,147036,1,2,0:2:0:0:
203,281,147210,2,0,P|116:259|31:230,1,178.499994552612,2|8,1:2|0:2,0:0:0:0:
160,108,147734,1,0,0:2:0:0:
103,62,147908,2,0,P|62:64|34:125,1,89.2499972763062,2|0,1:2|0:2,0:0:0:0:
216,197,148257,2,0,P|254:187|313:180,1,89.2499972763062,10|0,0:2|0:2,0:0:0:0:
398,0,148606,2,0,P|360:10|301:17,1,89.2499972763062,2|0,1:2|0:2,0:0:0:0:
457,183,148955,2,0,B|468:138|468:138|433:93,1,89.2499972763062,10|0,0:2|0:0,0:0:0:0:
270,316,149303,6,0,P|346:327|465:372,1,178.499994552612,2|8,1:2|0:2,0:0:0:0:
314,206,149827,1,2,0:2:0:0:
157,319,150001,1,2,1:2:0:0:
106,264,150176,2,0,P|94:225|143:172,1,89.2499972763062,8|0,0:2|0:0,0:0:0:0:
357,42,150524,6,0,P|341:79|320:148,1,89.2499972763062,4|0,1:2|0:0,0:0:0:0:
252,340,150873,1,0,1:2:0:0:
175,133,151048,1,8,0:2:0:0:
324,227,151222,2,0,B|376:234|419:208|404:191|434:163|505:172,1,178.499994552612,4|8,1:2|0:2,0:0:0:0:
486,170,151658,1,8,0:0:0:0:
480,135,151745,1,10,0:2:0:0:
459,107,151832,1,8,0:0:0:0:
426,92,151919,1,8,0:2:0:0:
391,94,152006,1,8,0:0:0:0:
361,112,152094,6,0,P|292:93|168:68,1,178.499994552612,6|8,1:2|0:2,0:0:0:0:
41,58,152617,1,2,0:2:0:0:
11,125,152792,2,0,P|29:171|43:239,1,89.2499972763062,2|0,1:2|0:0,0:0:0:0:
227,278,153141,2,0,P|227:222|184:192,1,89.2499972763062,8|0,0:2|0:2,0:0:0:0:
67,374,153490,6,0,P|108:361|152:351,1,89.2499972763062,2|0,1:2|0:2,0:0:0:0:
370,190,153838,2,0,P|329:203|284:212,1,89.2499972763062,10|0,0:2|0:0,0:0:0:0:
382,360,154187,2,0,P|413:344|427:294,1,89.2499972763062,2|0,1:2|0:0,0:0:0:0:
223,123,154536,2,0,B|193:156|193:156|210:217,1,89.2499972763062,10|0,0:2|0:0,0:0:0:0:
475,117,154885,6,0,B|423:122|393:90|401:76|362:41|290:55,1,178.499994552612,2|8,1:2|0:2,0:0:0:0:
315,52,155408,1,2,0:2:0:0:
71,85,155583,2,0,P|145:81|198:-8,1,178.499994552612,2|8,1:2|0:2,0:0:0:0:
122,9,156106,1,0,0:0:0:0:
275,160,156280,6,0,P|263:201|251:268,1,89.2499972763062,2|0,1:2|0:2,0:0:0:0:
63,375,156629,2,0,P|75:334|87:267,1,89.2499972763062,10|0,0:2|0:2,0:0:0:0:
307,344,156978,1,2,1:2:0:0:
292,355,157065,2,0,P|261:371|201:368,1,89.2499972763062,8|0,0:2|0:2,0:0:0:0:
207,370,157327,1,10,0:2:0:0:
130,190,157501,1,0,0:2:0:0:
6,341,157676,6,0,B|109:319|80:292|199:273,1,178.499994552612,2|8,1:2|0:2,0:0:0:0:
380,150,158199,1,0,0:0:0:0:
304,158,158373,2,0,P|288:212|264:265,1,89.2499972763062,0|0,1:2|0:0,0:0:0:0:
402,367,158722,2,0,B|436:335|436:335|422:270,1,89.2499972763062,10|2,0:2|0:2,0:0:0:0:
226,335,159071,6,0,P|154:299|31:269,1,178.499994552612,0|10,1:2|0:2,0:0:0:0:
129,119,159594,1,0,0:2:0:0:
55,106,159769,2,0,P|24:125|5:186,1,89.2499972763062,2|0,1:2|0:2,0:0:0:0:
203,262,160117,2,0,P|197:221|137:191,1,89.2499972763062,10|0,0:2|0:2,0:0:0:0:
282,358,160466,6,0,B|341:370|382:336|362:317|405:299|467:307,1,178.499994552612,2|10,1:2|0:2,0:0:0:0:
472,120,160990,1,0,0:2:0:0:
313,192,161164,1,0,1:2:0:0:
344,121,161338,1,10,0:2:0:0:
502,240,161513,1,0,0:2:0:0:
341,303,161687,6,0,P|259:275|137:244,1,178.499994552612,4|0,1:2|1:2,0:0:0:0:
52,305,162210,1,8,0:2:0:0:
100,192,162385,1,8,0:3:0:0:
99,175,162472,1,8,0:3:0:0:
91,157,162559,1,2,1:2:0:0:
22,211,162734,1,0,1:2:0:0:
177,164,162908,2,0,L|230:155,1,44.6249986381531,10|0,0:2|0:2,0:0:0:0:
47,92,163083,2,0,L|-6:83,1,44.6249986381531,0|0,0:2|0:0,0:0:0:0:
196,33,163257,5,10,0:2:0:0:
211,251,163431,1,0,0:2:0:0:
399,134,163606,1,8,0:2:0:0:
331,101,163780,1,0,0:2:0:0:
385,354,163955,1,8,0:2:0:0:
487,241,164129,1,0,1:2:0:0:
271,357,164303,2,0,P|227:342|168:331,1,89.2499972763062,10|0,0:2|1:2,0:0:0:0:
154,154,164652,5,10,0:2:0:0:
21,212,164827,1,0,0:2:0:0:
8,134,165001,1,8,0:2:0:0:
209,259,165176,1,2,0:2:0:0:
314,55,165350,1,8,0:2:0:0:
154,154,165524,1,0,1:2:0:0:
428,328,165699,1,10,0:2:0:0:
366,139,165873,1,0,1:2:0:0:
428,328,166048,1,12,0:2:0:0:
303,369,167443,6,0,P|280:300|269:169,1,178.499994552612,6|0,0:2|0:0,0:0:0:0:
267,195,168141,6,0,P|290:213|336:212,1,56.6666666666667,8|0,0:2|0:2,0:0:0:0:
393,195,168373,6,0,P|406:185|407:129,1,50.9999984436036,8|0,0:3|0:2,0:0:0:0:
362,101,168606,6,0,P|358:83|325:65,1,45.3333333333333,4|0,0:3|0:2,0:0:0:0:
255,63,168838,6,0,B|197:69|187:109|81:112,1,152.999995330811,4|0,1:2|0:2,0:0:0:0:
26,171,169362,1,0,1:2:0:0:
76,230,169536,2,0,P|91:263|110:318,1,76.4999976654053,8|0,0:2|0:0,0:0:0:0:
207,378,169885,2,0,B|224:339|224:339|201:288,1,76.4999976654053,0|8,0:2|0:2,0:0:0:0:
308,337,170234,5,0,1:2:0:0:
380,369,170408,2,0,B|446:353|431:313|530:292,1,152.999995330811,8|0,0:2|1:2,0:0:0:0:
420,157,170931,2,0,P|411:192|405:245,1,76.4999976654053,8|0,0:2|0:0,0:0:0:0:
497,133,171280,1,0,0:2:0:0:
497,133,171455,1,0,1:2:0:0:
333,193,171629,6,0,P|277:164|173:136,1,152.999995330811,0|0,1:2|0:2,0:0:0:0:
104,57,172152,1,0,1:2:0:0:
53,113,172327,2,0,P|55:156|101:193,1,76.4999976654053,8|0,0:2|0:0,0:0:0:0:
190,138,172676,1,0,0:2:0:0:
158,232,172850,5,8,0:2:0:0:
161,249,172937,1,8,0:2:0:0:
166,265,173024,1,0,1:2:0:0:
242,225,173199,1,8,0:2:0:0:
78,263,173373,1,0,0:2:0:0:
78,263,173548,1,0,1:2:0:0:
190,342,173722,2,0,P|232:352|269:366,1,76.4999976654053,8|0,0:2|0:0,0:0:0:0:
368,251,174071,2,0,B|344:283|344:283|350:328,1,76.4999976654053,0|0,0:2|1:2,0:0:0:0:
493,372,174420,6,0,P|476:311|458:204,1,152.999995330811,0|0,1:2|0:2,0:0:0:0:
484,105,174943,1,0,1:2:0:0:
416,132,175117,2,0,P|378:127|345:87,1,76.4999976654053,8|0,0:2|0:2,0:0:0:0:
239,13,175466,2,0,P|250:47|265:103,1,76.4999976654053,0|0,1:2|0:0,0:0:0:0:
222,152,175815,1,0,1:2:0:0:
81,87,175990,5,8,0:2:0:0:
102,156,176164,1,0,1:2:0:0:
239,13,176338,1,0,1:2:0:0:
164,34,176513,2,0,P|122:18|81:-1,1,76.4999976654053,8|0,0:2|0:2,0:0:0:0:
222,152,176862,1,0,0:2:0:0:
222,152,177036,1,0,1:2:0:0:
365,70,177210,1,4,1:2:0:0:
201,373,178606,5,8,0:2:0:0:
137,155,178780,1,0,1:2:0:0:
201,373,178955,1,8,0:2:0:0:
137,155,179129,1,0,1:2:0:0:
281,290,179303,5,8,0:2:0:0:
300,302,179391,1,8,0:2:0:0:
319,309,179478,2,0,P|339:305|363:287,1,38.2499988327027,8|4,0:3|0:3,0:0:0:0:
141,235,179652,1,8,0:2:0:0:
303,44,179827,5,8,0:2:0:0:
303,44,179914,1,8,0:2:0:0:
303,44,180001,2,0,B|302:142|256:115|250:221,1,178.499994552612,6|8,1:2|0:2,0:0:0:0:
134,54,180524,1,0,0:2:0:0:
76,101,180699,2,0,P|32:118|-25:131,1,89.2499972763062,0|0,1:2|0:2,0:0:0:0:
156,256,181048,2,0,B|169:212|169:212|140:169,1,89.2499972763062,8|0,0:2|0:2,0:0:0:0:
16,328,181397,6,0,P|80:338|206:389,1,178.499994552612,0|8,1:2|0:2,0:0:0:0:
395,243,181920,2,0,P|318:273|292:382,1,178.499994552612,2|2,0:2|0:2,0:0:0:0:
494,260,182443,2,0,P|488:218|464:158,1,89.2499972763062,8|2,0:2|0:2,0:0:0:0:
242,58,182792,6,0,P|257:157|302:264,1,178.499994552612,0|8,1:2|0:2,0:0:0:0:
361,32,183315,1,2,0:2:0:0:
428,71,183490,2,0,P|471:83|518:102,1,89.2499972763062,0|0,1:2|0:0,0:0:0:0:
284,230,183838,2,0,P|241:218|194:199,1,89.2499972763062,8|0,0:2|0:2,0:0:0:0:
480,353,184187,6,0,B|459:274|420:286|401:169,1,178.499994552612,2|8,1:2|0:2,0:0:0:0:
312,86,184710,1,0,0:2:0:0:
199,201,184885,1,2,1:2:0:0:
142,150,185059,1,0,0:2:0:0:
331,200,185234,1,10,0:2:0:0:
268,316,185408,1,0,0:0:0:0:
214,127,185583,6,0,P|222:68|308:-5,1,133.874995914459,6|0,1:2|0:0,0:0:0:0:
268,11,185931,1,0,1:2:0:0:
331,200,186106,2,0,P|405:160|498:157,1,178.499994552612,10|0,0:2|0:2,0:0:0:0:
272,381,186629,6,0,P|268:311|229:225,1,133.874995914459,2|0,1:2|0:0,0:0:0:0:
245,251,186978,1,0,1:2:0:0:
110,338,187152,2,0,P|137:270|155:159,1,178.499994552612,10|0,0:2|1:2,0:0:0:0:
38,44,187676,2,0,P|81:63|126:73,1,89.2499972763062,10|0,0:2|1:2,0:0:0:0:
273,10,188024,2,0,B|240:46|240:46|245:103,1,89.2499972763062,10|0,0:2|0:2,0:0:0:0:
434,217,188373,6,0,B|429:137|373:166|366:48,1,178.499994552612,6|8,1:2|0:2,0:0:0:0:
227,212,188896,2,0,P|277:228|322:253,1,89.2499972763062,2|4,0:2|0:3,0:0:0:0:
464,100,189245,1,2,1:2:0:0:
387,133,189419,1,10,0:2:0:0:
479,299,189593,1,6,1:2:0:0:
410,340,189768,6,0,B|341:340|325:394|235:383,1,178.499994552612,2|0,0:2|1:2,0:0:0:0:
140,305,190291,1,2,1:2:0:0:
140,305,190378,1,2,3:2:0:0:
140,305,190466,1,10,0:2:0:0:
3,366,190640,1,2,0:2:0:0:
76,181,190814,1,10,0:2:0:0:
215,278,190989,1,8,0:2:0:0:
222,284,191076,1,8,0:2:0:0:
231,289,191163,6,0,P|303:272|417:257,1,178.499994552612,6|10,1:2|0:2,0:0:0:0:
457,30,191686,1,2,0:2:0:0:
391,66,191861,2,0,P|406:120|416:173,1,89.2499972763062,2|2,1:2|0:2,0:0:0:0:
315,330,192210,2,0,P|300:276|290:223,1,89.2499972763062,8|2,0:2|0:2,0:0:0:0:
177,169,192559,6,0,B|116:164|109:135|124:126|69:93|3:97,1,178.499994552612,0|10,1:0|0:2,0:0:0:0:
234,60,193082,1,2,0:2:0:0:
81,171,193256,2,0,P|94:212|107:270,1,89.2499972763062,2|2,1:2|0:2,0:0:0:0:
73,368,193605,1,10,0:2:0:0:
113,373,193692,1,2,0:2:0:0:
156,369,193779,1,2,0:2:0:0:
190,348,193867,1,2,0:2:0:0:
217,321,193954,6,0,B|314:300|296:261|411:239,1,178.499994552612,2|10,1:2|0:2,0:0:0:0:
491,155,194477,2,0,P|421:144|376:39,1,178.499994552612,2|0,0:2|0:2,0:0:0:0:
227,8,195000,2,0,P|243:48|257:106,1,89.2499972763062,8|0,0:2|0:2,0:0:0:0:
30,277,195349,5,2,1:2:0:0:
47,239,195465,1,2,0:2:0:0:
75,208,195581,1,2,0:2:0:0:
111,188,195697,1,10,0:2:0:0:
152,179,195814,1,2,0:2:0:0:
193,182,195930,1,2,0:2:0:0:
228,207,196047,1,2,1:2:0:0:
249,248,196163,1,2,0:2:0:0:
286,279,196279,1,2,0:2:0:0:
331,293,196395,1,10,0:2:0:0:
378,289,196512,1,2,0:2:0:0:
420,267,196628,1,2,0:2:0:0:
454,229,196745,6,0,B|441:136|388:172|390:30,1,178.499994552612,6|8,1:2|0:2,0:0:0:0:
282,117,197268,2,0,P|218:86|102:62,1,178.499994552612,0|0,0:2|0:2,0:0:0:0:
236,9,197791,1,10,0:2:0:0:
123,134,197966,6,0,B|142:184|142:184|132:236|132:236|156:314,1,178.499994552612,2|0,0:2|0:0,0:0:0:0:
331,240,198489,2,0,P|296:228|230:214,1,89.2499972763062,10|0,0:2|0:2,0:0:0:0:
0,343,198838,2,0,P|35:355|101:369,1,89.2499972763062,2|0,1:2|0:2,0:0:0:0:
146,219,199186,2,0,P|138:178|115:118,1,89.2499972763062,10|0,0:2|0:2,0:0:0:0:
362,0,199535,6,0,P|358:61|249:108,1,178.499994552612,2|10,1:2|0:2,0:0:0:0:
330,227,200059,2,0,B|426:222|396:185|505:183,1,178.499994552612,2|0,0:2|1:2,0:0:0:0:
379,96,200582,1,10,0:2:0:0:
421,252,200756,6,0,P|416:295|400:356,1,89.2499972763062,6|0,1:2|0:0,0:0:0:0:
258,200,201105,1,0,1:2:0:0:
194,242,201279,2,0,P|150:256|75:264,1,89.2499972763062,8|8,0:0|0:3,0:0:0:0:
107,262,201541,1,4,0:3:0:0:
107,262,201628,1,0,1:2:0:0:
190,40,201803,1,0,1:2:0:0:
100,70,201977,1,10,0:2:0:0:
258,200,202152,1,8,0:3:0:0:
258,200,202239,1,8,0:3:0:0:
258,200,202326,6,0,B|350:191|326:148|431:148,1,178.499994552612,6|8,1:2|0:2,0:0:0:0:
500,237,202849,1,0,0:2:0:0:
450,293,203024,2,0,P|435:330|427:383,1,89.2499972763062,2|0,1:2|0:0,0:0:0:0:
266,281,203373,2,0,B|245:245|245:245|261:188,1,89.2499972763062,10|2,0:2|0:2,0:0:0:0:
164,368,203721,6,0,B|88:356|112:313|-19:301,1,178.499994552612,2|8,1:2|0:2,0:0:0:0:
191,157,204245,1,2,0:2:0:0:
128,113,204419,2,0,P|62:125|44:243,1,178.499994552612,2|8,1:2|1:2,0:0:0:0:
298,138,204942,1,2,0:2:0:0:
241,84,205117,6,0,P|224:42|214:-9,1,89.2499972763062,0|0,1:2|0:0,0:0:0:0:
384,181,205466,2,0,P|420:187|478:208,1,89.2499972763062,8|0,0:2|0:2,0:0:0:0:
226,254,205814,5,2,1:2:0:0:
226,254,205931,1,2,0:2:0:0:
226,254,206047,1,2,0:2:0:0:
226,254,206163,2,0,P|252:217|297:165,1,89.2499972763062,10|0,0:2|0:2,0:0:0:0:
497,58,206512,6,0,B|412:42|412:93|311:63,1,178.499994552612,2|10,1:2|0:2,0:0:0:0:
169,15,207035,1,0,0:2:0:0:
125,81,207210,2,0,P|133:124|137:185,1,89.2499972763062,2|0,1:2|0:2,0:0:0:0:
39,269,207559,5,10,0:0:0:0:
39,269,207646,1,2,0:0:0:0:
39,269,207733,1,2,0:0:0:0:
39,269,207820,1,2,0:0:0:0:
39,269,207907,2,0,B|98:281|98:281|131:326|131:326|204:342,1,178.499994552612,2|8,1:2|0:2,0:0:0:0:
337,184,208431,1,2,3:2:0:0:
271,152,208605,1,0,1:2:0:0:
353,384,208779,1,2,0:2:0:0:
502,298,208954,1,10,0:2:0:0:
273,250,209128,1,2,0:2:0:0:
427,192,209303,6,0,B|418:101|365:136|367:2,1,178.499994552612,0|8,1:2|0:2,0:0:0:0:
367,27,209826,1,0,0:2:0:0:
204,88,210000,1,2,1:2:0:0:
140,44,210175,1,2,0:2:0:0:
135,200,210349,1,10,0:2:0:0:
273,3,210524,1,2,0:2:0:0:
398,201,210698,6,0,P|324:217|216:257,1,178.499994552612,2|8,1:2|0:2,0:0:0:0:
130,340,211221,1,0,0:2:0:0:
40,243,211396,2,0,P|31:203|77:156,1,89.2499972763062,2|2,1:2|0:2,0:0:0:0:
209,34,211745,2,0,P|224:81|250:132,1,89.2499972763062,8|0,0:2|0:2,0:0:0:0:
61,76,212093,5,8,0:2:0:0:
61,76,212181,1,8,0:2:0:0:
61,76,212268,2,0,P|88:72|116:62,1,44.6249986381531,8|4,0:3|0:3,0:0:0:0:
305,185,212442,1,8,0:2:0:0:
305,185,212530,1,8,0:2:0:0:
305,185,212617,2,0,P|278:189|250:199,1,44.6249986381531,8|4,0:3|0:3,0:0:0:0:
82,294,212791,6,0,B|104:254|104:254|89:194,1,89.2499972763062,12|8,0:3|0:2,0:0:0:0:
93,211,213053,1,8,0:2:0:0:
127,202,213140,1,8,0:3:0:0:
162,206,213227,1,8,0:3:0:0:
194,222,213314,1,4,0:3:0:0:
217,249,213401,1,4,0:3:0:0:
230,282,213489,6,0,P|305:295|429:348,1,178.499994552612,6|8,1:2|0:2,0:0:0:0:
449,257,214012,1,0,0:2:0:0:
393,210,214186,2,0,P|371:178|378:126,1,89.2499972763062,2|0,1:2|0:2,0:0:0:0:
501,8,214535,2,0,P|488:52|476:127,1,89.2499972763062,10|0,0:2|0:2,0:0:0:0:
303,79,214884,6,0,B|237:87|235:132|121:137,1,178.499994552612,2|10,1:2|0:2,0:0:0:0:
24,87,215407,1,0,0:2:0:0:
61,191,215582,2,0,P|54:236|30:298,1,89.2499972763062,2|0,1:2|0:2,0:0:0:0:
171,376,215931,2,0,B|201:338|201:338|182:277,1,89.2499972763062,10|0,0:2|0:2,0:0:0:0:
292,216,216279,6,0,P|356:202|461:175,1,133.874995914459,2|0,1:2|3:2,0:0:0:0:
422,185,216628,2,0,B|462:210|462:210|520:210,1,89.2499972763062,10|0,0:2|0:2,0:0:0:0:
423,40,216977,1,0,1:2:0:0:
293,161,217152,1,0,0:2:0:0:
237,110,217326,2,0,P|247:68|252:21,1,89.2499972763062,10|0,0:2|0:2,0:0:0:0:
0,276,217675,6,0,P|61:206|160:215,1,178.499994552612,2|0,1:2|1:2,0:0:0:0:
234,307,218198,1,8,0:2:0:0:
395,239,218373,1,8,0:2:0:0:
351,383,218547,1,8,0:3:0:0:
343,373,218634,1,8,0:3:0:0:
338,360,218721,1,8,0:2:0:0:
245,205,218896,2,0,P|270:215|300:218,2,44.6249986381531,4|4|6,0:3|0:3|0:2,0:0:0:0:
263,371,228663,6,0,P|260:327|248:277,1,68,8|0,0:2|0:2,0:0:0:0:
201,189,229012,1,0,1:2:0:0:
95,256,229186,1,0,1:2:0:0:
44,205,229361,2,0,P|59:147|72:54,1,136,8|0,0:2|0:2,0:0:0:0:
232,66,229884,2,0,P|226:30|210:-17,1,68,2|0,0:2|0:2,0:0:0:0:
341,154,230233,6,0,B|433:170|398:211|523:230,1,178.499994552612,6|8,1:2|0:2,0:0:0:0:
416,92,230756,1,2,0:2:0:0:
312,234,230931,2,0,P|326:267|335:329,1,89.2499972763062,2|0,1:2|0:0,0:0:0:0:
155,375,231279,2,0,B|171:334|171:334|136:260,1,89.2499972763062,8|0,0:2|0:2,0:0:0:0:
28,178,231628,6,0,P|74:198|137:212,1,89.2499972763062,2|0,1:2|0:2,0:0:0:0:
234,32,231977,2,0,P|199:60|192:121,1,89.2499972763062,10|0,0:2|0:0,0:0:0:0:
384,225,232326,2,0,P|366:177|346:104,1,89.2499972763062,2|0,1:2|0:2,0:0:0:0:
170,300,232675,2,0,P|188:348|208:421,1,89.2499972763062,10|0,0:2|0:0,0:0:0:0:
465,373,233024,6,0,B|415:383|378:345|409:332|342:296|289:308,1,178.499994552612,2|8,1:2|0:2,0:0:0:0:
307,305,233547,1,2,0:2:0:0:
106,207,233721,2,0,P|185:196|252:94,1,178.499994552612,2|8,1:2|0:2,0:0:0:0:
168,59,234245,1,0,0:0:0:0:
315,182,234419,6,0,P|355:170|416:160,1,89.2499972763062,2|0,1:2|0:2,0:0:0:0:
157,341,234768,2,0,P|117:353|56:363,1,89.2499972763062,10|0,0:2|0:2,0:0:0:0:
333,361,235117,1,2,1:2:0:0:
341,352,235204,2,0,P|353:309|336:268,1,89.2499972763062,8|0,0:2|0:2,0:0:0:0:
336,269,235466,1,10,0:2:0:0:
221,192,235640,1,0,0:2:0:0:
74,278,235814,6,0,P|166:302|247:344,1,178.499994552612,2|8,1:2|0:2,0:0:0:0:
295,163,236338,1,0,0:0:0:0:
139,200,236512,2,0,P|101:193|75:133,1,89.2499972763062,0|0,1:2|0:0,0:0:0:0:
107,79,236861,1,10,0:2:0:0:
295,163,237035,6,0,B|388:148|350:107|478:92,1,178.499994552612,2|0,0:2|0:0,0:0:0:0:
412,306,237559,2,0,P|397:265|388:203,1,89.2499972763062,10|0,0:2|0:2,0:0:0:0:
170,52,237907,2,0,P|185:93|194:155,1,89.2499972763062,2|0,1:2|0:2,0:0:0:0:
132,329,238256,2,0,P|176:306|231:288,1,89.2499972763062,10|0,0:2|0:2,0:0:0:0:
213,292,238605,6,0,B|127:274|159:232|20:220,1,178.499994552612,2|10,1:2|0:2,0:0:0:0:
261,90,239128,2,0,P|241:121|178:134,1,89.2499972763062,2|0,0:2|1:2,0:0:0:0:
29,20,239477,2,0,P|78:26|114:61,1,89.2499972763062,10|0,0:2|0:2,0:0:0:0:
234,207,239826,6,0,P|311:186|413:172,1,178.499994552612,4|0,1:2|1:2,0:0:0:0:
487,86,240349,1,8,0:2:0:0:
451,248,240524,1,8,0:3:0:0:
451,248,240611,1,8,0:3:0:0:
451,248,240698,1,2,1:2:0:0:
346,117,240873,1,0,1:2:0:0:
320,257,241047,1,10,0:2:0:0:
371,196,241221,1,0,0:2:0:0:
194,200,241396,5,10,0:2:0:0:
301,360,241570,1,0,0:2:0:0:
346,117,241745,1,8,0:2:0:0:
150,265,241919,1,0,0:2:0:0:
118,35,242093,1,8,0:2:0:0:
191,63,242268,1,0,1:2:0:0:
41,266,242442,1,10,0:2:0:0:
0,136,242617,1,0,1:2:0:0:
228,250,242791,6,0,P|272:261|337:288,1,89.2499972763062,10|0,0:2|0:2,0:0:0:0:
458,66,243140,1,8,0:2:0:0:
249,125,243314,1,2,0:2:0:0:
258,47,243489,1,8,0:2:0:0:
468,287,243663,1,0,1:2:0:0:
512,153,243838,1,10,0:2:0:0:
313,276,244012,1,0,1:2:0:0:
512,384,244186,1,14,0:2:0:0:
260,204,245582,6,0,P|167:183|91:143,1,178.499994552612,2|0,0:2|0:2,0:0:0:0:
25,208,246279,2,0,P|35:257|150:282,1,178.499994552612,2|0,0:2|0:2,0:0:0:0:
282,343,246977,6,0,B|357:339|371:306|361:295|413:274|469:280,1,170,6|8,1:2|0:2,0:0:0:0:
509,179,247500,1,0,0:2:0:0:
450,126,247675,2,0,P|410:143|391:196,1,85,0|0,1:2|0:2,0:0:0:0:
282,343,248024,2,0,P|272:298|256:244,1,85,8|0,0:2|0:2,0:0:0:0:
19,144,248373,6,0,P|112:171|200:192,1,170,2|8,1:2|0:2,0:0:0:0:
326,16,248896,1,0,0:2:0:0:
253,49,249070,2,0,P|264:98|276:161,1,85,2|0,1:2|0:2,0:0:0:0:
446,229,249419,2,0,B|470:192|470:192|434:122,1,85,8|0,0:2|0:2,0:0:0:0:
307,272,249768,6,0,B|241:285|240:318|138:330,1,170,2|8,1:2|0:2,0:0:0:0:
30,230,250291,1,0,0:2:0:0:
86,174,250466,2,0,P|90:140|106:80,1,85,0|0,1:2|0:0,0:0:0:0:
307,272,250814,2,0,P|303:306|287:366,1,85,8|0,0:2|0:2,0:0:0:0:
241,136,251163,6,0,P|291:68|402:61,1,170,2|8,1:2|0:2,0:0:0:0:
495,175,251686,1,0,0:2:0:0:
384,250,251861,1,2,1:2:0:0:
368,254,251948,2,0,P|321:244|278:225,1,85,8|0,0:2|0:2,0:0:0:0:
287,229,252210,1,8,0:2:0:0:
126,132,252384,1,0,0:2:0:0:
139,338,252559,6,0,B|154:246|200:290|211:165,1,170,2|8,1:2|0:2,0:0:0:0:
10,83,253082,2,0,P|71:71|187:28,1,170,0|0,0:2|0:0,0:0:0:0:
411,64,253605,1,8,0:2:0:0:
411,64,253779,1,0,0:2:0:0:
349,15,253954,6,0,P|291:42|270:166,1,170,2|8,1:2|0:2,0:0:0:0:
335,292,254477,1,0,0:2:0:0:
403,251,254652,2,0,P|444:237|504:226,1,85,2|0,1:2|0:0,0:0:0:0:
240,380,255000,2,0,B|253:338|253:338|225:287,1,85,8|0,0:2|0:2,0:0:0:0:
84,168,255349,6,0,B|44:256|107:239|76:346,1,170,2|8,1:2|0:2,0:0:0:0:
282,207,255873,1,0,0:2:0:0:
182,131,256047,1,0,1:2:0:0:
245,87,256221,2,0,P|261:52|273:-8,1,85,8|0,0:2|0:2,0:0:0:0:
477,205,256570,6,0,P|391:214|330:296,1,170,2|0,1:2|1:2,0:0:0:0:
237,376,257093,1,10,0:2:0:0:
99,286,257268,2,0,B|97:195|144:229|134:109,1,170,2|8,1:2|0:2,0:0:0:0:
135,122,257704,1,8,0:2:0:0:
167,132,257791,1,8,0:3:0:0:
201,130,257878,1,8,0:3:0:0:
232,117,257965,1,8,0:0:0:0:
258,94,258052,1,8,0:0:0:0:
275,64,258140,6,0,P|318:77|375:90,1,85,6|0,1:2|0:0,0:0:0:0:
489,203,258489,1,8,0:2:0:0:
424,246,258663,2,0,B|380:240|346:267|370:283|318:323|260:304,1,170,0|0,0:2|0:2,0:0:0:0:
129,384,259186,2,0,P|134:343|168:277,1,85,8|0,0:2|0:2,0:0:0:0:
19,167,259535,6,0,P|27:203|71:226,1,85,2|0,1:2|0:0,0:0:0:0:
206,158,259884,2,0,P|251:172|301:182,1,85,8|0,0:2|0:2,0:0:0:0:
123,21,260233,2,0,P|78:7|28:-3,1,85,2|0,1:2|0:2,0:0:0:0:
291,20,260582,2,0,P|328:39|339:79,1,85,8|0,0:2|0:0,0:0:0:0:
196,250,260931,6,0,B|187:167|136:203|137:71,1,170,2|8,1:2|0:2,0:0:0:0:
23,236,261454,1,0,0:2:0:0:
133,364,261628,2,0,P|224:338|323:315,1,170,0|8,1:2|0:2,0:0:0:0:
480,237,262152,1,0,0:2:0:0:
396,378,262326,2,0,P|389:326|364:266,1,85,2|0,1:2|0:0,0:0:0:0:
182,163,262675,2,0,P|187:205|200:246,1,85,8|0,0:2|0:2,0:0:0:0:
420,137,263024,1,2,1:2:0:0:
399,140,263111,2,0,P|357:129|307:99,1,85,8|0,0:2|0:2,0:0:0:0:
320,109,263373,1,8,0:2:0:0:
209,17,263547,1,0,0:2:0:0:
149,70,263721,6,0,B|105:64|71:91|95:107|43:147|-15:128,1,170,2|8,1:2|0:2,0:0:0:0:
204,279,264245,2,0,P|213:202|244:88,1,170,2|0,0:2|0:0,0:0:0:0:
391,251,264768,2,0,B|355:271|355:271|293:264,1,85,8|0,0:2|0:2,0:0:0:0:
110,368,265117,1,2,1:2:0:0:
38,184,265291,1,2,0:2:0:0:
204,234,265466,1,8,0:2:0:0:
148,289,265640,1,2,0:2:0:0:
130,157,265814,2,0,P|141:122|152:63,1,85,2|0,1:2|0:0,0:0:0:0:
311,266,266163,2,0,P|300:301|289:360,1,85,10|0,0:2|0:2,0:0:0:0:
462,167,266512,6,0,P|393:147|350:52,1,170,2|8,1:2|0:2,0:0:0:0:
246,163,267035,2,0,B|166:175|187:216|80:226,1,170,2|8,0:2|0:2,0:0:0:0:
26,164,267559,1,0,0:2:0:0:
280,384,267733,6,0,P|290:299|307:216,1,170,2|0,1:2|1:2,0:0:0:0:
397,123,268256,1,8,0:0:0:0:
246,163,268431,1,8,0:3:0:0:
230,160,268518,1,8,0:3:0:0:
216,156,268605,1,0,1:2:0:0:
277,12,268779,1,0,1:2:0:0:
336,61,268954,1,8,0:2:0:0:
140,132,269128,1,0,0:2:0:0:
170,64,269303,5,10,0:2:0:0:
331,170,269477,1,0,0:2:0:0:
96,325,269652,1,8,0:2:0:0:
143,218,269826,1,0,0:2:0:0:
419,281,270000,5,10,0:2:0:0:
221,383,270175,1,0,1:2:0:0:
224,171,270349,1,8,0:2:0:0:
276,228,270524,1,0,1:2:0:0:
82,129,270698,5,10,0:2:0:0:
221,87,270873,1,2,0:2:0:0:
353,35,271047,1,10,0:2:0:0:
260,311,271221,2,0,P|269:271|276:221,1,85,2|10,0:2|0:2,0:0:0:0:
399,288,271570,5,0,1:2:0:0:
188,242,271745,1,10,0:2:0:0:
11,200,271919,1,2,1:2:0:0:
98,382,272093,6,0,B|172:409|227:359|200:334|262:288|324:314,1,237.999992736817,6|2,1:2|0:2,0:0:0:0:
449,187,273489,2,0,P|432:140|311:118,1,178.499994552612,2|0,0:2|1:2,0:0:0:0:
255,178,274186,2,0,P|221:192|180:203,1,59.4999981842042,8|0,0:2|0:2,0:0:0:0:
199,198,274419,6,0,P|185:231|166:242,1,50.9999984436036,8|0,0:3|0:2,0:0:0:0:
105,266,274652,6,0,P|83:264|63:243,1,50.9999984436036,4|0,0:3|0:2,0:0:0:0:
71,173,274884,5,6,1:2:0:0:
256,192,274971,12,0,278460,0:2:0:0:
