osu file format v14

[General]
AudioFilename: audio.mp3
AudioLeadIn: 0
PreviewTime: 178519
Countdown: 0
SampleSet: Soft
StackLeniency: 0.7
Mode: 0
LetterboxInBreaks: 0
WidescreenStoryboard: 1

[Editor]
Bookmarks: 1397,12559,40466,62792,90699,118606,140931,167443,180001,199535,219070,233024,246977,274884
DistanceSpacing: 1.1
BeatDivisor: 4
GridSize: 16
TimelineZoom: 2.599999

[Metadata]
Title:Meet Again
TitleUnicode:Meet Again
Artist:Pratanallis feat. Rina Komatsu
ArtistUnicode:Pratanallis feat. 狛茉璃奈
Creator:Zekk
Version:Collab Hard
Source:
Tags:featured artist fa japanese rock ckharv dear white faieries vtuber こまつ りな
BeatmapID:3655111
BeatmapSetID:1784645

[Difficulty]
HPDrainRate:4
CircleSize:3.8
OverallDifficulty:6
ApproachRate:8
SliderMultiplier:1.4
SliderTickRate:1

[Events]
//Background and Video events
0,0,"72392328_p0.jpg",0,0
//Break Periods
2,219270,227913
//Storyboard Layer 0 (Background)
//Storyboard Layer 1 (Fail)
//Storyboard Layer 2 (Pass)
//Storyboard Layer 3 (Foreground)
//Storyboard Layer 4 (Overlay)
//Storyboard Sound Samples

[TimingPoints]
1397,348.837209302326,4,2,1,50,1,0
12559,-100,4,2,1,70,0,0
18141,-111.111111111111,4,2,1,60,0,0
40466,-111.111111111111,4,2,1,55,0,0
62792,-100,4,2,1,80,0,0
89303,-100,4,2,1,75,0,0
90699,-100,4,2,1,70,0,0
96280,-111.111111111111,4,2,1,60,0,0
118606,-111.111111111111,4,2,1,55,0,0
140931,-100,4,2,1,80,0,0
167443,-100,4,2,1,75,0,0
168141,-100,4,2,1,70,0,0
168838,-111.111111111111,4,2,1,60,0,0
180001,-100,4,2,1,75,0,0
185583,348.837209302326,3,2,1,75,1,0
185583,-100,4,2,1,75,0,0
188373,348.837209302326,4,2,1,75,1,0
188373,-100,4,2,1,75,0,0
219070,-100,4,2,1,50,0,0
228663,-100,4,2,1,80,0,0
230233,-100,4,2,1,80,0,0
245582,-100,4,2,1,75,0,0
246977,-100,4,2,1,70,0,0
269303,-100,4,2,1,80,0,0
272093,-100,4,2,1,60,0,0
274419,-100,4,2,1,60,0,0
278460,-100,4,2,1,5,0,0

[Colours]
Combo1 : 240,140,140
Combo2 : 200,180,220
Combo3 : 174,228,167
Combo4 : 150,185,220

[HitObjects]
440,96,12559,6,0,B|386:103|376:128|296:136,1,140,6|8,1:2|0:2,0:0:0:0:
251,199,13083,1,0,0:2:0:0:
315,259,13257,2,0,P|335:291|342:332,1,70,2|2,1:2|1:2,0:0:0:0:
278,379,13606,1,8,0:2:0:0:
190,316,13780,6,0,P|129:297|34:286,1,140,6|2,1:2|1:2,0:0:0:0:
0,234,14303,2,0,B|36:234|36:234|70:208,1,70,10|2,0:2|3:2,0:0:0:0:
126,138,14652,1,2,1:2:0:0:
62,93,14827,1,0,1:2:0:0:
82,16,15001,1,10,0:2:0:0:
242,101,15350,6,0,P|294:117|391:127,1,140,6|10,1:2|0:2,0:0:0:0:
499,89,15873,1,0,0:2:0:0:
455,154,16048,2,0,P|459:183|485:220,1,70,2|2,1:2|1:2,0:0:0:0:
509,289,16397,1,8,0:2:0:0:
407,264,16571,6,0,B|365:256|346:231|360:225|327:194|286:198,1,140,6|2,1:2|1:2,0:0:0:0:
218,238,17094,2,0,P|198:255|180:297,1,70,10|2,0:2|0:2,0:0:0:0:
82,338,17443,1,0,1:2:0:0:
99,259,17617,1,2,1:2:0:0:
32,219,17792,1,10,0:2:0:0:
117,104,18141,6,0,P|164:103|239:72,1,125.999996154785,6|8,1:2|0:2,0:0:0:0:
333,71,18664,1,0,3:2:0:0:
333,71,18751,1,0,3:2:0:0:
333,71,18838,2,0,P|384:80|427:147,1,125.999996154785,2|8,1:2|0:2,0:0:0:0:
358,205,19362,6,0,P|352:271|314:334,1,125.999996154785,2|0,1:2|1:2,0:0:0:0:
400,364,19885,2,0,P|432:358|472:335,1,62.9999980773926,10|0,0:2|1:2,0:0:0:0:
500,273,20234,1,2,1:2:0:0:
407,186,20583,1,10,0:2:0:0:
488,90,20931,6,0,P|460:53|380:44,1,125.999996154785,2|8,1:2|0:2,0:0:0:0:
320,97,21455,1,0,3:2:0:0:
320,97,21542,1,0,3:2:0:0:
320,97,21629,2,0,B|275:98|261:133|186:139,1,125.999996154785,2|8,1:2|0:2,0:0:0:0:
125,94,22152,1,0,0:2:0:0:
128,186,22327,6,0,P|92:211|96:309,1,125.999996154785,2|8,1:2|0:2,0:0:0:0:
30,356,22850,1,0,0:2:0:0:
111,379,23024,1,2,1:2:0:0:
208,299,23373,1,10,0:2:0:0:
327,338,23722,6,0,B|390:330|388:299|455:298,1,125.999996154785,2|8,1:2|0:2,0:0:0:0:
496,224,24245,1,0,3:2:0:0:
425,179,24420,2,0,P|432:135|358:81,1,125.999996154785,2|8,1:2|0:2,0:0:0:0:
306,122,24943,1,0,0:2:0:0:
241,67,25117,6,0,P|220:48|198:3,1,62.9999980773926,2|0,0:2|1:2,0:0:0:0:
153,92,25466,2,0,P|149:121|115:165,1,62.9999980773926,8|0,0:2|0:2,0:0:0:0:
65,190,25815,1,2,1:2:0:0:
65,190,25990,1,0,0:2:0:0:
65,190,26164,1,10,0:2:0:0:
181,238,26513,6,0,B|230:247|254:283|312:283,1,125.999996154785,2|8,1:2|0:2,0:0:0:0:
387,270,27036,1,0,0:2:0:0:
387,270,27123,1,0,0:0:0:0:
387,270,27210,2,0,P|343:298|309:372,1,125.999996154785,0|8,1:2|0:2,0:0:0:0:
217,370,27734,2,0,P|157:351|76:307,1,125.999996154785,2|0,0:2|1:2,0:0:0:0:
13,243,28257,6,0,P|43:244|94:224,1,62.9999980773926,8|0,0:2|0:2,0:0:0:0:
158,261,28606,2,0,P|170:232|191:208,1,62.9999980773926,2|0,1:2|1:2,0:0:0:0:
270,152,28955,2,0,P|225:116|209:68,1,94.499997116089,10|0,0:2|0:0,0:0:0:0:
211,83,29303,6,0,B|256:71|264:35|332:36,1,125.999996154785,6|8,1:2|0:2,0:0:0:0:
410,8,29827,1,0,0:2:0:0:
463,70,30001,2,0,P|453:106|449:148,1,62.9999980773926,2|0,1:2|1:2,0:0:0:0:
389,187,30350,1,8,0:2:0:0:
444,271,30524,6,0,B|420:340|420:340|368:357,1,125.999996154785,6|0,1:2|1:2,0:0:0:0:
295,320,31048,2,0,L|221:302,1,62.9999980773926,10|0,0:2|0:2,0:0:0:0:
162,353,31397,1,2,1:2:0:0:
162,353,31571,1,0,1:2:0:0:
107,289,31745,2,0,P|133:270|158:230,1,62.9999980773926,10|0,0:2|0:2,0:0:0:0:
225,217,32094,6,0,P|162:198|126:145,1,125.999996154785,6|8,1:2|0:2,0:0:0:0:
55,104,32617,2,0,P|65:74|103:50,1,62.9999980773926,2|0,0:2|1:2,0:0:0:0:
158,3,32966,2,0,P|179:25|208:37,1,62.9999980773926,2|8,1:2|0:2,0:0:0:0:
238,120,33315,6,0,P|256:64|306:9,1,125.999996154785,6|0,1:2|1:2,0:0:0:0:
372,60,33838,1,8,0:2:0:0:
372,60,34013,1,0,0:2:0:0:
449,30,34187,2,0,B|476:46|476:46|519:45,1,62.9999980773926,2|0,1:2|1:2,0:0:0:0:
507,126,34536,1,10,0:2:0:0:
401,195,34885,6,0,P|345:180|266:142,1,125.999996154785,6|8,1:2|0:2,0:0:0:0:
215,201,35408,1,0,0:2:0:0:
277,260,35583,2,0,B|292:303|258:322|281:394,1,125.999996154785,2|8,1:2|0:2,0:0:0:0:
195,356,36106,1,0,0:2:0:0:
195,356,36280,2,0,P|159:358|125:377,1,62.9999980773926,2|0,1:2|1:2,0:0:0:0:
57,353,36629,2,0,P|73:328|83:280,1,62.9999980773926,8|2,0:2|0:2,0:0:0:0:
28,240,36978,1,2,1:2:0:0:
141,160,37327,1,10,0:2:0:0:
207,203,37501,1,0,0:2:0:0:
261,138,37676,6,0,B|257:88|211:82|219:3,1,125.999996154785,2|8,1:2|0:2,0:0:0:0:
302,2,38199,1,0,3:2:0:0:
366,58,38373,2,0,P|414:73|459:146,1,125.999996154785,2|8,1:2|0:2,0:0:0:0:
397,204,38897,1,0,0:2:0:0:
316,160,39071,6,0,P|281:153|236:133,1,62.9999980773926,2|0,1:2|1:2,0:0:0:0:
247,261,39420,2,0,P|229:234|207:212,1,62.9999980773926,8|0,0:2|0:2,0:0:0:0:
124,216,39769,1,2,0:2:0:0:
56,163,39943,1,0,1:2:0:0:
7,220,40117,2,0,B|22:253|22:253|14:291,1,62.9999980773926,10|8,0:2|0:2,0:0:0:0:
1,319,40379,1,8,0:2:0:0:
1,319,40466,6,0,P|69:319|124:375,1,125.999996154785,6|2,1:2|0:2,0:0:0:0:
178,300,40990,2,0,P|258:284|330:265,1,125.999996154785,0|2,1:2|0:2,0:0:0:0:
191,175,41687,1,2,1:2:0:0:
191,175,41862,2,0,B|182:123|251:97|216:34,1,125.999996154785,0|2,1:2|0:2,0:0:0:0:
294,6,42385,1,0,1:2:0:0:
350,65,42559,2,0,P|402:73|433:80,1,62.9999980773926,10|0,0:2|0:2,0:0:0:0:
483,109,42908,1,2,0:2:0:0:
485,269,43257,6,0,P|429:269|381:339,1,125.999996154785,2|2,1:2|0:2,0:0:0:0:
312,365,43780,2,0,P|264:355|164:340,1,125.999996154785,2|2,1:2|0:2,0:0:0:0:
12,214,44478,1,0,1:2:0:0:
12,214,44652,2,0,B|60:213|79:255|138:247,1,125.999996154785,0|2,1:2|0:2,0:0:0:0:
197,195,45176,1,0,1:2:0:0:
136,139,45350,2,0,P|129:97|135:68,1,62.9999980773926,10|0,0:2|0:2,0:0:0:0:
177,14,45699,1,2,0:2:0:0:
317,107,46048,6,0,P|355:76|443:82,1,125.999996154785,2|0,1:2|0:2,0:0:0:0:
484,137,46571,2,0,P|468:228|463:277,1,125.999996154785,2|0,1:2|0:0,0:0:0:0:
411,341,47094,2,0,P|458:350|475:360,1,62.9999980773926,2|0,0:2|1:2,0:0:0:0:
379,262,47443,2,0,B|334:258|320:311|254:297,1,125.999996154785,2|0,1:2|1:2,0:0:0:0:
198,246,47966,1,2,1:2:0:0:
242,179,48141,1,8,0:2:0:0:
139,33,48490,2,0,P|96:45|64:51,1,62.9999980773926,2|0,0:2|1:2,0:0:0:0:
1,103,48838,6,0,P|44:126|75:196,1,125.999996154785,2|0,1:2|0:2,0:0:0:0:
24,266,49362,1,2,1:2:0:0:
24,266,49536,2,0,P|42:319|48:341,1,62.9999980773926,8|0,0:0|0:2,0:0:0:0:
109,380,49885,2,0,P|147:368|184:362,1,62.9999980773926,2|0,0:2|1:2,0:0:0:0:
230,295,50234,6,0,P|274:306|301:310,1,62.9999980773926,2|8,1:2|0:2,0:0:0:0:
368,277,50583,2,0,P|412:288|439:292,1,62.9999980773926,2|2,0:2|1:2,0:0:0:0:
483,220,50931,2,0,P|475:180|470:148,1,62.9999980773926,8|2,0:2|1:2,0:0:0:0:
395,112,51280,2,0,P|387:72|382:40,1,62.9999980773926,8|8,0:2|0:2,0:0:0:0:
364,25,51542,1,8,0:2:0:0:
364,25,51629,6,0,B|321:20|302:64|243:64,1,125.999996154785,6|2,1:2|0:2,0:0:0:0:
174,27,52152,1,2,0:2:0:0:
252,141,52501,1,2,1:2:0:0:
182,261,52850,2,0,P|132:264|52:231,1,125.999996154785,6|0,1:2|0:2,0:0:0:0:
5,180,53373,2,0,P|20:140|28:108,1,62.9999980773926,2|0,1:2|0:2,0:0:0:0:
95,50,53722,2,0,P|104:100|110:125,1,62.9999980773926,10|0,0:2|1:2,0:0:0:0:
157,187,54071,2,0,P|199:194|232:195,1,62.9999980773926,2|0,0:2|1:2,0:0:0:0:
286,293,54420,6,0,P|325:257|411:263,1,125.999996154785,6|8,1:2|0:2,0:0:0:0:
472,216,54943,2,0,P|459:170|455:141,1,62.9999980773926,10|8,0:2|0:2,0:0:0:0:
479,79,55292,1,2,1:2:0:0:
344,21,55641,2,0,P|365:70|385:156,1,125.999996154785,6|2,1:2|0:2,0:0:0:0:
352,171,56077,1,2,0:0:0:0:
352,171,56164,2,0,P|300:187|281:198,1,62.9999980773926,2|2,0:0|0:0,0:0:0:0:
210,168,56513,2,0,P|165:192|144:212,1,62.9999980773926,2|2,0:0|0:0,0:0:0:0:
77,227,56862,2,0,P|51:266|40:294,1,62.9999980773926,2|2,0:0|0:0,0:0:0:0:
66,373,57210,6,0,B|149:378|189:333|176:324|237:274|325:303,1,251.999992309571,2|2,1:3|0:3,0:0:0:0:
426,382,58257,1,0,0:0:0:0:
502,266,58606,1,2,0:3:0:0:
369,22,59303,1,2,0:3:0:0:
269,118,59652,2,0,P|226:106|203:103,2,41.9999987182618,8|4|12,0:3|0:3|0:3,0:0:0:0:
306,152,60001,5,4,1:2:0:0:
198,275,60699,2,0,P|86:310|51:314,1,125.999996154785,2|2,0:3|0:3,0:0:0:0:
21,238,61280,5,2,0:3:0:0:
21,238,61397,5,8,0:2:0:0:
303,47,62792,6,0,B|322:102|285:124|312:207,1,140,6|8,1:2|0:2,0:0:0:0:
374,248,63315,1,2,3:2:0:0:
292,288,63490,2,0,P|258:253|165:248,1,140,2|8,1:2|0:2,0:0:0:0:
89,285,64013,1,0,0:2:0:0:
101,202,64187,6,0,P|93:167|71:132,1,70,2|0,1:2|0:2,0:0:0:0:
163,140,64536,2,0,P|173:105|211:60,1,70,10|0,0:2|0:0,0:0:0:0:
243,15,64885,1,2,1:2:0:0:
306,77,65059,1,0,0:2:0:0:
382,48,65234,2,0,P|418:39|460:19,1,70,10|0,0:2|0:2,0:0:0:0:
512,123,65583,6,0,P|475:111|386:162,1,140,2|8,1:2|0:2,0:0:0:0:
321,209,66106,1,2,0:2:0:0:
371,286,66280,2,0,B|425:296|431:346|522:362,1,140,2|8,1:2|0:2,0:0:0:0:
337,368,66978,6,0,P|274:357|205:310,1,140,2|8,1:2|0:2,0:0:0:0:
181,225,67501,1,2,0:2:0:0:
116,288,67676,1,2,1:2:0:0:
116,288,67763,2,0,P|92:304|48:323,1,70,8|0,0:2|0:2,0:0:0:0:
33,321,68024,1,10,0:2:0:0:
0,245,68199,1,2,0:2:0:0:
65,184,68373,6,0,B|88:126|134:141|148:61,1,140,2|8,1:2|0:2,0:0:0:0:
217,4,68897,1,2,0:2:0:0:
295,57,69071,2,0,P|366:27|435:11,1,140,2|8,1:2|0:2,0:0:0:0:
486,70,69594,1,0,0:2:0:0:
427,130,69769,6,0,P|406:149|395:202,1,70,2|0,1:2|0:2,0:0:0:0:
393,256,70117,2,0,P|368:223|305:206,1,105,10|0,0:2|0:0,0:0:0:0:
308,205,70466,2,0,P|267:228|229:227,1,70,2|0,1:2|0:2,0:0:0:0:
162,252,70815,2,0,P|128:240|85:197,1,70,10|0,0:2|0:0,0:0:0:0:
42,156,71164,6,0,B|64:226|36:216|58:295,1,140,2|8,1:2|0:2,0:0:0:0:
32,380,71687,1,2,0:2:0:0:
106,356,71862,1,2,1:2:0:0:
199,373,72036,1,8,0:2:0:0:
324,277,72385,6,0,P|383:237|463:232,1,140,4|0,1:2|1:2,0:0:0:0:
485,145,72908,1,8,0:2:0:0:
399,156,73083,2,0,P|351:121|381:43,1,140,4|8,1:2|0:2,0:0:0:0:
293,16,73606,2,0,L|217:23,1,70,10|8,0:2|0:2,0:0:0:0:
133,74,73955,6,0,B|61:100|61:100|121:150,1,140,6|8,1:2|0:2,0:0:0:0:
186,186,74478,1,2,0:2:0:0:
124,247,74652,2,0,B|104:293|133:319|98:401,1,140,2|8,1:2|0:2,0:0:0:0:
171,341,75176,1,0,0:2:0:0:
248,377,75350,6,0,P|280:373|327:333,1,70,2|0,1:2|0:2,0:0:0:0:
375,292,75699,2,0,P|369:261|338:221,1,70,10|0,0:2|0:0,0:0:0:0:
268,159,76048,2,0,P|298:185|343:194,1,70,2|0,1:2|0:2,0:0:0:0:
408,131,76397,2,0,P|417:108|413:56,1,70,10|0,0:2|0:0,0:0:0:0:
321,11,76745,6,0,P|277:48|181:62,1,140,2|8,1:2|0:2,0:0:0:0:
124,0,77269,1,2,0:2:0:0:
80,80,77443,2,0,P|97:143|35:222,1,140,2|8,1:2|0:2,0:0:0:0:
27,350,78141,6,0,P|61:356|94:367,1,70,2|0,1:2|0:2,0:0:0:0:
171,333,78490,2,0,P|188:302|191:255,1,70,10|0,0:2|0:2,0:0:0:0:
252,201,78838,1,2,1:2:0:0:
257,212,78926,2,0,P|287:235|335:248,1,70,8|0,0:2|0:2,0:0:0:0:
357,268,79187,2,0,P|396:257|441:222,1,70,10|0,0:0|0:0,0:0:0:0:
354,155,79536,6,0,B|350:98|311:106|314:14,1,140,2|8,1:2|0:2,0:0:0:0:
233,71,80059,1,0,0:0:0:0:
156,29,80234,2,0,B|80:14|80:14|100:76,1,140,0|10,1:2|0:2,0:0:0:0:
135,155,80757,6,0,P|131:209|102:300,1,140,2|0,0:2|0:0,0:0:0:0:
191,370,81280,2,0,P|202:337|182:310,1,70,10|0,0:2|0:2,0:0:0:0:
260,333,81629,2,0,L|334:356,1,70,2|0,1:2|0:2,0:0:0:0:
402,318,81978,1,10,0:2:0:0:
402,318,82152,1,0,0:2:0:0:
348,227,82327,6,0,B|338:184|338:184|311:154|311:154|299:78,1,140,2|10,1:2|0:2,0:0:0:0:
385,95,82850,2,0,P|418:84|444:62,1,70,2|0,0:2|1:2,0:0:0:0:
476,148,83199,2,0,P|497:174|505:240,1,70,10|0,0:2|0:2,0:0:0:0:
441,285,83548,6,0,P|372:286|288:325,1,140,4|0,1:2|1:2,0:0:0:0:
233,363,84071,1,8,0:2:0:0:
158,309,84245,1,8,0:3:0:0:
158,309,84333,1,8,0:3:0:0:
158,309,84420,1,2,1:2:0:0:
212,238,84594,1,2,1:2:0:0:
142,199,84769,2,0,B|106:209|106:209|126:166,1,70,8|0,0:2|0:2,0:0:0:0:
210,122,85117,6,0,P|253:127|296:159,1,70,10|0,0:2|0:2,0:0:0:0:
162,46,85466,2,0,P|196:43|228:28,1,70,8|0,0:2|0:2,0:0:0:0:
308,60,85815,1,8,0:2:0:0:
386,31,85990,1,0,1:2:0:0:
435,97,86164,1,10,0:2:0:0:
357,131,86338,1,0,1:2:0:0:
416,197,86513,6,0,P|411:260|364:343,1,140,10|8,0:2|0:2,0:0:0:0:
297,360,87036,2,0,P|241:354|220:265,1,140,2|0,0:2|1:2,0:0:0:0:
284,230,87559,1,10,0:2:0:0:
251,153,87734,1,0,1:2:0:0:
175,188,87908,1,12,0:2:0:0:
63,58,89303,6,0,P|113:68|241:180,1,210,2|0,0:2|0:2,0:0:0:0:
301,211,90001,2,0,P|360:197|358:110,1,140,8|4,0:3|0:3,0:0:0:0:
451,94,90524,1,8,0:3:0:0:
500,172,90699,6,0,B|435:173|420:111|350:130,1,140,6|8,1:2|0:2,0:0:0:0:
310,185,91222,1,0,0:2:0:0:
374,256,91397,2,0,P|372:305|353:344,1,70,2|2,1:2|1:2,0:0:0:0:
293,379,91745,1,8,0:2:0:0:
194,313,91920,6,0,P|153:291|48:274,1,140,6|2,1:2|1:2,0:0:0:0:
8,208,92443,2,0,P|23:163|29:126,1,70,10|2,0:2|3:2,0:0:0:0:
16,53,92792,1,2,1:2:0:0:
96,87,92966,1,0,1:2:0:0:
148,16,93141,1,10,0:2:0:0:
319,171,93490,6,0,P|273:148|171:127,1,140,6|10,1:2|0:2,0:0:0:0:
134,197,94013,1,0,0:2:0:0:
192,262,94187,2,0,P|212:305|215:342,1,70,2|2,1:2|1:2,0:0:0:0:
154,383,94536,1,8,0:2:0:0:
260,311,94710,6,0,P|313:328|410:347,1,140,6|2,1:2|1:2,0:0:0:0:
477,298,95234,1,10,0:2:0:0:
408,237,95408,2,0,P|390:184|386:82,1,140,2|2,0:2|1:2,0:0:0:0:
319,31,95931,2,0,P|284:48|244:57,1,70,10|0,0:2|0:2,0:0:0:0:
167,79,96280,6,0,P|195:133|206:209,1,125.999996154785,6|8,1:2|0:2,0:0:0:0:
155,266,96803,1,0,3:2:0:0:
155,266,96890,1,0,3:2:0:0:
155,266,96977,2,0,P|104:257|61:190,1,125.999996154785,2|8,1:2|0:2,0:0:0:0:
35,104,97501,6,0,P|87:125|164:147,1,125.999996154785,2|0,1:2|1:2,0:0:0:0:
224,96,98024,2,0,P|252:119|257:164,1,62.9999980773926,10|0,0:2|1:2,0:0:0:0:
221,217,98373,1,2,1:2:0:0:
256,347,98722,1,10,0:2:0:0:
108,317,99070,6,0,P|136:354|216:363,1,125.999996154785,2|8,1:2|0:2,0:0:0:0:
284,313,99594,1,0,3:2:0:0:
284,313,99681,1,0,3:2:0:0:
284,313,99768,2,0,B|329:312|343:277|418:271,1,125.999996154785,2|8,1:2|0:2,0:0:0:0:
479,298,100291,1,0,0:2:0:0:
453,209,100466,6,0,P|489:184|485:86,1,125.999996154785,2|8,1:2|0:2,0:0:0:0:
484,33,100989,1,0,0:2:0:0:
407,7,101163,1,2,1:2:0:0:
304,85,101512,1,10,0:2:0:0:
185,46,101861,6,0,B|122:54|124:85|57:86,1,125.999996154785,2|8,1:2|0:2,0:0:0:0:
16,160,102384,1,0,3:2:0:0:
87,205,102559,2,0,P|80:249|154:303,1,125.999996154785,2|8,1:2|0:2,0:0:0:0:
206,262,103082,1,0,0:2:0:0:
271,317,103256,6,0,P|292:336|314:381,1,62.9999980773926,2|0,0:2|1:2,0:0:0:0:
359,292,103605,2,0,P|363:263|397:219,1,62.9999980773926,8|0,0:2|0:2,0:0:0:0:
447,194,103954,1,2,1:2:0:0:
447,194,104129,1,0,0:2:0:0:
447,194,104303,1,10,0:2:0:0:
331,146,104652,6,0,B|282:137|258:101|200:101,1,125.999996154785,2|8,1:2|0:2,0:0:0:0:
125,114,105175,1,0,0:2:0:0:
125,114,105262,1,0,0:0:0:0:
125,114,105349,2,0,P|169:86|203:12,1,125.999996154785,0|8,1:2|0:2,0:0:0:0:
295,14,105873,2,0,P|355:33|436:77,1,125.999996154785,2|0,0:2|1:2,0:0:0:0:
499,141,106396,6,0,P|469:140|418:160,1,62.9999980773926,8|0,0:2|0:2,0:0:0:0:
354,123,106745,2,0,P|342:152|321:176,1,62.9999980773926,2|0,1:2|1:2,0:0:0:0:
242,232,107094,2,0,P|287:268|303:316,1,94.499997116089,10|0,0:2|0:0,0:0:0:0:
301,301,107442,6,0,B|256:313|248:349|180:348,1,125.999996154785,6|8,1:2|0:2,0:0:0:0:
102,376,107966,1,0,0:2:0:0:
49,314,108140,2,0,P|59:278|63:236,1,62.9999980773926,2|0,1:2|1:2,0:0:0:0:
123,197,108489,1,8,0:2:0:0:
68,113,108663,6,0,B|92:44|92:44|144:27,1,125.999996154785,6|0,1:2|1:2,0:0:0:0:
217,64,109187,2,0,L|291:82,1,62.9999980773926,10|0,0:2|0:2,0:0:0:0:
350,31,109536,1,2,1:2:0:0:
350,31,109710,1,0,1:2:0:0:
405,95,109884,2,0,P|379:114|354:154,1,62.9999980773926,10|0,0:2|0:2,0:0:0:0:
287,167,110233,6,0,P|350:186|386:239,1,125.999996154785,6|8,1:2|0:2,0:0:0:0:
457,280,110756,2,0,P|447:310|409:334,1,62.9999980773926,2|0,0:2|1:2,0:0:0:0:
341,334,111105,2,0,P|375:350|401:392,1,62.9999980773926,2|8,1:2|0:2,0:0:0:0:
274,264,111454,6,0,P|256:320|206:375,1,125.999996154785,6|0,1:2|0:2,0:0:0:0:
140,324,111977,1,8,0:2:0:0:
140,324,112152,1,0,0:2:0:0:
63,354,112326,2,0,B|36:338|36:338|-7:339,1,62.9999980773926,2|0,1:2|1:2,0:0:0:0:
5,258,112675,1,10,0:2:0:0:
111,189,113024,6,0,P|167:204|246:242,1,125.999996154785,6|8,1:2|0:2,0:0:0:0:
297,183,113547,1,0,0:2:0:0:
235,124,113722,2,0,B|220:81|254:62|231:-10,1,125.999996154785,2|8,1:2|0:2,0:0:0:0:
317,28,114245,1,0,0:2:0:0:
317,28,114419,2,0,P|353:26|387:7,1,62.9999980773926,2|0,1:2|1:2,0:0:0:0:
455,31,114768,2,0,P|439:56|429:104,1,62.9999980773926,8|2,0:2|0:2,0:0:0:0:
484,144,115117,1,2,1:2:0:0:
371,224,115466,1,10,0:2:0:0:
305,181,115640,1,0,0:2:0:0:
251,246,115815,6,0,B|255:296|301:302|293:381,1,125.999996154785,2|8,1:2|0:2,0:0:0:0:
210,382,116338,1,0,3:2:0:0:
146,326,116512,2,0,P|98:311|53:238,1,125.999996154785,2|8,1:2|0:2,0:0:0:0:
115,180,117036,1,0,0:2:0:0:
196,224,117210,6,0,P|231:231|276:251,1,62.9999980773926,2|0,1:2|1:2,0:0:0:0:
265,123,117559,2,0,P|283:150|305:172,1,62.9999980773926,8|0,0:2|0:2,0:0:0:0:
388,168,117908,1,2,0:2:0:0:
456,221,118082,1,0,1:2:0:0:
505,164,118256,2,0,B|490:131|490:131|498:93,1,62.9999980773926,10|8,0:2|0:2,0:0:0:0:
511,65,118518,1,8,0:2:0:0:
511,65,118606,6,0,P|466:62|380:17,1,125.999996154785,6|2,1:2|0:2,0:0:0:0:
322,67,119129,2,0,P|306:92|203:106,1,125.999996154785,0|2,1:2|0:2,0:0:0:0:
145,71,119652,2,0,P|109:91|74:100,1,62.9999980773926,0|2,0:2|1:2,0:0:0:0:
34,160,120001,6,0,P|41:222|74:281,1,125.999996154785,0|2,1:2|0:2,0:0:0:0:
123,345,120524,1,0,1:2:0:0:
123,345,120699,2,0,P|151:337|181:309,1,62.9999980773926,10|0,0:2|0:2,0:0:0:0:
256,325,121048,1,2,0:2:0:0:
404,299,121397,6,0,P|374:259|396:175,1,125.999996154785,2|2,1:2|0:2,0:0:0:0:
454,141,121920,2,0,L|470:72,1,62.9999980773926,2|8,1:2|0:2,0:0:0:0:
410,22,122269,2,0,P|381:36|338:45,1,62.9999980773926,2|0,0:2|0:2,0:0:0:0:
287,91,122617,1,0,1:2:0:0:
230,30,122792,2,0,P|171:31|123:90,1,125.999996154785,0|2,1:2|0:2,0:0:0:0:
179,205,123490,1,10,0:2:0:0:
179,205,123664,1,0,1:2:0:0:
179,205,123838,2,0,P|172:241|159:276,1,62.9999980773926,2|0,0:2|1:2,0:0:0:0:
202,341,124187,6,0,P|153:304|93:314,1,125.999996154785,2|0,1:2|0:2,0:0:0:0:
27,274,124710,1,2,1:2:0:0:
69,206,124885,2,0,P|82:176|87:127,1,62.9999980773926,8|0,0:2|0:0,0:0:0:0:
23,83,125234,2,0,P|57:79|86:70,1,62.9999980773926,2|0,0:2|1:2,0:0:0:0:
145,12,125583,1,2,1:2:0:0:
211,73,125757,1,8,0:2:0:0:
211,73,125844,1,8,0:2:0:0:
211,73,125931,2,0,B|268:87|259:118|332:138,1,125.999996154785,0|8,1:2|0:2,0:0:0:0:
441,103,126629,2,0,P|431:138|419:171,1,62.9999980773926,2|0,0:2|1:2,0:0:0:0:
483,239,126978,6,0,P|438:276|434:348,1,125.999996154785,2|0,1:2|0:2,0:0:0:0:
357,378,127501,2,0,P|284:348|236:347,1,125.999996154785,2|0,1:2|0:2,0:0:0:0:
163,368,128024,1,2,0:2:0:0:
90,252,128373,2,0,P|99:219|127:176,1,62.9999980773926,2|8,1:2|0:2,0:0:0:0:
188,165,128722,2,0,P|218:178|271:195,1,62.9999980773926,2|2,0:2|1:2,0:0:0:0:
320,120,129071,6,0,P|299:92|314:50,1,62.9999980773926,8|2,0:2|1:2,0:0:0:0:
244,10,129420,1,8,0:2:0:0:
157,44,129594,1,8,0:2:0:0:
157,44,129681,1,8,0:2:0:0:
157,44,129769,6,0,B|116:59|116:59|93:81|93:81|27:99,1,125.999996154785,6|2,1:2|0:2,0:0:0:0:
15,169,130292,1,2,0:2:0:0:
85,208,130466,2,0,B|122:213|122:213|103:186,1,62.9999980773926,8|2,0:2|1:2,0:0:0:0:
176,151,130815,1,8,0:2:0:0:
260,183,130990,1,6,1:2:0:0:
334,376,131513,1,2,1:2:0:0:
414,262,131862,1,10,0:2:0:0:
414,262,132036,1,0,1:2:0:0:
257,305,132385,1,0,1:2:0:0:
200,255,132559,6,0,B|152:242|132:219|55:218,1,125.999996154785,6|8,1:2|0:2,0:0:0:0:
20,158,133083,2,0,P|50:146|65:118,1,62.9999980773926,10|8,0:2|0:2,0:0:0:0:
122,64,133431,2,0,P|110:36|75:18,1,62.9999980773926,2|0,1:2|0:2,0:0:0:0:
196,46,133780,2,0,P|257:31|322:-9,1,125.999996154785,6|2,1:2|0:2,0:0:0:0:
445,373,135350,6,0,B|362:378|322:333|335:324|274:274|186:303,1,251.999992309571,2|2,1:3|0:3,0:0:0:0:
87,355,136397,1,0,0:0:0:0:
79,216,136745,1,2,0:3:0:0:
351,164,137443,1,2,0:3:0:0:
248,70,137792,6,0,P|235:88|227:113,2,41.9999987182618,8|4|12,0:3|0:3|0:3,0:0:0:0:
297,43,138141,1,4,1:2:0:0:
347,315,138838,2,0,P|459:350|494:354,1,125.999996154785,2|2,0:3|0:3,0:0:0:0:
511,273,139419,5,2,0:3:0:0:
511,273,139536,5,8,0:2:0:0:
369,34,140931,6,0,P|384:83|402:183,1,140,6|8,1:2|0:2,0:0:0:0:
454,244,141455,1,2,3:2:0:0:
375,288,141629,2,0,P|321:275|287:273,1,70,2|0,1:2|0:0,0:0:0:0:
243,331,141978,2,0,P|193:347|145:369,1,105,8|0,0:2|0:0,0:0:0:0:
119,368,142327,6,0,P|94:325|93:283,1,70,2|0,1:2|0:2,0:0:0:0:
107,218,142676,2,0,P|157:235|182:240,1,70,10|0,0:2|0:0,0:0:0:0:
243,193,143024,1,2,1:2:0:0:
191,121,143199,1,0,0:2:0:0:
272,77,143373,2,0,P|266:27|250:-1,1,70,10|0,0:2|0:2,0:0:0:0:
332,148,143722,6,0,P|376:107|477:111,1,140,2|8,1:2|0:2,0:0:0:0:
495,176,144245,1,2,0:2:0:0:
425,248,144420,2,0,P|379:242|272:213,1,140,2|8,1:2|0:2,0:0:0:0:
195,333,145117,6,0,P|143:345|49:373,1,140,2|8,1:2|0:2,0:0:0:0:
0,303,145641,1,2,0:2:0:0:
70,246,145815,1,2,1:2:0:0:
70,246,145902,2,0,P|91:193|86:163,1,70,8|0,0:2|0:2,0:0:0:0:
77,156,146164,1,10,0:2:0:0:
17,92,146338,1,2,0:2:0:0:
94,18,146513,6,0,P|133:51|232:92,1,140,2|8,1:2|0:2,0:0:0:0:
290,49,147036,1,2,0:2:0:0:
355,100,147210,2,0,P|363:141|358:180,1,70,2|0,1:2|0:0,0:0:0:0:
307,233,147559,1,8,0:2:0:0:
484,318,147908,6,0,P|428:315|382:369,1,105,2|0,1:2|0:0,0:0:0:0:
370,376,148257,2,0,P|315:360|291:356,1,70,10|0,0:2|0:2,0:0:0:0:
249,293,148606,1,2,1:2:0:0:
182,344,148780,1,0,0:2:0:0:
108,283,148955,2,0,P|62:290|21:305,1,70,10|0,0:2|0:0,0:0:0:0:
72,196,149303,6,0,P|105:156|95:48,1,140,2|8,1:2|0:2,0:0:0:0:
172,10,149827,1,2,0:2:0:0:
245,60,150001,1,2,1:2:0:0:
353,13,150176,1,8,0:2:0:0:
353,13,150524,6,0,B|380:58|307:110|335:159,1,140,4|0,1:2|1:2,0:0:0:0:
412,203,151048,1,8,0:2:0:0:
357,286,151222,2,0,P|319:251|223:244,1,140,4|8,1:2|0:2,0:0:0:0:
220,259,151658,1,8,0:0:0:0:
220,259,151745,1,10,0:2:0:0:
166,341,151920,1,8,0:2:0:0:
166,341,152007,1,8,0:0:0:0:
166,341,152094,6,0,P|121:323|26:258,1,140,6|8,1:2|0:2,0:0:0:0:
10,182,152617,1,2,0:2:0:0:
96,201,152792,2,0,P|145:183|172:159,1,70,2|0,1:2|0:0,0:0:0:0:
188,85,153141,1,8,0:2:0:0:
376,42,153490,6,0,P|329:32|269:14,1,105,2|0,1:2|0:0,0:0:0:0:
266,29,153838,2,0,P|281:68|296:122,1,70,10|0,0:2|0:0,0:0:0:0:
362,151,154187,1,2,1:2:0:0:
292,212,154362,1,0,0:2:0:0:
361,281,154536,2,0,P|414:267|480:244,1,105,10|0,0:2|0:2,0:0:0:0:
476,235,154885,6,0,B|495:196|495:196|493:146|451:89,1,140,2|8,1:2|0:2,0:0:0:0:
452,15,155408,1,2,0:2:0:0:
375,68,155583,2,0,P|334:59|301:48,1,70,2|0,1:2|0:0,0:0:0:0:
240,113,155931,2,0,P|166:126|108:145,1,105,8|0,0:2|0:0,0:0:0:0:
107,134,156280,6,0,P|88:97|78:63,1,70,2|0,1:2|0:2,0:0:0:0:
9,151,156629,2,0,P|25:181|36:215,1,70,10|0,0:2|0:2,0:0:0:0:
35,315,156978,1,2,1:2:0:0:
35,315,157065,2,0,P|73:288|117:288,1,70,8|0,0:2|0:2,0:0:0:0:
141,299,157327,2,0,P|158:326|197:347,1,70,10|0,0:2|0:2,0:2:0:0:
260,286,157676,6,0,B|276:235|197:211|231:131,1,140,2|8,1:2|0:2,0:0:0:0:
288,91,158199,2,0,P|349:113|449:129,1,140,0|0,0:0|0:2,0:0:0:0:
494,179,158722,1,10,0:2:0:0:
454,258,158897,1,2,0:2:0:0:
360,203,159071,6,0,P|314:212|248:232,1,105,0|0,1:2|0:0,0:0:0:0:
228,250,159420,2,0,P|248:297|252:322,1,70,10|0,0:2|0:2,0:0:0:0:
189,372,159769,2,0,P|147:381|111:384,1,70,2|0,1:2|0:2,0:0:0:0:
43,328,160117,2,0,P|65:284|84:206,1,105,10|0,0:2|0:0,0:0:0:0:
63,204,160466,6,0,P|42:158|37:127,1,70,2|0,1:2|0:0,0:0:0:0:
70,58,160815,1,10,0:2:0:0:
138,113,160990,1,0,0:2:0:0:
217,76,161164,1,0,1:2:0:0:
150,13,161338,1,10,0:2:0:0:
214,172,161687,6,0,P|266:192|361:208,1,140,4|0,1:2|1:2,0:0:0:0:
427,162,162210,1,8,0:2:0:0:
478,249,162385,1,8,0:3:0:0:
478,249,162472,1,8,0:3:0:0:
478,249,162559,2,0,P|468:306|460:335,1,70,2|0,1:2|1:2,0:0:0:0:
367,291,162908,2,0,P|318:304|251:333,1,105,10|0,0:2|0:0,0:0:0:0:
253,350,163257,6,0,P|207:337|168:330,1,70,10|0,0:2|0:2,0:0:0:0:
196,239,163606,2,0,P|150:252|111:259,1,70,8|0,0:2|0:2,0:0:0:0:
38,237,163955,1,8,0:2:0:0:
90,161,164129,1,0,1:2:0:0:
16,118,164303,2,0,P|6:77|8:36,1,70,10|0,0:2|1:2,0:0:0:0:
102,12,164652,6,0,P|147:43|243:66,1,140,10|8,0:2|0:2,0:0:0:0:
306,19,165176,2,0,P|349:27|379:129,1,140,2|0,0:2|1:2,0:0:0:0:
319,164,165699,2,0,P|292:207|290:257,1,70,10|0,0:2|1:2,0:0:0:0:
320,311,166048,5,12,0:2:0:0:
290,73,168141,6,0,P|263:114|262:180,2,93.3333333333333,8|8|4,0:2|0:3|0:3,0:0:0:0:
372,45,168838,2,0,P|437:91|501:106,1,125.999996154785,4|0,1:2|0:2,0:0:0:0:
501,177,169362,1,0,1:2:0:0:
455,236,169536,2,0,B|435:284|456:290|435:380,1,125.999996154785,8|0,0:2|0:2,0:0:0:0:
360,372,170059,1,8,0:2:0:0:
360,372,170147,1,8,0:2:0:0:
360,372,170234,5,0,1:2:0:0:
277,311,170408,2,0,P|210:320|153:353,1,125.999996154785,8|0,0:2|1:2,0:0:0:0:
75,326,170931,2,0,P|58:305|59:258,1,62.9999980773926,8|0,0:2|0:0,0:0:0:0:
120,228,171280,2,0,L|193:252,1,62.9999980773926,0|0,0:2|1:2,0:0:0:0:
231,163,171629,6,0,L|285:293,1,125.999996154785,0|0,1:2|0:2,0:0:0:0:
354,244,172152,1,0,1:2:0:0:
320,175,172327,2,0,P|333:147|343:99,1,62.9999980773926,8|0,0:2|0:0,0:0:0:0:
396,62,172676,2,0,L|322:83,1,62.9999980773926,0|8,0:2|0:2,0:0:0:0:
246,22,173024,5,0,1:2:0:0:
167,64,173199,2,0,P|96:50|35:14,1,125.999996154785,8|0,0:2|1:2,0:0:0:0:
8,88,173722,2,0,P|21:118|28:151,1,62.9999980773926,8|0,0:2|0:0,0:0:0:0:
112,144,174071,2,0,P|97:180|93:223,1,62.9999980773926,0|0,0:2|1:2,0:0:0:0:
12,225,174420,6,0,B|79:232|68:274|156:279,1,125.999996154785,0|0,1:2|0:2,0:0:0:0:
191,319,174943,1,0,1:2:0:0:
247,264,175117,2,0,P|284:231|265:140,1,125.999996154785,8|0,0:2|1:2,0:0:0:0:
214,37,175815,1,0,1:2:0:0:
292,56,175990,2,0,P|328:47|368:28,1,62.9999980773926,8|0,0:2|1:2,0:0:0:0:
431,75,176338,1,0,1:2:0:0:
383,142,176513,6,0,B|362:167|362:167|366:211,1,62.9999980773926,8|0,0:2|0:2,0:0:0:0:
423,260,176862,1,0,0:2:0:0:
423,260,177036,1,0,1:2:0:0:
357,308,177210,1,4,1:2:0:0:
98,108,178606,6,0,L|87:28,1,62.9999980773926,8|0,0:2|1:2,0:0:0:0:
176,87,178955,2,0,L|249:110,1,62.9999980773926,8|0,0:2|1:2,0:0:0:0:
157,171,179303,1,8,0:2:0:0:
157,171,179391,1,8,0:2:0:0:
157,171,179478,2,0,L|141:250,1,62.9999980773926,8|8,0:3|0:2,0:0:0:0:
208,304,179827,5,8,0:2:0:0:
220,312,179914,1,8,0:2:0:0:
227,322,180001,2,0,B|296:315|300:356|380:343,1,140,6|8,1:2|0:2,0:0:0:0:
433,301,180524,1,0,0:2:0:0:
369,248,180699,2,0,P|349:224|342:174,1,70,0|0,1:2|0:2,0:0:0:0:
396,125,181048,2,0,P|411:92|450:76,1,70,8|0,0:2|0:2,0:0:0:0:
355,69,181397,6,0,P|294:47|224:-17,1,140,0|8,1:2|0:2,0:0:0:0:
167,50,181920,2,0,P|125:94|37:123,1,140,2|2,0:2|0:2,0:0:0:0:
6,190,182443,2,0,P|29:217|43:256,1,70,8|2,0:2|0:2,0:0:0:0:
0,327,182792,6,0,B|70:306|62:271|144:264,1,140,0|8,1:2|0:2,0:0:0:0:
212,262,183315,2,0,P|255:279|333:363,1,140,2|0,0:2|0:0,0:0:0:0:
405,365,183838,2,0,P|450:353|478:314,1,70,8|0,0:2|0:2,0:0:0:0:
494,245,184187,6,0,B|484:202|484:202|449:183|449:183|426:122,1,140,2|8,1:2|0:2,0:0:0:0:
351,92,184710,1,0,0:2:0:0:
275,154,184885,1,2,1:2:0:0:
196,173,185059,1,0,0:2:0:0:
151,106,185234,1,10,0:2:0:0:
13,204,185583,6,0,P|68:235|131:293,1,140,6|0,1:2|1:2,0:0:0:0:
169,352,186106,2,0,P|174:303|251:242,1,140,10|0,0:2|0:2,0:0:0:0:
353,226,186629,2,0,P|297:185|283:118,1,140,2|0,1:2|1:2,0:0:0:0:
241,36,187152,2,0,P|189:83|128:118,1,140,10|0,0:2|1:2,0:0:0:0:
49,88,187676,5,10,0:2:0:0:
49,88,187850,1,0,1:2:0:0:
5,160,188024,2,0,P|45:234|57:279,1,105,10|0,0:2|0:0,0:0:0:0:
66,268,188373,6,0,P|51:322|44:361,1,70,6|0,1:2|0:0,0:0:0:0:
127,384,188721,1,8,0:2:0:0:
194,320,188896,2,0,P|249:308|278:297,1,70,2|4,0:2|0:3,0:0:0:0:
320,251,189245,1,2,1:2:0:0:
258,197,189419,1,10,0:2:0:0:
309,138,189593,1,6,1:2:0:0:
248,65,189768,6,0,P|196:48|96:25,1,140,2|0,0:2|1:2,0:0:0:0:
26,81,190291,1,2,1:2:0:0:
100,146,190466,2,0,P|106:182|122:232,1,70,10|2,0:2|0:2,0:0:0:0:
44,267,190814,1,10,0:2:0:0:
100,346,190989,1,8,0:2:0:0:
116,353,191076,1,8,0:2:0:0:
132,357,191163,6,0,P|201:348|267:304,1,140,6|10,1:2|0:2,0:0:0:0:
317,250,191686,1,2,0:2:0:0:
363,325,191861,2,0,P|404:339|435:373,1,70,2|2,1:2|0:2,0:0:0:0:
494,300,192210,2,0,P|495:269|461:232,1,70,8|2,0:2|0:2,0:0:0:0:
387,213,192559,2,0,P|413:175|442:72,1,140,0|10,1:0|0:2,0:0:0:0:
469,8,193082,1,2,0:2:0:0:
381,26,193256,1,2,1:2:0:0:
381,26,193343,1,2,0:2:0:0:
381,26,193431,2,0,P|315:44|289:46,1,70,2|10,0:2|0:2,0:0:0:0:
251,106,193779,1,2,0:2:0:0:
330,154,193954,6,0,B|329:212|262:234|283:296,1,140,2|10,1:2|0:2,0:0:0:0:
233,370,194477,2,0,P|181:308|54:306,1,210,2|8,0:2|0:2,0:0:0:0:
11,136,195349,6,0,P|60:155|91:160,1,70,2|0,1:2|0:0,0:0:0:0:
149,215,195698,2,0,P|164:175|169:140,1,70,10|0,0:2|0:0,0:0:0:0:
114,70,196047,2,0,P|159:64|191:54,1,70,2|0,1:2|0:0,0:0:0:0:
275,15,196396,2,0,P|262:64|260:100,1,70,10|0,0:2|0:0,0:0:0:0:
302,175,196745,6,0,P|337:137|426:130,1,140,6|8,1:2|0:2,0:0:0:0:
489,186,197268,1,0,0:2:0:0:
427,246,197442,2,0,P|419:288|423:320,1,70,0|0,1:2|0:2,0:0:0:0:
354,359,197791,1,10,0:2:0:0:
354,359,197878,1,2,0:0:0:0:
354,359,197966,2,0,P|297:342|267:338,1,70,2|0,0:2|1:2,0:0:0:0:
213,382,198314,1,0,0:0:0:0:
122,317,198489,6,0,P|140:270|205:231,1,105,10|0,0:2|0:0,0:0:0:0:
203,221,198838,2,0,P|172:187|179:107,1,105,2|0,1:2|0:0,0:0:0:0:
168,98,199186,2,0,P|108:86|78:41,1,105,10|0,0:2|0:0,0:0:0:0:
45,53,199535,6,0,P|32:152|13:214,1,140,2|10,1:2|0:2,0:0:0:0:
107,267,200059,2,0,P|134:219|230:210,1,140,2|0,0:2|1:2,0:0:0:0:
292,143,200582,1,10,0:2:0:0:
379,190,200756,6,0,B|396:254|367:278|399:352,1,140,6|0,1:2|1:2,0:0:0:0:
318,372,201279,2,0,P|278:364|251:322,1,70,8|8,0:0|0:3,0:0:0:0:
258,343,201541,1,4,0:3:0:0:
258,343,201628,1,0,1:2:0:0:
194,285,201803,1,0,1:2:0:0:
120,347,201977,2,0,L|30:367,1,70,10|8,0:2|0:3,0:0:0:0:
15,354,202239,1,8,0:3:0:0:
15,354,202326,6,0,B|20:287|69:300|81:207,1,140,6|8,1:2|0:2,0:0:0:0:
7,114,202849,1,0,0:2:0:0:
7,114,203024,2,0,P|22:150|74:158,1,70,2|0,1:2|0:0,0:0:0:0:
132,178,203373,2,0,P|173:195|193:217,1,70,10|2,0:2|0:2,0:0:0:0:
268,168,203721,6,0,P|297:137|237:63,1,140,2|8,1:2|0:2,0:0:0:0:
324,5,204245,1,2,0:2:0:0:
382,72,204419,2,0,P|455:110|528:117,1,140,2|8,1:2|1:2,0:0:0:0:
433,157,204942,1,2,0:2:0:0:
486,240,205117,6,0,P|428:275|424:343,1,140,0|8,1:2|0:2,0:0:0:0:
344,300,205640,1,0,0:2:0:0:
277,341,205814,6,0,L|195:357,1,70,2|0,1:2|0:0,0:0:0:0:
266,256,206163,2,0,L|194:203,1,70,10|0,0:2|0:2,0:0:0:0:
324,193,206512,6,0,P|336:142|399:56,1,140,2|10,1:2|0:2,0:0:0:0:
311,5,207035,1,0,0:2:0:0:
234,59,207210,2,0,B|190:88|147:73|147:73|86:94,1,140,2|10,1:2|0:2,0:0:0:0:
18,125,207733,1,2,0:2:0:0:
18,125,207820,1,2,0:0:0:0:
18,125,207907,6,0,B|37:181|15:206|38:278,1,140,2|8,1:2|0:2,0:0:0:0:
30,349,208431,1,2,3:2:0:0:
121,310,208605,1,0,1:2:0:0:
192,348,208779,1,2,0:2:0:0:
246,288,208954,2,0,P|250:259|209:223,1,70,10|2,0:2|0:2,0:0:0:0:
149,210,209303,6,0,B|203:207|213:164|299:161,1,140,0|8,1:2|0:2,0:0:0:0:
338,112,209826,1,0,0:2:0:0:
417,167,210000,1,2,1:2:0:0:
486,129,210175,1,2,0:2:0:0:
455,57,210349,2,0,P|416:45|402:10,1,70,10|2,0:2|0:2,0:0:0:0:
308,3,210698,6,0,B|273:39|234:21|184:75,1,140,2|8,1:2|0:2,0:0:0:0:
102,112,211221,1,0,0:2:0:0:
177,180,211396,2,0,P|190:212|194:252,1,70,2|2,1:2|0:2,0:0:0:0:
175,287,211657,1,2,0:2:0:0:
175,287,211745,2,0,P|153:321|122:338,1,70,8|0,0:2|0:2,0:0:0:0:
40,304,212093,5,8,0:2:0:0:
40,304,212181,1,8,0:2:0:0:
40,304,212268,1,8,0:3:0:0:
0,218,212442,2,0,L|9:175,3,35,8|8|8|4,0:2|0:2|0:3|0:3,0:0:0:0:
30,144,212791,6,0,P|33:105|11:62,1,70,12|8,0:3|0:2,0:0:0:0:
108,59,213140,1,8,0:3:0:0:
125,55,213227,1,8,0:3:0:0:
138,50,213314,1,4,0:3:0:0:
154,47,213402,1,4,0:3:0:0:
168,45,213489,6,0,P|226:56|304:123,1,140,6|8,1:2|0:2,0:0:0:0:
429,197,214186,2,0,P|368:207|321:294,1,140,2|10,1:2|0:2,0:0:0:0:
201,383,214884,2,0,B|191:309|148:343|143:243,1,140,2|10,1:2|0:2,0:0:0:0:
28,136,215582,2,0,P|103:120|176:75,1,140,2|10,1:2|0:2,0:0:0:0:
208,22,216105,1,2,0:2:0:0:
208,22,216192,1,2,0:0:0:0:
208,22,216279,6,0,P|227:48|268:67,1,70,2|0,1:2|3:2,0:0:0:0:
322,121,216628,2,0,L|301:207,1,70,10|0,0:2|0:2,0:0:0:0:
232,234,216977,1,0,1:2:0:0:
281,305,217152,1,0,0:2:0:0:
357,285,217326,2,0,P|391:274|422:251,1,70,10|0,0:2|0:2,0:0:0:0:
493,295,217675,6,0,B|480:231|449:239|449:154,1,140,2|0,1:2|1:2,0:0:0:0:
497,92,218198,1,8,0:2:0:0:
426,35,218373,2,0,P|388:53|352:65,1,70,8|8,0:2|0:3,0:0:0:0:
339,84,218634,1,8,0:3:0:0:
339,84,218721,2,0,P|300:77|250:52,1,70,8|4,0:2|0:3,0:0:0:0:
203,7,219070,1,6,0:2:0:0:
355,349,228663,6,0,B|340:302|413:268|385:219,1,140,8|0,0:2|1:2,0:0:0:0:
335,151,229186,1,0,1:2:0:0:
280,215,229361,1,8,0:2:0:0:
203,180,229535,1,2,0:0:0:0:
249,18,229884,1,2,0:2:0:0:
420,37,230233,6,0,P|462:68|470:166,1,140,6|8,1:2|0:2,0:0:0:0:
413,208,230756,1,2,0:2:0:0:
478,261,230931,2,0,P|466:301|461:337,1,70,2|0,1:2|0:0,0:0:0:0:
388,383,231279,2,0,P|355:357|263:353,1,105,8|0,0:2|0:0,0:0:0:0:
271,341,231628,6,0,P|260:296|266:257,1,70,2|0,1:2|0:2,0:0:0:0:
353,255,231977,2,0,P|364:210|358:171,1,70,10|0,0:2|0:0,0:0:0:0:
321,111,232326,1,2,1:2:0:0:
257,169,232500,1,0,0:2:0:0:
202,89,232675,2,0,P|159:78|92:48,1,105,10|0,0:2|0:2,0:0:0:0:
78,34,233024,6,0,P|43:59|30:174,1,140,2|8,1:2|0:2,0:0:0:0:
52,231,233547,1,2,0:2:0:0:
126,175,233721,2,0,P|152:211|151:248,1,70,2|0,1:2|0:0,0:0:0:0:
163,327,234070,2,0,P|195:314|229:304,1,70,8|0,0:2|0:0,0:0:0:0:
294,237,234419,6,0,P|357:261|445:284,1,140,2|10,1:2|0:2,0:0:0:0:
503,233,234942,1,0,0:2:0:0:
434,183,235117,1,2,1:2:0:0:
434,183,235204,2,0,P|412:134|408:98,1,70,8|0,0:2|0:2,0:0:0:0:
437,82,235466,2,0,P|439:54|417:3,1,70,10|0,0:2|0:2,0:2:0:0:
330,66,235814,6,0,P|282:72|205:23,1,140,2|8,1:2|0:2,0:0:0:0:
218,132,236338,2,0,P|234:214|260:288,1,140,2|0,0:0|0:2,0:0:0:0:
170,318,236861,2,0,P|136:312|88:291,1,70,10|2,0:2|0:2,0:0:0:0:
11,207,237210,6,0,P|70:184|127:105,1,140,0|10,1:2|0:2,0:0:0:0:
161,47,237733,1,0,0:2:0:0:
219,118,237907,2,0,P|264:128|308:158,1,70,2|0,1:2|0:2,0:0:0:0:
329,198,238256,2,0,P|330:167|371:141,1,70,10|0,0:2|0:2,0:0:0:0:
447,176,238605,6,0,B|457:240|416:242|445:341,1,140,2|10,1:2|0:2,0:0:0:0:
367,349,239128,2,0,B|283:374|283:374|309:312,1,140,2|10,0:2|0:2,0:0:0:0:
341,243,239652,1,0,0:2:0:0:
246,264,239826,6,0,B|197:249|197:249|174:219|174:219|115:201,1,140,4|0,1:2|1:2,0:0:0:0:
88,130,240349,2,0,P|57:149|17:157,1,70,8|8,0:2|0:3,0:0:0:0:
0,126,240611,1,8,0:3:0:0:
0,126,240698,2,0,P|-3:91|25:61,1,70,2|0,1:2|1:2,0:0:0:0:
92,21,241047,1,10,0:2:0:0:
162,79,241221,1,0,0:2:0:0:
233,42,241396,6,0,P|261:37|311:15,1,70,8|0,0:2|0:2,0:0:0:0:
370,83,241745,2,0,P|371:115|326:156,1,70,8|0,0:2|0:2,0:0:0:0:
272,202,242093,1,8,0:2:0:0:
177,183,242268,1,0,1:2:0:0:
123,241,242442,1,10,0:2:0:0:
165,306,242617,1,0,1:2:0:0:
262,302,242791,6,0,P|293:343|398:354,1,140,10|8,0:2|0:2,0:0:0:0:
461,319,243314,1,2,0:2:0:0:
398,256,243489,2,0,P|402:224|427:182,1,70,8|0,0:2|1:2,0:0:0:0:
479,129,243838,1,10,0:2:0:0:
419,65,244012,1,0,1:2:0:0:
323,119,244186,6,0,B|249:137|180:101|221:78|140:29|63:56,1,280,14|2,0:2|0:0,0:0:0:0:
390,135,245582,6,0,P|359:189|332:338,1,210,2|0,0:2|0:2,0:0:0:0:
254,377,246279,2,0,P|198:382|151:245,1,210,2|0,0:2|0:2,0:0:0:0:
140,143,246977,6,0,B|92:134|85:99|-11:92,1,140,6|8,1:2|0:2,0:0:0:0:
57,18,247500,1,0,0:2:0:0:
133,53,247675,2,0,P|167:50|204:10,1,70,0|0,1:2|0:2,0:0:0:0:
283,3,248024,2,0,P|320:22|363:36,1,70,8|0,0:2|0:2,0:0:0:0:
421,65,248373,6,0,P|361:85|321:165,1,140,2|8,1:2|0:2,0:0:0:0:
358,226,248896,1,0,0:2:0:0:
276,258,249070,2,0,P|196:232|145:174,1,140,2|8,1:2|0:2,0:0:0:0:
94,135,249593,1,0,0:2:0:0:
36,212,249768,6,0,P|64:268|83:358,1,140,2|8,1:2|0:2,0:0:0:0:
158,378,250291,1,0,0:2:0:0:
218,316,250466,2,0,P|260:324|278:370,1,70,0|0,1:2|0:0,0:0:0:0:
356,355,250814,2,0,B|396:368|396:368|370:314,1,70,8|0,0:2|0:2,0:0:0:0:
344,257,251163,6,0,B|383:197|383:197|402:285,1,140,2|8,1:2|0:2,0:0:0:0:
480,208,251686,1,0,0:2:0:0:
428,142,251861,1,2,1:2:0:0:
428,142,251948,2,0,P|417:121|409:67,1,70,8|0,0:2|0:2,0:0:0:0:
409,43,252210,1,8,0:2:0:0:
317,17,252384,1,0,0:2:0:0:
237,72,252559,6,0,B|176:79|170:126|94:129,1,140,2|8,1:2|0:2,0:0:0:0:
21,154,253082,2,0,P|68:166|141:244,1,140,0|0,0:2|0:0,0:0:0:0:
214,265,253605,2,0,P|250:256|287:212,1,70,8|0,0:2|0:2,0:0:0:0:
374,205,253954,6,0,P|320:256|309:338,1,140,2|8,1:2|0:2,0:0:0:0:
248,377,254477,1,0,0:2:0:0:
179,332,254652,2,0,B|123:315|120:278|36:273,1,140,2|8,1:2|0:2,0:0:0:0:
22,166,255175,1,0,0:2:0:0:
97,208,255349,6,0,P|165:201|168:122,1,140,2|8,1:2|0:2,0:0:0:0:
148,63,255873,2,0,P|183:95|288:126,1,140,0|8,0:2|0:2,0:0:0:0:
350,89,256396,1,0,0:2:0:0:
335,189,256570,6,0,B|324:228|324:228|285:254|285:254|265:321,1,140,2|0,1:2|1:2,0:0:0:0:
197,352,257093,1,10,0:2:0:0:
122,300,257268,2,0,P|67:276|71:194,1,140,2|8,1:2|0:2,0:0:0:0:
136,141,257791,1,8,0:3:0:0:
146,145,257878,1,8,0:3:0:0:
158,150,257966,1,8,0:0:0:0:
166,154,258053,1,8,0:0:0:0:
175,160,258140,6,0,P|231:138|333:115,1,140,6|8,1:2|0:2,0:0:0:0:
379,68,258663,1,0,0:2:0:0:
413,149,258838,2,0,P|389:176|390:219,1,70,0|0,1:2|0:2,0:0:0:0:
454,259,259186,2,0,P|485:250|515:220,1,70,8|0,0:2|0:2,0:0:0:0:
458,354,259535,6,0,P|419:298|351:289,1,140,2|8,1:2|0:2,0:0:0:0:
292,354,260059,1,0,0:2:0:0:
218,306,260233,2,0,B|168:302|148:266|75:262,1,140,2|8,1:2|0:2,0:0:0:0:
25,200,260756,1,0,0:2:0:0:
107,157,260931,6,0,P|143:119|147:26,1,140,2|8,1:2|0:2,0:0:0:0:
227,7,261454,1,0,0:2:0:0:
296,63,261628,2,0,P|342:76|418:136,1,140,0|8,1:2|0:2,0:0:0:0:
493,169,262152,1,0,0:2:0:0:
415,213,262326,2,0,L|328:226,1,70,2|0,1:2|0:0,0:0:0:0:
270,179,262675,2,0,L|189:196,1,70,8|0,0:2|0:2,0:0:0:0:
126,252,263024,1,2,1:2:0:0:
116,241,263111,2,0,P|109:212|59:186,1,70,8|0,0:2|0:2,0:0:0:0:
45,187,263373,1,8,0:2:0:0:
1,265,263547,1,0,0:2:0:0:
83,324,263721,6,0,B|143:318|140:276|221:269,1,140,2|8,1:2|0:2,0:0:0:0:
306,230,264245,2,0,P|262:269|244:365,1,140,2|0,0:2|0:0,0:0:0:0:
331,363,264768,2,0,P|350:356|375:308,1,70,8|0,0:2|0:2,0:0:0:0:
505,228,265117,6,0,P|467:222|394:134,1,140,2|8,1:2|0:2,0:0:0:0:
349,66,265640,1,2,0:2:0:0:
277,117,265814,2,0,P|235:135|187:142,1,70,2|0,1:2|0:0,0:0:0:0:
137,87,266163,2,0,P|126:60|162:36,1,70,10|0,0:2|0:2,0:0:0:0:
136,168,266512,6,0,B|133:220|77:218|72:299,1,140,2|8,1:2|0:2,0:0:0:0:
17,363,267035,2,0,P|76:325|166:309,1,140,2|8,0:2|0:2,0:0:0:0:
221,252,267559,1,0,0:2:0:0:
284,323,267733,6,0,P|321:348|423:355,1,140,2|0,1:2|1:2,0:0:0:0:
473,252,268256,2,0,P|445:273|408:280,1,70,8|8,0:0|0:3,0:0:0:0:
411,279,268518,1,8,0:3:0:0:
411,279,268605,1,0,1:2:0:0:
348,231,268779,1,0,1:2:0:0:
406,170,268954,2,0,P|414:144|421:94,1,70,8|0,0:2|0:2,0:0:0:0:
349,54,269303,6,0,L|266:40,1,70,10|0,0:2|0:2,0:0:0:0:
218,98,269652,2,0,L|151:129,1,70,8|0,0:2|0:2,0:0:0:0:
123,202,270000,1,10,0:2:0:0:
74,275,270175,1,0,1:2:0:0:
126,337,270349,1,8,0:2:0:0:
202,307,270524,1,0,1:2:0:0:
278,255,270698,6,0,P|334:267|397:327,1,140,10|10,0:2|0:2,0:0:0:0:
465,277,271221,1,2,0:2:0:0:
415,209,271396,2,0,P|406:174|407:140,1,70,10|0,0:2|1:2,0:0:0:0:
332,79,271745,1,10,0:2:0:0:
254,132,271919,1,2,1:2:0:0:
159,103,272093,6,0,P|84:105|35:288,1,280,6|2,1:2|0:2,0:0:0:0:
238,358,273489,2,0,P|256:301|279:147,1,210,2|0,0:2|1:2,0:0:0:0:
181,78,274186,6,0,P|148:83|101:126,2,93.3333333333333,8|8|4,0:2|0:3|0:3,0:0:0:0:
281,28,274884,1,6,1:2:0:0:
256,192,274971,12,0,278460,0:0:0:0:
