osu file format v14

[General]
AudioFilename: audio.mp3
AudioLeadIn: 0
PreviewTime: 178519
Countdown: 0
SampleSet: Soft
StackLeniency: 0.7
Mode: 0
LetterboxInBreaks: 0
WidescreenStoryboard: 0

[Editor]
Bookmarks: 1397,12559
DistanceSpacing: 1
BeatDivisor: 4
GridSize: 16
TimelineZoom: 2.599999

[Metadata]
Title:Meet Again
TitleUnicode:Meet Again
Artist:Pratanallis feat. Rina Komatsu
ArtistUnicode:Pratanallis feat. 狛茉璃奈
Creator:Zekk
Version:Affection
Source:
Tags:featured artist fa japanese rock ckharv dear white faieries vtuber こまつ りな
BeatmapID:3655110
BeatmapSetID:1784645

[Difficulty]
HPDrainRate:7
CircleSize:4.2
OverallDifficulty:9
ApproachRate:9.3
SliderMultiplier:1.7
SliderTickRate:1

[Events]
//Background and Video events
0,0,"72392328_p0.jpg",0,0
//Break Periods
2,219270,228079
//Storyboard Layer 0 (Background)
//Storyboard Layer 1 (Fail)
//Storyboard Layer 2 (Pass)
//Storyboard Layer 3 (Foreground)
//Storyboard Layer 4 (Overlay)
//Storyboard Sound Samples

[TimingPoints]
1397,348.837209302326,4,2,1,50,1,0
12559,-100,4,2,1,70,0,0
18141,-111.111111111111,4,2,1,60,0,0
40466,-117.647058823529,4,2,1,55,0,0
62792,-95.238095238095,4,2,1,80,0,0
89303,-142.857142857143,4,2,1,75,0,0
90699,-100,4,2,1,70,0,0
96280,-111.111111111111,4,2,1,60,0,0
118606,-117.647058823529,4,2,1,55,0,0
140931,-95.238095238095,4,2,1,80,0,0
167443,-142.857142857143,4,2,1,75,0,0
168141,-100,4,2,1,70,0,0
168257,-100,4,2,1,5,0,0
168373,-111.111111111111,4,2,1,70,0,0
168490,-100,4,2,1,5,0,0
168606,-125,4,2,1,70,0,0
168722,-100,4,2,1,5,0,0
168838,-111.111111111111,4,2,1,60,0,0
180001,-95.2380952380952,4,2,1,75,0,0
185583,348.837209302326,3,2,1,75,1,0
185583,-95.2380952380952,4,2,1,75,0,0
188373,348.837209302326,4,2,1,75,1,0
188373,-95.2380952380952,4,2,1,75,0,0
219070,-125,4,2,1,50,0,0
228663,-125,4,2,1,80,0,0
230233,-95.2380952380952,4,2,1,80,0,0
245582,-142.857142857143,4,2,1,75,0,0
246977,-100,4,2,1,70,0,0
269303,-100,4,2,1,80,0,0
272093,-142.857142857143,4,2,1,60,0,0
274303,-100,4,2,1,5,0,0
274419,-111.111111111111,4,2,1,60,0,0
274535,-100,4,2,1,5,0,0
274652,-111.111111111111,4,2,1,60,0,0
274768,-100,4,2,1,5,0,0
274884,-111.111111111111,4,2,1,60,0,0
278460,-111.111111111111,4,2,1,5,0,0

[Colours]
Combo1 : 240,140,140
Combo2 : 200,180,220
Combo3 : 174,228,167
Combo4 : 150,185,220

[HitObjects]
507,146,12559,6,0,B|442:144|420:194|339:191,1,170,6|8,1:2|0:2,0:0:0:0:
176,116,13083,1,0,0:2:0:0:
369,27,13257,1,2,1:2:0:0:
334,96,13431,1,2,1:2:0:0:
144,7,13606,1,8,0:2:0:0:
76,50,13780,6,0,P|63:101|104:231,1,170,6|2,1:2|1:2,0:0:0:0:
284,309,14303,2,0,P|233:296|176:279,1,85,10|2,0:2|3:2,0:0:0:0:
201,287,14565,1,0,3:2:0:0:
201,287,14652,1,2,1:2:0:0:
68,371,14827,1,0,1:2:0:0:
5,325,15001,2,0,B|16:282|16:282|-4:237,1,85,10|0,0:2|0:2,0:0:0:0:
192,150,15350,6,0,B|267:156|262:210|371:211,1,170,6|10,1:2|0:2,0:0:0:0:
502,287,15873,1,0,0:2:0:0:
321,336,16048,1,2,1:2:0:0:
385,377,16222,1,2,1:2:0:0:
438,153,16397,1,8,0:2:0:0:
348,209,16571,6,0,P|281:191|147:166,1,170,6|2,1:2|1:2,0:0:0:0:
96,17,17094,2,0,P|48:26|27:75,1,85,10|2,0:2|0:2,0:0:0:0:
172,249,17443,1,0,1:2:0:0:
146,100,17617,1,2,1:2:0:0:
0,180,17792,2,0,P|35:193|93:203,1,85,10|0,0:2|0:2,0:0:0:0:
210,384,18141,6,0,B|232:311|265:348|280:242,1,152.999995330811,6|8,1:2|0:2,0:0:0:0:
422,205,18664,1,0,3:2:0:0:
422,205,18751,1,0,3:2:0:0:
422,205,18838,1,2,1:2:0:0:
331,138,19013,2,0,B|348:172|348:172|336:220,1,76.4999976654054,0|8,1:2|0:2,0:0:0:0:
188,295,19362,6,0,P|113:272|14:248,1,152.999995330811,2|0,1:2|1:2,0:0:0:0:
155,66,19885,2,0,P|174:100|161:164,1,76.4999976654054,10|0,0:2|1:2,0:0:0:0:
73,167,20234,2,0,P|54:133|67:69,1,76.4999976654054,2|0,1:2|0:2,0:0:0:0:
246,1,20583,2,0,P|285:18|351:37,1,76.4999976654054,10|0,0:2|0:2,0:0:0:0:
512,144,20931,6,0,P|428:153|370:229,1,152.999995330811,2|8,1:2|0:2,0:0:0:0:
360,281,21455,1,0,3:2:0:0:
360,281,21542,1,0,3:2:0:0:
360,281,21629,1,2,1:2:0:0:
255,172,21803,1,0,1:2:0:0:
194,220,21978,2,0,P|157:229|106:236,1,76.4999976654054,8|0,0:2|0:2,0:0:0:0:
3,308,22327,6,0,B|66:319|71:367|157:375,1,152.999995330811,2|8,1:2|0:2,0:0:0:0:
119,234,22850,1,0,0:2:0:0:
194,220,23024,2,0,B|213:185|213:185|201:129,1,76.4999976654054,2|0,1:2|0:2,0:0:0:0:
101,88,23373,2,0,B|82:123|82:123|94:179,1,76.4999976654054,10|0,0:2|0:2,0:0:0:0:
236,59,23722,6,0,P|285:44|408:17,1,152.999995330811,2|8,1:2|0:2,0:0:0:0:
490,170,24245,1,0,3:2:0:0:
490,170,24333,1,0,3:2:0:0:
490,170,24420,2,0,P|393:158|361:96,1,152.999995330811,2|8,1:2|0:2,0:0:0:0:
257,187,24943,1,0,0:2:0:0:
316,240,25117,2,0,P|329:277|342:326,1,76.4999976654054,2|0,0:2|1:2,0:0:0:0:
221,366,25466,2,0,P|181:356|136:342,1,76.4999976654054,8|0,0:2|0:2,0:0:0:0:
426,277,25815,6,0,P|453:288|498:317,1,76.4999976654054,2|0,1:2|0:2,0:0:0:0:
257,187,26164,2,0,P|269:153|299:106,1,76.4999976654054,10|0,0:2|0:2,0:0:0:0:
512,136,26513,2,0,P|472:166|357:174,1,152.999995330811,2|8,1:2|0:2,0:0:0:0:
284,35,27036,1,0,0:2:0:0:
215,77,27210,2,0,P|153:94|53:107,1,152.999995330811,0|8,1:2|0:2,0:0:0:0:
155,198,27734,6,0,B|128:269|172:271|147:364,1,152.999995330811,2|0,0:2|1:2,0:0:0:0:
289,274,28257,2,0,P|325:266|392:247,1,76.4999976654054,8|0,0:2|0:2,0:0:0:0:
380,96,28606,2,0,P|364:130|345:183,1,76.4999976654054,2|0,1:2|1:2,0:0:0:0:
501,254,28955,2,0,P|475:220|450:190,1,76.4999976654054,10|0,0:2|0:2,0:0:0:0:
312,355,29303,6,0,P|253:360|134:397,1,152.999995330811,6|8,1:2|0:2,0:0:0:0:
61,286,29827,1,0,0:2:0:0:
163,215,30001,1,2,1:2:0:0:
149,298,30176,1,0,1:2:0:0:
56,201,30350,1,8,0:2:0:0:
116,149,30524,6,0,P|117:93|19:31,1,152.999995330811,6|0,1:2|1:2,0:0:0:0:
223,1,31048,2,0,P|209:59|192:108,1,76.4999976654054,10|0,0:2|0:2,0:0:0:0:
293,133,31397,2,0,P|334:124|399:100,1,76.4999976654054,2|0,1:2|1:2,0:0:0:0:
269,247,31745,2,0,P|242:220|213:196,1,76.4999976654054,10|0,0:2|0:2,0:0:0:0:
360,368,32094,6,0,P|373:289|405:188,1,152.999995330811,6|8,1:2|0:2,0:0:0:0:
495,324,32617,1,2,0:2:0:0:
330,298,32792,2,0,B|296:314|296:314|236:310,1,76.4999976654054,0|2,1:2|1:2,0:0:0:0:
127,361,33141,1,8,0:2:0:0:
87,298,33315,6,0,P|105:242|215:209,1,152.999995330811,6|0,1:2|1:2,0:0:0:0:
348,141,33838,2,0,P|356:180|381:244,1,76.4999976654054,8|0,0:2|0:2,0:0:0:0:
510,180,34187,6,0,P|472:177|405:159,1,76.4999976654054,2|0,1:2|1:2,0:0:0:0:
221,258,34536,2,0,P|259:261|326:279,1,76.4999976654053,10|0,0:2|0:2,0:0:0:0:
358,113,34885,6,0,P|341:76|227:50,1,152.999995330811,6|8,1:2|0:2,0:0:0:0:
81,16,35408,1,0,0:2:0:0:
135,76,35583,2,0,B|129:167|182:127|170:240,1,152.999995330811,2|8,1:2|0:2,0:0:0:0:
137,302,36106,1,0,0:2:0:0:
71,259,36280,2,0,P|39:251|-14:220,1,76.4999976654054,2|0,1:2|1:2,0:0:0:0:
220,311,36629,2,0,P|242:337|275:392,1,76.4999976654054,8|2,0:2|0:2,0:0:0:0:
204,148,36978,6,0,P|271:104|358:83,1,152.999995330811,2|10,1:2|0:2,0:0:0:0:
424,174,37501,1,0,0:2:0:0:
488,132,37676,2,0,B|483:95|483:95|510:49,1,76.4999976654054,2|0,1:2|0:2,0:0:0:0:
345,212,38024,2,0,P|313:202|260:188,1,76.4999976654054,8|0,0:2|3:2,0:0:0:0:
271,190,38286,1,0,3:2:0:0:
271,190,38373,5,2,1:2:0:0:
143,258,38548,1,0,1:2:0:0:
206,308,38722,2,0,B|225:345|225:345|214:398,1,76.4999976654054,8|0,0:2|0:2,0:0:0:0:
52,285,39071,6,0,P|28:266|30:210,1,76.4999976654054,2|0,1:2|1:2,0:0:0:0:
185,107,39420,2,0,P|174:143|163:196,1,76.4999976654054,8|0,0:2|0:2,0:0:0:0:
46,80,39769,2,0,P|57:44|68:-9,1,76.4999976654054,2|0,0:2|1:2,0:0:0:0:
185,107,40117,1,10,0:2:0:0:
294,32,40292,5,8,0:2:0:0:
294,32,40379,1,8,0:2:0:0:
294,32,40466,2,0,B|371:48|353:78|455:100,1,144.500002756119,6|2,1:2|0:2,0:0:0:0:
459,264,40990,1,0,1:2:0:0:
512,210,41164,2,0,P|501:180|489:131,1,72.2500013780594,8|2,0:2|0:2,0:0:0:0:
310,267,41513,2,0,P|346:279|387:299,1,72.2500013780594,0|2,0:2|1:2,0:0:0:0:
308,147,41862,6,0,P|270:179|177:194,1,144.500002756119,0|2,1:2|0:2,0:0:0:0:
76,245,42385,1,0,1:2:0:0:
120,311,42559,2,0,P|115:348|101:397,1,72.2500013780594,10|0,0:2|0:2,0:0:0:0:
223,321,42908,2,0,P|228:284|242:235,1,72.2500013780594,2|0,0:2|1:2,0:0:0:0:
0,179,43257,6,0,B|68:162|65:119|155:114,1,144.500002756119,2|2,1:2|0:2,0:0:0:0:
216,45,43780,1,2,1:2:0:0:
274,93,43955,2,0,P|306:102|352:123,1,72.2500013780594,8|2,0:2|0:2,0:0:0:0:
494,63,44303,2,0,B|469:91|469:91|465:139,1,72.2500013780594,0|0,0:2|1:2,0:0:0:0:
512,281,44652,6,0,P|467:236|376:228,1,144.500002756119,0|2,1:2|0:2,0:0:0:0:
258,285,45176,1,0,1:2:0:0:
323,331,45350,2,0,P|359:336|415:352,1,72.2500013780594,10|0,0:2|1:2,0:0:0:0:
212,370,45699,1,2,0:2:0:0:
122,296,45873,1,0,1:2:0:0:
182,245,46048,6,0,P|206:203|204:93,1,144.500002756119,2|0,1:2|0:2,0:0:0:0:
79,19,46571,1,2,1:2:0:0:
29,86,46745,2,0,B|96:84|101:47|181:44,1,144.500002756119,8|2,0:2|0:2,0:0:0:0:
304,0,47269,5,0,1:2:0:0:
390,71,47443,1,2,1:2:0:0:
333,122,47617,1,8,0:2:0:0:
333,122,47705,1,8,0:2:0:0:
333,122,47792,2,0,P|304:216|291:289,1,144.500002756119,0|8,1:2|0:2,0:0:0:0:
386,367,48315,1,0,0:2:0:0:
386,367,48490,2,0,P|420:360|449:312,1,72.2500013780594,2|0,0:2|1:2,0:0:0:0:
231,318,48838,6,0,B|159:318|175:363|67:353,1,144.500002756119,2|0,1:2|0:2,0:0:0:0:
0,161,49362,2,0,P|53:167|109:248,1,144.500002756119,2|0,1:2|0:2,0:0:0:0:
196,144,49885,2,0,B|189:111|189:111|210:61,1,72.2500013780594,2|0,0:2|1:2,0:0:0:0:
364,189,50234,6,0,P|327:202|272:214,1,72.2500013780594,2|8,1:2|0:2,0:0:0:0:
294,209,50583,1,2,0:2:0:0:
191,365,50757,1,2,1:2:0:0:
159,296,50931,1,8,0:2:0:0:
353,370,51106,1,2,1:2:0:0:
392,279,51280,1,8,0:2:0:0:
254,161,51455,5,8,0:2:0:0:
254,161,51542,1,8,0:2:0:0:
254,161,51629,2,0,P|268:231|266:324,1,144.500002756119,6|2,1:2|0:2,0:0:0:0:
143,251,52152,2,0,P|158:219|169:163,1,72.2500013780594,2|8,0:2|0:2,0:0:0:0:
371,210,52501,2,0,P|383:239|392:291,1,72.2500013780594,2|8,1:2|0:2,0:0:0:0:
254,161,52850,6,0,P|275:96|361:81,1,144.500002756119,6|0,1:2|0:2,0:0:0:0:
512,144,53373,2,0,P|479:130|433:118,1,72.2500013780594,2|0,1:2|0:2,0:0:0:0:
354,6,53722,2,0,B|359:40|359:40|334:92,1,72.2500013780594,10|0,0:2|1:2,0:0:0:0:
254,161,54071,1,2,0:2:0:0:
254,161,54245,1,0,1:2:0:0:
176,126,54420,6,0,B|181:92|181:92|156:40,1,72.2500013780594,6|8,1:2|0:2,0:0:0:0:
164,57,54681,1,8,0:2:0:0:
164,57,54769,1,8,0:2:0:0:
6,173,54943,1,10,0:2:0:0:
6,173,55030,1,8,0:2:0:0:
6,173,55117,1,8,0:2:0:0:
72,213,55292,2,0,P|108:202|151:176,1,72.2500013780594,2|0,1:2|0:2,0:0:0:0:
301,248,55641,6,0,P|311:295|226:351,1,144.500002756119,6|2,1:2|0:2,0:0:0:0:
61,72,57210,5,2,1:3:0:0:
87,82,57908,1,2,0:3:0:0:
115,84,58606,1,2,0:3:0:0:
143,80,59303,1,2,0:3:0:0:
253,29,59652,5,8,0:3:0:0:
253,29,59769,1,4,0:3:0:0:
253,29,59885,1,12,0:3:0:0:
253,29,60001,1,4,1:2:0:0:
256,192,60699,5,2,0:3:0:0:
219,176,61048,1,2,0:3:0:0:
123,214,61280,1,2,0:3:0:0:
123,214,61397,2,0,P|69:198|-2:189,1,96.3333351707459,8|0,0:2|0:2,0:0:0:0:
298,378,62792,6,0,B|384:358|376:316|472:309,1,178.499994552612,6|8,1:2|0:2,0:0:0:0:
356,104,63315,1,2,3:2:0:0:
356,104,63402,1,0,3:2:0:0:
356,104,63489,2,0,P|334:170|329:295,1,178.499994552612,2|8,1:2|0:2,0:0:0:0:
447,186,64013,1,0,0:2:0:0:
286,189,64187,6,0,P|246:184|212:143,1,89.2499972763062,2|0,1:2|0:2,0:0:0:0:
138,57,64536,2,0,P|67:51|13:112,1,133.874995914459,10|0,0:2|0:2,0:0:0:0:
21,89,64885,2,0,B|9:137|9:137|41:195,1,89.2499972763062,2|0,1:2|0:2,0:0:0:0:
191,314,65234,2,0,P|200:270|232:201,1,89.2499972763062,10|0,0:2|0:2,0:0:0:0:
471,379,65583,6,0,B|421:391|379:359|396:337|351:300|286:325,1,178.499994552612,2|8,1:2|0:2,0:0:0:0:
508,155,66106,1,2,0:2:0:0:
445,106,66280,2,0,P|360:123|331:210,1,178.499994552612,2|8,1:2|0:2,0:0:0:0:
209,132,66803,5,0,0:2:0:0:
272,90,66978,2,0,P|282:52|291:-16,1,89.2499972763062,2|0,1:2|0:2,0:0:0:0:
112,193,67327,2,0,P|66:203|19:227,1,89.2499972763062,8|2,0:2|0:2,0:0:0:0:
315,280,67676,1,2,1:2:0:0:
323,286,67763,2,0,P|353:318|405:347,1,89.2499972763062,8|0,0:2|0:2,0:0:0:0:
391,341,68024,1,10,0:2:0:0:
476,238,68199,1,2,0:2:0:0:
235,351,68373,6,0,P|180:332|166:223,1,178.499994552612,2|8,1:2|0:2,0:0:0:0:
281,74,68897,1,2,0:2:0:0:
345,161,69071,2,0,B|252:164|290:96|169:99,1,178.499994552612,2|8,1:2|0:2,0:0:0:0:
65,36,69594,1,0,0:2:0:0:
29,104,69769,6,0,P|36:148|64:221,1,89.2499972763062,2|0,1:2|0:2,0:0:0:0:
243,267,70117,2,0,P|279:256|357:222,1,89.2499972763062,10|0,0:2|0:2,0:0:0:0:
16,368,70466,6,0,P|40:331|67:268,1,89.2499972763062,2|0,1:2|0:2,0:0:0:0:
201,28,70815,2,0,P|225:68|258:154,1,133.874995914459,10|0,0:2|0:2,0:0:0:0:
256,149,71164,6,0,P|175:140|138:53,1,178.499994552612,2|8,1:2|0:2,0:0:0:0:
364,2,71687,1,2,0:2:0:0:
479,95,71862,1,2,1:2:0:0:
427,150,72036,2,0,P|403:224|388:310,1,133.874995914459,8|0,0:2|0:2,0:0:0:0:
391,278,72385,6,0,B|420:315|420:315|398:387,1,89.2499972763062,4|0,1:2|0:2,0:0:0:0:
189,382,72734,1,0,1:2:0:0:
246,173,72908,1,8,0:2:0:0:
51,247,73083,6,0,P|123:256|248:297,1,178.499994552612,4|8,1:2|0:2,0:0:0:0:
334,86,73606,1,10,0:2:0:0:
125,135,73780,1,8,0:2:0:0:
359,236,73955,6,0,B|406:240|406:240|452:205,1,89.2499972763062,6|0,1:2|0:2,0:0:0:0:
356,0,74303,2,0,P|344:40|331:118,1,89.2499972763062,8|2,0:2|0:2,0:0:0:0:
199,230,74652,2,0,B|141:226|113:203|138:181|77:148|8:166,1,178.499994552612,2|8,1:2|0:2,0:0:0:0:
174,20,75176,1,0,0:2:0:0:
40,161,75350,6,0,P|87:161|134:103,1,89.2499972763062,2|0,1:2|0:2,0:0:0:0:
281,0,75699,2,0,P|249:36|256:144,1,133.874995914459,10|0,0:2|0:2,0:0:0:0:
242,118,76048,2,0,P|262:159|273:233,1,89.2499972763062,2|0,1:2|0:2,0:0:0:0:
188,342,76397,2,0,P|126:315|61:300,1,133.874995914459,10|0,0:2|0:2,0:0:0:0:
61,300,76745,6,0,B|114:303|145:279|147:253|170:226|224:238,1,178.499994552612,2|8,1:2|0:2,0:2:0:0:
387,150,77269,1,2,0:2:0:0:
251,25,77443,2,0,P|287:124|298:216,2,178.499994552612,2|8|2,1:2|0:2|1:2,0:0:0:0:
398,39,78315,5,0,0:2:0:0:
188,132,78490,2,0,P|153:128|121:63,1,89.2499972763062,10|0,0:2|0:2,0:0:0:0:
388,175,78838,1,2,1:2:0:0:
396,187,78926,2,0,P|388:229|382:292,1,89.2499972763062,8|0,0:2|0:2,0:0:0:0:
382,275,79187,1,10,0:2:0:0:
496,373,79362,1,0,0:2:0:0:
286,248,79536,6,0,P|211:230|92:210,2,178.499994552612,2|8|0,1:2|0:2|1:2,0:0:0:0:
165,29,80408,1,0,0:2:0:0:
100,77,80583,2,0,P|68:99|-1:85,1,89.2499972763062,10|2,0:2|0:2,0:0:0:0:
276,17,80931,6,0,B|330:10|370:41|344:55|399:98|461:59,1,178.499994552612,0|10,1:2|0:2,0:0:0:0:
190,179,81455,1,0,0:2:0:0:
287,249,81629,2,0,P|280:205|259:140,1,89.2499972763062,2|0,1:2|0:2,0:0:0:0:
84,309,81978,2,0,P|113:338|185:329,1,89.2499972763062,10|0,0:2|0:2,0:0:0:0:
333,376,82327,6,0,B|397:360|397:360|430:314|430:314|514:294,1,178.499994552612,2|10,1:2|0:2,0:0:0:0:
361,197,82850,1,2,0:2:0:0:
176,275,83024,1,0,1:2:0:0:
242,325,83199,1,10,0:2:0:0:
278,106,83373,1,0,0:2:0:0:
210,146,83548,6,0,B|112:138|158:87|20:77,1,178.499994552612,4|0,1:2|1:2,0:0:0:0:
215,19,84071,1,8,0:2:0:0:
99,208,84245,1,8,0:3:0:0:
105,226,84333,1,8,0:3:0:0:
114,243,84420,1,2,1:2:0:0:
260,222,84594,6,0,L|186:211,1,44.6249986381531,2|0,1:2|0:2,0:0:0:0:
0,292,84769,2,0,L|44:286,1,44.6249986381531,8|0,0:2|0:2,0:0:0:0:
161,149,84943,1,0,0:2:0:0:
340,277,85117,5,10,0:2:0:0:
309,348,85292,1,0,0:2:0:0:
161,149,85466,5,8,0:2:0:0:
237,140,85641,1,0,0:2:0:0:
133,384,85815,5,8,0:2:0:0:
87,322,85990,1,0,1:2:0:0:
332,171,86164,6,0,P|375:185|447:202,1,89.2499972763062,10|0,0:2|1:2,0:0:0:0:
89,42,86513,5,10,0:2:0:0:
67,114,86687,1,0,0:2:0:0:
353,247,86862,5,8,0:2:0:0:
332,171,87036,1,2,0:2:0:0:
24,245,87210,5,8,0:2:0:0:
95,275,87385,1,0,1:2:0:0:
342,49,87559,5,10,0:2:0:0:
270,22,87734,1,0,1:2:0:0:
221,276,87908,5,12,0:2:0:0:
221,276,89303,6,0,P|228:225|281:105,1,178.499994552612,2|0,0:2|0:2,0:0:0:0:
382,17,90001,2,0,P|361:51|268:51,1,118.999996368408,8|4,0:3|0:3,0:0:0:0:
205,17,90524,1,8,0:3:0:0:
82,102,90699,6,0,B|89:202|152:158|140:273,1,170,6|8,1:2|0:2,0:0:0:0:
50,370,91222,1,0,0:2:0:0:
23,301,91397,1,2,1:2:0:0:
201,368,91571,1,2,1:2:0:0:
270,262,91745,1,8,0:2:0:0:
336,308,91920,6,0,P|407:313|499:234,1,170,6|2,1:2|1:2,0:0:0:0:
397,63,92443,2,0,P|381:102|367:168,1,85,10|2,0:2|3:2,0:0:0:0:
191,63,92792,1,2,1:2:0:0:
260,21,92966,1,0,1:2:0:0:
218,185,93141,2,0,B|182:162|182:162|120:161,1,85,10|0,0:2|0:2,0:0:0:0:
15,327,93490,6,0,B|86:319|61:285|165:276,1,127.5,6|0,1:2|0:0,0:0:0:0:
132,280,93838,2,0,P|167:310|225:303,1,85,10|0,0:2|0:2,0:0:0:0:
332,244,94187,1,2,1:2:0:0:
451,318,94362,1,2,1:2:0:0:
494,254,94536,1,8,0:2:0:0:
295,353,94710,6,0,P|288:294|268:175,1,170,6|2,1:2|1:2,0:0:0:0:
428,90,95234,1,10,0:2:0:0:
300,14,95408,1,2,0:2:0:0:
231,58,95583,2,0,P|189:68|150:83,1,85,0|2,1:2|1:2,0:0:0:0:
31,205,95931,2,0,B|40:166|40:166|1:105,1,85,10|0,0:2|0:2,0:0:0:0:
199,311,96280,6,0,B|206:237|246:258|244:150,1,152.999995330811,6|8,1:2|0:2,0:0:0:0:
143,218,96803,1,0,3:2:0:0:
143,218,96891,1,0,3:2:0:0:
143,218,96978,2,0,P|210:232|304:271,1,152.999995330811,2|8,1:2|0:2,0:0:0:0:
445,121,97501,6,0,P|356:120|310:190,1,152.999995330811,2|0,1:2|1:2,0:0:0:0:
355,321,98024,2,0,P|336:287|349:223,1,76.4999976654054,10|0,0:2|1:2,0:0:0:0:
449,227,98373,2,0,P|468:261|455:325,1,76.4999976654054,2|0,1:2|0:2,0:0:0:0:
266,383,98722,2,0,P|227:366|161:347,1,76.4999976654054,10|0,0:2|0:2,0:0:0:0:
0,240,99070,6,0,P|84:231|142:155,1,152.999995330811,2|8,1:2|0:2,0:0:0:0:
152,103,99594,1,0,3:2:0:0:
152,103,99681,1,0,3:2:0:0:
152,103,99768,1,2,1:2:0:0:
257,212,99942,1,0,1:2:0:0:
318,164,100117,2,0,P|355:155|405:139,1,76.4999976654053,8|0,0:2|0:2,0:0:0:0:
509,76,100466,6,0,B|446:65|441:17|355:9,1,152.999995330811,2|8,1:2|0:2,0:0:0:0:
391,143,100989,1,0,0:2:0:0:
318,164,101163,2,0,B|299:199|299:199|311:255,1,76.4999976654054,2|0,1:2|0:2,0:0:0:0:
411,296,101512,2,0,B|430:261|430:261|418:205,1,76.4999976654054,10|0,0:2|0:2,0:0:0:0:
274,330,101861,6,0,P|223:339|102:372,1,152.999995330811,2|8,1:2|0:2,0:0:0:0:
22,214,102384,1,0,3:2:0:0:
22,214,102472,1,0,3:2:0:0:
22,214,102559,2,0,P|119:226|151:288,1,152.999995330811,2|8,1:2|0:2,0:0:0:0:
268,194,103083,1,0,0:2:0:0:
217,137,103257,6,0,P|210:67|185:-21,1,152.999995330811,2|8,0:2|0:2,0:0:0:0:
327,75,103780,1,0,0:2:0:0:
327,75,103955,2,0,P|364:88|424:116,1,76.4999976654053,2|0,1:2|0:2,0:0:0:0:
286,267,104303,2,0,P|274:231|267:180,1,76.4999976654053,10|0,0:2|0:2,0:0:0:0:
0,248,104652,6,0,P|40:218|155:210,1,152.999995330811,2|8,1:2|0:2,0:0:0:0:
228,349,105175,1,0,3:2:0:0:
228,349,105263,1,0,3:0:0:0:
231,353,105350,2,0,P|268:363|336:369,1,76.4999976654053,0|0,1:2|0:0,0:0:0:0:
415,298,105699,1,8,0:2:0:0:
364,233,105873,6,0,B|391:162|335:165|372:67,1,152.999995330811,2|0,0:2|1:2,0:0:0:0:
225,115,106396,2,0,P|188:124|150:133,1,76.4999976654054,8|0,0:2|0:2,0:0:0:0:
122,296,106745,2,0,P|138:262|157:209,1,76.4999976654054,2|0,1:2|1:2,0:0:0:0:
11,130,107094,2,0,P|37:164|62:194,1,76.4999976654054,10|0,0:2|0:2,0:0:0:0:
167,62,107443,6,0,B|250:52|225:6|323:6,1,152.999995330811,6|8,1:2|0:2,0:0:0:0:
451,98,107966,1,0,0:2:0:0:
349,169,108140,1,2,1:2:0:0:
331,93,108315,1,0,1:2:0:0:
476,193,108489,1,8,0:2:0:0:
407,233,108663,6,0,P|411:289|493:324,1,152.999995330811,6|0,1:2|0:0,0:0:0:0:
268,384,109187,2,0,P|282:326|299:278,1,76.4999976654053,10|0,0:2|0:2,0:0:0:0:
160,256,109536,2,0,P|120:273|54:289,1,76.4999976654053,2|0,1:2|1:2,0:0:0:0:
254,115,109884,2,0,P|284:140|310:166,1,76.4999976654053,10|0,0:2|0:2,0:0:0:0:
147,13,110234,6,0,P|134:68|113:184,1,152.999995330811,6|8,1:2|0:2,0:0:0:0:
31,44,110756,1,2,0:2:0:0:
178,97,110931,2,0,B|217:101|217:101|272:76,1,76.4999976654053,0|2,1:2|1:2,0:0:0:0:
385,23,111280,1,8,0:2:0:0:
425,86,111454,6,0,P|412:145|304:171,1,152.999995330811,6|0,1:2|1:2,0:0:0:0:
164,243,111977,2,0,P|156:204|131:140,1,76.4999976654054,8|0,0:2|0:2,0:0:0:0:
2,204,112326,6,0,P|40:207|107:225,1,76.4999976654054,2|0,1:2|1:2,0:0:0:0:
242,92,112675,2,0,P|204:89|137:71,1,76.4999976654054,10|0,0:2|0:2,0:0:0:0:
154,271,113024,6,0,P|171:308|285:334,1,152.999995330811,6|8,1:2|0:2,0:0:0:0:
431,368,113547,1,0,0:2:0:0:
377,308,113722,2,0,B|383:217|330:257|342:144,1,152.999995330811,2|8,1:2|0:2,0:0:0:0:
385,71,114245,1,0,0:2:0:0:
441,125,114419,2,0,P|473:133|526:164,1,76.4999976654054,2|0,1:2|1:2,0:0:0:0:
292,73,114768,2,0,P|270:47|237:-8,1,76.4999976654054,8|2,0:2|0:2,0:0:0:0:
308,236,115117,6,0,P|241:280|154:301,1,152.999995330811,2|10,1:2|0:2,0:0:0:0:
88,210,115640,1,0,0:2:0:0:
24,252,115815,2,0,B|29:289|29:289|2:335,1,76.4999976654054,2|0,1:2|0:2,0:0:0:0:
167,172,116163,2,0,P|199:182|252:196,1,76.4999976654054,8|0,0:2|3:2,0:0:0:0:
240,193,116425,1,0,3:2:0:0:
240,193,116512,5,2,1:2:0:0:
369,126,116687,1,0,1:2:0:0:
306,76,116861,2,0,B|287:39|287:39|298:-14,1,76.4999976654054,8|0,0:2|0:2,0:0:0:0:
486,134,117210,6,0,P|470:191|446:304,1,152.999995330811,2|8,1:2|0:2,0:0:0:0:
360,377,117734,1,0,0:2:0:0:
246,282,117908,1,2,0:2:0:0:
197,343,118083,1,0,1:2:0:0:
342,268,118257,2,0,P|336:230|314:172,1,76.4999976654053,10|8,0:2|0:2,0:0:0:0:
324,193,118519,1,8,0:2:0:0:
324,193,118606,6,0,B|248:178|269:148|176:140,1,144.500002756119,6|2,1:2|0:2,0:0:0:0:
90,62,119129,1,0,1:2:0:0:
35,115,119303,2,0,P|36:176|114:202,1,144.500002756119,8|0,0:2|0:2,0:0:0:0:
227,299,119827,5,2,1:2:0:0:
286,248,120001,2,0,P|317:239|380:232,1,72.2500013780594,0|0,1:2|0:0,0:0:0:0:
356,232,120263,1,0,3:0:0:0:
356,232,120350,2,0,B|341:197|341:197|356:151,1,72.2500013780594,2|0,0:2|1:2,0:0:0:0:
487,312,120699,2,0,B|421:320|433:358|341:366,1,144.500002756119,10|2,0:2|0:2,0:0:0:0:
216,266,121222,1,0,1:2:0:0:
153,305,121397,6,0,P|169:355|263:358,1,144.500002756119,2|2,1:2|0:2,0:0:0:0:
324,260,121920,1,2,1:2:0:0:
283,195,122094,2,0,P|305:140|314:49,1,144.500002756119,8|0,0:2|0:2,0:0:0:0:
185,135,122617,5,0,1:2:0:0:
128,84,122792,2,0,B|68:65|75:37|-7:19,1,144.500002756119,0|2,1:2|0:2,0:0:0:0:
24,177,123315,1,0,1:2:0:0:
91,214,123490,2,0,P|127:210|156:167,1,72.2500013780594,10|0,0:2|1:2,0:0:0:0:
265,102,123838,1,10,0:2:0:0:
265,102,123926,1,8,0:0:0:0:
265,102,124013,1,8,1:2:0:0:
265,102,124100,1,8,0:0:0:0:
265,102,124187,6,0,P|273:152|297:277,1,144.500002756119,2|0,1:2|0:2,0:0:0:0:
441,384,124710,1,2,1:2:0:0:
507,343,124885,2,0,P|468:311|392:307,1,108.375002067089,8|0,0:2|0:0,0:0:0:0:
412,302,125234,2,0,B|380:321|380:321|334:318,1,72.2500013780594,2|0,0:2|1:2,0:0:0:0:
225,372,125583,5,2,1:2:0:0:
136,305,125757,1,8,0:2:0:0:
136,305,125844,1,8,0:2:0:0:
136,305,125931,2,0,P|101:318|38:334,1,72.2500013780594,0|2,1:2|1:2,0:0:0:0:
200,218,126280,2,0,B|190:184|190:184|214:128,1,72.2500013780594,8|0,0:2|0:2,0:0:0:0:
265,106,126629,1,2,0:2:0:0:
265,106,126803,1,0,1:2:0:0:
126,167,126978,6,0,P|66:154|31:58,1,144.500002756119,2|0,1:2|0:2,0:0:0:0:
153,8,127501,1,2,1:2:0:0:
217,41,127676,2,0,P|287:55|374:84,2,144.500002756119,8|2|2,0:0|0:2|1:2,0:0:0:0:
266,152,128548,6,0,B|247:183|247:183|251:235,1,72.2500013780594,8|2,0:2|0:2,0:0:0:0:
311,270,128897,1,2,1:2:0:0:
204,326,129071,6,0,P|170:313|108:296,1,72.2500013780594,8|2,0:2|1:2,0:0:0:0:
0,139,129420,2,0,P|34:152|96:169,1,72.2500013780594,8|8,0:2|0:2,0:0:0:0:
68,162,129681,1,8,0:2:0:0:
68,162,129769,6,0,B|124:167|146:146|131:131|173:110|224:110,1,144.500002756119,6|2,1:2|0:2,0:0:0:0:
312,61,130292,2,0,P|304:98|290:148,1,72.2500013780594,2|8,0:2|0:2,0:0:0:0:
394,227,130641,2,0,B|415:196|415:196|411:160,1,72.2500013780594,2|8,1:2|0:2,0:0:0:0:
498,300,130990,6,0,P|411:316|340:343,1,144.500002756119,6|0,1:2|0:2,0:0:0:0:
260,384,131513,2,0,P|209:379|185:306,1,108.375002067089,2|0,1:2|0:0,0:0:0:0:
180,333,131862,2,0,B|198:298|198:298|180:246,1,72.2500013780594,10|0,0:2|1:2,0:0:0:0:
105,221,132210,1,2,0:2:0:0:
105,221,132385,1,0,1:2:0:0:
273,298,132559,6,0,P|298:308|352:325,1,72.2500013780594,6|8,1:2|0:2,0:0:0:0:
341,322,132821,1,8,0:2:0:0:
341,322,132908,1,8,0:2:0:0:
453,265,133083,1,10,0:2:0:0:
453,265,133170,1,8,0:2:0:0:
453,265,133257,1,8,0:2:0:0:
333,148,133431,6,0,P|346:180|359:235,1,72.2500013780594,2|0,1:2|0:2,0:0:0:0:
355,216,133780,2,0,B|358:144|403:167|408:83,1,144.500002756119,6|2,1:2|0:2,0:0:0:0:
417,375,135350,5,2,1:3:0:0:
394,357,136048,1,2,0:3:0:0:
365,351,136745,1,2,0:3:0:0:
336,351,137443,1,2,0:3:0:0:
201,255,137792,5,8,0:3:0:0:
172,269,137908,1,4,0:3:0:0:
141,270,138024,1,12,0:3:0:0:
112,260,138141,1,4,1:2:0:0:
258,54,138838,5,2,0:3:0:0:
291,67,139187,1,2,0:3:0:0:
399,34,139420,1,2,0:3:0:0:
399,34,139536,2,0,P|415:88|428:156,1,96.3333351707459,8|0,0:2|0:2,0:0:0:0:
474,329,140931,6,0,B|398:318|394:287|410:273|365:243|298:247,1,178.499994552612,6|8,1:2|0:2,0:0:0:0:
97,168,141455,1,2,3:2:0:0:
96,245,141629,2,0,P|168:252|212:157,1,178.499994552612,2|8,1:2|0:2,0:0:0:0:
311,16,142152,5,0,0:2:0:0:
375,61,142327,2,0,P|415:78|487:92,1,89.2499972763062,2|0,1:2|0:2,0:0:0:0:
225,256,142676,2,0,P|221:206|205:131,1,89.2499972763062,10|0,0:2|0:0,0:0:0:0:
474,321,143024,2,0,P|431:340|376:378,1,89.2499972763062,2|0,1:2|0:2,0:0:0:0:
184,369,143373,2,0,P|148:370|106:316,1,89.2499972763062,10|0,0:2|0:2,0:0:0:0:
17,217,143722,6,0,B|123:201|85:155|205:141,1,178.499994552612,2|8,1:2|0:2,0:0:0:0:
322,55,144245,1,2,0:2:0:0:
259,0,144420,2,0,P|271:60|291:210,1,178.499994552612,2|8,1:2|0:2,0:0:0:0:
219,272,144943,1,0,0:2:0:0:
349,348,145117,6,0,B|381:318|381:318|380:248,1,89.2499972763062,2|0,1:2|0:2,0:0:0:0:
139,246,145466,2,0,B|176:275|176:275|240:270,1,89.2499972763062,8|2,0:2|0:2,0:0:0:0:
381,125,145815,1,2,1:2:0:0:
393,138,145902,2,0,P|434:120|476:106,1,89.2499972763062,8|0,0:2|0:2,0:0:0:0:
476,106,146164,1,10,0:2:0:0:
347,0,146338,1,2,0:2:0:0:
275,124,146513,6,0,B|198:138|193:193|77:194,1,178.499994552612,2|8,1:2|0:2,0:0:0:0:
15,143,147036,1,2,0:2:0:0:
155,313,147210,2,0,P|220:318|266:226,1,178.499994552612,2|8,1:2|0:2,0:0:0:0:
443,317,147734,1,0,0:2:0:0:
372,353,147908,6,0,P|327:338|256:325,1,89.2499972763062,2|0,1:2|0:2,0:0:0:0:
128,209,148257,2,0,P|83:194|12:181,1,89.2499972763062,10|0,0:2|0:2,0:0:0:0:
366,172,148606,6,0,P|418:154|467:117,1,89.2499972763062,2|0,1:2|0:2,0:0:0:0:
165,299,148955,2,0,P|145:336|133:401,1,89.2499972763062,10|0,0:2|0:0,0:0:0:0:
220,137,149303,2,0,P|204:71|111:8,1,178.499994552612,2|8,1:2|0:2,0:0:0:0:
60,65,149827,1,2,0:2:0:0:
204,260,150001,1,2,1:2:0:0:
274,229,150176,2,0,P|311:239|385:270,1,89.2499972763062,8|0,0:2|0:0,0:0:0:0:
429,384,150524,6,0,P|490:367|492:269,1,133.874995914459,4|0,1:2|0:0,0:0:0:0:
511,305,150873,1,0,1:2:0:0:
390,171,151048,1,8,0:2:0:0:
204,260,151222,2,0,P|157:270|46:316,1,133.874995914459,4|8,1:2|0:0,0:0:0:0:
76,299,151571,1,8,0:2:0:0:
32,280,151658,1,8,0:0:0:0:
4,240,151745,1,10,0:2:0:0:
0,192,151832,1,8,0:0:0:0:
21,149,151919,1,8,0:2:0:0:
61,122,152007,1,8,0:0:0:0:
110,120,152094,6,0,B|208:142|173:172|285:193,1,178.499994552612,6|8,1:2|0:2,0:0:0:0:
465,78,152617,1,2,0:2:0:0:
400,33,152792,2,0,P|374:85|379:225,1,178.499994552612,2|8,1:2|0:2,0:0:0:0:
475,303,153315,1,0,0:2:0:0:
399,341,153490,6,0,P|364:328|281:304,1,89.2499972763062,2|0,1:2|0:2,0:0:0:0:
126,98,153838,2,0,P|145:141|164:204,1,89.2499972763062,10|0,0:2|0:0,0:0:0:0:
16,373,154187,2,0,P|71:340|157:324,1,133.874995914459,2|0,1:2|0:0,0:0:0:0:
138,324,154536,2,0,B|179:346|179:346|231:347,1,89.2499972763062,10|0,0:2|0:0,0:0:0:0:
317,218,154885,6,0,B|319:126|264:153|263:43,1,178.499994552612,2|8,1:2|0:2,0:0:0:0:
414,148,155408,1,2,0:2:0:0:
219,234,155583,2,0,P|159:210|39:189,1,178.499994552612,2|8,1:2|0:2,0:0:0:0:
123,79,156106,1,0,0:0:0:0:
103,248,156280,6,0,P|126:290|176:295,1,89.2499972763062,2|0,1:2|0:2,0:0:0:0:
315,359,156629,2,0,P|360:344|426:335,1,89.2499972763062,10|0,0:2|0:2,0:0:0:0:
265,131,156978,1,2,1:2:0:0:
255,142,157065,2,0,P|240:176|219:260,1,89.2499972763062,8|0,0:2|0:2,0:0:0:0:
225,225,157327,1,10,0:2:0:0:
383,156,157501,1,0,0:2:0:0:
187,108,157676,6,0,B|131:113|105:70|125:50|26:22|-3:47,1,178.499994552612,2|8,1:2|0:2,0:0:0:0:
32,277,158199,1,0,0:0:0:0:
98,236,158373,2,0,P|163:214|275:197,1,178.499994552612,0|10,1:2|0:2,0:0:0:0:
403,354,158897,1,2,0:2:0:0:
457,297,159071,6,0,P|444:253|431:184,1,89.2499972763062,0|0,1:2|0:0,0:0:0:0:
249,110,159420,2,0,P|262:154|275:223,1,89.2499972763062,10|0,0:2|0:2,0:0:0:0:
493,125,159769,6,0,P|449:117|397:98,1,89.2499972763062,2|0,1:2|0:2,0:0:0:0:
218,360,160117,2,0,P|246:331|271:267,1,89.2499972763062,10|0,0:2|0:2,0:0:0:0:
176,139,160466,2,0,B|121:124|121:124|89:81|89:81|13:61,1,178.499994552612,2|10,1:2|0:2,0:0:0:0:
321,30,160990,1,0,0:2:0:0:
324,219,161164,1,0,1:2:0:0:
394,173,161338,1,10,0:2:0:0:
186,51,161513,1,0,0:2:0:0:
226,114,161687,6,0,P|210:177|193:306,1,178.499994552612,4|0,1:2|1:2,0:0:0:0:
310,371,162210,1,8,0:2:0:0:
289,214,162385,1,8,0:3:0:0:
295,199,162472,1,8,0:3:0:0:
303,182,162559,1,2,1:2:0:0:
394,278,162734,2,0,L|349:272,1,44.6249986381531,0|0,1:2|0:2,0:0:0:0:
166,207,162908,2,0,L|211:202,1,44.6249986381531,10|0,0:2|0:2,0:0:0:0:
243,346,163083,1,0,0:2:0:0:
396,139,163257,5,10,0:2:0:0:
373,67,163431,1,0,0:2:0:0:
132,62,163606,5,8,0:2:0:0:
109,134,163780,1,0,0:2:0:0:
392,235,163955,5,8,0:2:0:0:
369,163,164129,1,0,1:2:0:0:
128,158,164304,5,10,0:2:0:0:
105,230,164478,1,0,1:2:0:0:
339,348,164652,6,0,P|380:336|439:320,1,89.2499972763062,10|0,0:2|0:2,0:0:0:0:
175,267,165001,5,8,0:2:0:0:
105,230,165176,1,2,0:2:0:0:
369,163,165350,5,8,0:2:0:0:
439,126,165525,1,0,1:2:0:0:
163,52,165699,5,10,0:2:0:0:
93,15,165874,1,0,1:2:0:0:
288,265,166048,5,12,0:2:0:0:
176,368,167443,6,0,P|166:304|108:168,1,208.249993644715,6|0,0:2|0:2,0:0:0:0:
110,172,168141,6,0,B|144:174|144:174|184:151,1,56.6666666666667,8|0,0:2|0:2,0:0:0:0:
264,68,168373,6,0,P|253:89|242:136,1,50.9999984436036,8|0,0:3|0:2,0:0:0:0:
283,242,168606,6,0,P|260:215|223:200,1,45.3333333333333,4|0,0:3|0:2,0:0:0:0:
251,209,168838,6,0,B|304:215|328:187|319:182|349:153|417:160,1,152.999995330811,4|0,1:2|0:2,0:0:0:0:
491,275,169362,1,0,1:2:0:0:
442,334,169536,2,0,P|442:259|477:178,1,152.999995330811,8|0,0:2|0:2,0:0:0:0:
488,55,170059,1,8,0:2:0:0:
488,55,170147,1,8,0:2:0:0:
488,55,170234,1,0,1:2:0:0:
430,110,170408,2,0,P|405:122|339:137,1,76.4999976654053,8|0,0:2|0:2,0:0:0:0:
279,31,170757,1,0,1:2:0:0:
213,67,170931,2,0,P|174:115|165:227,1,152.999995330811,8|0,0:2|0:2,0:0:0:0:
272,291,171455,5,0,1:2:0:0:
203,322,171629,2,0,B|135:332|129:377|44:374,1,152.999995330811,0|0,1:2|0:2,0:0:0:0:
4,175,172152,1,0,1:2:0:0:
66,225,172327,2,0,P|119:234|232:258,1,152.999995330811,8|0,0:2|0:2,0:0:0:0:
347,165,172850,5,8,0:2:0:0:
347,165,172937,1,8,0:2:0:0:
347,165,173024,1,0,1:2:0:0:
280,118,173199,2,0,P|270:81|256:24,1,76.4999976654053,8|0,0:2|0:2,0:0:0:0:
504,203,173548,1,0,1:2:0:0:
440,241,173722,2,0,B|375:245|390:294|269:296,1,152.999995330811,8|0,0:2|0:2,0:0:0:0:
187,377,174245,5,0,1:2:0:0:
140,318,174420,2,0,P|149:247|173:146,1,152.999995330811,0|0,1:2|0:2,0:0:0:0:
61,54,174943,1,0,1:2:0:0:
61,54,175117,2,0,P|53:90|94:125,1,76.4999976654053,8|0,0:2|0:2,0:0:0:0:
236,77,175466,2,0,B|279:80|311:57|303:27|360:18|399:35,1,152.999995330811,0|0,1:2|1:2,0:0:0:0:
492,143,175990,5,8,0:2:0:0:
475,227,176164,1,0,1:2:0:0:
459,311,176338,1,0,1:2:0:0:
386,211,176513,6,0,P|351:206|284:189,1,76.4999976654053,8|0,0:2|0:2,0:0:0:0:
248,256,176862,1,0,0:2:0:0:
248,256,177036,1,0,1:2:0:0:
112,172,177210,1,4,1:2:0:0:
112,172,178606,5,8,0:2:0:0:
130,245,178780,1,0,1:2:0:0:
400,172,178955,5,8,0:2:0:0:
382,245,179129,1,0,1:2:0:0:
177,87,179303,5,8,0:2:0:0:
163,93,179391,1,8,0:2:0:0:
146,92,179478,2,0,P|124:86|105:72,1,38.2499988327027,8|4,0:3|0:3,0:0:0:0:
295,14,179652,1,8,0:2:0:0:
242,159,179827,5,8,0:2:0:0:
242,159,179914,1,8,0:2:0:0:
242,159,180001,2,0,B|243:245|295:223|297:338,1,178.499994552612,6|8,1:2|0:2,0:0:0:0:
172,257,180524,1,0,0:2:0:0:
102,293,180699,2,0,P|59:301|2:321,1,89.2499972763062,0|0,1:2|0:2,0:0:0:0:
242,159,181048,2,0,P|285:151|342:131,1,89.2499972763062,8|0,0:2|0:2,0:0:0:0:
292,21,181397,6,0,P|377:15|430:84,1,178.499994552612,0|8,1:2|0:2,0:0:0:0:
109,122,181920,1,2,0:2:0:0:
155,181,182094,2,0,B|131:221|131:221|140:280,1,89.2499972763062,0|2,1:2|0:2,0:0:0:0:
285,384,182443,2,0,B|309:344|309:344|300:285,1,89.2499972763062,8|2,0:2|0:2,0:0:0:0:
486,221,182792,6,0,B|436:222|406:187|420:172|376:143|318:159,1,178.499994552612,0|8,1:2|0:2,0:0:0:0:
313,163,183228,2,0,P|277:177|238:185,1,44.6249986381531,2|2,0:2|0:2,0:0:0:0:
157,3,183490,6,0,P|149:85|118:204,1,178.499994552612,0|8,1:2|0:2,0:0:0:0:
0,250,184013,1,0,0:2:0:0:
261,384,184187,6,0,P|248:323|135:301,1,178.499994552612,2|8,1:2|0:2,0:0:0:0:
146,294,184710,1,0,0:2:0:0:
347,306,184885,6,0,P|392:292|451:286,1,89.2499972763062,2|0,1:2|0:2,0:0:0:0:
441,72,185234,2,0,P|404:89|379:174,1,133.874995914459,10|0,0:2|0:2,0:0:0:0:
378,172,185583,6,0,B|288:174|314:115|210:118,1,178.499994552612,6|0,1:2|1:2,0:0:0:0:
53,45,186106,1,10,0:2:0:0:
83,135,186280,1,0,0:2:0:0:
115,227,186455,1,0,0:2:0:0:
9,358,186629,6,0,P|81:333|193:308,1,178.499994552612,2|0,1:2|1:2,0:0:0:0:
438,277,187152,1,10,0:2:0:0:
270,202,187327,1,0,0:2:0:0:
318,384,187501,1,0,1:2:0:0:
395,178,187676,5,10,0:2:0:0:
395,178,187850,1,0,1:2:0:0:
181,309,188024,5,10,0:2:0:0:
152,239,188199,1,0,0:2:0:0:
512,289,188373,6,0,P|416:262|321:242,1,178.499994552612,6|8,1:2|0:2,0:0:0:0:
196,119,188896,2,0,P|260:60|347:68,1,178.499994552612,2|2,0:2|1:2,0:0:0:0:
85,63,189419,1,10,0:2:0:0:
109,268,189593,5,6,1:2:0:0:
257,185,189768,2,0,P|298:180|366:162,1,89.2499972763062,2|8,0:2|0:2,0:0:0:0:
197,318,190117,1,0,1:2:0:0:
59,155,190291,1,2,1:2:0:0:
59,155,190378,1,2,3:2:0:0:
59,155,190466,1,10,0:2:0:0:
23,359,190640,1,2,0:2:0:0:
168,219,190814,1,10,0:2:0:0:
304,318,190989,1,8,0:2:0:0:
318,323,191076,1,8,0:2:0:0:
333,330,191163,6,0,P|343:289|367:233,1,89.2499972763062,6|2,1:2|0:2,0:0:0:0:
506,119,191512,2,0,P|472:147|419:142,1,89.2499972763062,10|2,0:2|0:2,0:0:0:0:
262,2,191861,1,2,1:2:0:0:
213,62,192035,2,0,P|161:80|112:89,1,89.2499972763062,2|8,0:2|0:2,0:0:0:0:
215,290,192384,6,0,B|242:194|291:237|300:114,1,178.499994552612,2|2,0:2|0:2,0:0:0:0:
298,137,192820,1,2,0:2:0:0:
255,130,192907,1,10,0:2:0:0:
212,141,192994,1,2,0:2:0:0:
177,169,193081,1,2,0:2:0:0:
158,209,193168,1,2,0:2:0:0:
145,228,193256,6,0,P|141:256|130:284,1,44.6249986381531,2|2,1:2|0:2,0:0:0:0:
10,353,193431,2,0,P|32:324|75:304,1,44.6249986381531,2|2,0:2|0:2,0:0:0:0:
163,344,193605,1,10,0:2:0:0:
204,359,193692,1,2,0:2:0:0:
247,354,193779,1,2,0:2:0:0:
283,328,193866,1,2,0:2:0:0:
302,288,193954,6,0,P|357:299|412:320,1,89.2499972763062,2|0,1:2|0:2,0:0:0:0:
495,112,194303,2,0,B|479:134|479:134|480:182,1,44.6249986381531,10|0,0:2|0:2,0:0:0:0:
479,151,194477,2,0,B|395:160|405:204|307:207,1,178.499994552612,2|0,0:2|0:2,0:0:0:0:
189,54,195000,2,0,B|213:91|213:91|195:172,1,89.2499972763062,8|0,0:2|0:2,0:0:0:0:
22,227,195349,5,2,1:2:0:0:
70,222,195466,1,2,0:2:0:0:
116,241,195582,1,2,0:2:0:0:
135,290,195698,1,10,0:2:0:0:
161,332,195814,1,2,0:2:0:0:
208,352,195931,1,2,0:2:0:0:
255,338,196047,1,2,1:2:0:0:
294,299,196163,1,2,0:2:0:0:
346,280,196279,1,2,0:2:0:0:
403,286,196396,1,10,0:2:0:0:
452,325,196512,1,2,0:2:0:0:
467,377,196628,1,2,0:2:0:0:
467,377,196745,6,0,B|465:313|501:268|501:268|459:192,1,178.499994552612,6|8,1:2|0:2,0:0:0:0:
311,165,197268,1,0,0:2:0:0:
369,112,197442,2,0,P|380:75|407:8,1,89.2499972763062,0|0,1:2|0:2,0:0:0:0:
183,157,197791,1,8,0:2:0:0:
244,204,197966,1,2,0:2:0:0:
356,299,198140,6,0,B|277:304|270:361|161:348,1,178.499994552612,0|10,1:2|0:2,0:0:0:0:
22,246,198663,1,0,0:2:0:0:
210,147,198838,1,2,1:2:0:0:
186,221,199012,1,0,0:2:0:0:
69,98,199186,2,0,P|61:58|38:-22,1,89.2499972763062,10|0,0:2|0:2,0:0:0:0:
285,196,199535,6,0,B|348:213|348:213|373:255|373:255|449:278,1,178.499994552612,2|10,1:2|0:2,0:0:0:0:
208,374,200059,2,0,P|166:370|125:308,1,89.2499972763062,2|0,0:2|1:2,0:0:0:0:
210,147,200407,1,0,1:2:0:0:
0,227,200582,1,10,0:2:0:0:
60,278,200756,6,0,B|160:275|128:222|233:219,1,178.499994552612,6|0,1:2|1:2,0:0:0:0:
360,73,201279,2,0,B|365:55|365:55|349:31,1,44.6249986381531,8|8,0:0|0:0,0:0:0:0:
280,53,201454,1,8,0:3:0:0:
265,49,201541,1,4,0:3:0:0:
248,44,201628,1,0,1:2:0:0:
331,213,201803,1,0,1:2:0:0:
136,153,201977,2,0,P|125:112|104:53,1,89.2499972763062,10|8,0:2|0:3,0:0:0:0:
109,67,202239,1,8,0:3:0:0:
109,67,202326,6,0,P|72:83|52:201,1,133.874995914459,6|0,1:2|0:2,0:0:0:0:
38,165,202675,2,0,B|86:165|86:165|154:205,1,89.2499972763062,8|0,0:2|0:2,0:0:0:0:
241,280,203024,1,2,1:2:0:0:
241,280,203140,1,2,0:2:0:0:
241,280,203256,1,2,0:2:0:0:
241,280,203373,2,0,P|228:314|220:359,2,59.4999981842042,10|2|2,0:2|0:2|0:0,0:0:0:0:
493,293,203721,6,0,B|417:274|438:230|328:209,1,178.499994552612,2|8,1:2|0:2,0:0:0:0:
306,182,204157,1,2,0:2:0:0:
276,175,204245,1,2,0:2:0:0:
244,181,204332,1,2,0:2:0:0:
216,201,204419,1,2,1:2:0:0:
91,136,204593,2,0,P|71:131|33:114,1,44.6249986381531,2|2,0:2|0:2,0:0:0:0:
48,122,204768,6,0,B|65:146|65:146|64:183,1,44.6249986381531,8|0,1:2|0:2,0:0:0:0:
21,224,204942,1,2,0:2:0:0:
21,224,205029,1,2,0:2:0:0:
21,224,205117,2,0,B|59:293|13:298|45:391,1,133.874995914459,0|0,1:2|0:2,0:0:0:0:
35,354,205466,2,0,P|73:337|141:322,1,89.2499972763062,8|0,0:2|0:2,0:0:0:0:
244,219,205814,1,2,1:2:0:0:
244,219,205931,1,2,0:2:0:0:
244,219,206047,1,2,0:2:0:0:
244,219,206163,2,0,P|231:173|208:120,2,59.4999981842042,10|2|2,0:2|0:2|0:0,0:0:0:0:
341,298,206512,6,0,B|402:313|402:313|436:358|436:358|510:378,1,178.499994552612,2|10,1:2|0:2,0:0:0:0:
361,165,207035,1,0,0:2:0:0:
186,320,207210,2,0,P|141:333|80:365,1,89.2499972763062,2|0,1:2|0:2,0:0:0:0:
222,124,207559,2,0,B|253:158|253:158|246:237,1,89.2499972763062,10|0,0:2|0:2,0:0:0:0:
26,177,207907,6,0,B|41:88|95:127|90:2,1,178.499994552612,2|8,1:2|0:2,0:0:0:0:
229,132,208431,1,2,3:2:0:0:
229,132,208518,1,2,3:2:0:0:
229,132,208605,1,0,1:2:0:0:
329,157,208779,1,2,0:2:0:0:
384,79,208954,1,10,0:2:0:0:
281,46,209128,1,2,0:2:0:0:
323,245,209303,6,0,P|401:209|489:185,1,178.499994552612,0|8,1:2|0:2,0:0:0:0:
490,185,209826,1,0,0:2:0:0:
341,371,210000,1,2,1:2:0:0:
242,290,210175,1,2,0:2:0:0:
125,243,210349,1,10,0:2:0:0:
0,247,210524,1,2,0:2:0:0:
155,345,210698,6,0,P|196:290|183:158,1,178.499994552612,2|8,1:2|0:2,0:0:0:0:
0,136,211221,1,0,0:2:0:0:
54,78,211396,2,0,P|109:97|166:125,1,89.2499972763062,2|2,1:2|0:2,0:0:0:0:
137,109,211657,1,2,0:2:0:0:
137,109,211745,2,0,B|179:87|179:87|236:94,1,89.2499972763062,8|0,0:2|0:2,0:0:0:0:
465,33,212093,5,8,0:2:0:0:
477,75,212180,1,8,0:2:0:0:
466,117,212267,1,8,0:3:0:0:
434,148,212354,1,4,0:3:0:0:
391,159,212442,1,8,0:2:0:0:
348,171,212529,1,8,0:2:0:0:
317,202,212616,1,8,0:3:0:0:
305,245,212703,1,4,0:3:0:0:
315,288,212791,2,0,P|338:304|387:313,1,44.6249986381531,12|0,0:3|0:2,0:0:0:0:
184,320,212966,5,8,0:2:0:0:
151,305,213053,1,8,0:2:0:0:
116,300,213140,1,8,0:3:0:0:
81,305,213227,1,8,0:3:0:0:
48,320,213314,1,4,0:3:0:0:
21,343,213402,1,4,0:3:0:0:
1,372,213489,6,0,B|15:280|58:313|64:186,1,178.499994552612,6|8,1:2|0:2,0:0:0:0:
6,39,214012,1,0,0:2:0:0:
77,68,214186,2,0,P|126:54|176:34,1,89.2499972763062,2|0,1:2|0:2,0:0:0:0:
292,142,214535,2,0,B|304:189|304:189|261:252,1,89.2499972763062,10|0,0:2|0:2,0:0:0:0:
112,365,214884,6,0,P|143:306|227:292,1,133.874995914459,2|0,1:2|0:2,0:0:0:0:
203,286,215233,2,0,P|195:238|172:184,1,89.2499972763062,10|0,0:2|0:2,0:0:0:0:
332,340,215582,2,0,P|369:355|423:367,1,89.2499972763062,2|0,1:2|0:2,0:0:0:0:
82,240,215931,2,0,P|35:254|-15:283,1,89.2499972763062,10|0,0:2|0:2,0:0:0:0:
294,101,216279,6,0,P|308:69|322:7,1,89.2499972763062,2|0,1:2|3:2,0:0:0:0:
320,16,216541,1,0,3:2:0:0:
320,16,216628,2,0,B|317:58|317:58|348:114,1,89.2499972763062,10|0,0:2|0:2,0:0:0:0:
512,230,216977,2,0,P|475:216|386:194,1,89.2499972763062,0|0,1:2|0:2,0:0:0:0:
131,329,217326,2,0,P|168:343|257:365,1,89.2499972763062,10|0,0:2|0:2,0:0:0:0:
186,113,217675,6,0,P|105:126|43:220,1,178.499994552612,2|0,1:2|1:2,0:0:0:0:
306,15,218198,1,8,0:2:0:0:
285,281,218373,1,8,0:2:0:0:
260,244,218460,1,8,0:2:0:0:
251,200,218547,1,8,0:3:0:0:
260,157,218634,1,8,0:3:0:0:
284,120,218721,1,8,0:2:0:0:
460,182,218896,1,4,0:3:0:0:
441,185,218983,1,4,0:3:0:0:
424,191,219070,1,6,0:2:0:0:
251,28,228663,6,0,P|257:62|272:110,1,68,8|0,0:2|0:2,0:0:0:0:
85,218,229012,1,0,1:2:0:0:
111,150,229186,1,0,1:2:0:0:
254,213,229361,2,0,B|327:224|310:258|409:266,1,136,8|0,0:2|0:2,0:0:0:0:
512,234,229884,2,0,B|497:266|497:266|504:317,1,68,2|0,0:2|0:2,0:0:0:0:
286,375,230233,6,0,P|197:346|107:326,1,178.499994552612,6|8,1:2|0:2,0:0:0:0:
0,155,230756,1,2,0:2:0:0:
50,214,230931,2,0,P|110:206|140:174,1,89.2499972763062,2|0,1:2|0:0,0:0:0:0:
325,4,231279,2,0,P|307:47|297:125,1,89.2499972763062,8|0,0:2|0:2,0:0:0:0:
257,280,231628,6,0,B|234:243|234:243|254:170,1,89.2499972763062,2|0,1:2|0:2,0:0:0:0:
390,252,231977,2,0,P|453:263|516:310,1,133.874995914459,10|0,0:2|0:2,0:0:0:0:
509,302,232326,2,0,P|493:336|481:407,1,89.2499972763062,2|0,1:2|0:2,0:0:0:0:
257,280,232675,2,0,P|212:298|141:307,1,89.2499972763062,10|0,0:2|0:0,0:0:0:0:
0,165,233024,6,0,B|57:178|93:146|81:112|152:96|193:122,1,178.499994552612,2|8,1:2|0:2,0:0:0:0:
364,122,233547,1,2,0:2:0:0:
274,197,233721,2,0,P|267:118|242:3,1,178.499994552612,2|8,1:2|0:2,0:0:0:0:
452,150,234245,1,0,0:0:0:0:
357,227,234419,6,0,P|318:217|262:189,1,89.2499972763062,2|0,1:2|0:2,0:0:0:0:
55,20,234768,2,0,P|82:62|103:133,1,89.2499972763062,10|0,0:2|0:2,0:0:0:0:
152,257,235117,1,2,1:2:0:0:
147,273,235204,2,0,P|131:315|97:365,1,89.2499972763062,8|0,0:2|0:2,0:0:0:0:
107,352,235466,1,10,0:2:0:0:
6,177,235640,1,0,0:2:0:0:
228,275,235814,6,0,B|290:283|323:250|315:237|342:200|426:219,1,178.499994552612,2|8,1:2|0:2,0:0:0:0:
494,86,236338,1,0,0:0:0:0:
419,108,236512,2,0,B|361:93|361:93|328:52|328:52|244:32,1,178.499994552612,0|10,1:2|0:2,0:0:0:0:
85,7,237035,6,0,P|100:62|129:196,1,178.499994552612,2|0,0:2|0:0,0:0:0:0:
25,325,237559,2,0,P|47:289|109:272,1,89.2499972763062,10|0,0:2|0:2,0:0:0:0:
261,349,237907,2,0,P|311:357|374:382,1,89.2499972763062,2|0,1:2|0:2,0:0:0:0:
226,169,238256,2,0,P|254:144|294:87,1,89.2499972763062,10|0,0:2|0:2,0:0:0:0:
512,223,238605,6,0,P|434:229|323:257,1,178.499994552612,2|10,1:2|0:2,0:0:0:0:
153,384,239128,2,0,P|128:382|91:327,1,89.2499972763062,2|0,0:2|1:2,0:0:0:0:
226,169,239477,2,0,P|213:208|205:280,1,89.2499972763062,10|0,0:2|0:2,0:0:0:0:
10,184,239826,6,0,B|-8:103|51:101|14:-4,1,178.499994552612,4|0,1:2|1:2,0:0:0:0:
226,169,240349,1,8,0:2:0:0:
97,109,240524,1,8,0:3:0:0:
116,105,240611,1,8,0:3:0:0:
137,100,240698,1,2,1:2:0:0:
245,17,240873,2,0,L|234:62,1,44.6249986381531,0|0,1:2|0:2,0:0:0:0:
199,231,241047,2,0,L|188:186,1,44.6249986381531,10|0,0:2|0:2,0:0:0:0:
321,117,241221,1,0,0:2:0:0:
96,199,241396,5,10,0:2:0:0:
109,277,241570,1,0,0:2:0:0:
416,199,241745,5,8,0:2:0:0:
403,277,241919,1,0,0:2:0:0:
68,87,242093,5,8,0:2:0:0:
81,165,242267,1,0,1:2:0:0:
444,87,242442,5,10,0:2:0:0:
431,165,242616,1,0,1:2:0:0:
200,26,242791,6,0,P|253:19|309:0,1,89.2499972763062,10|0,0:2|0:2,0:0:0:0:
143,262,243140,5,8,0:2:0:0:
66,240,243314,1,2,0:2:0:0:
354,143,243489,5,8,0:2:0:0:
431,165,243663,1,0,1:2:0:0:
79,316,243838,5,10,0:2:0:0:
2,338,244012,1,0,1:2:0:0:
415,88,244186,5,14,0:2:0:0:
198,103,245582,6,0,P|225:175|240:290,1,178.499994552612,2|0,0:2|0:2,0:0:0:0:
317,326,246279,2,0,P|381:333|410:221,1,178.499994552612,2|0,0:2|0:2,0:0:0:0:
165,201,246977,6,0,B|112:197|93:142|6:132,1,170,6|8,1:2|0:2,0:0:0:0:
202,17,247500,1,0,0:2:0:0:
243,81,247675,2,0,B|218:119|218:119|228:182,1,85,0|0,1:2|0:2,0:0:0:0:
82,226,248024,2,0,P|42:234|-22:255,1,85,8|0,0:2|0:2,0:0:0:0:
184,384,248373,6,0,P|250:371|264:261,1,170,2|8,1:2|0:2,0:0:0:0:
208,242,248896,1,0,0:2:0:0:
386,136,249070,2,0,P|376:181|359:245,1,85,2|0,1:2|0:2,0:0:0:0:
463,384,249419,2,0,P|473:339|490:275,1,85,8|0,0:2|0:2,0:0:0:0:
275,281,249768,6,0,B|195:286|212:336|104:338,1,170,2|8,1:2|0:2,0:0:0:0:
81,147,250291,1,0,0:2:0:0:
13,189,250466,2,0,P|44:237|128:238,1,127.5,0|0,1:2|0:2,0:0:0:0:
109,246,250814,2,0,B|151:225|151:225|206:232,1,85,8|0,0:2|0:2,0:0:0:0:
320,127,251163,6,0,P|390:151|492:174,1,170,2|8,1:2|0:2,0:0:0:0:
198,29,251686,1,0,0:2:0:0:
231,163,251861,1,2,1:2:0:0:
233,172,251948,2,0,P|226:217|201:267,1,85,8|0,0:2|0:2,0:0:0:0:
210,252,252210,1,8,0:2:0:0:
379,221,252384,1,0,0:2:0:0:
254,376,252559,6,0,B|209:393|160:369|185:350|131:322|74:344,1,170,2|8,1:2|0:2,0:0:0:0:
40,171,253082,1,0,0:2:0:0:
8,259,253256,2,0,P|93:241|197:223,1,170,0|8,1:2|0:2,0:0:0:0:
301,113,253779,1,0,0:2:0:0:
178,29,253954,6,0,P|190:68|207:134,1,85,2|0,1:2|0:2,0:0:0:0:
372,243,254303,2,0,B|394:209|394:209|371:149,1,85,8|0,0:2|0:2,0:0:0:0:
199,305,254652,2,0,P|124:319|61:352,1,127.5,2|0,1:2|0:2,0:0:0:0:
78,340,255000,2,0,P|48:341|14:294,1,85,8|0,0:2|0:2,0:0:0:0:
282,222,255349,6,0,P|247:311|238:400,1,170,2|8,1:2|0:2,0:0:0:0:
161,202,255873,1,0,0:2:0:0:
353,318,256047,1,0,1:2:0:0:
416,274,256221,2,0,P|423:237|376:173,1,85,8|0,0:2|0:2,0:0:0:0:
161,295,256570,6,0,B|77:285|106:236|-2:231,1,170,2|0,1:2|1:2,0:0:0:0:
159,112,257093,1,10,0:2:0:0:
56,48,257268,2,0,B|83:83|83:83|75:156,1,85,2|0,1:2|0:2,0:0:0:0:
209,218,257617,5,8,0:2:0:0:
247,234,257704,1,8,0:2:0:0:
290,232,257791,1,8,0:3:0:0:
327,213,257878,1,8,0:3:0:0:
353,180,257965,1,8,0:0:0:0:
363,139,258053,1,8,0:0:0:0:
355,97,258140,6,0,P|260:76|166:43,1,170,6|8,1:2|0:2,0:0:0:0:
85,213,258663,1,0,0:2:0:0:
31,158,258838,2,0,B|45:117|45:117|17:56,1,85,0|0,1:2|0:2,0:0:0:0:
210,176,259186,2,0,P|197:210|184:291,1,85,8|0,0:2|0:2,0:0:0:0:
0,384,259535,6,0,P|73:315|154:325,1,170,2|8,1:2|0:2,0:0:0:0:
304,375,260059,1,0,0:2:0:0:
354,318,260233,2,0,B|363:276|363:276|332:220,1,85,2|0,1:2|0:2,0:0:0:0:
208,181,260582,2,0,P|157:194|63:229,1,127.5,8|0,0:2|0:0,0:0:0:0:
86,218,260931,6,0,P|68:153|171:114,1,170,2|8,1:2|0:2,0:0:0:0:
344,94,261454,1,0,0:2:0:0:
277,23,261628,2,0,P|269:62|242:122,1,85,0|0,1:2|0:0,0:0:0:0:
413,294,261977,2,0,P|421:255|448:195,1,85,8|0,0:2|0:2,0:0:0:0:
290,230,262326,6,0,P|239:211|184:200,1,85,2|0,1:2|0:0,0:0:0:0:
390,32,262675,2,0,P|441:51|496:62,1,85,8|0,0:2|0:2,0:0:0:0:
221,106,263024,1,2,1:2:0:0:
217,96,263111,2,0,P|206:61|181:8,1,85,8|0,0:2|0:2,0:0:0:0:
186,17,263373,1,8,0:2:0:0:
48,49,263547,1,0,0:2:0:0:
130,183,263721,6,0,B|225:192|195:253|307:252,1,170,2|8,1:2|0:2,0:0:0:0:
403,359,264245,2,0,P|453:327|424:227,1,170,2|0,0:2|0:0,0:0:0:0:
258,169,264768,2,0,P|273:210|284:289,1,85,8|0,0:2|0:2,0:0:0:0:
196,359,265117,1,2,1:2:0:0:
35,209,265291,5,2,0:2:0:0:
35,209,265466,2,0,P|83:198|147:170,1,85,8|2,0:2|0:2,0:0:0:0:
243,6,265814,2,0,P|195:17|131:45,1,85,2|0,1:2|0:0,0:0:0:0:
281,250,266163,2,0,P|299:212|306:139,1,85,10|0,0:2|0:2,0:0:0:0:
342,374,266512,5,2,1:2:0:0:
240,340,266686,1,0,0:0:0:0:
136,298,266861,1,8,0:2:0:0:
13,332,267035,5,2,0:2:0:0:
136,181,267210,1,0,1:2:0:0:
78,128,267384,2,0,P|69:83|52:19,1,85,8|0,0:2|0:2,0:0:0:0:
248,212,267733,6,0,B|304:214|338:191|319:176|370:139|435:171,1,170,2|0,1:2|1:2,0:0:0:0:
301,61,268256,1,8,0:0:0:0:
387,246,268431,1,8,0:3:0:0:
379,266,268518,1,8,0:3:0:0:
374,290,268605,1,0,1:2:0:0:
479,372,268779,2,0,L|426:358,1,42.5,0|0,1:2|0:2,0:0:0:0:
250,285,268954,2,0,L|303:271,1,42.5,8|0,0:2|0:2,0:0:0:0:
340,376,269128,1,0,0:2:0:0:
418,235,269303,5,10,0:2:0:0:
404,161,269477,1,0,0:2:0:0:
94,235,269652,5,8,0:2:0:0:
108,161,269826,1,0,0:2:0:0:
454,334,270000,5,10,0:2:0:0:
440,260,270174,1,0,1:2:0:0:
58,334,270349,5,8,0:2:0:0:
72,260,270523,1,0,1:2:0:0:
228,136,270698,5,10,0:2:0:0:
313,178,270873,1,2,0:2:0:0:
269,260,271047,1,10,0:2:0:0:
185,216,271221,1,2,0:2:0:0:
330,76,271396,5,10,0:2:0:0:
407,55,271570,1,0,1:2:0:0:
178,330,271745,5,10,0:2:0:0:
101,351,271919,1,2,1:2:0:0:
267,187,272093,6,0,P|323:200|506:268,1,237.999992736817,6|2,1:2|0:2,0:0:0:0:
270,34,273489,2,0,P|209:37|161:109,1,148.74999546051,2|0,0:2|0:2,0:0:0:0:
161,104,274012,1,0,1:2:0:0:
66,185,274186,2,0,P|46:183|3:167,1,59.4999981842042,8|0,0:2|0:2,0:0:0:0:
8,170,274419,6,0,P|35:183|58:222,1,50.9999984436036,8|0,0:3|0:2,0:0:0:0:
104,245,274652,6,0,P|107:277|89:315,1,50.9999984436036,4|0,0:3|0:2,0:0:0:0:
37,340,274884,5,6,1:2:0:0:
256,192,274971,12,0,278460,0:2:0:0:
