osu file format v14

[General]
AudioFilename: audio.mp3
AudioLeadIn: 0
PreviewTime: 248128
Countdown: 0
SampleSet: Drum
StackLeniency: 0.4
Mode: 0
LetterboxInBreaks: 0
WidescreenStoryboard: 1

[Editor]
DistanceSpacing: 0.8
BeatDivisor: 4
GridSize: 16
TimelineZoom: 2.5

[Metadata]
Title:Braking Down
TitleUnicode:Braking Down
Artist:Pratanallis
ArtistUnicode:Pratanallis
Creator:Livermorium
Version:The Dawn that Breaks the Sorrowful Moonlight
Source:
Tags:holy fragments japanese symphonic metal rock 3rd doujin featured artist fa jrock reiage れいあじゅ c94 hinode きょーこ kyoko
BeatmapID:3088767
BeatmapSetID:1508068

[Difficulty]
HPDrainRate:5
CircleSize:4.5
OverallDifficulty:9.5
ApproachRate:9.5
SliderMultiplier:1.9
SliderTickRate:1

[Events]
//Background and Video events
0,0,"bg.jpg",0,0
//Break Periods
//Storyboard Layer 0 (Background)
//Storyboard Layer 1 (Fail)
//Storyboard Layer 2 (Pass)
//Storyboard Layer 3 (Foreground)
//Storyboard Layer 4 (Overlay)
//Storyboard Sound Samples

[TimingPoints]
3076,315.789473684211,4,3,1,50,1,0
3076,-133.333333333333,4,3,98,50,0,0
3391,-133.333333333333,4,3,2,50,0,0
8128,-121.951219512195,4,3,98,60,0,0
8444,-121.951219512195,4,3,2,60,0,0
10444,-121.951219512195,4,3,2,60,0,0
10549,-121.951219512195,4,3,2,60,0,0
10654,-121.951219512195,4,3,2,60,0,0
10760,-121.951219512195,4,3,2,60,0,0
10865,-121.951219512195,4,3,2,60,0,0
10970,-121.951219512195,4,3,2,60,0,0
11076,-121.951219512195,4,3,2,60,0,0
11181,-121.951219512195,4,3,2,60,0,0
11286,-121.951219512195,4,3,2,60,0,0
11391,-121.951219512195,4,3,2,60,0,0
11497,-121.951219512195,4,3,2,60,0,0
11602,-121.951219512195,4,3,2,60,0,0
11918,-76.9230769230769,4,3,98,70,0,0
11997,-76.9230769230769,4,3,1,70,0,0
12391,-66.6666666666667,4,3,80,70,0,1
12628,-66.6666666666667,4,3,1,5,0,0
12707,-66.6666666666667,4,3,1,70,0,0
12865,-76.9230769230769,4,3,1,70,0,0
13023,-83.3333333333333,4,3,1,70,0,0
13181,-90.9090909090909,4,3,2,80,0,0
18470,-90.9090909090909,4,3,2,5,0,0
18549,-90.9090909090909,4,3,2,80,0,0
20997,-90.9090909090909,4,3,2,5,0,0
21076,-90.9090909090909,4,3,2,80,0,0
28339,-90.9090909090909,4,3,99,80,0,1
28497,-90.9090909090909,4,3,99,80,0,0
28654,-90.9090909090909,4,3,2,80,0,0
29602,-90.9090909090909,4,3,99,80,0,1
29760,-90.9090909090909,4,3,99,80,0,0
29918,-90.9090909090909,4,3,2,80,0,0
30865,-100,4,3,1,80,0,0
32233,-100,4,3,2,80,0,0
32444,-100,4,3,1,80,0,0
32549,-100,4,3,2,80,0,0
32760,-100,4,3,1,80,0,0
32865,-100,4,3,2,80,0,0
33076,-100,4,3,1,80,0,0
33181,-100,4,3,2,80,0,0
33391,-100,4,3,1,80,0,0
33865,-100,4,3,2,80,0,0
34023,-100,4,3,1,80,0,0
34654,-200,4,3,1,70,0,0
34733,-200,4,3,1,5,0,0
34812,-133.333333333333,4,3,2,30,0,0
34891,-133.333333333333,4,3,2,5,0,0
34970,-100,4,3,2,45,0,0
35049,-100,4,3,2,5,0,0
35128,-80,4,3,2,60,0,0
35207,-80,4,3,2,5,0,0
35286,-71.4285714285714,4,3,80,70,0,0
35839,-71.4285714285714,4,3,80,5,0,0
35918,-111.111111111111,4,3,1,55,0,0
37418,-111.111111111111,4,3,1,5,0,0
37497,-111.111111111111,4,3,1,55,0,0
38681,-111.111111111111,4,3,1,5,0,0
38760,-111.111111111111,4,3,1,55,0,0
39312,-111.111111111111,4,3,1,5,0,0
39391,-111.111111111111,4,3,1,55,0,0
40654,-90.9090909090909,4,3,99,65,0,0
40970,-111.111111111111,4,3,1,55,0,0
42470,-111.111111111111,4,3,1,5,0,0
42549,-111.111111111111,4,3,1,55,0,0
43497,-111.111111111111,4,3,1,60,0,0
46023,-111.111111111111,4,3,1,55,0,0
47207,-111.111111111111,4,3,1,5,0,0
47286,-111.111111111111,4,3,1,55,0,0
49733,-111.111111111111,4,3,1,5,0,0
49812,-111.111111111111,4,3,1,55,0,0
52260,-111.111111111111,4,3,1,5,0,0
52339,-111.111111111111,4,3,1,55,0,0
53602,-111.111111111111,4,3,1,60,0,0
54391,-90.9090909090909,4,3,98,65,0,0
54707,-90.9090909090909,4,3,1,65,0,0
55023,-90.9090909090909,4,3,70,65,0,0
55497,-90.9090909090909,4,3,70,60,0,0
55654,-90.9090909090909,4,3,70,53,0,0
55812,-90.9090909090909,4,3,70,46,0,0
55970,-90.9090909090909,4,3,70,39,0,0
56128,-125,4,3,1,50,0,0
56286,-125,4,3,3,50,0,0
57628,-125,4,3,3,5,0,0
57707,-125,4,3,3,50,0,0
61023,-125,4,3,1,50,0,0
61181,-125,4,3,3,50,0,0
64891,-125,4,3,3,5,0,0
64970,-125,4,3,3,50,0,0
65760,-125,4,3,70,50,0,0
66233,-125,4,3,1,50,0,0
66391,-125,4,3,3,50,0,0
67733,-125,4,3,3,5,0,0
67812,-125,4,3,3,50,0,0
70260,-125,4,3,3,5,0,0
70339,-125,4,3,3,50,0,0
71286,-125,4,3,1,50,0,0
71602,-125,4,3,3,50,0,0
72470,-125,4,3,3,5,0,0
72549,-125,4,3,3,50,0,0
73339,-111.111111111111,4,3,3,50,0,0
73576,-125,4,3,3,5,0,0
73654,-125,4,3,3,50,0,0
75865,-125,4,3,1,50,0,0
76023,-125,4,3,1,60,0,0
76339,-111.111111111111,4,3,1,65,0,0
77839,-111.111111111111,4,3,1,5,0,0
77918,-111.111111111111,4,3,1,65,0,0
79102,-111.111111111111,4,3,1,5,0,0
79181,-111.111111111111,4,3,1,65,0,0
79733,-111.111111111111,4,3,1,5,0,0
79812,-111.111111111111,4,3,1,65,0,0
81076,-111.111111111111,4,3,99,65,0,0
81391,-111.111111111111,4,3,1,65,0,0
81628,-111.111111111111,4,3,1,5,0,0
81707,-111.111111111111,4,3,1,65,0,0
82891,-111.111111111111,4,3,1,5,0,0
82970,-111.111111111111,4,3,1,65,0,0
87628,-111.111111111111,4,3,1,5,0,0
87707,-111.111111111111,4,3,1,65,0,0
90154,-111.111111111111,4,3,1,5,0,0
90233,-111.111111111111,4,3,1,65,0,0
94023,-90.9090909090909,4,3,99,65,0,0
94181,-90.9090909090909,4,3,1,70,0,0
94576,-90.9090909090909,4,3,1,5,0,0
94654,-90.9090909090909,4,3,1,70,0,0
94891,-90.9090909090909,4,3,1,5,0,0
94970,-90.9090909090909,4,3,1,70,0,0
95128,-83.3333333333333,4,3,99,70,0,0
95444,-90.9090909090909,4,3,1,70,0,0
95918,-90.9090909090909,4,3,70,70,0,0
96076,-90.9090909090909,4,3,70,63,0,0
96233,-90.9090909090909,4,3,70,56,0,0
96391,-90.9090909090909,4,3,70,49,0,0
96549,-125,4,3,80,65,0,0
96865,-125,4,3,3,55,0,0
100576,-125,4,3,3,5,0,0
100654,-125,4,3,3,55,0,0
101444,-125,4,3,1,55,0,0
101602,-125,4,3,3,55,0,0
103102,-125,4,3,3,5,0,0
103181,-125,4,3,3,55,0,0
103654,-111.111111111111,4,3,3,55,0,0
103891,-125,4,3,3,5,0,0
103970,-125,4,3,3,55,0,0
105312,-125,4,3,3,5,0,0
105391,-125,4,3,3,55,0,0
106181,-125,4,3,70,55,0,0
106654,-125,4,3,1,55,0,0
106970,-125,4,3,3,55,0,0
111549,-125,4,3,1,55,0,0
112023,-125,4,3,3,55,0,0
113760,-111.111111111111,4,3,3,55,0,0
113997,-125,4,3,3,5,0,0
114076,-125,4,3,3,55,0,0
115497,-125,4,3,98,55,0,0
115576,-125,4,3,2,55,0,0
116760,-90.9090909090909,4,3,1,85,0,1
117944,-90.9090909090909,4,3,1,5,0,1
118023,-90.9090909090909,4,3,1,85,0,1
126549,-90.9090909090909,4,3,99,85,0,1
126707,-90.9090909090909,4,3,1,85,0,1
126865,-90.9090909090909,4,3,1,85,0,1
128365,-90.9090909090909,4,3,1,5,0,1
128444,-90.9090909090909,4,3,1,85,0,1
134444,-76.9230769230769,4,3,1,85,0,0
134918,-71.4285714285714,4,3,99,85,0,0
134997,-71.4285714285714,4,3,99,5,0,0
135233,-71.4285714285714,4,3,99,85,0,0
135312,-71.4285714285714,4,3,99,5,0,0
135549,-71.4285714285714,4,3,1,85,0,0
135786,-71.4285714285714,4,3,1,5,0,0
135865,-71.4285714285714,4,3,1,85,0,0
136418,-71.4285714285714,4,3,1,5,0,0
136497,-66.6666666666667,4,3,1,85,0,0
136576,-66.6666666666667,4,3,1,5,0,0
136654,-83.3333333333333,4,3,1,85,0,0
136733,-83.3333333333333,4,3,1,5,0,0
136812,-111.111111111111,4,3,1,85,0,0
136891,-111.111111111111,4,3,1,5,0,0
136970,-90.9090909090909,4,3,1,85,0,1
138154,-90.9090909090909,4,3,1,5,0,1
138233,-90.9090909090909,4,3,1,85,0,1
148576,-90.9090909090909,4,3,1,5,0,1
148654,-90.9090909090909,4,3,1,85,0,1
152128,-90.9090909090909,4,3,99,75,0,0
153076,-90.9090909090909,4,3,1,75,0,0
153391,-90.9090909090909,4,3,99,75,0,0
154654,-90.9090909090909,4,3,1,75,0,0
155444,-80,4,3,99,75,0,0
155681,-80,4,3,99,5,0,0
155760,-71.4285714285714,4,3,2,75,0,0
156391,-83.3333333333333,4,3,99,75,0,0
156549,-83.3333333333333,4,3,1,75,0,0
156865,-100,4,3,1,75,0,0
157181,-125,4,3,1,60,0,0
157497,-125,4,3,3,60,0,0
160891,-125,4,3,3,5,0,0
160970,-125,4,3,3,60,0,0
162233,-125,4,3,98,60,0,0
162549,-125,4,3,3,60,0,0
163497,-125,4,3,2,60,0,0
163812,-125,4,3,3,60,0,0
163970,-125,4,3,2,60,0,0
164444,-125,4,3,3,60,0,0
164602,-125,4,3,2,60,0,0
164760,-125,4,3,3,60,0,0
167286,-125,4,3,80,45,0,0
167602,-125,4,3,2,45,0,0
168549,-125,4,3,2,55,0,0
168865,-125,4,3,2,45,0,0
169812,-100,4,3,2,60,0,0
169918,-100,4,3,2,50,0,0
170128,-100,4,3,2,55,0,0
170233,-100,4,3,2,45,0,0
170444,-100,4,3,2,45,0,0
170549,-100,4,3,2,35,0,0
170760,-100,4,3,2,40,0,0
170865,-100,4,3,2,30,0,0
171076,-100,4,3,2,45,0,0
171391,-100,4,3,2,40,0,0
171707,-100,4,3,2,35,0,0
172023,-100,4,3,2,30,0,0
172339,-100,4,3,1,65,0,0
172654,-100,4,3,3,65,0,0
177391,-100,4,3,1,65,0,0
177707,-100,4,3,3,65,0,0
181497,-100,4,3,99,65,0,0
181654,-100,4,3,3,65,0,0
181812,-100,4,3,99,65,0,0
181970,-100,4,3,3,65,0,0
182128,-100,4,3,99,65,0,0
182444,-100,4,3,1,75,0,0
183391,-75.187969924812,4,3,99,75,0,0
183628,-100,4,3,1,5,0,0
183707,-105.263157894737,4,3,2,75,0,0
186470,-105.263157894737,4,3,2,5,0,0
186549,-105.263157894737,4,3,2,75,0,0
193812,-90.9090909090909,4,3,1,75,0,1
198865,-83.3333333333333,4,3,1,85,0,1
201391,-76.9230769230769,4,3,1,85,0,1
203918,-76.9230769230769,4,3,98,85,0,1
203997,-76.9230769230769,4,3,1,85,0,1
206444,-100,4,3,98,85,0,0
206523,-100,4,3,1,70,0,0
207628,-100,4,3,1,5,0,0
207707,-100,4,3,1,70,0,0
208891,-100,4,3,1,5,0,0
208970,-100,4,3,2,80,0,1
213707,-83.3333333333333,4,3,2,80,0,1
213944,-100,4,3,2,5,0,1
214023,-100,4,3,2,80,0,1
218128,-100,4,3,3,70,0,1
218444,-100,4,3,2,80,0,1
219076,-83.3333333333333,4,3,2,80,0,1
220970,-83.3333333333333,4,3,2,80,0,1
221286,-83.3333333333333,4,3,1,80,0,1
221602,-83.3333333333333,4,3,2,80,0,1
223497,-83.3333333333333,4,3,1,80,0,1
224128,-100,4,3,1,80,0,1
224760,-100,4,3,2,80,0,1
228654,-100,4,3,70,70,0,1
228760,-100,4,3,70,60,0,1
228865,-100,4,3,2,68,0,1
228970,-100,4,3,70,58,0,1
229076,-100,4,3,70,46,0,1
229181,-125,4,3,80,65,0,0
229497,-125,4,3,3,55,0,0
234233,-125,4,3,98,55,0,0
234549,-125,4,3,3,55,0,0
235733,-125,4,3,3,5,0,0
235812,-125,4,3,3,55,0,0
239286,-125,4,3,98,55,0,0
239602,-125,4,3,3,55,0,0
240786,-125,4,3,3,5,0,0
240865,-125,4,3,3,55,0,0
244339,-125,4,3,98,55,0,0
244654,-125,4,3,3,55,0,0
248128,-125,4,3,98,55,0,0
249391,-86.9565217391304,4,3,1,85,0,1
250576,-86.9565217391304,4,3,1,5,0,1
250654,-86.9565217391304,4,3,1,85,0,1
259181,-86.9565217391304,4,3,99,85,0,1
259339,-86.9565217391304,4,3,2,85,0,1
259497,-86.9565217391304,4,3,1,85,0,1
260997,-86.9565217391304,4,3,1,5,0,1
261076,-86.9565217391304,4,3,1,85,0,1
267076,-71.4285714285714,4,3,1,85,0,0
267549,-71.4285714285714,4,3,99,85,0,0
267628,-71.4285714285714,4,3,1,5,0,0
267865,-71.4285714285714,4,3,99,85,0,0
267944,-71.4285714285714,4,3,1,5,0,0
268181,-71.4285714285714,4,3,1,85,0,0
268418,-71.4285714285714,4,3,1,5,0,0
268497,-71.4285714285714,4,3,1,85,0,0
269049,-71.4285714285714,4,3,1,5,0,0
269128,-71.4285714285714,4,3,1,85,0,0
269207,-71.4285714285714,4,3,1,5,0,0
269286,-83.3333333333333,4,3,1,85,0,0
269365,-83.3333333333333,4,3,1,5,0,0
269444,-100,4,3,1,85,0,0
269523,-100,4,3,1,5,0,0
269602,-86.9565217391304,4,3,1,85,0,1
270786,-86.9565217391304,4,3,1,5,0,1
270865,-86.9565217391304,4,3,1,85,0,1
274891,-86.9565217391304,4,3,1,5,0,1
274970,-86.9565217391304,4,3,1,85,0,1
281207,-86.9565217391304,4,3,1,5,0,1
281286,-86.9565217391304,4,3,1,85,0,1
287286,-86.9565217391304,4,3,1,85,0,0
287760,-86.9565217391304,4,3,99,85,0,0
287918,-86.9565217391304,4,3,1,85,0,0
288233,-86.9565217391304,4,3,99,85,0,0
288391,-86.9565217391304,4,3,1,85,0,0
288549,-86.9565217391304,4,3,2,85,0,0
289812,-83.3333333333333,4,3,98,85,0,1
289891,-83.3333333333333,4,3,1,85,0,1
294865,-83.3333333333333,4,3,98,85,0,1
294944,-83.3333333333333,4,3,1,85,0,1
299918,-76.9230769230769,4,3,98,85,0,1
299997,-76.9230769230769,4,3,1,85,0,1
300076,-76.9230769230769,4,3,99,85,0,1
300154,-76.9230769230769,4,3,1,85,0,1
303707,-76.9230769230769,4,3,98,85,0,1
303786,-76.9230769230769,4,3,1,85,0,1
304654,-76.9230769230769,4,3,98,85,0,1
304733,-76.9230769230769,4,3,1,85,0,1
304970,-76.9230769230769,4,3,98,95,0,1
305049,-76.9230769230769,4,3,1,85,0,1
311286,-76.9230769230769,4,3,99,85,0,1
311365,-76.9230769230769,4,3,1,85,0,1
312233,-76.9230769230769,4,3,70,85,0,1
312549,-76.9230769230769,4,3,98,80,0,0
313181,-133.333333333333,4,3,2,45,0,0
314918,-133.333333333333,4,3,3,45,0,0
315076,-133.333333333333,4,3,2,56,0,0
315286,-133.333333333333,4,3,2,45,0,0
315391,-133.333333333333,4,3,2,41,0,0
315707,-133.333333333333,4,3,2,37,0,0
316023,-133.333333333333,4,3,2,33,0,0
316339,-133.333333333333,4,3,2,43,0,0

[Colours]
Combo1 : 68,111,255
Combo2 : 255,111,114
Combo3 : 255,66,222
Combo4 : 153,91,255

[HitObjects]
28,211,3076,6,0,B|60:204|88:228|88:228|101:221|101:221|130:245|160:239,1,142.500005435944,14|2,0:3|0:0,0:0:0:0:
159,239,3549,1,8,0:0:0:0:
300,299,3707,2,0,P|290:339|291:374,1,71.2500027179719,2|8,0:0|0:0,0:0:0:0:
152,335,4023,2,0,P|112:325|77:326,1,71.2500027179719,10|0,0:2|0:0,0:0:0:0:
257,225,4339,6,0,P|262:172|309:93,1,142.500005435944,10|0,0:0|0:0,0:0:0:0:
146,141,4812,2,0,P|141:106|135:71,1,71.2500027179719,10|0,0:0|0:2,0:0:0:0:
55,54,5128,1,10,0:0:0:0:
217,89,5286,2,0,P|224:44|231:8,1,71.2500027179719,10|8,0:2|0:0,0:0:0:0:
351,190,5602,6,0,P|392:199|427:194,2,71.2500027179719,10|2|2,0:0|0:0|0:0,0:0:0:0:
238,222,6076,1,10,0:0:0:0:
292,292,6233,2,0,P|328:295|366:303,1,71.2500027179719,2|8,0:0|0:0,0:0:0:0:
182,333,6549,2,0,P|139:339|111:344,1,71.2500027179719,10|0,0:2|0:0,0:0:0:0:
49,192,6865,6,0,P|53:153|59:115,2,71.2500027179719,10|2|2,0:0|0:0|0:0,0:0:0:0:
133,231,7339,1,10,0:0:0:0:
111,61,7497,2,0,P|77:47|40:44,1,71.2500027179719,2|8,0:0|0:0,0:0:0:0:
209,134,7812,5,10,0:2:0:0:
49,192,7970,1,8,0:2:0:0:
209,134,8128,6,0,P|205:223|198:303,1,155.800002377319,10|10,0:3|0:2,0:0:0:0:
339,222,8602,2,0,P|343:311|350:391,1,155.800002377319,10|10,0:0|0:0,0:0:0:0:
475,184,9076,2,0,P|472:227|469:267,1,77.9000011886597,10|0,0:2|0:0,0:0:0:0:
374,78,9391,6,0,B|340:96|303:77|303:77|280:32|231:37,1,155.800002377319,10|8,0:0|0:2,0:0:0:0:
237,36,9865,1,10,0:0:0:0:
132,147,10023,2,0,P|170:138|209:134,1,77.9000011886597,2|8,0:0|0:0,0:0:0:0:
322,265,10339,5,10,0:2:0:0:
270,256,10444,5,2,0:0:0:0:
232,291,10549,5,2,0:0:0:0:
243,341,10654,6,0,P|272:345|301:355,2,51.9333341257731,12|2|2,0:1|0:0|0:0,0:0:0:0:
118,382,10970,5,10,0:2:0:0:
81,344,11076,1,2,0:0:0:0:
92,293,11181,1,2,0:0:0:0:
144,240,11286,5,2,0:0:0:0:
173,210,11391,1,2,0:0:0:0:
164,169,11497,1,2,0:0:0:0:
105,128,11602,5,8,0:2:0:0:
284,67,11760,1,8,0:0:0:0:
284,67,11839,1,8,0:0:0:0:
284,67,11918,5,12,0:0:0:0:
301,119,11997,1,8,0:0:0:0:
340,150,12076,1,8,0:0:0:0:
380,155,12154,1,8,0:0:0:0:
414,143,12233,2,0,P|439:122|451:89,1,61.7499971733095,8|8,0:0|0:0,0:0:0:0:
455,349,12391,6,2,B|478:301|478:301|415:309|415:309|397:301|397:301|383:313|383:313|321:321,1,213.750008153916,10|0,0:3|0:0,0:0:0:0:
247,330,12707,6,0,P|254:289|276:260,1,71.2500027179719,8|8,0:0|0:0,0:0:0:0:
215,214,12865,6,0,P|245:194|275:190,1,61.7499971733095,8|8,0:0|0:0,0:0:0:0:
245,116,13023,6,0,P|273:112|301:119,1,56.9999982604981,8|8,0:0|0:0,0:0:0:0:
5,341,13181,5,12,0:1:0:0:
45,172,13339,1,8,0:0:0:0:
215,214,13497,1,10,0:2:0:0:
172,382,13654,1,8,0:0:0:0:
50,263,13812,5,10,0:0:0:0:
123,218,13970,1,8,0:0:0:0:
169,292,14128,1,10,0:2:0:0:
93,337,14286,1,8,0:0:0:0:
45,172,14444,6,0,B|72:107|32:53|32:53|78:64|113:36,1,209.000006378174,14|8,0:0|0:2,0:0:0:0:
360,246,14918,1,10,0:0:0:0:
380,239,14997,1,2,0:0:0:0:
400,233,15076,5,14,0:0:0:0:
169,292,15233,1,10,0:0:0:0:
228,113,15391,1,10,0:2:0:0:
302,301,15549,2,0,L|323:355,1,52.2500015945435,10|8,0:0|0:0,0:0:0:0:
263,207,15707,5,14,0:0:0:0:
423,147,15865,1,8,0:0:0:0:
292,37,16023,1,10,0:2:0:0:
131,96,16181,1,8,0:0:0:0:
263,207,16339,5,10,0:0:0:0:
326,130,16497,1,8,0:0:0:0:
292,37,16654,1,10,0:2:0:0:
228,113,16812,1,8,0:0:0:0:
438,31,16970,5,10,0:0:0:0:
458,35,17049,1,10,0:0:0:0:
477,40,17128,1,10,0:0:0:0:
326,130,17286,1,8,0:2:0:0:
438,230,17444,1,10,0:0:0:0:
458,226,17523,1,2,0:0:0:0:
477,221,17602,5,10,0:0:0:0:
388,313,17760,1,10,0:0:0:0:
263,207,17918,1,10,0:2:0:0:
85,334,18076,1,10,0:0:0:0:
171,357,18233,6,0,P|167:293|94:244,1,156.750004783631,12|0,0:1|0:0,0:0:0:0:
95,244,18549,2,0,P|148:252|193:219,1,104.500003189087,10|8,0:2|0:0,0:0:0:0:
121,69,18865,6,0,P|68:57|15:50,1,104.500003189087,10|8,0:0|0:0,0:0:0:0:
326,115,19181,2,0,P|379:103|432:96,1,104.500003189087,10|8,0:2|0:0,0:0:0:0:
245,6,19497,5,10,0:0:0:0:
128,175,19654,1,8,0:0:0:0:
326,115,19812,5,10,0:2:0:0:
229,145,19970,1,8,0:0:0:0:
343,224,20128,5,10,0:0:0:0:
121,69,20286,1,8,0:0:0:0:
140,292,20444,5,10,0:2:0:0:
16,246,20602,1,8,0:0:0:0:
270,345,20760,6,0,B|233:359|233:359|210:291|252:248,1,156.750004783631,10|0,0:0|0:0,0:0:0:0:
250,249,21076,1,10,0:2:0:0:
429,375,21233,1,8,0:0:0:0:
343,224,21391,5,10,0:0:0:0:
484,311,21549,1,8,0:0:0:0:
411,161,21707,5,10,0:2:0:0:
512,233,21865,1,8,0:0:0:0:
348,35,22023,5,12,0:2:0:0:
297,26,22102,1,8,0:0:0:0:
257,57,22181,1,8,0:0:0:0:
251,107,22260,1,8,0:0:0:0:
284,146,22339,2,0,L|345:138,1,52.2500015945435,8|8,0:0|0:0,0:0:0:0:
79,225,22497,5,12,0:2:0:0:
129,233,22576,1,8,0:0:0:0:
169,202,22654,1,8,0:0:0:0:
175,152,22733,1,8,0:0:0:0:
142,113,22812,2,0,L|81:121,1,52.2500015945435,8|8,0:0|0:0,0:0:0:0:
292,316,22970,5,8,0:2:0:0:
334,295,23049,1,8,0:2:0:0:
377,312,23128,1,8,0:2:0:0:
419,291,23207,1,8,0:2:0:0:
462,308,23286,5,12,0:1:0:0:
454,138,23444,1,8,0:0:0:0:
284,146,23602,1,10,0:2:0:0:
292,316,23760,1,8,0:0:0:0:
368,143,23918,5,10,0:0:0:0:
287,231,24076,1,8,0:0:0:0:
198,149,24233,1,10,0:2:0:0:
279,61,24391,1,8,0:0:0:0:
144,278,24549,6,0,B|92:220|117:145|117:145|116:184|144:210,1,209.000006378174,14|8,0:0|0:2,0:0:0:0:
25,360,25023,1,10,0:0:0:0:
20,339,25102,1,2,0:0:0:0:
15,318,25181,5,14,0:0:0:0:
198,149,25339,1,10,0:0:0:0:
144,278,25497,1,10,0:2:0:0:
14,129,25654,1,10,0:0:0:0:
21,109,25733,1,8,0:0:0:0:
29,89,25812,5,14,0:0:0:0:
212,26,25970,1,8,0:0:0:0:
198,149,26128,1,10,0:2:0:0:
381,86,26286,1,8,0:0:0:0:
120,59,26444,5,10,0:0:0:0:
212,26,26602,1,8,0:0:0:0:
198,149,26760,1,10,0:2:0:0:
290,119,26918,1,8,0:0:0:0:
368,212,27076,5,10,0:0:0:0:
387,205,27154,1,8,0:0:0:0:
407,199,27233,1,8,0:0:0:0:
290,119,27391,1,8,0:2:0:0:
333,319,27549,1,10,0:0:0:0:
352,312,27628,1,10,0:0:0:0:
372,307,27707,2,0,P|426:311|475:324,1,104.500003189087,10|8,0:0|0:0,0:0:0:0:
174,342,28023,5,10,0:0:0:0:
104,319,28102,1,10,0:0:0:0:
104,246,28181,1,10,0:0:0:0:
174,224,28260,1,10,0:0:0:0:
217,283,28339,1,10,0:1:0:0:
444,93,28654,5,10,0:0:0:0:
410,44,28733,1,10,0:0:0:0:
353,64,28812,1,10,0:0:0:0:
353,122,28891,1,10,0:0:0:0:
410,140,28970,1,10,0:0:0:0:
289,2,29128,2,0,L|238:16,1,52.2500015945435,8|8,0:0|0:0,0:0:0:0:
112,50,29286,5,12,0:1:0:0:
42,73,29365,1,10,0:0:0:0:
42,145,29444,1,10,0:0:0:0:
112,167,29523,1,10,0:0:0:0:
155,109,29602,1,10,0:1:0:0:
344,221,29918,5,2,0:0:0:0:
392,236,29997,1,2,0:0:0:0:
392,284,30076,1,2,0:0:0:0:
344,299,30154,1,2,0:0:0:0:
315,260,30233,5,2,0:0:0:0:
480,317,30391,1,2,0:0:0:0:
380,372,30549,1,2,0:0:0:0:
483,199,30707,1,10,0:0:0:0:
483,199,30786,1,8,0:0:0:0:
483,199,30865,6,0,P|489:150|496:105,1,95,12|8,0:1|0:0,0:0:0:0:
274,14,31181,2,0,P|281:60|287:108,1,95,10|8,0:2|0:0,0:0:0:0:
230,209,31497,5,10,0:0:0:0:
97,147,31654,1,8,0:0:0:0:
33,284,31812,1,10,0:2:0:0:
166,346,31970,1,8,0:0:0:0:
33,284,32128,6,0,P|26:252|12:224,1,63.3333333333333,10|2,0:0|0:0,0:0:0:0:
97,147,32339,1,2,0:0:0:0:
104,134,32444,6,0,P|136:127|164:113,1,63.3333333333333,10|2,0:2|0:0,0:0:0:0:
230,209,32654,1,2,0:0:0:0:
243,216,32760,6,0,P|250:248|264:276,1,63.3333333333333,10|2,0:0|0:0,0:0:0:0:
166,346,32970,1,2,0:0:0:0:
159,359,33076,6,0,P|127:366|99:380,2,63.3333333333333,10|2|2,0:2|0:0|0:0,0:0:0:0:
131,247,33391,5,10,0:0:0:0:
254,370,33549,1,8,0:0:0:0:
370,187,33707,1,10,0:2:0:0:
447,251,33865,1,10,0:0:0:0:
466,246,33944,1,2,0:0:0:0:
484,242,34023,6,0,B|488:202|488:202|485:195|485:195|489:145,1,95,10|8,0:0|0:0,0:0:0:0:
325,38,34339,1,10,0:2:0:0:
489,148,34497,1,8,0:0:0:0:
194,151,34654,6,0,L|231:147,1,23.75,14|0,0:2|0:0,0:0:0:0:
273,224,34812,6,0,L|238:228,1,35.625001358986,2|0,0:0|0:0,0:0:0:0:
157,303,34970,6,0,L|204:297,1,47.5,2|0,0:0|0:0,0:0:0:0:
313,363,35128,6,0,L|254:370,1,59.375,2|0,0:0|0:0,0:0:0:0:
84,272,35286,6,2,B|43:229|74:171|74:171|129:95|202:141|194:217|121:247|74:172|74:172|63:108|14:100,1,465.499985794068,2|0,0:3|0:0,0:0:0:0:
62,38,35918,6,0,B|95:10|95:10|133:44|117:49|156:81|206:68,1,170.999994781494,12|10,0:1|0:2,0:0:0:0:
345,150,36391,1,0,0:0:0:0:
419,97,36549,2,0,P|423:51|427:8,1,85.4999973907472,2|8,0:0|0:0,0:0:0:0:
260,114,36865,2,0,P|264:160|268:203,1,85.4999973907472,10|0,0:2|0:0,0:0:0:0:
350,348,37181,6,0,P|360:299|434:282,1,128.249996086121,10|0,0:0|0:0,0:0:0:0:
428,279,37497,2,0,P|385:281|345:252,1,85.4999973907472,10|8,0:2|0:0,0:0:0:0:
492,220,37812,2,0,P|515:255|510:304,1,85.4999973907472,2|8,0:0|0:0,0:0:0:0:
350,348,38128,1,10,0:2:0:0:
411,199,38286,1,8,0:0:0:0:
243,292,38444,6,0,B|185:285|185:285|175:290|175:290|117:284,1,128.249996086121,12|0,0:1|0:0,0:0:0:0:
117,284,38760,2,0,B|112:266|93:249|93:249|113:243|131:230,1,85.4999973907472,10|0,0:2|0:0,0:0:0:0:
4,86,39076,6,0,B|62:79|62:79|72:84|72:84|132:77,1,128.249996086121,12|0,0:1|0:0,0:0:0:0:
130,77,39391,2,0,B|135:58|154:41|154:41|134:35|116:22,1,85.4999973907472,10|0,0:2|0:0,0:0:0:0:
237,202,39707,6,0,P|238:151|342:109,1,170.999994781494,12|10,0:1|0:2,0:0:0:0:
463,182,40181,1,8,0:0:0:0:
470,162,40260,1,8,0:0:0:0:
477,142,40339,1,10,0:0:0:0:
318,184,40497,1,8,0:0:0:0:
403,365,40654,5,12,0:2:0:0:
403,365,40970,6,0,P|405:318|411:272,1,85.4999973907472,12|0,0:1|0:0,0:0:0:0:
243,287,41286,2,0,P|242:244|237:202,1,85.4999973907472,10|0,0:2|0:0,0:0:0:0:
335,46,41602,2,0,P|286:52|245:61,1,85.4999973907472,2|8,0:0|0:0,0:0:0:0:
181,108,41839,1,0,0:0:0:0:
181,108,41918,2,0,P|166:62|181:14,1,85.4999973907472,10|0,0:2|0:0,0:0:0:0:
52,192,42233,6,0,P|72:250|32:296,1,128.249996086121,10|0,0:0|0:0,0:0:0:0:
32,296,42549,2,0,P|63:267|111:260,1,85.4999973907472,10|8,0:2|0:0,0:0:0:0:
221,367,42865,2,0,P|224:325|243:287,1,85.4999973907472,2|8,0:0|0:0,0:0:0:0:
306,243,43102,1,0,0:0:0:0:
306,243,43181,2,0,P|301:192|294:142,1,85.4999973907472,10|8,0:2|0:0,0:0:0:0:
400,61,43497,5,12,0:1:0:0:
216,152,43654,1,8,0:0:0:0:
419,186,43812,1,10,0:2:0:0:
273,43,43970,2,0,B|225:21|185:54|200:63|162:92|115:70,1,170.999994781494,8|8,0:0|0:0,0:0:0:0:
51,33,44365,1,8,0:0:0:0:
51,33,44444,2,0,P|76:72|78:112,1,85.4999973907472,10|8,0:2|0:0,0:0:0:0:
18,246,44760,5,10,0:0:0:0:
174,199,44918,1,8,0:0:0:0:
165,353,45076,1,10,0:2:0:0:
110,275,45233,1,8,0:0:0:0:
238,126,45391,5,2,0:0:0:0:
297,244,45549,1,8,0:0:0:0:
289,264,45628,1,8,0:0:0:0:
281,284,45707,2,0,P|277:251|265:194,1,85.4999973907472,10|8,0:2|0:0,0:0:0:0:
173,54,46023,6,0,P|242:86|312:32,1,170.999994781494,12|10,0:1|0:2,0:0:0:0:
475,64,46497,2,0,B|454:82|424:90|424:90|451:145|466:204,1,170.999994781494,0|8,0:0|0:0,0:0:0:0:
336,358,46970,2,0,P|398:336|480:320,1,128.249996086121,10|0,0:2|0:0,0:0:0:0:
458,322,47286,6,0,P|413:329|389:225,1,170.999994781494,10|10,0:0|0:2,0:0:0:0:
187,187,47760,1,8,0:0:0:0:
271,134,47918,2,0,P|316:127|364:121,1,85.4999973907472,2|8,0:0|0:0,0:0:0:0:
227,278,48233,2,0,P|176:286|136:297,1,85.4999973907472,10|8,0:2|0:0,0:0:0:0:
226,44,48549,6,0,P|171:105|187:187,1,170.999994781494,12|10,0:1|0:2,0:0:0:0:
47,107,49023,2,0,P|44:59|28:19,1,85.4999973907472,8|2,0:0|0:0,0:0:0:0:
0,194,49339,1,8,0:0:0:0:
144,295,49497,2,0,P|75:310|14:327,1,128.249996086121,10|0,0:2|0:0,0:0:0:0:
19,325,49812,6,0,P|67:339|100:364,1,85.4999973907472,10|8,0:0|0:0,0:0:0:0:
227,278,50128,1,10,0:2:0:0:
114,212,50286,1,8,0:0:0:0:
288,176,50444,2,0,P|345:183|384:190,1,85.4999973907472,2|8,0:0|0:0,0:0:0:0:
427,245,50681,1,8,0:0:0:0:
427,245,50760,1,10,0:2:0:0:
346,69,50918,1,8,0:0:0:0:
449,333,51076,6,0,P|454:247|467:159,1,170.999994781494,12|10,0:1|0:2,0:0:0:0:
268,91,51549,2,0,P|262:43|256:3,1,85.4999973907472,0|2,0:0|0:0,0:0:0:0:
372,187,51865,1,8,0:0:0:0:
207,235,52023,2,0,P|250:260|264:335,1,128.249996086121,10|0,0:2|0:0,0:0:0:0:
264,332,52339,6,0,P|269:288|299:257,1,85.4999973907472,10|0,0:0|0:0,0:0:0:0:
200,151,52654,2,0,P|157:158|116:168,1,85.4999973907472,10|8,0:2|0:0,0:0:0:0:
346,327,52970,2,0,P|389:334|430:344,1,85.4999973907472,2|8,0:0|0:0,0:0:0:0:
372,187,53286,2,0,P|413:176|455:170,1,85.4999973907472,10|8,0:2|0:0,0:0:0:0:
227,23,53602,6,0,B|229:90|296:111|296:111|277:92|275:66,1,170.999994781494,12|2,0:1|0:0,0:0:0:0:
107,74,54076,1,8,0:0:0:0:
86,77,54154,1,8,0:0:0:0:
65,81,54233,1,8,0:2:0:0:
240,225,54391,1,10,0:1:0:0:
240,225,54707,6,0,B|263:273|221:323|221:323|157:305|148:258,1,209.000006378174,12|8,0:1|0:0,0:0:0:0:
175,187,55102,1,8,0:0:0:0:
175,187,55181,1,12,0:0:0:0:
32,250,55339,1,10,0:0:0:0:
107,74,55497,5,12,0:0:0:0:
242,147,55654,1,10,0:0:0:0:
361,114,55812,1,8,0:0:0:0:
409,185,55970,1,8,0:0:0:0:
315,43,56128,6,0,P|368:30|444:94,1,152,12|2,0:1|0:2,0:0:0:0:
327,194,56602,1,8,0:0:0:0:
327,194,56760,2,0,P|325:238|323:275,1,76,8|0,0:2|0:0,0:0:0:0:
401,363,57076,1,2,0:0:0:0:
443,291,57233,1,8,0:0:0:0:
266,354,57391,6,0,P|243:310|177:304,1,114,8|0,0:0|0:0,0:0:0:0:
183,301,57707,2,0,P|220:293|249:263,1,76,2|8,0:2|0:0,0:0:0:0:
84,240,58023,2,0,P|41:229|2:221,1,76,8|0,0:2|0:0,0:0:0:0:
180,120,58339,2,0,P|223:109|262:101,1,76,2|8,0:2|0:0,0:0:0:0:
91,12,58654,6,0,B|115:47|97:91|89:77|71:119|94:157,1,152,8|2,0:0|0:2,0:0:0:0:
180,120,59128,1,8,0:0:0:0:
205,228,59286,2,0,P|195:265|183:301,1,76,8|0,0:2|0:0,0:0:0:0:
284,358,59602,1,2,0:2:0:0:
349,307,59760,1,8,0:0:0:0:
300,166,59918,6,0,P|338:157|375:151,1,76,8|0,0:0|0:0,0:0:0:0:
493,246,60233,2,0,P|455:237|418:231,1,76,2|8,0:2|0:0,0:0:0:0:
291,159,60549,2,0,P|329:150|366:144,1,76,8|0,0:2|0:0,0:0:0:0:
499,256,60865,2,0,P|461:247|424:241,1,76,2|10,0:2|0:0,0:0:0:0:
500,104,61181,6,0,P|439:91|390:13,1,152,8|2,0:0|0:2,0:0:0:0:
231,74,61654,1,8,0:0:0:0:
231,74,61812,2,0,B|176:67|176:67|134:80|134:80|74:75,1,152,8|2,0:2|0:2,0:0:0:0:
81,75,62286,1,8,0:0:0:0:
185,186,62444,6,0,P|176:227|169:265,1,76,8|0,0:0|0:0,0:0:0:0:
57,322,62760,2,0,P|49:284|41:247,1,76,2|8,0:2|0:0,0:0:0:0:
148,356,63076,1,8,0:2:0:0:
269,206,63233,2,0,P|321:220|324:310,1,152,8|8,0:2|0:2,0:0:0:0:
269,206,63707,6,0,P|283:154|373:151,1,152,8|2,0:0|0:2,0:0:0:0:
408,13,64181,1,8,0:0:0:0:
470,70,64339,2,0,P|481:114|485:151,1,76,8|0,0:2|0:0,0:0:0:0:
413,257,64654,2,0,P|426:319|470:342,1,114,2|0,0:2|0:0,0:0:0:0:
467,341,64970,6,0,B|436:317|401:334|401:334|376:372|326:361,1,152,8|2,0:0|0:2,0:0:0:0:
216,208,65444,1,8,0:0:0:0:
216,208,65602,2,0,P|225:243|230:293,1,76,8|12,0:2|0:0,0:0:0:0:
295,146,65918,1,10,0:0:0:0:
129,268,66076,1,8,0:0:0:0:
64,197,66233,6,0,B|72:128|72:128|67:120|67:120|75:43,1,152,12|2,0:1|0:2,0:0:0:0:
229,6,66707,1,8,0:0:0:0:
229,6,66865,2,0,B|224:44|224:44|226:49|226:49|222:82,1,76,8|0,0:2|0:0,0:0:0:0:
216,208,67181,1,2,0:0:0:0:
146,154,67339,1,8,0:0:0:0:
53,336,67497,6,0,P|111:324|173:354,1,114,8|0,0:0|0:0,0:0:0:0:
160,343,67812,2,0,P|204:357|245:350,1,76,2|8,0:2|0:0,0:0:0:0:
340,244,68128,2,0,P|349:283|354:326,1,76,8|0,0:2|0:0,0:0:0:0:
229,133,68444,2,0,P|220:170|216:208,1,76,2|8,0:2|0:0,0:0:0:0:
150,94,68760,6,0,P|245:83|304:72,1,152,8|2,0:0|0:2,0:0:0:0:
340,244,69233,1,8,0:0:0:0:
406,179,69391,2,0,P|447:170|481:177,1,76,8|0,0:2|0:0,0:0:0:0:
375,331,69707,1,2,0:2:0:0:
446,270,69865,1,8,0:0:0:0:
273,199,70023,6,0,P|258:240|289:302,1,114,8|0,0:0|0:0,0:0:0:0:
286,300,70339,2,0,P|251:281|211:280,1,76,2|8,0:2|0:0,0:0:0:0:
215,137,70654,2,0,P|250:117|290:116,1,76,8|0,0:2|0:0,0:0:0:0:
446,85,70970,1,2,0:2:0:0:
406,179,71128,1,8,0:0:0:0:
338,32,71286,6,0,B|311:5|311:5|198:26,1,152,12|2,0:1|0:2,0:0:0:0:
112,169,71760,1,8,0:0:0:0:
112,169,71918,2,0,P|120:204|125:253,1,76,8|0,0:2|0:0,0:0:0:0:
30,89,72233,2,0,P|86:88|131:55,1,114,2|0,0:2|0:0,0:0:0:0:
131,55,72549,6,0,P|164:32|202:25,1,76,8|0,0:0|0:0,0:0:0:0:
254,139,72865,2,0,P|245:183|237:226,1,76,2|8,0:2|0:0,0:0:0:0:
112,169,73181,1,8,0:2:0:0:
180,349,73339,2,0,P|207:316|292:328,1,128.249996086121,8|8,0:2|0:2,0:0:0:0:
338,378,73654,1,8,0:2:0:0:
180,349,73812,6,0,P|147:322|172:225,1,152,8|2,0:0|0:2,0:0:0:0:
32,236,74286,1,8,0:0:0:0:
5,153,74444,2,0,P|11:111|18:76,1,76,8|0,0:2|0:0,0:0:0:0:
131,6,74760,2,0,P|150:40|191:58,1,76,2|8,0:2|0:0,0:0:0:0:
319,134,75076,6,0,P|276:135|247:152,1,76,8|0,0:0|0:0,0:0:0:0:
389,195,75391,2,0,P|409:157|409:123,1,76,2|8,0:2|0:0,0:0:0:0:
301,225,75707,2,0,P|323:261|352:278,1,76,8|2,0:2|0:0,0:0:0:0:
319,134,76023,5,8,0:2:0:0:
207,299,76181,1,8,0:2:0:0:
115,126,76339,6,0,B|93:199|144:236|144:236|132:211|138:186,1,170.999994781494,12|10,0:1|0:2,0:0:0:0:
250,43,76812,1,0,0:0:0:0:
108,23,76970,2,0,P|52:30|15:39,1,85.4999973907472,2|8,0:0|0:0,0:0:0:0:
250,43,77286,2,0,P|306:36|343:27,1,85.4999973907472,10|0,0:2|0:0,0:0:0:0:
448,215,77602,6,0,B|420:186|386:199|393:208|360:223|330:196,1,128.249996086121,10|0,0:0|0:0,0:0:0:0:
330,196,77918,2,0,P|361:209|380:264,1,85.4999973907472,10|8,0:2|0:0,0:0:0:0:
464,115,78233,2,0,P|473:65|482:26,1,85.4999973907472,2|8,0:0|0:0,0:0:0:0:
250,43,78549,1,10,0:2:0:0:
360,126,78707,1,8,0:0:0:0:
181,173,78865,6,0,P|138:188|99:258,1,128.249996086121,12|0,0:1|0:0,0:0:0:0:
99,257,79181,2,0,P|152:269|186:283,1,85.4999973907472,10|0,0:2|0:0,0:0:0:0:
381,254,79497,6,0,P|424:269|463:339,1,128.249996086121,12|0,0:1|0:0,0:0:0:0:
463,338,79812,2,0,P|409:350|375:364,1,85.4999973907472,10|0,0:2|0:0,0:0:0:0:
261,228,80128,6,0,B|259:173|300:120|300:120|270:131|241:120,1,170.999994781494,12|10,0:1|0:2,0:0:0:0:
89,72,80602,1,8,0:0:0:0:
78,90,80681,1,8,0:0:0:0:
67,108,80760,1,10,0:0:0:0:
201,45,80918,1,8,0:0:0:0:
7,222,81076,1,12,0:2:0:0:
7,222,81391,6,0,B|59:215|59:215|66:220|66:220|133:212,1,128.249996086121,12|0,0:1|0:0,0:0:0:0:
133,212,81707,2,0,P|150:249|144:293,1,85.4999973907472,10|0,0:2|0:0,0:0:0:0:
266,134,82023,2,0,P|321:116|359:112,1,85.4999973907472,2|8,0:0|0:0,0:0:0:0:
348,112,82260,1,0,0:0:0:0:
348,112,82339,1,10,0:2:0:0:
441,257,82497,1,0,0:0:0:0:
319,199,82654,6,0,P|290:253|321:307,1,128.249996086121,10|0,0:0|0:0,0:0:0:0:
321,307,82970,2,0,P|281:271|248:272,1,85.4999973907472,10|8,0:2|0:0,0:0:0:0:
441,257,83286,2,0,P|442:204|446:165,1,85.4999973907472,2|8,0:0|0:0,0:0:0:0:
445,171,83523,1,0,0:0:0:0:
445,171,83602,1,10,0:2:0:0:
321,307,83760,1,8,0:0:0:0:
187,133,83918,5,12,0:1:0:0:
319,199,84076,1,8,0:0:0:0:
104,202,84233,1,10,0:2:0:0:
215,61,84391,6,0,B|224:102|186:133|186:133|223:167|212:215,1,170.999994781494,8|8,0:0|0:0,0:0:0:0:
196,294,84786,1,8,0:0:0:0:
196,294,84865,2,0,P|150:278|108:290,1,85.4999973907472,10|8,0:2|0:0,0:0:0:0:
27,73,85181,5,10,0:0:0:0:
1,176,85339,1,8,0:0:0:0:
104,202,85497,1,10,0:2:0:0:
130,98,85654,1,8,0:0:0:0:
1,176,85812,5,2,0:0:0:0:
156,21,85970,1,8,0:0:0:0:
177,18,86049,1,8,0:0:0:0:
198,15,86128,1,10,0:2:0:0:
354,145,86286,1,8,0:0:0:0:
276,197,86444,6,0,P|255:149|315:58,1,170.999994781494,12|10,0:1|0:2,0:0:0:0:
309,279,86918,2,0,B|268:308|223:278|236:271|192:239|149:272,1,170.999994781494,0|8,0:0|0:0,0:0:0:0:
3,104,87391,2,0,P|67:95|128:76,1,128.249996086121,10|0,0:2|0:0,0:0:0:0:
128,76,87707,6,0,P|87:62|50:44,1,85.4999973907472,10|0,0:0|0:0,0:0:0:0:
224,30,88023,1,10,0:2:0:0:
116,187,88181,1,8,0:0:0:0:
281,115,88339,2,0,P|319:106|372:97,1,85.4999973907472,2|8,0:0|0:0,0:0:0:0:
485,274,88654,2,0,P|434:272|400:245,1,85.4999973907472,10|8,0:2|0:0,0:0:0:0:
484,32,88970,6,0,P|478:110|465:215,1,170.999994781494,12|10,0:1|0:2,0:0:0:0:
286,200,89444,2,0,P|285:157|281:115,1,85.4999973907472,8|2,0:0|0:0,0:0:0:0:
214,300,89760,1,8,0:0:0:0:
387,313,89918,2,0,P|341:305|282:356,1,128.249996086121,10|0,0:2|0:0,0:0:0:0:
282,354,90233,6,0,P|307:319|306:275,1,85.4999973907472,10|0,0:0|0:0,0:0:0:0:
199,173,90549,1,10,0:2:0:0:
114,350,90707,1,8,0:0:0:0:
35,171,90865,2,0,P|69:145|113:146,1,85.4999973907472,2|8,0:0|0:0,0:0:0:0:
110,145,91102,1,8,0:0:0:0:
110,145,91181,1,10,0:2:0:0:
0,260,91339,1,8,0:0:0:0:
199,173,91497,6,0,P|199:113|101:64,1,170.999994781494,12|10,0:1|0:2,0:0:0:0:
125,249,91970,2,0,P|168:260|211:273,1,85.4999973907472,0|2,0:0|0:0,0:0:0:0:
294,303,92286,1,8,0:0:0:0:
114,350,92444,2,0,P|71:361|28:374,1,85.4999973907472,10|0,0:2|0:0,0:0:0:0:
319,203,92760,6,0,P|324:276|335:390,1,170.999994781494,10|10,0:0|0:2,0:0:0:0:
199,173,93233,1,8,0:0:0:0:
307,56,93391,2,0,P|354:50|410:46,1,85.4999973907472,2|8,0:0|0:0,0:0:0:0:
511,215,93707,2,0,P|464:209|408:205,1,85.4999973907472,10|8,0:2|0:0,0:0:0:0:
499,40,94023,5,12,0:3:0:0:
307,56,94181,1,8,0:0:0:0:
286,54,94260,1,8,0:0:0:0:
265,52,94339,1,8,0:0:0:0:
74,198,94497,6,0,L|131:189,1,52.2500015945435,8|0,0:2|0:0,0:0:0:0:
199,173,94654,1,8,0:0:0:0:
441,371,94812,6,0,L|384:362,1,52.2500015945435,8|0,0:2|0:0,0:0:0:0:
316,346,94970,1,8,0:0:0:0:
295,342,95049,1,8,0:0:0:0:
274,338,95128,6,0,B|245:290|278:245|278:245|257:227|257:227|294:185|265:131,1,227.999993041992,12|8,0:1|0:2,0:0:0:0:
204,99,95523,1,8,0:2:0:0:
204,99,95602,1,8,0:2:0:0:
352,204,95760,1,8,0:2:0:0:
66,306,95918,5,12,0:0:0:0:
199,173,96076,1,10,0:0:0:0:
93,83,96233,1,8,0:0:0:0:
131,4,96391,1,8,0:0:0:0:
54,164,96549,6,0,B|33:237|33:237|65:305,1,152,14|2,0:1|0:2,0:0:0:0:
212,361,97023,1,8,0:0:0:0:
212,361,97181,2,0,B|225:325|225:325|216:287,1,76,8|0,0:2|0:0,0:0:0:0:
199,173,97497,1,2,0:2:0:0:
115,231,97654,1,8,0:0:0:0:
209,166,97812,6,0,P|154:152|120:147,1,76,8|0,0:0|0:0,0:0:0:0:
313,236,98128,2,0,P|368:222|402:217,1,76,2|8,0:2|0:0,0:0:0:0:
461,115,98444,2,0,P|406:101|372:96,1,76,8|0,0:2|0:0,0:0:0:0:
479,285,98760,2,0,P|485:236|491:197,1,76,2|8,0:2|0:0,0:0:0:0:
299,86,99076,6,0,B|308:151|308:151|303:159|303:159|313:236,1,152,8|2,0:0|0:2,0:0:0:0:
416,364,99549,1,8,0:0:0:0:
330,331,99707,2,0,P|284:320|243:315,1,76,8|0,0:2|0:0,0:0:0:0:
103,254,100023,1,2,0:2:0:0:
219,150,100181,1,8,0:0:0:0:
103,254,100339,6,0,P|95:198|60:155,1,114,8|0,0:0|0:0,0:0:0:0:
60,155,100654,2,0,P|99:168|142:150,1,76,2|8,0:2|0:0,0:0:0:0:
136,16,100970,2,0,P|106:42|100:89,1,76,8|0,0:2|0:0,0:0:0:0:
219,150,101286,2,0,P|210:110|173:82,1,76,2|10,0:2|0:0,0:0:0:0:
330,10,101602,6,0,B|315:71|361:108|361:108|401:93,1,152,8|2,0:0|0:2,0:0:0:0:
496,226,102076,1,8,0:0:0:0:
414,259,102233,2,0,P|410:214|421:179,1,76,8|0,0:2|0:0,0:0:0:0:
512,42,102549,2,0,P|454:29|427:26,1,76,2|8,0:2|0:0,0:0:0:0:
236,92,102865,6,0,P|249:152|258:211,1,114,8|0,0:0|0:0,0:0:0:0:
257,203,103181,2,0,P|223:187|176:176,1,76,2|8,0:2|0:0,0:0:0:0:
343,158,103497,1,8,0:2:0:0:
296,348,103654,2,0,P|221:356|153:368,1,128.249996086121,8|0,0:2|0:2,0:0:0:0:
96,383,103970,1,8,0:2:0:0:
296,348,104128,6,0,P|298:308|387:250,1,152,8|2,0:0|0:2,0:0:0:0:
381,336,104602,1,8,0:0:0:0:
467,202,104760,2,0,P|460:164|452:125,1,76,8|0,0:2|0:0,0:0:0:0:
324,45,105076,2,0,P|279:34|211:12,1,114,2|0,0:2|0:0,0:0:0:0:
214,13,105391,6,0,B|235:46|220:81|220:81|175:108|170:152,1,152,8|2,0:0|0:2,0:0:0:0:
86,92,105865,1,8,0:0:0:0:
264,167,106023,1,8,0:2:0:0:
139,253,106181,1,12,0:0:0:0:
206,321,106339,1,10,0:0:0:0:
264,266,106497,1,8,0:0:0:0:
139,253,106654,6,0,B|104:266|104:266|66:245|56:208|69:162,1,152,12|2,0:1|0:2,0:0:0:0:
171,143,107128,1,8,0:0:0:0:
34,38,107286,2,0,P|75:21|115:21,1,76,8|0,0:2|0:0,0:0:0:0:
264,83,107602,1,2,0:2:0:0:
171,143,107760,1,8,0:0:0:0:
308,165,107918,6,0,P|345:158|383:152,1,76,8|0,0:0|0:0,0:0:0:0:
412,292,108233,2,0,P|374:284|337:278,1,76,2|8,0:2|0:0,0:0:0:0:
383,152,108549,2,0,P|420:144|457:138,1,76,8|0,0:2|0:0,0:0:0:0:
338,279,108865,2,0,P|296:271|258:265,1,76,2|8,0:2|0:0,0:0:0:0:
165,168,109181,6,0,P|178:239|121:282,1,152,8|2,0:0|0:2,0:0:0:0:
0,133,109654,1,8,0:0:0:0:
29,214,109812,2,0,P|34:257|35:295,1,76,8|0,0:2|0:0,0:0:0:0:
165,168,110128,1,2,0:2:0:0:
139,88,110286,1,8,0:0:0:0:
269,32,110444,6,0,P|312:39|352:47,1,76,8|0,0:0|0:0,0:0:0:0:
139,88,110760,2,0,P|96:81|56:73,1,76,2|8,0:2|0:0,0:0:0:0:
286,122,111076,2,0,P|280:166|277:204,1,76,8|0,0:2|0:0,0:0:0:0:
443,126,111391,2,0,P|439:88|434:50,1,76,2|10,0:2|0:0,0:0:0:0:
355,247,111707,6,0,P|359:308|453:343,1,152,12|2,0:1|0:2,0:0:0:0:
244,325,112181,1,8,0:0:0:0:
244,325,112339,2,0,P|234:281|223:242,1,76,8|0,0:2|0:0,0:0:0:0:
355,247,112654,2,0,P|361:203|369:162,1,76,2|8,0:2|0:0,0:0:0:0:
229,41,112970,6,0,P|227:105|324:110,1,152,8|2,0:0|0:2,0:0:0:0:
318,42,113444,1,8,0:0:0:0:
168,152,113602,1,8,0:2:0:0:
5,84,113760,2,0,P|61:100|124:64,1,128.249996086121,8|0,0:2|0:0,0:0:0:0:
160,3,114076,1,8,0:2:0:0:
5,84,114233,6,0,P|7:147|67:210,1,152,8|2,0:0|0:2,0:0:0:0:
150,364,114707,1,8,0:0:0:0:
242,320,114865,2,0,P|245:267|249:234,1,76,8|8,0:2|0:0,0:0:0:0:
194,137,115181,1,2,0:2:0:0:
334,199,115339,1,8,0:0:0:0:
282,44,115497,5,12,0:2:0:0:
309,7,115576,1,2,0:0:0:0:
353,0,115654,1,2,0:0:0:0:
392,23,115733,1,2,0:0:0:0:
392,23,116760,5,12,1:1:0:0:
420,128,116918,1,8,0:0:0:0:
342,206,117076,1,10,0:2:0:0:
512,330,117233,2,0,P|457:338|407:348,1,104.500003189087,8|10,1:3|0:3,0:0:0:0:
449,237,117549,1,8,0:0:0:0:
259,239,117707,2,0,P|252:180|330:120,1,156.750004783631,10|0,1:2|0:0,0:0:0:0:
320,120,118023,6,0,P|271:143|221:126,1,104.500003189087,10|8,1:3|0:0,0:0:0:0:
76,301,118339,1,10,0:2:0:0:
259,239,118497,1,8,1:3:0:0:
22,128,118654,5,10,1:3:0:0:
93,164,118812,1,8,0:0:0:0:
159,120,118970,1,10,0:2:0:0:
88,84,119128,1,8,0:0:0:0:
76,301,119286,6,0,P|130:287|184:279,1,104.500003189087,10|8,1:3|0:0,0:0:0:0:
10,258,119602,1,10,1:2:0:0:
159,120,119760,2,0,P|166:69|174:11,1,104.500003189087,8|10,1:3|0:3,0:0:0:0:
230,156,120076,1,8,1:3:0:0:
76,301,120233,1,10,0:2:0:0:
328,302,120391,1,8,1:3:0:0:
274,231,120549,5,10,0:3:0:0:
257,355,120707,1,8,0:0:0:0:
383,373,120865,1,10,0:2:0:0:
400,249,121023,1,8,0:0:0:0:
328,302,121181,5,10,0:3:0:0:
391,145,121339,1,8,0:0:0:0:
386,124,121418,1,8,0:0:0:0:
381,103,121497,1,10,0:2:0:0:
178,279,121654,1,8,0:0:0:0:
400,249,121812,6,0,P|453:257|504:269,1,104.500003189087,10|8,1:3|0:0,0:0:0:0:
271,55,122128,1,10,0:2:0:0:
233,155,122286,1,8,0:0:0:0:
400,26,122444,2,0,P|453:18|504:6,1,104.500003189087,10|8,1:3|0:0,0:0:0:0:
472,141,122760,1,10,1:2:0:0:
233,155,122918,6,0,B|181:149|181:149|176:153|176:153|126:148,1,104.500003189087,8|10,1:3|0:3,0:0:0:0:
312,226,123233,1,8,0:0:0:0:
103,349,123391,2,0,P|103:297|101:241,1,104.500003189087,10|8,1:2|0:0,0:0:0:0:
312,226,123707,2,0,P|312:174|314:118,1,104.500003189087,10|8,1:3|0:0,0:0:0:0:
271,55,123944,1,8,0:0:0:0:
271,55,124023,1,10,1:2:0:0:
131,149,124181,1,8,0:0:0:0:
340,319,124339,5,10,1:3:0:0:
233,155,124497,1,8,0:0:0:0:
396,48,124654,1,10,0:2:0:0:
504,212,124812,1,8,0:0:0:0:
420,150,124970,6,0,P|412:209|408:260,1,104.500003189087,10|8,1:3|0:0,0:0:0:0:
408,253,125207,1,8,1:3:0:0:
408,253,125286,1,10,0:2:0:0:
478,336,125444,1,8,1:3:0:0:
218,267,125602,5,10,1:3:0:0:
312,226,125760,1,8,0:0:0:0:
106,67,125918,5,10,0:2:0:0:
100,221,126076,1,8,0:0:0:0:
187,196,126233,5,10,0:0:0:0:
151,158,126312,1,8,0:0:0:0:
102,142,126391,1,8,0:0:0:0:
52,154,126470,1,8,0:0:0:0:
14,189,126549,1,10,1:1:0:0:
106,67,126707,1,8,1:3:0:0:
47,289,126865,6,0,B|95:307|95:307|150:293,1,104.500003189087,14|8,1:3|0:0,0:0:0:0:
205,71,127181,2,0,B|157:53|157:53|106:67,1,104.500003189087,10|8,0:2|0:0,0:0:0:0:
47,289,127497,1,10,1:3:0:0:
271,265,127654,2,0,P|274:203|277:160,1,104.500003189087,8|10,1:3|0:2,0:0:0:0:
205,71,127970,1,8,1:3:0:0:
431,23,128128,6,0,P|448:110|543:112,1,156.750004783631,10|0,0:3|0:0,0:0:0:0:
505,128,128444,2,0,P|454:119|412:151,1,104.500003189087,10|8,1:2|0:0,0:0:0:0:
509,311,128760,1,10,1:3:0:0:
509,311,128839,1,8,0:0:0:0:
367,234,128997,1,8,0:0:0:0:
367,234,129076,1,10,1:2:0:0:
196,364,129233,1,8,0:0:0:0:
154,98,129391,5,10,1:3:0:0:
123,275,129549,1,8,0:0:0:0:
302,303,129707,1,10,1:2:0:0:
329,126,129865,1,8,0:0:0:0:
165,190,130023,5,10,1:3:0:0:
236,137,130181,1,8,0:0:0:0:
290,211,130339,1,10,1:2:0:0:
216,262,130497,1,8,0:0:0:0:
372,356,130654,5,10,1:3:0:0:
469,182,130812,1,8,0:0:0:0:
488,135,130891,1,8,0:0:0:0:
469,88,130970,1,10,0:2:0:0:
420,68,131049,1,8,0:0:0:0:
373,88,131128,1,8,0:0:0:0:
353,135,131207,1,8,0:0:0:0:
373,182,131286,5,10,0:0:0:0:
216,262,131444,1,8,0:0:0:0:
201,301,131523,1,8,0:0:0:0:
216,338,131602,1,10,0:2:0:0:
254,354,131681,1,8,0:0:0:0:
292,338,131760,1,8,0:0:0:0:
308,301,131839,1,8,0:0:0:0:
292,262,131918,6,0,P|344:268|411:277,1,104.500003189087,14|8,1:3|0:0,0:0:0:0:
207,174,132233,1,10,0:2:0:0:
59,347,132391,2,0,P|65:295|72:244,1,104.500003189087,8|10,1:3|0:3,0:0:0:0:
1,105,132707,1,8,0:0:0:0:
207,174,132865,1,10,1:2:0:0:
72,244,133023,1,8,0:0:0:0:
173,96,133181,5,14,1:3:0:0:
218,86,133260,1,8,0:0:0:0:
261,103,133339,1,8,0:0:0:0:
288,141,133418,1,8,0:0:0:0:
289,187,133497,1,10,0:2:0:0:
315,224,133576,1,8,0:0:0:0:
358,241,133654,1,8,0:0:0:0:
404,232,133733,1,8,0:0:0:0:
436,198,133812,5,14,1:3:0:0:
397,161,133891,1,8,0:0:0:0:
343,153,133970,1,8,0:0:0:0:
295,179,134049,1,8,0:0:0:0:
270,228,134128,1,10,0:2:0:0:
280,282,134207,1,8,0:0:0:0:
319,320,134286,1,8,0:0:0:0:
373,327,134365,1,8,0:0:0:0:
422,301,134444,6,0,B|473:277|473:277|466:326|432:343|393:334|393:334|378:294|333:285,1,246.999988693238,12|8,1:1|0:0,0:0:0:0:
164,271,134918,6,0,L|98:266,1,66.4999979705811,10|0,0:1|0:0,0:0:0:0:
378,64,135233,6,0,L|445:60,1,66.4999979705811,10|0,0:1|0:0,0:0:0:0:
76,30,135549,6,0,B|22:13|22:13|69:150,1,199.499993911743,12|0,0:1|0:0,0:0:0:0:
73,159,135865,1,8,0:2:0:0:
102,119,135944,1,8,0:2:0:0:
149,107,136023,1,8,0:2:0:0:
194,126,136102,1,8,0:2:0:0:
217,170,136181,6,0,P|174:117|266:109,1,199.499993911743,12|0,0:1|0:0,0:0:0:0:
296,179,136497,6,0,P|330:156|349:113,1,71.2500027179719,8|0,1:3|0:0,0:0:0:0:
257,250,136654,6,0,P|283:262|318:260,1,56.9999982604981,8|0,1:2|0:0,0:0:0:0:
178,254,136812,6,0,P|179:274|193:299,1,42.7499986953736,8|0,1:3|0:0,0:0:0:0:
293,353,136970,5,14,1:1:0:0:
423,191,137128,1,8,0:0:0:0:
217,170,137286,1,10,0:2:0:0:
438,193,137444,2,0,B|430:242|430:242|432:248|432:248|423:300,1,104.500003189087,8|10,1:3|0:3,0:0:0:0:
257,250,137760,1,8,0:0:0:0:
395,19,137918,2,0,P|398:87|487:89,1,156.750004783631,10|0,1:2|0:0,0:0:0:0:
474,101,138233,6,0,P|413:96|363:123,1,104.500003189087,10|8,1:3|0:0,0:0:0:0:
257,250,138549,1,10,0:2:0:0:
86,176,138707,1,8,1:3:0:0:
254,35,138865,5,10,1:3:0:0:
218,103,139023,1,8,0:0:0:0:
286,139,139181,1,10,0:2:0:0:
322,71,139339,1,8,0:0:0:0:
86,176,139497,6,0,P|77:116|69:66,1,104.500003189087,10|8,1:3|0:0,0:0:0:0:
136,4,139812,1,10,1:2:0:0:
286,139,139970,2,0,P|277:191|270:243,1,104.500003189087,8|10,1:3|0:3,0:0:0:0:
36,348,140286,2,0,P|27:288|19:238,1,104.500003189087,8|10,1:3|0:2,0:0:0:0:
86,176,140602,1,8,1:3:0:0:
270,242,140760,5,10,0:3:0:0:
197,278,140918,1,8,0:0:0:0:
265,324,141076,1,10,0:2:0:0:
338,288,141233,1,8,0:0:0:0:
197,278,141391,5,10,0:3:0:0:
343,206,141549,1,8,0:0:0:0:
478,296,141707,1,10,0:2:0:0:
332,368,141865,1,8,0:0:0:0:
478,296,142023,6,0,B|490:241|490:241|475:194,1,104.500003189087,10|8,1:3|0:0,0:0:0:0:
313,28,142339,2,0,B|296:81|296:81|310:126,1,104.500003189087,10|8,1:2|0:0,0:0:0:0:
423,86,142654,1,10,1:3:0:0:
204,167,142812,1,8,0:0:0:0:
63,7,142970,1,10,1:2:0:0:
31,110,143128,6,0,P|83:97|140:86,1,104.500003189087,8|10,1:3|0:3,0:0:0:0:
204,167,143444,1,8,0:0:0:0:
309,335,143602,2,0,P|359:324|399:291,1,104.500003189087,10|8,1:2|0:0,0:0:0:0:
204,167,143918,2,0,P|187:219|197:269,1,104.500003189087,10|8,1:3|0:0,0:0:0:0:
400,159,144233,2,0,P|366:121|318:103,1,104.500003189087,10|8,1:2|0:0,0:0:0:0:
304,221,144549,5,10,1:3:0:0:
111,277,144707,1,8,0:0:0:0:
41,186,144865,2,0,P|29:244|17:298,1,104.500003189087,10|8,0:2|0:0,0:0:0:0:
227,346,145181,1,10,1:3:0:0:
400,273,145339,1,8,0:0:0:0:
416,280,145418,1,8,1:3:0:0:
435,290,145497,1,10,0:2:0:0:
204,167,145654,1,8,1:3:0:0:
354,128,145812,5,10,1:3:0:0:
304,221,145970,1,8,0:0:0:0:
330,23,146128,5,10,0:2:0:0:
328,326,146286,1,8,0:0:0:0:
204,167,146444,5,8,0:0:0:0:
207,151,146523,1,8,0:0:0:0:
210,135,146602,1,8,0:0:0:0:
213,119,146681,1,8,0:0:0:0:
216,103,146760,5,8,1:2:0:0:
254,136,146839,1,8,0:2:0:0:
305,146,146918,1,8,1:2:0:0:
354,128,146997,1,8,0:2:0:0:
386,88,147076,6,0,B|399:139|399:139|386:193,1,104.500003189087,12|8,1:1|0:0,0:0:0:0:
109,264,147391,2,0,P|160:269|212:281,1,104.500003189087,10|8,0:2|0:0,0:0:0:0:
2,128,147707,1,10,1:3:0:0:
31,335,147865,2,0,P|82:340|133:351,1,104.500003189087,8|10,1:3|0:2,0:0:0:0:
109,264,148181,1,8,1:3:0:0:
283,368,148339,6,0,B|259:323|287:284|292:300|319:261|302:221,1,156.750004783631,10|0,0:3|0:0,0:0:0:0:
302,221,148654,2,0,P|301:275|334:315,1,104.500003189087,10|8,1:2|0:0,0:0:0:0:
213,107,148970,1,10,1:3:0:0:
392,247,149128,1,8,0:0:0:0:
392,247,149207,2,0,L|398:192,1,52.2500015945435,8|10,1:3|0:2,0:0:0:0:
332,49,149365,1,8,0:0:0:0:
332,49,149444,2,0,L|326:104,1,52.2500015945435,8|8,1:3|0:0,0:0:0:0:
158,314,149602,5,14,1:3:0:0:
136,284,149681,1,8,0:0:0:0:
134,248,149760,1,8,0:0:0:0:
152,217,149839,1,8,0:0:0:0:
184,200,149918,1,10,0:2:0:0:
220,204,149997,1,8,0:0:0:0:
248,226,150076,1,8,0:0:0:0:
260,261,150154,1,8,0:0:0:0:
251,295,150233,5,14,1:3:0:0:
213,262,150312,1,8,0:0:0:0:
207,211,150391,1,8,0:0:0:0:
238,170,150470,1,8,0:0:0:0:
288,159,150549,1,10,0:2:0:0:
318,118,150628,1,8,0:0:0:0:
313,67,150707,1,8,0:0:0:0:
276,32,150786,1,8,0:0:0:0:
225,31,150865,5,14,1:3:0:0:
244,95,150944,1,8,0:0:0:0:
301,131,151023,1,8,0:0:0:0:
367,121,151102,1,8,0:0:0:0:
424,156,151181,1,10,0:2:0:0:
443,220,151260,1,8,0:0:0:0:
415,281,151339,1,8,0:0:0:0:
355,310,151418,1,8,0:0:0:0:
290,292,151497,1,10,0:0:0:0:
252,237,151576,1,8,0:0:0:0:
187,220,151654,1,8,0:0:0:0:
127,251,151733,1,8,0:0:0:0:
108,315,151812,6,0,L|119:369,1,52.2500015945435,10|8,1:2|0:0,0:0:0:0:
348,219,151970,2,0,L|359:273,1,52.2500015945435,8|8,1:3|0:0,0:0:0:0:
54,99,152128,5,12,0:3:0:0:
256,368,152286,1,12,0:3:0:0:
256,368,153233,6,0,L|253:313,1,52.2500015945435,8|8,0:0|0:0,0:0:0:0:
246,80,153391,1,12,0:3:0:0:
46,314,153549,1,12,0:3:0:0:
128,333,153865,6,0,B|142:282|102:229|41:225|41:225|100:229|140:210|147:136|114:100|60:88|19:128,1,418.000012756348,12|0,0:1|0:0,0:0:0:0:
149,18,154654,5,12,0:2:0:0:
333,217,154812,1,8,0:0:0:0:
384,207,154891,1,8,0:0:0:0:
435,198,154970,1,8,0:0:0:0:
246,80,155128,1,10,0:2:0:0:
43,225,155286,1,8,0:0:0:0:
312,298,155444,6,0,B|336:345|336:345|216:312,1,178.125,12|0,0:1|0:0,0:0:0:0:
140,314,155760,2,0,P|148:277|169:252,1,66.4999979705811,10|8,0:0|0:0,0:0:0:0:
217,157,155918,2,0,P|245:174|263:201,1,66.4999979705811,10|8,0:0|0:0,0:0:0:0:
312,298,156076,1,10,0:0:0:0:
141,176,156233,5,8,0:0:0:0:
140,136,156312,1,8,0:0:0:0:
139,96,156391,2,0,L|138:31,1,56.9999982604981,10|0,0:1|0:0,0:0:0:0:
316,2,156549,5,8,0:0:0:0:
317,42,156628,1,8,0:0:0:0:
318,82,156707,2,0,L|319:147,1,56.9999982604981,8|0,0:2|0:0,0:0:0:0:
275,212,156865,6,0,P|324:222|371:210,1,95,8|8,0:0|0:0,0:0:0:0:
452,173,157102,1,8,0:0:0:0:
452,173,157181,6,0,B|428:215|442:254|456:243|468:283|450:318,1,152,12|2,0:1|0:0,0:0:0:0:
312,298,157654,1,0,0:0:0:0:
260,373,157812,2,0,P|224:363|197:338,1,76,8|0,0:2|0:0,0:0:0:0:
85,251,158128,2,0,P|138:247|171:240,1,76,2|8,0:2|0:0,0:0:0:0:
257,101,158444,6,0,B|288:141|288:141|266:239,1,152,8|2,0:0|0:2,0:0:0:0:
113,167,158918,1,8,0:0:0:0:
113,167,159076,2,0,P|109:126|103:84,1,76,8|0,0:2|0:0,0:0:0:0:
211,21,159391,1,2,0:2:0:0:
257,101,159549,1,8,0:0:0:0:
365,61,159707,6,0,B|424:56|424:56|436:62|436:62|524:55,1,152,8|2,0:0|0:2,0:0:0:0:
440,208,160181,1,8,0:0:0:0:
440,208,160339,2,0,B|403:202|403:202|400:205|400:205|363:200,1,76,8|0,0:2|0:0,0:0:0:0:
285,276,160654,2,0,P|330:306|327:361,1,114,2|0,0:2|0:0,0:0:0:0:
327,361,160970,6,0,P|267:362|169:384,1,152,8|2,0:0|0:2,0:0:0:0:
47,248,161444,1,8,0:0:0:0:
131,219,161602,2,0,P|135:177|140:133,1,76,8|0,0:2|0:0,0:0:0:0:
256,87,161918,1,2,0:2:0:0:
114,15,162076,1,8,0:0:0:0:
256,87,162233,6,0,P|259:152|267:241,1,152,12|2,0:2|0:2,0:0:0:0:
395,183,162707,1,8,0:0:0:0:
437,258,162865,2,0,P|483:261|524:268,1,76,8|0,0:2|0:0,0:0:0:0:
354,342,163181,2,0,P|308:345|267:352,1,76,2|8,0:2|0:0,0:0:0:0:
123,307,163497,6,0,P|149:259|121:213,1,114,10|2,0:0|0:0,0:0:0:0:
121,213,163812,2,0,P|165:222|198:233,1,76,2|10,0:2|0:0,0:0:0:0:
368,150,164128,6,0,P|343:187|377:248,1,114,10|2,0:2|0:0,0:0:0:0:
370,244,164444,2,0,P|326:249|290:260,1,76,2|10,0:2|0:0,0:0:0:0:
325,76,164760,6,0,B|270:100|222:62|222:62|236:23,1,152,8|2,0:0|0:2,0:0:0:0:
142,155,165233,1,8,0:0:0:0:
137,140,165312,1,8,0:0:0:0:
132,125,165391,2,0,P|121:89|101:32,1,76,8|0,0:2|0:0,0:0:0:0:
32,185,165707,1,2,0:2:0:0:
155,265,165865,1,10,0:0:0:0:
239,283,166023,6,0,P|166:293|72:313,1,152,8|2,0:0|0:2,0:0:0:0:
290,346,166497,1,8,0:3:0:0:
326,202,166654,2,0,P|368:192|410:185,1,76,10|8,0:2|0:0,0:0:0:0:
303,67,166970,1,10,0:2:0:0:
239,283,167128,1,8,0:2:0:0:
139,112,167286,5,6,0:2:0:0:
139,112,167602,5,2,0:0:0:0:
196,161,167760,1,2,0:0:0:0:
182,234,167918,1,2,0:0:0:0:
239,283,168076,1,2,0:0:0:0:
310,259,168233,1,2,0:0:0:0:
324,186,168391,1,2,0:0:0:0:
267,137,168549,5,2,0:0:0:0:
267,137,168865,5,2,0:0:0:0:
281,64,169023,1,2,0:0:0:0:
352,40,169181,1,2,0:0:0:0:
409,89,169339,1,2,0:0:0:0:
395,162,169497,1,2,0:0:0:0:
452,211,169654,1,2,0:0:0:0:
438,284,169812,6,0,L|425:348,2,63.3333333333333,2|2|2,0:0|0:0|0:0,0:0:0:0:
336,248,170128,2,0,L|324:186,2,63.3333333333333,2|2|2,0:0|0:0|0:0,0:0:0:0:
267,320,170444,6,0,L|254:384,1,63.3333333333333,2|2,0:0|0:0,0:0:0:0:
179,311,170654,1,2,0:0:0:0:
187,302,170760,2,0,L|175:240,2,63.3333333333333,2|2|2,0:0|0:0|0:0,0:0:0:0:
244,206,171076,6,0,B|226:190|227:170|227:170|233:180|244:191,1,63.3333333333333,2|2,0:0|0:0,0:0:0:0:
122,147,171286,1,2,0:0:0:0:
126,132,171391,2,0,B|142:114|162:115|162:115|152:121|141:132,1,63.3333333333333,2|2,0:0|0:0,0:0:0:0:
185,10,171602,1,2,0:0:0:0:
200,14,171707,2,0,B|218:30|217:50|217:50|211:40|200:29,1,63.3333333333333,2|2,0:0|0:0,0:0:0:0:
322,73,171918,1,2,0:0:0:0:
318,88,172023,2,0,B|302:106|282:105|282:105|292:99|303:88,2,63.3333333333333,2|2|0,0:0|0:0|0:0,0:0:0:0:
397,130,172339,5,12,0:1:0:0:
416,61,172497,1,8,0:0:0:0:
485,81,172654,1,8,0:0:0:0:
465,149,172812,1,8,0:0:0:0:
329,236,172970,5,10,0:2:0:0:
351,318,173128,1,8,0:0:0:0:
434,294,173286,1,8,0:0:0:0:
410,213,173444,1,8,0:0:0:0:
247,177,173602,5,10,0:0:0:0:
214,300,173760,1,8,0:0:0:0:
89,264,173918,1,8,0:0:0:0:
125,142,174076,1,8,0:0:0:0:
280,97,174233,5,10,0:2:0:0:
271,16,174391,1,8,0:0:0:0:
191,25,174549,1,8,0:0:0:0:
199,105,174707,1,8,0:0:0:0:
43,189,174865,5,10,0:0:0:0:
189,228,175023,1,8,0:0:0:0:
146,377,175181,1,8,0:0:0:0:
1,334,175339,1,8,0:0:0:0:
251,277,175497,5,10,0:2:0:0:
138,288,175654,1,8,0:0:0:0:
129,173,175812,1,8,0:0:0:0:
241,164,175970,1,8,0:0:0:0:
364,263,176128,5,10,0:0:0:0:
356,336,176286,1,8,0:0:0:0:
431,342,176444,1,8,0:0:0:0:
437,269,176602,1,8,0:0:0:0:
473,85,176760,5,10,0:2:0:0:
481,158,176918,1,8,0:0:0:0:
406,164,177076,1,8,0:0:0:0:
400,91,177233,1,8,0:0:0:0:
193,81,177391,5,12,0:1:0:0:
265,109,177549,1,8,0:0:0:0:
193,81,177707,1,8,0:0:0:0:
265,109,177865,1,8,0:0:0:0:
113,199,178023,5,10,0:2:0:0:
76,106,178181,1,8,0:0:0:0:
113,199,178339,1,8,0:0:0:0:
76,106,178497,1,8,0:0:0:0:
237,273,178654,5,10,0:0:0:0:
58,306,178812,1,8,0:0:0:0:
237,273,178970,1,8,0:0:0:0:
58,306,179128,1,8,0:0:0:0:
305,199,179286,5,10,0:2:0:0:
191,178,179444,1,8,0:0:0:0:
305,199,179602,1,8,0:0:0:0:
191,178,179760,1,8,0:0:0:0:
370,347,179918,5,10,0:0:0:0:
365,269,180076,1,8,0:0:0:0:
370,347,180233,1,8,0:0:0:0:
365,269,180391,1,8,0:0:0:0:
237,273,180549,5,10,0:2:0:0:
282,119,180707,1,8,0:0:0:0:
237,273,180865,1,8,0:0:0:0:
282,119,181023,1,8,0:0:0:0:
395,164,181181,5,8,0:0:0:0:
229,37,181339,1,8,0:0:0:0:
191,40,181418,1,8,0:0:0:0:
153,43,181497,1,10,0:1:0:0:
226,193,181654,5,8,0:0:0:0:
264,196,181733,1,8,0:0:0:0:
302,199,181812,1,10,0:1:0:0:
130,314,181970,5,8,0:0:0:0:
92,317,182049,1,8,0:0:0:0:
54,320,182128,1,10,0:1:0:0:
285,307,182444,5,8,0:2:0:0:
36,176,182602,1,8,0:2:0:0:
27,169,182918,2,0,P|85:159|126:155,1,95,8|0,0:0|0:0,0:0:0:0:
294,34,183233,1,8,0:0:0:0:
312,38,183312,1,8,0:0:0:0:
329,41,183391,2,0,P|292:114|373:129,1,189.524992191811,12|0,0:1|0:0,0:0:0:0:
372,129,183707,6,0,B|384:174|384:174|371:217,1,90.2499975900651,12|8,0:1|0:0,0:0:0:0:
195,301,184023,2,0,P|239:308|283:319,1,90.2499975900651,10|8,0:2|0:0,0:0:0:0:
120,155,184339,2,0,P|116:110|108:65,1,90.2499975900651,10|8,0:0|0:0,0:0:0:0:
49,18,184576,1,10,0:0:0:0:
49,18,184654,1,8,0:2:0:0:
205,111,184812,1,10,0:0:0:0:
35,199,184970,5,10,0:0:0:0:
120,155,185128,1,8,0:0:0:0:
115,250,185286,1,8,0:2:0:0:
30,294,185444,1,8,0:0:0:0:
120,155,185602,1,8,0:0:0:0:
195,301,185760,1,8,0:0:0:0:
341,226,185918,5,10,0:2:0:0:
421,277,186076,1,10,0:0:0:0:
309,337,186233,6,0,P|244:344|195:301,1,135.374996385098,10|0,0:0|0:0,0:0:0:0:
195,301,186549,2,0,P|218:267|227:213,1,90.2499975900651,10|8,0:2|0:0,0:0:0:0:
116,22,186865,1,10,0:0:0:0:
246,72,187023,1,8,0:0:0:0:
263,67,187102,1,10,0:0:0:0:
280,62,187181,1,8,0:2:0:0:
414,27,187339,1,10,0:0:0:0:
377,122,187497,6,0,P|426:125|479:137,1,90.2499975900651,10|8,0:0|0:0,0:0:0:0:
473,303,187812,1,10,0:2:0:0:
423,214,187970,1,8,0:0:0:0:
316,288,188128,5,10,0:0:0:0:
377,122,188286,1,8,0:0:0:0:
196,218,188444,5,10,0:2:0:0:
285,168,188602,1,8,0:0:0:0:
129,127,188760,6,0,B|127:80|127:80|123:78|123:78|121:33,1,90.2499975900651,12|8,0:1|0:0,0:0:0:0:
292,80,189076,2,0,B|290:127|290:127|286:129|286:129|285:168,1,90.2499975900651,8|8,0:2|0:0,0:0:0:0:
153,313,189391,1,10,0:0:0:0:
196,218,189549,1,8,0:0:0:0:
353,369,189707,2,0,P|301:361|258:356,1,90.2499975900651,10|8,0:2|0:0,0:0:0:0:
153,313,190023,5,10,0:0:0:0:
311,257,190181,1,8,0:0:0:0:
311,257,190260,2,0,L|354:283,1,45.1249987950325,10|8,0:0|0:2,0:0:0:0:
457,351,190497,1,10,0:0:0:0:
422,182,190654,6,0,P|425:127|429:82,1,90.2499975900651,10|8,0:0|0:0,0:0:0:0:
292,122,190970,2,0,P|295:67|299:22,1,90.2499975900651,10|8,0:2|0:0,0:0:0:0:
231,317,191286,6,0,P|181:297|84:365,1,180.49999518013,10|8,0:0|0:2,0:0:0:0:
171,383,191760,1,8,0:0:0:0:
123,220,191918,5,10,0:0:0:0:
131,175,191997,1,10,0:0:0:0:
166,145,192076,1,10,0:0:0:0:
212,139,192154,1,10,0:0:0:0:
244,107,192233,1,8,0:2:0:0:
249,61,192312,1,8,0:0:0:0:
224,22,192391,1,8,0:0:0:0:
182,6,192470,1,8,0:0:0:0:
138,21,192549,5,8,0:0:0:0:
133,66,192628,1,8,0:0:0:0:
158,106,192707,1,8,0:0:0:0:
201,121,192786,1,8,0:0:0:0:
244,107,192865,5,10,0:2:0:0:
217,144,192944,1,10,0:0:0:0:
221,191,193023,1,10,0:0:0:0:
251,224,193102,1,10,0:0:0:0:
297,232,193181,5,12,0:0:0:0:
173,376,193497,5,8,0:2:0:0:
173,376,193654,1,8,0:0:0:0:
89,343,193812,5,12,0:1:0:0:
124,305,193891,1,8,0:0:0:0:
174,292,193970,1,8,0:0:0:0:
223,307,194049,1,8,0:0:0:0:
256,346,194128,1,10,0:0:0:0:
304,362,194207,1,8,0:0:0:0:
354,349,194286,1,8,0:0:0:0:
389,311,194365,1,8,0:0:0:0:
397,260,194444,5,8,0:2:0:0:
347,248,194523,1,8,0:0:0:0:
312,211,194602,1,8,0:0:0:0:
304,160,194681,1,8,0:0:0:0:
326,113,194760,1,10,0:0:0:0:
370,87,194839,1,8,0:0:0:0:
421,89,194918,1,8,0:0:0:0:
462,120,194997,1,8,0:0:0:0:
479,169,195076,6,0,L|415:172,3,52.2500015945435,12|8|8|8,0:2|0:0|0:0|0:0,0:0:0:0:
389,311,195391,2,0,L|324:313,3,52.2500015945435,14|8|8|8,0:0|0:0|0:0|0:0,0:0:0:0:
159,166,195707,5,12,0:2:0:0:
101,190,195786,1,8,0:0:0:0:
67,243,195865,1,8,0:0:0:0:
71,306,195944,1,8,0:0:0:0:
112,354,196023,1,10,0:0:0:0:
173,369,196102,1,8,0:0:0:0:
231,345,196181,1,8,0:0:0:0:
264,292,196260,1,8,0:0:0:0:
260,229,196339,5,12,0:2:0:0:
212,248,196418,1,8,0:0:0:0:
190,294,196497,1,8,0:0:0:0:
202,343,196576,1,8,0:0:0:0:
245,372,196654,1,10,0:0:0:0:
295,366,196733,1,8,0:0:0:0:
330,329,196812,1,8,0:0:0:0:
331,278,196891,1,8,0:0:0:0:
298,238,196970,5,8,0:2:0:0:
249,223,197049,1,8,0:0:0:0:
218,182,197128,1,8,0:0:0:0:
215,131,197207,1,8,0:0:0:0:
241,87,197286,1,10,0:0:0:0:
288,66,197365,1,8,0:0:0:0:
339,75,197444,1,8,0:0:0:0:
375,111,197523,1,8,0:0:0:0:
385,161,197602,5,12,0:2:0:0:
350,170,197681,1,8,0:0:0:0:
314,160,197760,1,8,0:0:0:0:
290,134,197839,1,8,0:0:0:0:
280,99,197918,1,14,0:0:0:0:
288,63,197997,1,8,0:0:0:0:
276,29,198076,1,8,0:0:0:0:
247,8,198154,1,8,0:0:0:0:
211,5,198233,5,12,0:2:0:0:
215,54,198312,1,8,0:0:0:0:
248,91,198391,1,8,0:0:0:0:
298,101,198470,1,8,0:0:0:0:
341,77,198549,5,14,0:2:0:0:
398,90,198628,1,8,0:0:0:0:
430,139,198707,1,8,0:0:0:0:
418,197,198786,1,8,0:0:0:0:
376,240,198865,6,0,B|325:236|325:236|321:240|321:240|265:236,1,113.999996520996,12|8,0:1|0:0,0:0:0:0:
250,235,199102,1,8,0:0:0:0:
216,190,199181,1,10,0:2:0:0:
161,179,199260,1,8,0:0:0:0:
114,208,199339,1,8,0:0:0:0:
98,261,199418,1,8,0:0:0:0:
122,312,199497,6,0,P|92:320|64:328,1,56.9999982604981,10|8,0:2|0:0,0:0:0:0:
43,200,199654,2,0,P|19:180|-3:161,1,56.9999982604981,8|8,0:0|0:0,0:0:0:0:
89,71,199812,2,0,P|91:40|93:11,1,56.9999982604981,10|8,0:2|0:0,0:0:0:0:
221,34,199970,2,0,P|247:18|272:3,1,56.9999982604981,8|8,0:0|0:0,0:0:0:0:
327,120,200128,5,10,0:2:0:0:
330,164,200206,1,8,0:0:0:0:
308,203,200285,1,8,0:0:0:0:
268,223,200366,1,8,0:0:0:0:
228,243,200445,1,10,0:2:0:0:
206,282,200524,1,8,0:0:0:0:
210,327,200602,2,0,L|275:334,1,56.9999982604981,8|8,0:0|0:0,0:0:0:0:
255,148,200760,5,10,0:2:0:0:
239,94,200838,1,8,0:0:0:0:
200,52,200917,1,8,0:0:0:0:
147,33,200996,1,8,0:0:0:0:
91,40,201075,1,10,0:2:0:0:
44,71,201154,1,8,0:0:0:0:
16,119,201233,2,0,L|11:179,1,56.9999982604981,8|8,0:0|0:0,0:0:0:0:
6,319,201391,5,14,0:2:0:0:
59,359,201470,1,8,0:0:0:0:
125,357,201549,1,8,0:0:0:0:
176,314,201628,1,8,0:0:0:0:
188,249,201707,1,14,0:2:0:0:
158,190,201786,1,8,0:0:0:0:
97,164,201865,1,8,0:0:0:0:
70,103,201944,1,8,0:0:0:0:
91,40,202023,1,14,0:2:0:0:
150,9,202102,1,8,0:0:0:0:
214,27,202181,1,8,0:0:0:0:
249,83,202260,1,8,0:0:0:0:
236,148,202339,1,14,0:2:0:0:
266,208,202418,1,8,0:0:0:0:
327,236,202497,1,8,0:0:0:0:
392,220,202576,1,8,0:0:0:0:
432,167,202654,5,14,0:2:0:0:
363,162,202733,1,8,0:0:0:0:
306,202,202812,1,8,0:0:0:0:
289,270,202891,1,8,0:0:0:0:
319,333,202970,1,14,0:2:0:0:
382,362,203049,1,8,0:0:0:0:
449,344,203128,1,8,0:0:0:0:
489,287,203207,1,8,0:0:0:0:
482,217,203286,1,14,0:2:0:0:
432,167,203365,1,8,0:0:0:0:
363,162,203444,1,8,0:0:0:0:
306,201,203523,1,8,0:0:0:0:
237,190,203602,5,14,0:2:0:0:
195,134,203681,1,8,0:2:0:0:
204,65,203760,1,8,0:2:0:0:
258,21,203839,1,8,0:2:0:0:
327,26,203918,5,14,0:3:0:0:
307,95,203997,1,8,0:0:0:0:
246,135,204076,1,8,0:0:0:0:
174,127,204154,1,8,0:0:0:0:
127,73,204233,1,14,0:2:0:0:
55,73,204312,1,8,0:0:0:0:
7,127,204391,1,8,0:0:0:0:
17,198,204470,1,8,0:0:0:0:
76,239,204549,1,14,0:2:0:0:
146,221,204628,1,8,0:0:0:0:
179,156,204707,1,8,0:0:0:0:
244,122,204786,1,8,0:0:0:0:
316,131,204865,1,14,0:2:0:0:
370,180,204944,1,8,0:0:0:0:
386,251,205023,1,8,0:0:0:0:
358,319,205102,1,8,0:0:0:0:
297,358,205181,5,14,0:2:0:0:
265,292,205260,1,8,0:0:0:0:
288,224,205339,1,8,0:0:0:0:
351,189,205418,1,8,0:0:0:0:
421,209,205497,1,14,0:2:0:0:
458,271,205576,1,8,0:0:0:0:
441,341,205654,1,8,0:0:0:0:
381,381,205733,1,8,0:0:0:0:
310,367,205812,1,14,0:2:0:0:
268,308,205891,1,8,0:0:0:0:
245,239,205970,1,8,0:0:0:0:
180,209,206049,1,8,0:0:0:0:
114,238,206128,5,10,0:2:0:0:
43,202,206207,5,8,0:2:0:0:
29,124,206286,5,8,0:2:0:0:
82,65,206365,5,8,0:2:0:0:
161,70,206444,6,0,B|198:101|196:153|196:153|171:212|117:217|89:170|89:170|108:119|155:115|196:152|196:152|192:221|243:250|243:250|228:197|289:155|289:155|356:197|338:253,1,712.5,14|0,0:3|0:0,0:0:0:0:
290,313,207707,5,2,0:0:0:0:
283,325,208023,1,2,0:0:0:0:
276,337,208339,1,2,0:0:0:0:
365,115,208497,1,8,0:0:0:0:
205,233,208654,2,0,P|136:248|68:269,1,142.5,10|0,0:2|0:0,0:0:0:0:
68,269,208970,6,0,B|91:223|46:182|46:182|30:127|63:95,1,190,12|8,0:1|0:2,0:0:0:0:
0,244,209444,1,8,0:0:0:0:
175,72,209602,1,10,0:0:0:0:
171,53,209681,1,10,0:0:0:0:
167,34,209760,1,10,0:0:0:0:
205,233,209918,1,10,0:2:0:0:
298,181,210076,1,10,0:0:0:0:
400,317,210233,6,0,P|407:267|418:217,1,95,10|8,0:0|0:0,0:0:0:0:
463,163,210470,1,10,0:0:0:0:
463,163,210549,2,0,B|416:151|416:151|412:153|412:153|371:144,1,95,8|10,0:2|0:0,0:0:0:0:
188,152,210865,1,10,0:0:0:0:
272,327,211023,1,8,0:0:0:0:
290,323,211102,1,8,0:0:0:0:
308,320,211181,1,8,0:2:0:0:
289,281,211260,1,8,0:0:0:0:
253,260,211339,1,8,0:0:0:0:
211,264,211418,1,8,0:0:0:0:
178,290,211497,6,0,L|186:370,2,63.3333333333333,10|2|2,0:0|0:0|0:0,0:0:0:0:
63,226,211812,2,0,L|70:146,2,63.3333333333333,10|2|2,0:2|0:0|0:0,0:0:0:0:
51,78,212128,5,10,0:0:0:0:
85,72,212207,1,10,0:0:0:0:
118,84,212286,1,10,0:0:0:0:
141,111,212365,1,10,0:0:0:0:
147,146,212444,5,10,0:2:0:0:
192,159,212523,1,10,0:2:0:0:
238,149,212602,1,10,0:2:0:0:
273,118,212681,1,10,0:2:0:0:
288,73,212760,5,10,0:0:0:0:
299,128,212839,1,10,0:0:0:0:
334,172,212918,1,10,0:0:0:0:
386,194,212997,1,10,0:0:0:0:
443,190,213076,5,10,0:2:0:0:
410,171,213154,1,10,0:0:0:0:
373,171,213233,1,10,0:0:0:0:
341,190,213312,1,10,0:0:0:0:
323,223,213391,1,10,0:0:0:0:
324,260,213470,1,10,0:0:0:0:
344,292,213549,1,10,0:0:0:0:
378,308,213628,1,10,0:0:0:0:
416,305,213707,2,0,B|378:288|339:307|339:307|338:296|338:296|300:318|260:292,1,170.999994781494,10|0,0:2|0:0,0:0:0:0:
183,301,214023,6,0,B|185:249|228:224|228:224|183:204|176:147,1,190,10|8,0:0|0:2,0:0:0:0:
30,40,214497,2,0,P|31:90|32:136,1,95,10|8,0:0|0:0,0:0:0:0:
255,151,214812,1,10,0:0:0:0:
119,229,214970,1,10,0:2:0:0:
191,64,215128,1,10,0:0:0:0:
221,282,215286,5,10,0:0:0:0:
233,256,215365,1,8,0:0:0:0:
255,238,215444,1,8,0:0:0:0:
282,233,215523,1,8,0:0:0:0:
310,240,215602,5,10,0:2:0:0:
324,274,215681,1,8,0:0:0:0:
356,293,215760,1,8,0:0:0:0:
394,289,215839,1,8,0:0:0:0:
421,263,215918,5,10,0:0:0:0:
412,217,215997,1,8,0:0:0:0:
426,172,216076,1,8,0:0:0:0:
459,139,216154,1,8,0:0:0:0:
504,125,216233,5,10,0:2:0:0:
470,169,216312,1,8,0:0:0:0:
415,175,216391,1,8,0:0:0:0:
371,141,216470,1,8,0:0:0:0:
365,86,216549,6,0,B|279:91|279:91|271:100|271:100|181:105,1,190,10|8,0:0|0:2,0:0:0:0:
117,264,217023,1,10,0:0:0:0:
134,270,217102,1,10,0:0:0:0:
151,276,217181,1,10,0:0:0:0:
30,343,217339,1,8,0:0:0:0:
227,233,217497,1,8,0:2:0:0:
66,148,217654,1,8,0:0:0:0:
238,44,217812,5,10,0:2:0:0:
235,91,217891,1,8,0:2:0:0:
232,138,217970,1,8,0:2:0:0:
230,186,218049,1,8,0:2:0:0:
227,233,218128,5,10,0:0:0:0:
243,204,218207,1,10,0:0:0:0:
273,190,218286,1,10,0:0:0:0:
305,194,218365,1,10,0:0:0:0:
330,216,218444,5,10,0:2:0:0:
324,262,218523,1,8,0:2:0:0:
348,301,218602,1,8,0:2:0:0:
393,316,218681,1,8,0:2:0:0:
436,299,218760,6,0,P|438:273|432:246,1,47.5,12|8,0:1|0:0,0:0:0:0:
254,374,218918,2,0,P|277:362|297:344,1,47.5,8|8,0:1|0:0,0:0:0:0:
106,255,219076,5,12,0:1:0:0:
57,262,219154,1,8,0:0:0:0:
28,301,219233,1,8,0:0:0:0:
34,349,219312,1,8,0:0:0:0:
73,378,219391,1,8,0:2:0:0:
121,372,219470,1,8,0:0:0:0:
150,333,219549,1,8,0:0:0:0:
143,285,219628,1,8,0:0:0:0:
106,255,219707,5,8,0:0:0:0:
125,197,219786,1,8,0:0:0:0:
180,171,219865,1,8,0:0:0:0:
236,195,219944,1,8,0:0:0:0:
257,252,220023,5,10,0:2:0:0:
312,288,220102,1,10,0:0:0:0:
376,269,220181,1,10,0:0:0:0:
404,209,220260,1,10,0:0:0:0:
377,149,220339,5,10,0:0:0:0:
311,124,220418,1,10,0:0:0:0:
300,54,220497,1,10,0:0:0:0:
356,10,220576,1,10,0:0:0:0:
421,37,220654,5,10,0:2:0:0:
382,77,220733,1,8,0:0:0:0:
327,88,220812,1,8,0:0:0:0:
275,67,220891,1,8,0:0:0:0:
243,21,220970,5,12,0:0:0:0:
198,22,221049,1,8,0:0:0:0:
163,51,221128,1,8,0:0:0:0:
155,95,221207,1,8,0:0:0:0:
175,135,221286,5,12,0:2:0:0:
182,102,221365,1,8,0:0:0:0:
164,73,221444,1,8,0:0:0:0:
133,63,221523,1,8,0:0:0:0:
102,76,221602,5,10,0:0:0:0:
95,125,221681,1,10,0:0:0:0:
66,167,221760,1,10,0:0:0:0:
24,193,221839,1,10,0:0:0:0:
6,240,221918,1,8,0:2:0:0:
26,286,221997,1,8,0:0:0:0:
72,306,222076,1,8,0:0:0:0:
119,289,222154,1,8,0:0:0:0:
142,244,222233,5,8,0:0:0:0:
180,236,222312,1,8,0:0:0:0:
218,249,222391,1,8,0:0:0:0:
243,279,222470,1,8,0:0:0:0:
249,318,222549,5,8,0:2:0:0:
201,291,222628,1,8,0:0:0:0:
191,237,222707,1,8,0:0:0:0:
227,195,222786,1,8,0:0:0:0:
282,197,222865,5,10,0:0:0:0:
277,130,222944,1,10,0:0:0:0:
323,82,223023,1,10,0:0:0:0:
390,84,223102,1,10,0:0:0:0:
434,133,223181,1,10,0:2:0:0:
428,199,223260,1,10,0:0:0:0:
375,240,223339,1,10,0:0:0:0:
384,305,223418,1,10,0:0:0:0:
445,330,223497,5,12,0:0:0:0:
423,278,223576,1,8,0:0:0:0:
374,252,223654,1,8,0:0:0:0:
319,263,223733,1,8,0:0:0:0:
285,308,223812,5,12,0:2:0:0:
246,313,223891,1,8,0:0:0:0:
213,291,223970,1,8,0:0:0:0:
200,255,224049,1,8,0:0:0:0:
213,217,224128,5,12,0:0:0:0:
236,218,224207,1,8,0:0:0:0:
257,212,224286,1,8,0:0:0:0:
276,199,224365,1,8,0:0:0:0:
290,181,224444,1,8,0:2:0:0:
296,159,224523,1,8,0:0:0:0:
296,136,224602,1,8,0:0:0:0:
287,116,224681,1,8,0:0:0:0:
273,100,224760,6,0,P|260:74|262:37,2,63.3333333333333,10|10|10,0:0|0:0|0:0,0:0:0:0:
380,159,225076,2,0,P|397:136|401:99,2,63.3333333333333,10|10|10,0:2|0:0|0:0,0:0:0:0:
441,268,225391,5,10,0:0:0:0:
421,252,225497,1,10,0:0:0:0:
396,254,225602,1,10,0:0:0:0:
333,302,225707,5,10,0:2:0:0:
300,338,225812,1,10,0:0:0:0:
251,342,225918,1,10,0:0:0:0:
180,304,226023,5,10,0:0:0:0:
187,264,226128,1,10,0:0:0:0:
159,235,226233,1,10,0:0:0:0:
96,181,226339,5,10,0:2:0:0:
60,131,226444,1,10,0:0:0:0:
88,78,226549,1,10,0:0:0:0:
169,68,226654,5,10,0:0:0:0:
173,118,226760,1,8,0:0:0:0:
177,168,226865,1,8,0:0:0:0:
251,211,226970,5,8,0:2:0:0:
255,161,227076,1,8,0:0:0:0:
259,111,227181,1,8,0:0:0:0:
334,44,227286,5,8,0:0:0:0:
384,40,227391,1,8,0:0:0:0:
434,36,227497,1,8,0:0:0:0:
475,135,227602,5,8,0:2:0:0:
425,131,227707,1,8,0:0:0:0:
375,127,227812,1,8,0:0:0:0:
334,209,227918,6,0,P|332:240|345:276,2,63.3333333333333,10|10|10,0:0|0:0|0:0,0:0:0:0:
165,120,228233,2,0,P|174:89|172:58,2,63.3333333333333,10|10|10,0:2|0:0|0:0,0:0:0:0:
59,269,228549,5,8,0:2:0:0:
105,340,228654,5,12,0:0:0:0:
191,341,228760,5,10,0:0:0:0:
243,273,228865,5,8,0:2:0:0:
223,201,228970,5,12,0:0:0:0:
272,146,229076,5,10,0:0:0:0:
344,160,229181,6,0,B|352:231|352:231|359:236|359:236|368:312,1,152,14|2,0:1|0:2,0:0:0:0:
506,256,229654,1,8,0:0:0:0:
464,184,229812,2,0,P|465:143|468:109,1,76,8|0,0:2|0:0,0:0:0:0:
347,9,230128,1,2,0:2:0:0:
266,58,230286,1,8,0:0:0:0:
154,11,230444,6,0,P|149:52|145:91,1,76,8|0,0:0|0:0,0:0:0:0:
179,205,230760,2,0,P|219:196|265:190,1,76,2|8,0:2|0:0,0:0:0:0:
80,158,231076,2,0,P|40:149|-6:143,1,76,8|0,0:2|0:0,0:0:0:0:
187,214,231391,2,0,P|227:205|273:199,1,76,2|8,0:2|0:0,0:0:0:0:
74,300,231707,6,0,P|126:301|206:366,1,152,8|2,0:0|0:2,0:0:0:0:
112,380,232181,1,8,0:0:0:0:
258,297,232339,2,0,B|298:290|298:290|336:303,1,76,8|0,0:2|0:0,0:0:0:0:
187,214,232654,1,2,0:2:0:0:
162,139,232812,1,8,0:0:0:0:
269,70,232970,6,0,P|265:111|263:147,1,76,8|0,0:0|0:0,0:0:0:0:
348,101,233286,2,0,P|344:142|342:178,1,76,10|0,0:3|0:0,0:0:0:0:
404,321,233602,2,0,P|400:280|398:244,1,76,8|0,0:2|0:0,0:0:0:0:
483,290,233918,2,0,P|479:249|477:213,1,76,10|8,0:3|0:0,0:0:0:0:
488,96,234233,6,0,B|454:123|454:123|348:101,1,152,12|2,0:2|0:2,0:0:0:0:
221,179,234707,1,8,0:0:0:0:
242,261,234865,2,0,P|292:269|324:278,1,76,8|0,0:2|0:0,0:0:0:0:
158,310,235181,2,0,P|153:265|145:221,1,76,2|8,0:2|0:0,0:0:0:0:
132,103,235497,6,0,P|75:108|21:125,1,114,8|0,0:0|0:0,0:0:0:0:
21,125,235812,2,0,P|62:141|89:161,1,76,2|8,0:2|0:0,0:0:0:0:
191,35,236128,2,0,P|233:24|273:26,1,76,8|0,0:2|0:0,0:0:0:0:
301,96,236365,1,0,0:0:0:0:
301,96,236444,2,0,P|289:140|282:179,1,76,2|8,0:0|0:0,0:0:0:0:
396,244,236760,6,0,B|359:222|323:248|330:254|296:279|253:254,1,152,8|2,0:0|0:2,0:0:0:0:
374,331,237233,1,8,0:0:0:0:
374,331,237391,2,0,P|418:337|449:344,1,76,8|0,0:2|0:0,0:0:0:0:
481,172,237707,1,2,0:0:0:0:
396,244,237865,1,8,0:0:0:0:
481,172,238023,6,0,P|492:112|509:17,1,152,8|2,0:0|0:2,0:0:0:0:
365,110,238497,1,8,0:0:0:0:
365,110,238654,2,0,P|322:112|286:121,1,76,8|0,0:2|0:0,0:0:0:0:
184,24,238970,2,0,P|227:26|263:35,1,76,2|8,0:2|0:0,0:0:0:0:
194,163,239286,6,0,P|227:208|329:214,1,152,12|2,0:2|0:2,0:0:0:0:
213,323,239760,1,8,0:0:0:0:
213,323,239918,2,0,P|175:301|139:298,1,76,8|0,0:2|0:0,0:0:0:0:
53,339,240233,1,2,0:2:0:0:
101,215,240391,1,8,0:0:0:0:
36,169,240549,6,0,P|33:129|26:55,1,114,8|0,0:0|0:0,0:0:0:0:
26,55,240865,2,0,P|74:67|111:65,1,76,2|8,0:2|0:0,0:0:0:0:
287,51,241181,2,0,B|298:90|298:90|288:124,1,76,8|0,0:2|0:0,0:0:0:0:
185,164,241497,2,0,B|174:125|174:125|184:91,1,76,2|8,0:2|0:0,0:0:0:0:
276,259,241812,6,0,P|308:209|394:199,1,152,8|2,0:0|0:2,0:0:0:0:
447,273,242286,1,8,0:0:0:0:
370,353,242444,2,0,P|361:305|358:272,1,76,8|0,0:2|0:0,0:0:0:0:
459,141,242760,1,2,0:2:0:0:
428,24,242918,1,8,0:0:0:0:
300,107,243076,6,0,P|346:115|397:127,1,76,8|0,0:0|0:0,0:0:0:0:
201,273,243391,2,0,P|238:267|276:259,1,76,2|8,0:2|0:0,0:0:0:0:
132,114,243707,2,0,P|178:122|229:134,1,76,8|0,0:2|0:0,0:0:0:0:
33,281,244023,2,0,P|70:274|107:266,1,76,2|8,0:2|0:0,0:0:0:0:
242,378,244339,6,0,P|199:347|93:371,1,152,12|2,0:2|0:2,0:0:0:0:
84,198,244812,1,8,0:0:0:0:
7,164,244970,2,0,P|12:125|20:85,1,76,8|0,0:2|0:0,0:0:0:0:
160,151,245286,2,0,P|167:188|172:225,1,76,2|8,0:2|0:0,0:0:0:0:
142,15,245602,6,0,B|159:46|196:49|196:49|232:14|281:29,1,152,8|2,0:0|0:2,0:0:0:0:
258,113,246076,1,8,0:0:0:0:
377,209,246233,2,0,B|360:178|323:175|323:175|287:210|238:195,1,152,8|2,0:2|0:0,0:0:0:0:
258,113,246707,1,8,0:0:0:0:
409,2,246865,6,0,B|442:23|442:23|455:67|438:102|395:116,1,152,8|2,0:0|0:2,0:0:0:0:
502,248,247339,1,8,0:0:0:0:
451,316,247497,2,0,P|399:309|334:306,1,114,8|8,0:2|0:0,0:0:0:0:
232,204,247970,5,8,0:0:0:0:
244,198,248049,1,8,0:0:0:0:
256,192,248128,1,12,0:2:0:0:
256,192,249391,6,0,P|263:133|273:80,1,109.250002083778,12|8,1:1|0:0,0:0:0:0:
331,252,249707,1,10,0:2:0:0:
114,202,249865,2,0,P|123:255|130:309,1,109.250002083778,8|10,1:3|0:3,0:0:0:0:
181,132,250181,1,8,0:0:0:0:
331,353,250339,2,0,P|354:280|432:275,1,163.875003125668,10|0,1:2|0:0,0:0:0:0:
432,275,250654,6,0,P|378:277|331:252,1,109.250002083778,10|8,1:3|0:0,0:0:0:0:
217,352,250970,1,10,0:2:0:0:
397,186,251128,1,8,1:3:0:0:
221,55,251286,5,10,1:3:0:0:
181,132,251444,1,8,0:0:0:0:
229,204,251602,1,10,0:2:0:0:
268,126,251760,1,8,0:0:0:0:
53,34,251918,6,0,B|45:85|45:85|47:90|47:90|39:142,1,109.250002083778,10|8,1:3|0:0,0:0:0:0:
229,204,252233,1,10,1:2:0:0:
114,333,252391,2,0,P|54:336|4:342,1,109.250002083778,8|10,1:3|0:3,0:0:0:0:
277,276,252707,1,8,1:3:0:0:
93,218,252865,1,10,0:2:0:0:
268,126,253023,1,8,1:3:0:0:
190,87,253181,5,10,0:3:0:0:
229,204,253339,1,8,0:0:0:0:
346,165,253497,1,10,0:2:0:0:
307,48,253654,1,8,0:0:0:0:
277,276,253812,5,10,0:3:0:0:
490,188,253970,1,8,0:0:0:0:
487,209,254049,1,8,0:0:0:0:
484,230,254128,1,10,0:2:0:0:
307,48,254286,1,8,0:0:0:0:
94,136,254444,6,0,P|91:89|82:24,1,109.250002083778,10|8,1:3|0:0,0:0:0:0:
156,278,254760,1,10,0:2:0:0:
1,247,254918,1,8,0:0:0:0:
217,338,255076,5,10,1:3:0:0:
155,196,255233,1,8,0:0:0:0:
80,376,255391,1,10,1:2:0:0:
274,234,255549,6,0,B|328:217|328:217|378:235,1,109.250002083778,8|10,1:3|0:3,0:0:0:0:
156,278,255865,1,8,0:0:0:0:
235,84,256023,2,0,P|174:72|120:55,1,109.250002083778,10|8,1:2|0:0,0:0:0:0:
156,278,256339,2,0,P|95:290|41:307,1,109.250002083778,10|8,1:3|0:0,0:0:0:0:
325,304,256654,1,10,1:2:0:0:
155,196,256812,1,8,0:0:0:0:
283,363,256970,6,0,P|335:347|388:337,1,109.250002083778,10|8,1:3|0:0,0:0:0:0:
461,108,257286,1,10,0:2:0:0:
274,234,257444,1,8,0:0:0:0:
480,254,257602,5,10,1:3:0:0:
314,98,257760,1,8,0:0:0:0:
320,77,257839,1,8,1:3:0:0:
327,56,257918,1,10,0:2:0:0:
383,190,258076,1,8,1:3:0:0:
187,122,258233,5,10,1:3:0:0:
229,35,258391,1,8,0:0:0:0:
44,186,258549,5,10,0:2:0:0:
274,234,258707,1,8,0:0:0:0:
74,364,258865,5,10,0:0:0:0:
72,311,258944,1,8,0:0:0:0:
103,268,259023,1,8,0:0:0:0:
153,251,259102,1,8,0:0:0:0:
204,268,259181,1,10,1:1:0:0:
44,186,259339,1,8,1:3:0:0:
163,351,259497,6,0,B|215:343|215:343|221:347|221:347|272:339,1,109.250002083778,14|8,1:3|0:0,0:0:0:0:
387,156,259812,2,0,B|335:148|335:148|329:152|329:152|278:144,1,109.250002083778,10|8,0:2|0:0,0:0:0:0:
488,92,260128,1,10,1:3:0:0:
403,321,260286,2,0,B|455:313|455:313|461:317|461:317|512:309,1,109.250002083778,8|10,1:3|0:2,0:0:0:0:
316,258,260602,1,8,1:3:0:0:
472,175,260760,6,0,P|460:94|440:14,1,163.875003125668,10|0,0:3|0:0,0:0:0:0:
440,15,261076,2,0,P|399:54|346:55,1,109.250002083778,10|8,1:2|0:0,0:0:0:0:
176,8,261391,1,10,1:3:0:0:
176,8,261470,1,8,0:0:0:0:
256,192,261628,1,8,0:0:0:0:
256,192,261707,1,10,1:2:0:0:
51,123,261865,1,8,0:0:0:0:
289,293,262023,5,10,1:3:0:0:
169,129,262181,1,8,0:0:0:0:
362,191,262339,1,10,1:2:0:0:
169,254,262497,1,8,0:0:0:0:
289,90,262654,5,10,1:3:0:0:
169,129,262812,1,8,0:0:0:0:
289,293,262970,1,10,1:2:0:0:
169,254,263128,1,8,0:0:0:0:
256,192,263286,5,10,1:3:0:0:
81,312,263444,1,8,0:0:0:0:
36,306,263523,1,8,0:0:0:0:
5,274,263602,1,10,0:2:0:0:
2,230,263681,1,8,0:0:0:0:
28,194,263760,1,8,0:0:0:0:
72,183,263839,1,8,0:0:0:0:
112,202,263918,5,10,0:0:0:0:
190,356,264076,1,8,0:0:0:0:
223,375,264154,1,8,0:0:0:0:
260,367,264233,1,10,0:2:0:0:
280,335,264312,1,8,0:0:0:0:
272,297,264391,1,8,0:0:0:0:
241,276,264470,1,8,0:0:0:0:
204,282,264549,6,0,B|179:233|179:233|198:182,1,109.250002083778,14|8,1:3|0:0,0:0:0:0:
364,233,264865,1,10,0:2:0:0:
286,78,265023,2,0,P|226:66|177:52,1,109.250002083778,8|10,1:3|0:3,0:0:0:0:
198,182,265339,1,8,0:0:0:0:
367,5,265497,2,0,P|419:19|473:30,1,109.250002083778,10|8,1:2|0:0,0:0:0:0:
475,197,265812,5,14,1:3:0:0:
437,168,265891,1,8,0:0:0:0:
390,167,265970,1,8,0:0:0:0:
352,193,266049,1,8,0:0:0:0:
336,238,266128,1,10,0:2:0:0:
350,283,266207,1,8,0:0:0:0:
388,311,266286,1,8,0:0:0:0:
435,311,266365,1,8,0:0:0:0:
473,283,266444,5,14,1:3:0:0:
425,248,266523,1,8,0:0:0:0:
366,247,266602,1,8,0:0:0:0:
317,279,266681,1,8,0:0:0:0:
294,333,266760,1,10,0:2:0:0:
244,365,266839,1,8,0:0:0:0:
185,364,266918,1,8,0:0:0:0:
138,329,266997,1,8,0:0:0:0:
123,272,267076,6,0,B|183:245|162:168|162:168|168:161|168:161|163:167|163:167|85:148|62:217,1,265.999991882324,12|8,1:1|0:0,0:0:0:0:
180,23,267549,6,0,B|182:53|182:53|186:58|186:58|188:89,1,66.4999979705811,10|0,0:1|0:0,0:0:0:0:
338,378,267865,6,0,B|336:348|336:348|332:343|332:343|330:313,1,66.4999979705811,10|0,0:1|0:0,0:0:0:0:
435,61,268181,6,0,B|473:103|473:103|325:77,1,199.499993911743,12|0,0:1|0:0,0:0:0:0:
316,75,268497,1,8,0:2:0:0:
266,90,268576,1,8,0:2:0:0:
243,136,268654,1,8,0:2:0:0:
262,185,268733,1,8,0:2:0:0:
309,204,268812,6,0,B|350:167|350:167|316:307,1,199.499993911743,12|0,0:1|0:0,0:0:0:0:
265,377,269128,6,0,P|235:340|231:315,1,66.4999979705811,8|0,1:3|0:0,0:0:0:0:
150,305,269286,6,0,P|167:271|187:253,1,56.9999982604981,8|0,1:2|0:0,0:0:0:0:
134,190,269444,6,0,P|158:178|185:176,1,47.5,8|0,1:3|0:0,0:0:0:0:
309,204,269602,5,14,1:1:0:0:
57,262,269760,1,8,0:0:0:0:
176,101,269918,1,10,0:2:0:0:
47,270,270076,2,0,P|40:201|32:157,1,109.250002083778,8|10,1:3|0:3,0:0:0:0:
143,19,270391,1,8,0:0:0:0:
300,117,270549,2,0,B|339:147|385:122|370:105|420:89|454:113,1,163.875003125668,10|0,1:2|0:0,0:0:0:0:
454,113,270865,6,0,P|401:108|373:60,1,109.250002083778,10|8,1:3|0:0,0:0:0:0:
218,182,271181,1,10,0:2:0:0:
419,269,271339,1,8,1:3:0:0:
198,367,271497,5,10,1:3:0:0:
244,300,271654,1,8,0:0:0:0:
172,249,271812,1,10,0:2:0:0:
218,182,271970,1,8,0:0:0:0:
347,323,272128,6,0,P|329:262|347:212,1,109.250002083778,10|8,1:3|0:0,0:0:0:0:
419,269,272444,1,10,1:2:0:0:
295,109,272602,2,0,P|235:94|175:88,1,109.250002083778,8|10,1:3|0:3,0:0:0:0:
64,269,272918,2,0,P|117:255|172:249,1,109.250002083778,8|10,1:3|0:2,0:0:0:0:
295,109,273233,1,8,1:3:0:0:
114,17,273391,5,10,0:3:0:0:
137,175,273549,1,8,0:0:0:0:
56,76,273707,1,10,0:2:0:0:
218,182,273865,1,8,0:0:0:0:
64,269,274023,5,10,0:3:0:0:
186,107,274181,1,8,0:0:0:0:
261,345,274339,1,10,0:2:0:0:
188,96,274497,1,8,0:0:0:0:
358,252,274654,6,0,B|282:263|282:263|272:254|272:254|200:268,1,163.875003125668,10|0,1:3|0:0,0:0:0:0:
200,268,274970,2,0,P|225:327|219:376,1,109.250002083778,10|8,1:2|0:0,0:0:0:0:
0,174,275286,2,0,P|54:165|107:153,1,109.250002083778,10|8,1:3|0:0,0:0:0:0:
64,269,275602,1,10,1:2:0:0:
128,47,275760,6,0,P|74:59|20:67,1,109.250002083778,8|10,1:3|0:3,0:0:0:0:
216,181,276076,1,8,0:0:0:0:
326,53,276233,2,0,P|375:78|425:100,1,109.250002083778,10|8,1:2|0:0,0:0:0:0:
226,290,276549,2,0,P|224:236|217:182,1,109.250002083778,10|8,1:3|0:0,0:0:0:0:
481,257,276865,2,0,P|434:286|391:318,1,109.250002083778,10|8,1:2|0:0,0:0:0:0:
137,241,277181,5,10,1:3:0:0:
285,376,277339,1,8,0:0:0:0:
137,241,277497,2,0,P|135:187|129:133,1,109.250002083778,10|8,0:2|0:0,0:0:0:0:
221,18,277812,1,10,1:3:0:0:
337,195,277970,1,8,0:0:0:0:
358,198,278049,1,8,1:3:0:0:
379,201,278128,1,10,0:2:0:0:
218,182,278286,1,8,1:3:0:0:
437,115,278444,5,10,1:3:0:0:
325,291,278602,1,8,0:0:0:0:
303,73,278760,2,0,P|240:60|186:53,1,109.250002083778,10|8,0:2|0:0,0:0:0:0:
0,153,279076,5,8,0:0:0:0:
29,181,279154,1,8,0:0:0:0:
70,191,279233,1,8,0:0:0:0:
109,181,279312,1,8,0:0:0:0:
134,148,279391,6,0,L|129:89,1,54.6250010418892,8|8,1:2|0:2,0:0:0:0:
10,309,279549,2,0,L|15:368,1,54.6250010418892,8|8,1:2|0:2,0:0:0:0:
237,246,279707,6,0,P|181:253|128:266,1,109.250002083778,12|8,1:1|0:0,0:0:0:0:
455,338,280023,2,0,P|462:279|471:228,1,109.250002083778,10|8,0:2|0:0,0:0:0:0:
342,41,280339,1,10,1:3:0:0:
237,246,280497,2,0,P|230:187|221:136,1,109.250002083778,8|10,1:3|0:2,0:0:0:0:
291,372,280812,1,8,1:3:0:0:
512,164,280970,6,0,P|434:154|390:218,1,163.875003125668,10|0,0:3|0:0,0:0:0:0:
390,218,281286,2,0,P|394:160|402:105,1,109.250002083778,10|8,1:2|0:0,0:0:0:0:
230,326,281602,2,0,P|288:330|343:338,1,109.250002083778,10|8,1:3|0:0,0:0:0:0:
122,166,281918,2,0,P|118:224|110:279,1,109.250002083778,10|8,1:2|0:0,0:0:0:0:
282,58,282233,5,14,1:3:0:0:
390,218,282391,1,8,0:0:0:0:
230,326,282549,1,10,0:2:0:0:
122,166,282707,1,8,0:0:0:0:
413,85,282865,5,14,1:3:0:0:
362,349,283023,1,8,0:0:0:0:
98,298,283181,1,10,0:2:0:0:
149,34,283339,1,8,0:0:0:0:
390,218,283497,5,14,1:3:0:0:
399,271,283576,1,8,0:0:0:0:
372,317,283654,1,8,0:0:0:0:
322,335,283733,1,8,0:0:0:0:
272,317,283812,1,10,0:2:0:0:
245,271,283891,1,8,0:0:0:0:
253,218,283970,1,8,0:0:0:0:
294,183,284049,1,8,0:0:0:0:
312,132,284128,5,10,0:0:0:0:
303,79,284207,1,8,0:0:0:0:
268,37,284286,1,8,0:0:0:0:
218,18,284365,1,8,0:0:0:0:
164,27,284444,1,10,0:2:0:0:
122,60,284523,1,8,0:0:0:0:
102,110,284602,1,8,0:0:0:0:
109,164,284681,1,8,0:0:0:0:
142,207,284760,6,0,P|159:255|146:310,1,109.250002083778,12|8,1:1|0:0,0:0:0:0:
50,260,285076,1,10,0:2:0:0:
316,314,285233,2,0,P|349:275|403:259,1,109.250002083778,8|10,1:3|0:3,0:0:0:0:
407,367,285549,1,8,0:0:0:0:
321,109,285707,2,0,P|270:99|229:60,1,109.250002083778,10|8,1:2|0:0,0:0:0:0:
483,10,286023,5,14,1:3:0:0:
441,37,286102,1,8,0:0:0:0:
422,81,286181,1,8,0:0:0:0:
429,129,286260,1,8,0:0:0:0:
460,166,286339,1,10,0:2:0:0:
462,214,286418,1,8,0:0:0:0:
434,254,286497,1,8,0:0:0:0:
389,268,286576,1,8,0:0:0:0:
344,251,286654,5,14,1:3:0:0:
390,227,286733,1,8,0:0:0:0:
441,238,286812,1,8,0:0:0:0:
473,279,286891,1,8,0:0:0:0:
471,331,286970,1,10,0:2:0:0:
435,370,287049,1,8,0:0:0:0:
384,377,287128,1,8,0:0:0:0:
339,349,287207,1,8,0:0:0:0:
324,299,287286,5,12,1:1:0:0:
495,91,287444,1,8,0:0:0:0:
178,192,287602,1,8,0:0:0:0:
506,210,287760,5,12,0:1:0:0:
235,89,287918,1,8,0:0:0:0:
266,377,288076,1,8,0:0:0:0:
419,123,288233,5,12,0:1:0:0:
164,296,288391,1,8,0:0:0:0:
506,210,288549,6,0,P|482:205|449:197,1,54.6250010418892,10|8,0:2|0:0,0:0:0:0:
294,155,288707,2,0,P|318:160|351:168,1,54.6250010418892,10|8,0:3|0:0,0:0:0:0:
397,355,288865,6,0,P|373:350|340:342,1,54.6250010418892,10|8,0:2|0:0,0:0:0:0:
164,296,289023,2,0,P|191:301|218:308,1,54.6250010418892,10|8,0:3|0:0,0:0:0:0:
490,217,289181,6,0,P|466:212|433:204,1,54.6250010418892,10|8,0:2|0:0,0:0:0:0:
303,171,289339,2,0,P|327:176|360:184,1,54.6250010418892,10|8,0:3|0:0,0:0:0:0:
386,340,289497,6,0,P|362:335|329:327,1,54.6250010418892,10|8,0:2|0:0,0:0:0:0:
88,120,289654,1,8,0:2:0:0:
88,120,289733,1,8,0:2:0:0:
88,120,289812,5,14,0:3:0:0:
104,71,289891,1,8,0:0:0:0:
148,44,289970,1,8,0:0:0:0:
198,53,290049,1,8,0:0:0:0:
232,93,290128,1,10,0:2:0:0:
232,144,290207,1,8,0:0:0:0:
198,183,290286,1,8,0:0:0:0:
148,192,290365,1,8,0:0:0:0:
115,231,290444,1,10,0:2:0:0:
115,282,290523,1,8,0:0:0:0:
148,321,290602,1,8,0:0:0:0:
198,329,290681,1,8,0:0:0:0:
242,304,290760,1,10,0:2:0:0:
276,266,290839,1,8,0:0:0:0:
326,257,290918,1,8,0:0:0:0:
370,282,290997,1,8,0:0:0:0:
388,330,291076,5,14,0:2:0:0:
420,290,291154,1,8,0:0:0:0:
470,280,291233,1,8,0:0:0:0:
500,239,291312,1,8,0:0:0:0:
499,189,291391,1,10,0:2:0:0:
467,150,291470,1,8,0:0:0:0:
417,138,291549,1,8,0:0:0:0:
386,99,291628,1,8,0:0:0:0:
385,49,291707,5,14,0:2:0:0:
358,79,291786,1,8,0:0:0:0:
319,90,291865,1,8,0:0:0:0:
281,76,291944,1,8,0:0:0:0:
247,55,292023,1,10,0:2:0:0:
206,55,292102,1,8,0:0:0:0:
172,77,292181,1,8,0:0:0:0:
156,113,292260,1,8,0:0:0:0:
161,153,292339,5,14,0:2:0:0:
216,167,292418,1,8,0:0:0:0:
248,214,292497,1,8,0:0:0:0:
243,271,292576,1,8,0:0:0:0:
203,311,292654,1,10,0:2:0:0:
146,316,292733,1,8,0:0:0:0:
100,283,292812,1,8,0:0:0:0:
43,288,292891,1,8,0:0:0:0:
3,328,292970,5,10,0:2:0:0:
44,343,293049,1,8,0:0:0:0:
84,325,293128,1,8,0:0:0:0:
100,283,293207,1,8,0:0:0:0:
79,244,293286,1,10,0:2:0:0:
36,231,293365,1,8,0:0:0:0:
15,192,293444,1,8,0:0:0:0:
31,150,293523,1,8,0:0:0:0:
71,132,293602,5,10,0:2:0:0:
101,146,293681,1,8,0:0:0:0:
135,143,293760,1,8,0:0:0:0:
163,125,293839,1,8,0:0:0:0:
179,95,293918,1,10,0:2:0:0:
178,61,293997,1,8,0:0:0:0:
161,32,294076,1,8,0:0:0:0:
132,15,294154,1,8,0:0:0:0:
98,14,294233,6,0,L|108:74,3,56.9999982604981,10|8|8|8,0:2|0:0|0:0|0:0,0:0:0:0:
258,70,294549,2,0,L|267:129,3,56.9999982604981,10|8|8|8,0:2|0:0|0:0|0:0,0:0:0:0:
166,220,294865,5,12,0:1:0:0:
184,209,294944,1,8,0:0:0:0:
204,202,295023,1,8,0:0:0:0:
225,199,295102,1,8,0:0:0:0:
247,202,295181,1,10,0:2:0:0:
267,208,295260,1,8,0:0:0:0:
285,219,295339,1,8,0:0:0:0:
301,233,295418,1,8,0:0:0:0:
314,251,295497,1,10,0:2:0:0:
326,268,295576,1,8,0:0:0:0:
342,282,295654,1,8,0:0:0:0:
360,293,295733,1,8,0:0:0:0:
380,299,295812,1,10,0:2:0:0:
402,302,295891,1,8,0:0:0:0:
423,299,295970,1,8,0:0:0:0:
443,292,296049,1,8,0:0:0:0:
461,281,296128,5,10,0:2:0:0:
431,232,296207,1,8,0:0:0:0:
376,214,296286,1,8,0:0:0:0:
323,235,296365,1,8,0:0:0:0:
296,286,296444,1,10,0:2:0:0:
308,342,296523,1,8,0:0:0:0:
353,377,296602,5,8,0:0:0:0:
339,322,296681,1,8,0:0:0:0:
296,286,296760,1,10,0:2:0:0:
239,283,296839,1,8,0:0:0:0:
191,312,296918,1,8,0:0:0:0:
134,310,296997,1,8,0:0:0:0:
91,273,297076,5,10,0:2:0:0:
95,294,297154,1,8,0:0:0:0:
100,316,297233,1,8,0:0:0:0:
105,338,297312,1,8,0:0:0:0:
110,360,297391,5,10,0:2:0:0:
55,354,297470,1,8,0:0:0:0:
14,317,297549,1,8,0:0:0:0:
2,263,297628,1,8,0:0:0:0:
24,213,297707,1,10,0:2:0:0:
72,186,297786,1,8,0:0:0:0:
127,191,297865,1,8,0:0:0:0:
168,227,297944,1,8,0:0:0:0:
222,233,298023,1,10,0:2:0:0:
270,205,298102,1,8,0:0:0:0:
292,155,298181,1,8,0:0:0:0:
280,101,298260,1,8,0:0:0:0:
238,64,298339,2,0,L|231:123,3,56.9999982604981,10|8|8|8,0:2|0:0|0:0|0:0,0:0:0:0:
222,233,298654,5,10,0:2:0:0:
224,278,298733,1,8,0:0:0:0:
246,317,298812,1,8,0:0:0:0:
282,344,298891,1,8,0:0:0:0:
326,353,298970,1,10,0:2:0:0:
370,343,299049,1,8,0:0:0:0:
405,314,299128,5,8,0:0:0:0:
384,287,299207,1,8,0:0:0:0:
378,253,299286,1,10,0:2:0:0:
387,221,299365,1,8,0:0:0:0:
410,196,299444,1,8,0:0:0:0:
420,164,299523,1,8,0:0:0:0:
420,129,299602,6,0,P|412:101|394:77,1,56.9999982604981,8|8,0:2|0:2,0:0:0:0:
310,219,299760,2,0,P|319:186|337:164,1,56.9999982604981,8|8,0:2|0:2,0:0:0:0:
512,272,299918,6,0,L|444:255,1,61.7499971733095,12|8,0:0|0:0,0:0:0:0:
231,116,300076,1,12,0:1:0:0:
181,152,300154,1,8,0:0:0:0:
162,211,300233,1,8,0:0:0:0:
182,269,300312,1,8,0:0:0:0:
154,324,300391,1,10,0:2:0:0:
95,345,300470,1,8,0:0:0:0:
40,317,300549,1,8,0:0:0:0:
21,258,300628,1,8,0:0:0:0:
48,202,300707,1,10,0:2:0:0:
107,183,300786,1,8,0:0:0:0:
162,211,300865,1,8,0:0:0:0:
182,269,300944,1,8,0:0:0:0:
233,306,301023,1,10,0:2:0:0:
295,306,301102,1,8,0:0:0:0:
345,269,301181,5,12,0:0:0:0:
291,240,301260,1,8,0:0:0:0:
266,184,301339,1,10,0:2:0:0:
278,125,301418,1,8,0:0:0:0:
323,84,301497,1,8,0:0:0:0:
384,78,301576,1,8,0:0:0:0:
436,110,301654,1,10,0:2:0:0:
459,166,301733,1,8,0:0:0:0:
445,225,301812,5,12,0:0:0:0:
409,196,301891,1,8,0:0:0:0:
364,189,301970,1,10,0:2:0:0:
321,205,302049,1,8,0:0:0:0:
291,240,302128,1,8,0:0:0:0:
260,274,302207,1,8,0:0:0:0:
217,290,302286,1,10,0:2:0:0:
172,283,302365,1,8,0:0:0:0:
136,254,302444,5,12,0:0:0:0:
191,228,302523,1,8,0:0:0:0:
250,239,302602,1,10,0:2:0:0:
292,283,302681,1,8,0:0:0:0:
333,326,302760,1,8,0:0:0:0:
393,338,302839,1,8,0:0:0:0:
448,312,302918,2,8,L|449:246,1,61.7499971733095,10|8,0:2|0:0,0:0:0:0:
443,49,303076,5,8,0:0:0:0:
407,22,303154,1,8,0:0:0:0:
362,22,303233,1,10,0:2:0:0:
326,49,303312,1,8,0:0:0:0:
312,90,303391,1,8,0:0:0:0:
327,132,303470,1,8,0:0:0:0:
362,159,303549,1,10,0:2:0:0:
407,159,303628,1,8,0:0:0:0:
443,132,303707,5,12,0:1:0:0:
385,113,303786,1,8,0:0:0:0:
327,132,303865,1,10,0:2:0:0:
292,182,303944,1,8,0:0:0:0:
294,242,304023,1,8,0:0:0:0:
332,290,304102,1,8,0:0:0:0:
387,314,304181,2,0,P|417:317|448:312,1,61.7499971733095,10|8,0:2|0:0,0:0:0:0:
217,306,304339,5,12,0:1:0:0:
168,316,304418,1,8,0:0:0:0:
119,327,304497,1,10,0:2:0:0:
70,338,304576,1,8,0:0:0:0:
22,350,304654,5,12,0:1:0:0:
34,321,304733,1,8,0:0:0:0:
46,292,304812,1,10,0:2:0:0:
59,264,304891,1,8,0:0:0:0:
71,235,304970,5,14,0:3:0:0:
17,196,305049,1,8,0:0:0:0:
7,129,305128,1,10,0:2:0:0:
46,76,305207,1,8,0:0:0:0:
112,66,305286,1,8,0:0:0:0:
166,106,305365,1,8,0:0:0:0:
176,172,305444,1,10,0:2:0:0:
137,226,305523,1,8,0:0:0:0:
146,292,305602,1,8,0:0:0:0:
197,335,305681,1,8,0:0:0:0:
264,333,305760,1,10,0:2:0:0:
310,285,305839,1,8,0:0:0:0:
313,219,305918,1,8,0:0:0:0:
273,165,305997,1,8,0:0:0:0:
286,100,306076,1,10,0:2:0:0:
341,62,306154,1,8,0:0:0:0:
406,75,306233,5,8,0:0:0:0:
386,122,306312,1,8,0:0:0:0:
341,146,306391,1,10,0:2:0:0:
291,136,306470,1,8,0:0:0:0:
260,94,306549,1,8,0:0:0:0:
211,83,306628,1,8,0:0:0:0:
166,106,306707,2,0,L|174:168,1,61.7499971733095,10|8,0:2|0:0,0:0:0:0:
199,331,306865,5,8,0:0:0:0:
199,331,306944,2,8,P|168:336|138:329,2,61.7499971733095,8|10|8,0:0|0:2|0:0,0:0:0:0:
327,221,307181,2,0,P|357:215|387:222,3,61.7499971733095,8|8|10|8,0:0|0:0|0:2|0:0,0:0:0:0:
351,314,307497,5,8,0:0:0:0:
290,309,307576,1,8,0:0:0:0:
245,269,307654,1,10,0:2:0:0:
233,210,307733,1,8,0:0:0:0:
261,156,307812,1,8,0:0:0:0:
316,129,307891,1,8,0:0:0:0:
375,142,307970,2,8,P|406:170|416:192,1,61.7499971733095,10|8,0:2|0:0,0:0:0:0:
450,372,308128,5,8,0:0:0:0:
435,331,308207,1,8,0:0:0:0:
439,289,308286,1,10,0:2:0:0:
462,252,308365,1,8,0:0:0:0:
498,230,308444,1,8,0:0:0:0:
512,192,308523,1,8,0:0:0:0:
512,150,308602,1,10,0:2:0:0:
486,116,308681,1,8,0:0:0:0:
446,102,308760,5,8,0:0:0:0:
405,112,308839,1,8,0:0:0:0:
375,142,308918,1,10,0:2:0:0:
333,152,308997,1,8,0:0:0:0:
293,137,309076,1,8,0:0:0:0:
265,104,309154,1,8,0:0:0:0:
265,62,309233,1,10,0:2:0:0:
291,29,309312,1,8,0:0:0:0:
332,20,309391,6,8,L|335:87,3,61.7499971733095,8|8|10|8,0:0|0:0|0:2|0:0,0:0:0:0:
178,128,309707,1,8,0:0:0:0:
178,113,309786,1,8,0:0:0:0:
177,97,309865,1,10,0:2:0:0:
176,82,309944,1,8,0:0:0:0:
175,67,310023,5,8,0:0:0:0:
113,91,310102,1,8,0:0:0:0:
74,146,310181,1,10,0:2:0:0:
76,213,310260,1,8,0:0:0:0:
118,267,310339,1,8,0:0:0:0:
183,285,310418,1,8,0:0:0:0:
246,262,310497,1,10,0:2:0:0:
285,208,310576,1,8,0:0:0:0:
350,199,310654,1,8,0:0:0:0:
403,240,310733,1,8,0:0:0:0:
404,308,310812,1,10,0:2:0:0:
355,354,310891,1,8,0:0:0:0:
289,348,310970,1,8,0:0:0:0:
248,294,311049,1,8,0:0:0:0:
259,228,311128,1,10,0:2:0:0:
225,171,311207,1,8,0:0:0:0:
159,153,311286,5,12,0:3:0:0:
170,223,311365,1,8,0:0:0:0:
230,260,311444,1,8,0:0:0:0:
297,239,311523,1,8,0:0:0:0:
325,174,311602,2,0,L|327:113,1,61.7499971733095,8|8,0:0|0:0,0:0:0:0:
387,14,311760,1,8,0:0:0:0:
432,3,311839,1,8,0:0:0:0:
474,25,311918,6,8,L|468:110,2,82.3333295644126,8|8|8,0:2|0:2|0:2,0:0:0:0:
265,76,312233,5,12,0:3:0:0:
160,66,312339,5,10,0:3:0:0:
72,58,312444,5,8,0:0:0:0:
1,51,312549,5,14,0:3:0:0:
72,58,313181,5,6,0:3:0:0:
160,66,313812,5,6,0:3:0:0:
265,76,314444,5,6,0:3:0:0:
224,245,314918,1,2,0:0:0:0:
209,243,314997,1,2,0:0:0:0:
194,241,315076,6,0,P|200:290|206:342,1,95.0000036239625,4|2,0:3|0:0,0:0:0:0:
289,360,315391,6,0,P|306:339|310:314,1,47.5000018119813,2|2,0:0|0:0,0:0:0:0:
384,291,315602,1,2,0:0:0:0:
389,279,315707,6,0,P|379:253|359:237,1,47.5000018119813,2|2,0:0|0:0,0:0:0:0:
393,165,315918,1,2,0:0:0:0:
385,154,316023,6,0,P|358:149|334:158,1,47.5000018119813,2|2,0:0|0:0,0:0:0:0:
269,183,316233,1,2,0:0:0:0:
256,192,316339,5,6,0:0:0:0:
