osu file format v14

[General]
AudioFilename: audio.mp3
AudioLeadIn: 0
PreviewTime: 116493
Countdown: 0
SampleSet: Soft
StackLeniency: 0.7
Mode: 0
LetterboxInBreaks: 0
WidescreenStoryboard: 0

[Editor]
DistanceSpacing: 1
BeatDivisor: 4
GridSize: 32
TimelineZoom: 1.9

[Metadata]
Title:Braking Down
TitleUnicode:Braking Down
Artist:Pratanallis
ArtistUnicode:Pratanallis
Creator:Adinda
Version:Illusion
Source:
Tags:metal rock japanese doujin c94 comiket 94 gothic symphonic holy fragments hinode きょーこ kyoko ヒノデ jrock reiage れいあじゅ
BeatmapID:2710969
BeatmapSetID:1307632

[Difficulty]
HPDrainRate:5.5
CircleSize:4
OverallDifficulty:9
ApproachRate:9.4
SliderMultiplier:1.9
SliderTickRate:1

[Events]
//Background and Video events
0,0,"a.jpg",0,0
//Break Periods
//Storyboard Layer 0 (Background)
//Storyboard Layer 1 (Fail)
//Storyboard Layer 2 (Pass)
//Storyboard Layer 3 (Foreground)
//Storyboard Layer 4 (Overlay)
//Storyboard Sound Samples

[TimingPoints]
2888,315.789473684211,4,2,1,70,1,0
2888,-153.846153846153,4,2,1,70,0,0
7940,-133.333333333333,4,2,1,75,0,0
8177,-133.333333333333,4,2,1,5,0,0
8256,-133.333333333333,4,2,1,75,0,0
12203,-66.6666666666667,4,2,1,80,0,0
12993,-83.3333333333333,4,2,1,90,0,0
18282,-83.3333333333333,4,2,1,5,0,0
18361,-83.3333333333333,4,2,1,90,0,0
19545,-83.3333333333333,4,2,1,5,0,0
19624,-83.3333333333333,4,2,1,90,0,0
20809,-83.3333333333333,4,2,1,5,0,0
20888,-83.3333333333333,4,2,1,90,0,0
21756,-83.3333333333333,4,2,1,5,0,0
21835,-83.3333333333333,4,2,1,90,0,0
22624,-66.6666666666667,4,2,1,90,0,0
23098,-83.3333333333333,4,2,1,90,0,0
27756,-83.3333333333333,4,2,1,5,0,0
27835,-83.3333333333333,4,2,1,90,0,0
28151,-133.333333333333,4,2,1,90,0,0
28388,-133.333333333333,4,2,1,5,0,0
28466,-100,4,2,1,90,0,0
29414,-133.333333333333,4,2,1,90,0,0
29651,-133.333333333333,4,2,1,5,0,0
29729,-100,4,2,1,90,0,0
33203,-83.3333333333333,4,2,1,90,0,0
34466,-83.3333333333333,4,2,1,80,0,0
35098,-100,4,2,1,80,0,0
35730,-133.333333333333,4,2,1,75,0,0
40703,-133.333333333333,4,2,1,5,0,0
40782,-133.333333333333,4,2,1,75,0,0
47019,-133.333333333333,4,2,1,5,0,0
47098,-133.333333333333,4,2,1,75,0,0
54519,-100,4,2,1,75,0,0
55940,-166.666666666667,4,2,1,70,0,0
76151,-111.111111111111,4,2,1,80,0,0
81124,-111.111111111111,4,2,1,5,0,0
81203,-111.111111111111,4,2,1,80,0,0
92493,-111.111111111111,4,2,1,5,0,0
92572,-111.111111111111,4,2,1,80,0,0
94861,-83.3333333333333,4,2,1,80,0,0
96361,-153.846153846153,4,2,1,70,0,0
116572,-76.9230769230769,4,2,1,90,0,1
134493,-76.9230769230769,4,2,1,5,0,1
134572,-76.9230769230769,4,2,1,90,0,1
152098,-76.9230769230769,4,2,1,90,0,0
154466,-100,4,2,1,90,0,0
155256,-76.9230769230769,4,2,1,90,0,0
156993,-133.333333333333,4,2,1,75,0,0
167098,-181.818181818181,4,2,1,60,0,0
172151,-181.818181818181,4,2,1,80,0,0
181940,-100,4,2,1,80,0,0
182177,-100,4,2,1,5,0,0
182256,-100,4,2,1,80,0,0
183203,-66.6666666666667,4,2,1,80,0,0
183519,-100,4,2,1,80,0,0
193624,-76.9230769230769,4,2,1,90,0,1
205940,-66.6666666666667,4,2,1,90,0,1
206256,-100,4,2,1,90,0,1
207361,-100,4,2,1,60,0,1
207519,-100,4,2,1,70,0,0
208309,-100,4,2,1,80,0,0
208782,-76.9230769230769,4,2,1,90,0,1
228993,-166.666666666667,4,2,1,70,0,0
249203,-76.9230769230769,4,2,1,90,0,1
267124,-76.9230769230769,4,2,1,5,0,1
267203,-76.9230769230769,4,2,1,90,0,1
303519,-66.6666666666667,4,2,1,90,0,1
304782,-76.9230769230769,4,2,1,90,0,1
312361,-111.111111111111,4,2,1,80,0,0
314888,-100,4,2,1,80,0,0
315098,-100,4,2,1,65,0,0

[Colours]
Combo1 : 117,117,255
Combo2 : 192,192,192
Combo3 : 255,81,81

[HitObjects]
59,133,2888,6,0,P|44:172|65:253,1,123.499994346619,14|2,0:1|0:0,0:0:0:0:
62,249,3361,1,8,0:1:0:0:
144,191,3519,2,0,L|215:191,1,61.7499971733095,2|0,0:1|0:0,0:0:0:0:
290,112,3835,2,0,L|228:112,1,61.7499971733095,10|0,0:0|0:0,0:0:0:0:
344,34,4151,6,0,B|381:19|381:19|423:37|426:85,1,123.499994346619,10|0,0:1|0:0,0:0:0:0:
430,196,4624,2,0,B|393:181|393:181|351:199|348:247,1,123.499994346619,10|10,0:1|0:1,0:0:0:0:
422,305,5098,5,10,0:0:0:0:
349,246,5256,1,10,0:1:0:0:
291,375,5414,6,0,P|294:341|277:311,3,61.7499971733095,10|0|0|8,0:1|0:0|0:0|0:1,0:0:0:0:
200,270,6045,2,0,P|203:304|186:334,1,61.7499971733095,2|8,0:0|0:1,0:0:0:0:
134,200,6361,2,0,L|74:176,1,61.7499971733095,10|0,0:0|0:0,0:0:0:0:
229,172,6677,6,0,B|226:143|203:121|203:121|200:80|244:69,1,123.499994346619,10|0,0:1|0:0,0:0:0:0:
310,102,7151,2,0,P|352:90|454:78,1,123.499994346619,8|8,0:1|0:1,0:0:0:0:
484,15,7624,5,8,0:0:0:0:
484,15,7782,1,8,0:0:0:0:
454,182,7940,6,0,B|450:216|464:234|464:234|466:276|429:284,1,106.875004076958,14|0,0:1|0:0,0:0:0:0:
455,302,8256,1,10,0:0:0:0:
311,314,8414,2,0,P|307:369|382:362,1,142.500005435944,10|2,0:1|0:0,0:0:0:0:
282,222,8888,5,10,0:0:0:0:
207,301,9045,1,2,0:0:0:0:
173,216,9203,2,0,L|146:75,1,142.500005435944,10|8,0:1|0:0,0:0:0:0:
146,76,9677,5,8,0:1:0:0:
48,101,9835,2,0,L|61:30,1,71.2500027179719,2|8,0:0|0:1,0:0:0:0:
15,203,10151,5,10,0:0:0:0:
38,228,10256,1,2,0:0:0:0:
13,267,10361,1,2,0:0:0:0:
36,292,10466,1,14,0:1:0:0:
331,331,10782,5,10,0:0:0:0:
319,275,10888,1,2,0:0:0:0:
376,291,10993,1,2,0:0:0:0:
438,247,11098,5,2,0:0:0:0:
450,191,11204,1,2,0:0:0:0:
393,207,11309,1,2,0:0:0:0:
333,164,11414,6,0,L|323:125,1,35.625001358986,10|0,0:0|0:0,0:0:0:0:
243,142,11572,2,0,L|234:176,1,35.625001358986,10|2,0:1|0:0,0:0:0:0:
144,137,11730,5,8,0:0:0:0:
78,170,11809,1,8,0:0:0:0:
32,132,11888,1,8,0:3:0:0:
37,92,11966,1,8,0:3:0:0:
64,78,12045,2,4,P|47:65|65:60,1,35.625001358986,4|4,0:3|0:3,0:3:0:0:
130,9,12203,6,2,B|210:6|210:6|255:26|255:26|357:18,1,213.750008153916,14|0,0:1|0:0,0:0:0:0:
423,70,12519,6,8,L|447:154,1,71.2500027179719,10|8,0:3|0:3,0:3:0:0:
352,232,12677,2,4,L|332:163,1,71.2500027179719,6|4,0:3|0:3,0:3:0:0:
243,264,12835,2,8,L|267:348,1,71.2500027179719,10|8,0:1|0:1,0:1:0:0:
64,78,12993,5,14,0:1:0:0:
5,205,13151,1,8,0:1:0:0:
243,264,13309,1,10,0:0:0:0:
184,137,13467,1,8,0:1:0:0:
60,48,13624,5,10,0:1:0:0:
1,175,13782,1,8,0:1:0:0:
239,234,13940,1,10,0:0:0:0:
180,107,14098,1,8,0:1:0:0:
28,368,14256,6,0,B|85:349|134:377|134:377|181:328|138:262,1,227.999993041992,10|8,0:1|0:0,0:0:0:0:
400,54,14730,5,10,0:1:0:0:
400,54,14809,1,10,0:1:0:0:
400,54,14888,1,10,0:1:0:0:
239,234,15045,1,10,0:1:0:0:
352,179,15203,1,10,0:0:0:0:
511,358,15360,5,10,0:1:0:0:
511,358,15440,1,8,0:1:0:0:
511,358,15519,1,10,0:1:0:0:
474,168,15677,1,8,0:1:0:0:
315,369,15835,1,10,0:0:0:0:
352,179,15993,1,8,0:1:0:0:
505,333,16151,5,10,0:1:0:0:
468,143,16309,1,8,0:1:0:0:
309,344,16467,1,10,0:0:0:0:
346,154,16625,1,8,0:1:0:0:
236,31,16782,5,10,0:1:0:0:
236,31,16861,1,8,0:1:0:0:
236,31,16940,1,8,0:1:0:0:
146,68,17098,1,8,0:0:0:0:
71,20,17256,5,10,0:1:0:0:
71,20,17335,1,10,0:1:0:0:
71,20,17414,1,10,0:1:0:0:
163,212,17572,1,10,0:1:0:0:
96,155,17730,1,10,0:0:0:0:
4,347,17888,1,10,0:1:0:0:
279,368,18045,6,0,B|258:307|297:250|297:250|319:300,1,170.999994781494,14|0,0:1|0:0,0:0:0:0:
343,300,18361,1,10,0:0:0:0:
334,152,18519,1,8,0:1:0:0:
428,214,18677,1,10,0:1:0:0:
419,66,18835,1,8,0:1:0:0:
431,235,18993,2,0,B|434:291|434:291|465:343,1,113.999996520996,10|8,0:0|0:1,0:0:0:0:
209,148,19309,6,0,B|150:136|150:136|114:104|114:104|33:88,1,170.999994781494,10|0,0:1|0:0,0:0:0:0:
37,49,19624,1,10,0:0:0:0:
56,238,19782,1,8,0:1:0:0:
209,148,19940,1,10,0:1:0:0:
56,238,20098,1,8,0:1:0:0:
253,68,20256,1,10,0:0:0:0:
272,257,20414,1,8,0:1:0:0:
425,366,20572,6,0,B|406:314|406:314|425:229|425:229|439:261,1,170.999994781494,10|0,0:1|0:0,0:0:0:0:
464,283,20888,2,0,P|406:315|354:329,1,113.999996520996,10|8,0:0|0:1,0:0:0:0:
461,79,21203,2,8,P|403:47|351:33,1,113.999996520996,10|8,0:1|0:1,0:1:0:0:
3,25,21519,2,0,B|61:13|61:13|103:38|103:38|164:25,1,170.999994781494,10|0,0:0|0:0,0:0:0:0:
155,148,21835,5,14,0:0:0:0:
159,202,21913,1,8,0:1:0:0:
116,235,21992,1,8,0:1:0:0:
65,214,22071,1,8,0:1:0:0:
47,164,22151,6,8,L|38:104,1,56.9999982604981,8|8,0:1|0:1,0:1:0:0:
349,283,22309,5,14,0:0:0:0:
353,229,22387,1,8,0:1:0:0:
310,196,22466,1,8,0:1:0:0:
259,217,22545,1,8,0:1:0:0:
241,269,22624,6,8,L|231:340,1,71.2500027179719,10|0,0:1|0:0,0:0:0:0:
353,229,22782,2,0,L|363:158,1,71.2500027179719,10|0,0:0|0:0,0:0:0:0:
488,84,22940,2,8,L|478:155,1,71.2500027179719,10|0,0:0|0:0,0:0:0:0:
143,75,23098,5,14,0:1:0:0:
311,13,23256,1,8,0:1:0:0:
110,74,23414,1,10,0:0:0:0:
278,12,23572,1,8,0:1:0:0:
353,229,23730,5,10,0:1:0:0:
185,167,23888,1,8,0:1:0:0:
386,228,24046,1,10,0:0:0:0:
218,166,24204,1,8,0:1:0:0:
115,360,24361,6,0,B|97:308|45:280|45:280|74:211|144:244,1,227.999993041992,10|8,0:1|0:0,0:0:0:0:
401,131,24835,5,10,0:1:0:0:
401,131,24914,1,10,0:1:0:0:
401,131,24993,1,10,0:1:0:0:
306,342,25151,1,10,0:1:0:0:
356,63,25309,1,10,0:0:0:0:
450,278,25467,5,10,0:1:0:0:
450,278,25545,1,8,0:1:0:0:
450,278,25624,1,10,0:1:0:0:
295,150,25782,1,8,0:1:0:0:
495,105,25940,1,10,0:0:0:0:
340,233,26098,1,8,0:1:0:0:
448,299,26256,5,10,0:1:0:0:
293,171,26414,1,8,0:1:0:0:
493,126,26572,1,10,0:0:0:0:
338,254,26730,1,8,0:1:0:0:
356,63,26888,5,10,0:1:0:0:
356,63,26966,1,8,0:1:0:0:
356,63,27045,1,8,0:1:0:0:
155,213,27203,1,8,0:0:0:0:
163,31,27361,1,10,0:1:0:0:
163,31,27440,1,10,0:1:0:0:
163,31,27519,2,8,B|134:123|134:123|70:72,1,170.999994781494,10|0,0:1|0:1,0:1:0:0:
155,213,27835,5,10,0:0:0:0:
234,221,27913,1,8,0:0:0:0:
285,272,27992,1,10,0:1:0:0:
332,331,28071,1,8,0:1:0:0:
410,337,28151,2,0,P|397:300|445:323,1,106.875004076958,14|0,0:0|0:0,0:0:0:0:
460,329,28466,1,2,0:0:0:0:
460,329,28545,1,2,0:0:0:0:
460,329,28624,1,2,0:0:0:0:
507,110,28782,1,2,0:0:0:0:
333,57,28940,1,8,0:1:0:0:
333,57,29019,1,8,0:1:0:0:
333,57,29098,5,14,0:0:0:0:
253,65,29176,1,8,0:0:0:0:
202,116,29255,1,10,0:1:0:0:
155,175,29334,1,8,0:1:0:0:
80,167,29414,2,0,P|93:130|45:153,1,106.875004076958,10|0,0:0|0:0,0:0:0:0:
57,263,29730,5,2,0:0:0:0:
43,313,29808,1,2,0:0:0:0:
70,357,29887,1,2,0:0:0:0:
121,368,29966,1,2,0:0:0:0:
163,338,30045,1,2,0:0:0:0:
429,242,30203,1,2,0:0:0:0:
44,135,30361,1,2,0:0:0:0:
323,36,30519,5,10,0:1:0:0:
323,36,30598,1,8,0:1:0:0:
323,36,30677,1,12,0:1:0:0:
318,132,30835,1,8,0:1:0:0:
413,140,30993,1,8,0:0:0:0:
418,44,31151,1,8,0:1:0:0:
239,194,31309,5,10,0:1:0:0:
319,331,31466,1,10,0:1:0:0:
319,231,31624,1,10,0:0:0:0:
243,281,31782,1,10,0:1:0:0:
413,140,31940,5,10,0:1:0:0:
451,163,32045,1,2,0:0:0:0:
495,155,32151,1,2,0:0:0:0:
502,199,32256,5,10,0:0:0:0:
464,222,32361,1,2,0:0:0:0:
420,214,32467,1,2,0:0:0:0:
412,258,32572,5,10,0:1:0:0:
450,281,32677,1,2,0:0:0:0:
494,273,32783,1,2,0:0:0:0:
501,317,32888,5,10,0:0:0:0:
463,340,32993,1,2,0:0:0:0:
419,332,33099,1,2,0:0:0:0:
419,332,33203,6,0,B|313:372|313:372|237:266,1,227.999993041992,10|8,0:1|0:0,0:0:0:0:
121,141,33677,1,2,0:0:0:0:
121,141,33756,1,2,0:0:0:0:
121,141,33835,2,0,L|87:374,1,227.999993041992,10|8,0:1|0:0,0:0:0:0:
88,366,34309,1,8,0:1:0:0:
106,40,34466,5,10,0:0:0:0:
238,146,34624,1,2,0:0:0:0:
221,46,34782,1,2,0:0:0:0:
121,141,34940,1,2,0:0:0:0:
236,63,35098,2,2,B|337:50|337:50|373:58|373:58|400:39|400:39|522:22,1,285,2|0,0:0|0:0,0:0:0:0:
362,179,35730,6,0,P|343:233|388:313,1,142.500005435944,14|8,0:1|0:0,0:0:0:0:
294,370,36203,1,2,0:0:0:0:
294,370,36361,2,0,L|218:346,1,71.2500027179719,2|8,0:0|0:1,0:0:0:0:
90,309,36677,2,0,L|166:285,1,71.2500027179719,10|0,0:0|0:0,0:0:0:0:
64,212,36993,6,0,B|43:189|25:184|25:184|10:129|59:96,1,142.500005435944,10|10,0:1|0:0,0:0:0:0:
52,100,37466,1,8,0:1:0:0:
135,21,37624,2,0,P|138:63|163:88,1,71.2500027179719,2|8,0:0|0:1,0:0:0:0:
266,20,37940,5,10,0:0:0:0:
279,131,38098,1,8,0:1:0:0:
372,66,38256,6,0,P|423:50|517:38,1,142.500005435944,14|10,0:1|0:0,0:0:0:0:
369,40,38730,1,0,0:0:0:0:
508,67,38888,2,0,P|457:51|363:39,1,142.500005435944,14|10,0:1|0:0,0:0:0:0:
353,300,39519,6,0,B|392:293|425:312|425:312|462:307|472:267,1,142.500005435944,14|8,0:1|0:0,0:0:0:0:
267,310,39993,1,10,0:1:0:0:
267,310,40072,1,8,0:1:0:0:
267,310,40151,2,8,P|256:353|256:393,1,71.2500027179719,10|8,0:1|0:1,0:1:0:0:
296,235,40466,2,0,P|280:159|278:107,1,106.875004076958,12|0,0:0|0:0,0:0:0:0:
354,95,40782,6,0,P|372:86|356:48,1,71.2500027179719,14|0,0:1|0:0,0:0:0:0:
196,59,41098,2,0,L|274:44,1,71.2500027179719,10|0,0:0|0:0,0:0:0:0:
117,125,41414,2,0,L|39:110,1,71.2500027179719,2|8,0:1|0:1,0:0:0:0:
47,111,41651,1,2,0:0:0:0:
47,111,41730,1,8,0:0:0:0:
73,20,41888,1,2,0:0:0:0:
35,207,42045,6,0,B|12:250|41:294|41:294|12:348,1,142.500005435944,10|10,0:1|0:0,0:0:0:0:
17,338,42519,1,8,0:1:0:0:
117,367,42677,2,0,P|153:353|190:348,1,71.2500027179719,2|8,0:0|0:1,0:0:0:0:
185,348,42914,1,2,0:0:0:0:
185,348,42993,1,8,0:0:0:0:
245,277,43151,1,2,0:0:0:0:
360,362,43309,5,14,0:1:0:0:
340,266,43466,1,10,0:1:0:0:
444,207,43624,1,8,0:0:0:0:
424,303,43781,1,10,0:1:0:0:
424,303,43940,1,8,0:1:0:0:
330,126,44098,5,10,0:1:0:0:
330,126,44177,1,8,0:1:0:0:
330,126,44256,1,12,0:0:0:0:
310,30,44413,5,2,0:0:0:0:
310,30,44493,1,2,0:0:0:0:
310,30,44572,1,10,0:1:0:0:
239,151,44730,1,10,0:1:0:0:
166,36,44888,1,10,0:0:0:0:
92,92,45045,1,10,0:1:0:0:
13,52,45203,5,2,0:1:0:0:
114,191,45361,1,10,0:1:0:0:
114,191,45440,1,8,0:1:0:0:
114,191,45519,1,10,0:0:0:0:
90,0,45677,1,8,0:1:0:0:
37,246,45835,6,0,P|28:291|30:388,1,142.500005435944,14|8,0:1|0:0,0:0:0:0:
125,314,46309,2,0,B|155:271|155:271|105:174,1,142.500005435944,2|8,0:0|0:1,0:0:0:0:
219,47,46782,2,0,P|219:91|262:68,1,106.875004076958,10|0,0:0|0:0,0:0:0:0:
336,30,47098,6,0,B|359:65|367:120|367:120|312:154,1,142.500005435944,10|8,0:1|0:0,0:0:0:0:
325,269,47572,1,10,0:1:0:0:
399,233,47730,1,10,0:1:0:0:
480,361,47888,1,8,0:1:0:0:
406,325,48046,1,8,0:0:0:0:
406,325,48361,6,0,B|375:368|375:368|278:335,1,142.500005435944,14|8,0:1|0:0,0:0:0:0:
183,263,48835,2,8,B|178:322|137:354|137:354|125:304,1,142.500005435944,10|8,0:1|0:1,0:1:0:0:
234,154,49309,6,0,P|272:172|308:185,1,71.2500027179719,10|0,0:0|0:0,0:0:0:0:
483,113,49624,2,8,P|445:131|409:144,1,71.2500027179719,10|8,0:1|0:1,0:1:0:0:
236,60,49940,2,0,P|274:78|310:91,1,71.2500027179719,8|8,0:0|0:1,0:0:0:0:
485,19,50256,2,8,P|447:37|411:50,1,71.2500027179719,0|8,0:1|0:1,0:1:0:0:
419,47,50493,1,8,0:1:0:0:
419,47,50572,1,8,0:0:0:0:
343,4,50730,1,8,0:1:0:0:
162,94,50888,6,0,B|213:85|213:85|248:98|248:98|306:87,1,142.500005435944,14|8,0:1|0:0,0:0:0:0:
200,193,51361,2,0,P|185:244|187:347,1,142.500005435944,2|8,0:0|0:1,0:0:0:0:
261,372,51835,2,0,L|330:350,1,71.2500027179719,10|0,0:0|0:0,0:0:0:0:
108,258,52151,6,8,B|41:277|41:277|-3:214,1,142.500005435944,10|8,0:1|0:0,0:0:0:0:
0,217,52624,1,8,0:1:0:0:
50,118,52782,2,0,L|26:44,1,71.2500027179719,2|8,0:0|0:1,0:0:0:0:
183,26,53098,2,0,L|161:93,1,71.2500027179719,10|0,0:0|0:0,0:0:0:0:
308,60,53414,6,8,P|381:79|439:206,1,213.750008153916,14|8,0:1|0:1,0:1:0:0:
420,220,53966,1,8,0:1:0:0:
420,220,54045,5,8,0:0:0:0:
486,367,54203,1,10,0:1:0:0:
486,367,54519,6,0,B|423:359|423:359|382:317|382:317|308:304,1,190,14|8,0:1|0:0,0:0:0:0:
281,320,54914,1,8,0:0:0:0:
281,320,54993,5,10,0:0:0:0:
111,255,55151,1,8,0:1:0:0:
158,100,55309,5,10,0:3:0:0:
235,230,55466,1,8,0:3:0:0:
327,157,55624,5,6,0:3:0:0:
235,230,55782,1,4,0:3:0:0:
261,16,55940,6,0,B|343:6|296:33|385:24,1,113.999996520996,14|0,0:1|0:0,0:0:0:0:
449,79,56414,1,10,0:1:0:0:
449,79,56572,2,0,P|454:111|466:135,1,56.9999982604981,8|0,0:0|0:0,0:0:0:0:
392,244,56888,2,0,P|403:218|407:190,1,56.9999982604981,2|8,0:0|0:1,0:0:0:0:
327,157,57203,6,0,L|261:156,1,56.9999982604981,10|0,0:1|0:1,0:0:0:0:
124,177,57519,2,0,L|180:177,1,56.9999982604981,2|8,0:0|0:1,0:0:0:0:
325,138,57835,2,0,L|259:137,1,56.9999982604981,10|0,0:0|0:0,0:0:0:0:
122,158,58151,2,0,L|178:158,1,56.9999982604981,2|8,0:0|0:1,0:0:0:0:
94,250,58466,6,0,P|86:289|10:307,1,113.999996520996,10|0,0:1|0:0,0:0:0:0:
140,370,58940,1,10,0:1:0:0:
140,370,59098,2,0,P|177:357|211:350,1,56.9999982604981,8|0,0:0|0:0,0:0:0:0:
282,322,59414,2,0,P|319:335|353:342,1,56.9999982604981,2|8,0:0|0:1,0:0:0:0:
373,212,59730,6,0,L|357:155,1,56.9999982604981,10|0,0:1|0:0,0:0:0:0:
465,199,60045,2,0,L|480:253,1,56.9999982604981,2|8,0:0|0:1,0:0:0:0:
375,192,60361,6,0,L|359:135,1,56.9999982604981,10|0,0:0|0:0,0:0:0:0:
467,179,60677,2,0,L|482:233,1,56.9999982604981,2|8,0:0|0:1,0:0:0:0:
266,202,60993,2,0,B|220:195|220:195|189:203|189:203|137:193,1,113.999996520996,10|0,0:1|0:0,0:0:0:0:
99,137,61466,5,10,0:1:0:0:
215,82,61624,2,0,P|258:75|324:42,1,113.999996520996,8|0,0:0|0:0,0:0:0:0:
436,99,62098,5,8,0:1:0:0:
320,44,62256,2,0,P|277:37|211:4,1,113.999996520996,10|2,0:1|0:0,0:0:0:0:
214,6,62730,1,8,0:1:0:0:
99,138,62888,5,10,0:0:0:0:
230,297,63045,2,0,B|254:337|304:329|304:329|333:284,1,113.999996520996,8|10,0:0|0:0,0:0:0:0:
141,303,63519,6,0,P|131:340|63:330,1,113.999996520996,10|2,0:1|0:0,0:0:0:0:
66,335,63993,1,10,0:1:0:0:
24,170,64151,2,0,P|74:184|98:137,1,113.999996520996,8|2,0:0|0:0,0:0:0:0:
141,21,64624,5,8,0:1:0:0:
244,97,64782,2,0,B|286:107|286:107|306:133|306:133|347:145,1,113.999996520996,10|0,0:1|0:0,0:0:0:0:
440,89,65256,5,8,0:1:0:0:
342,143,65414,1,8,0:0:0:0:
473,225,65572,1,8,0:3:0:0:
352,234,65730,1,8,0:3:0:0:
504,348,65888,1,8,0:1:0:0:
337,249,66045,6,0,B|278:264|278:264|238:215,1,113.999996520996,14|0,0:1|0:0,0:0:0:0:
168,270,66519,1,10,0:1:0:0:
168,270,66677,2,0,P|175:302|160:326,1,56.9999982604981,8|0,0:0|0:0,0:0:0:0:
90,286,66993,2,0,P|78:260|86:233,1,56.9999982604981,2|8,0:0|0:1,0:0:0:0:
166,117,67309,6,0,L|221:96,1,56.9999982604981,10|0,0:1|0:0,0:0:0:0:
60,142,67624,2,0,L|5:121,1,56.9999982604981,2|8,0:0|0:1,0:0:0:0:
162,86,67940,2,0,L|217:65,1,56.9999982604981,10|0,0:0|0:0,0:0:0:0:
56,111,68256,2,0,L|1:90,1,56.9999982604981,2|8,0:0|0:1,0:0:0:0:
86,233,68572,6,0,B|102:262|98:295|98:295|124:317|150:302,1,113.999996520996,10|0,0:1|0:0,0:0:0:0:
234,362,69045,1,10,0:1:0:0:
234,362,69203,2,0,P|261:348|292:344,1,56.9999982604981,8|0,0:0|0:0,0:0:0:0:
340,266,69519,2,0,P|312:261|286:247,1,56.9999982604981,2|8,0:0|0:1,0:0:0:0:
423,137,69835,6,0,L|434:199,1,56.9999982604981,10|0,0:1|0:0,0:0:0:0:
306,94,70151,2,0,L|295:156,1,56.9999982604981,2|8,0:0|0:1,0:0:0:0:
426,82,70466,2,0,L|437:144,1,56.9999982604981,10|0,0:0|0:0,0:0:0:0:
309,39,70782,2,0,L|298:101,1,56.9999982604981,2|8,0:0|0:1,0:0:0:0:
183,246,71098,2,0,B|102:229|139:253|59:236,1,113.999996520996,14|0,0:1|0:0,0:0:0:0:
7,297,71572,5,8,0:1:0:0:
148,369,71730,2,0,P|191:358|267:349,1,113.999996520996,8|2,0:0|0:0,0:0:0:0:
400,277,72203,5,8,0:1:0:0:
259,349,72361,2,0,P|216:338|140:329,1,113.999996520996,10|0,0:1|0:0,0:0:0:0:
147,329,72835,1,8,0:1:0:0:
268,163,72993,5,10,0:0:0:0:
116,58,73151,2,0,B|110:98|143:129|143:129|163:118|170:93,1,113.999996520996,8|8,0:0|0:0,0:0:0:0:
277,58,73624,6,0,B|251:98|251:98|270:172,1,113.999996520996,10|0,0:1|0:0,0:0:0:0:
267,162,74098,1,8,0:1:0:0:
382,117,74256,2,0,B|408:157|408:157|389:231,1,113.999996520996,8|0,0:0|0:0,0:0:0:0:
324,277,74730,5,8,0:1:0:0:
435,370,74888,2,0,P|470:364|497:362,1,56.9999982604981,10|0,0:1|0:0,0:0:0:0:
512,284,75203,2,0,P|483:281|455:276,1,56.9999982604981,2|8,0:0|0:1,0:0:0:0:
279,362,75519,5,10,0:0:0:0:
324,277,75677,1,8,0:1:0:0:
90,272,75835,5,10,0:0:0:0:
279,362,75993,1,8,0:0:0:0:
145,169,76151,6,0,B|95:159|47:116|47:116|104:92,1,170.999994781494,14|8,0:1|0:0,0:0:0:0:
159,17,76624,1,2,0:0:0:0:
259,118,76782,2,0,P|251:78|259:31,1,85.4999973907472,2|8,0:0|0:1,0:0:0:0:
379,146,77098,2,0,P|348:172|303:189,1,85.4999973907472,10|0,0:0|0:0,0:0:0:0:
470,103,77414,6,0,L|498:189,1,85.4999973907472,10|0,0:1|0:0,0:0:0:0:
280,269,77730,2,0,L|306:187,1,85.4999973907472,10|8,0:0|0:1,0:0:0:0:
482,74,78045,2,0,L|510:160,1,85.4999973907472,2|8,0:0|0:1,0:0:0:0:
258,287,78361,2,0,L|284:205,1,85.4999973907472,10|8,0:0|0:1,0:0:0:0:
487,330,78677,6,0,B|460:377|460:377|345:338,1,170.999994781494,14|10,0:1|0:0,0:0:0:0:
349,339,79151,1,0,0:0:0:0:
120,277,79309,2,0,B|147:324|147:324|262:285,1,170.999994781494,14|10,0:1|0:0,0:0:0:0:
257,286,79782,1,0,0:0:0:0:
98,100,79940,6,0,P|56:122|10:135,1,85.4999973907472,14|0,0:1|0:0,0:0:0:0:
223,34,80256,2,0,P|181:12|135:-1,1,85.4999973907472,8|10,0:0|0:1,0:0:0:0:
145,18,80493,1,8,0:1:0:0:
145,35,80572,2,8,P|187:57|233:70,1,85.4999973907472,10|8,0:1|0:1,0:1:0:0:
421,160,80888,2,0,B|408:120|408:120|434:64|434:64|452:108,1,128.249996086121,12|0,0:0|0:0,0:0:0:0:
508,164,81203,6,0,L|485:275,1,85.4999973907472,14|0,0:1|0:0,0:0:0:0:
313,363,81519,2,0,L|295:279,1,85.4999973907472,10|0,0:0|0:0,0:0:0:0:
113,195,81835,2,0,P|119:243|82:262,1,85.4999973907472,2|8,0:0|0:1,0:0:0:0:
87,280,82072,1,2,0:0:0:0:
83,296,82151,2,0,B|54:291|54:291|30:301|30:301|-12:298,1,85.4999973907472,8|2,0:0|0:0,0:0:0:0:
86,111,82466,2,0,B|115:106|115:106|139:116|139:116|181:113,1,85.4999973907472,10|0,0:1|0:0,0:0:0:0:
297,125,82782,6,0,L|279:41,1,85.4999973907472,10|8,0:0|0:1,0:0:0:0:
459,80,83098,2,0,L|441:163,1,85.4999973907472,2|8,0:0|0:1,0:0:0:0:
435,180,83335,1,2,0:0:0:0:
430,196,83414,2,0,L|447:279,1,85.4999973907472,8|2,0:0|0:0,0:0:0:0:
262,354,83730,5,14,0:1:0:0:
350,362,83888,1,8,0:1:0:0:
299,263,84045,1,8,0:0:0:0:
175,354,84203,2,8,B|135:369|135:369|146:308|146:308|123:244,1,170.999994781494,8|8,0:1|0:1,0:1:0:0:
107,238,84598,1,8,0:1:0:0:
89,236,84677,2,0,P|76:285|111:302,1,85.4999973907472,8|8,0:0|0:1,0:0:0:0:
209,93,84993,5,10,0:1:0:0:
108,90,85151,1,10,0:1:0:0:
289,44,85309,1,10,0:0:0:0:
127,0,85466,1,10,0:1:0:0:
277,148,85624,2,0,P|325:128|373:119,1,85.4999973907472,2|8,0:0|0:1,0:0:0:0:
372,130,85861,1,8,0:1:0:0:
384,141,85940,2,8,P|432:161|480:170,1,85.4999973907472,10|8,0:0|0:1,0:0:0:0:
312,275,86256,6,0,P|305:332|201:317,1,170.999994781494,14|8,0:1|0:0,0:0:0:0:
399,248,86730,2,0,B|439:273|439:273|451:324|451:324|512:371,1,170.999994781494,2|8,0:0|0:1,0:0:0:0:
464,168,87203,2,0,L|438:81,1,85.4999973907472,10|0,0:0|0:0,0:0:0:0:
177,26,87519,6,0,B|125:115|125:115|77:62,1,170.999994781494,10|8,0:1|0:0,0:0:0:0:
8,20,87993,1,10,0:1:0:0:
34,182,88151,2,0,P|20:230|12:283,1,85.4999973907472,2|8,0:0|0:1,0:0:0:0:
90,356,88466,2,0,P|104:308|112:255,1,85.4999973907472,8|0,0:0|0:0,0:0:0:0:
204,375,88782,6,8,B|258:355|258:355|294:371|294:371|380:368,1,170.999994781494,14|8,0:1|0:0,0:0:0:0:
295,204,89256,2,8,B|243:175|243:175|308:72,1,170.999994781494,10|8,0:1|0:1,0:1:0:0:
423,94,89730,2,8,P|408:49|412:7,1,85.4999973907472,10|0,0:0|0:0,0:0:0:0:
295,204,90045,5,10,0:1:0:0:
295,204,90203,1,8,0:1:0:0:
303,78,90361,1,8,0:0:0:0:
423,94,90519,5,10,0:1:0:0:
374,162,90677,2,0,P|371:204|386:244,1,85.4999973907472,2|8,0:0|0:1,0:0:0:0:
394,259,90914,1,8,0:1:0:0:
404,272,90993,2,0,B|437:269|437:269|455:276|455:276|498:269,1,85.4999973907472,10|8,0:0|0:1,0:0:0:0:
277,352,91309,6,0,B|194:374|194:374|134:310,1,170.999994781494,14|8,0:1|0:0,0:0:0:0:
0,214,91782,2,0,B|83:236|83:236|143:172,1,170.999994781494,2|8,0:0|0:1,0:0:0:0:
227,46,92256,2,0,B|145:40|199:9|92:16,1,128.249996086121,10|0,0:0|0:0,0:0:0:0:
36,40,92572,6,0,B|14:89|43:143|43:143|86:93,1,170.999994781494,10|8,0:1|0:0,0:0:0:0:
84,94,93045,1,8,0:1:0:0:
246,197,93203,2,0,P|248:251|267:300,1,85.4999973907472,2|8,0:0|0:1,0:0:0:0:
362,376,93519,2,0,P|373:334|373:292,1,85.4999973907472,8|0,0:0|0:0,0:0:0:0:
449,39,93835,5,10,0:0:0:0:
504,164,93993,1,8,0:1:0:0:
504,164,94072,1,8,0:1:0:0:
504,164,94151,1,8,0:1:0:0:
381,0,94309,5,8,0:0:0:0:
326,125,94467,1,8,0:1:0:0:
188,39,94624,2,0,B|218:36|218:36|237:41|237:41|281:35,1,85.4999973907472,8|8,0:0|0:1,0:0:0:0:
196,124,94861,1,8,0:1:0:0:
181,136,94940,6,0,B|111:111|111:111|65:281,1,227.999993041992,14|10,0:0|0:0,0:0:0:0:
56,308,95335,1,8,0:0:0:0:
56,308,95414,1,10,0:0:0:0:
181,136,95572,1,10,0:0:0:0:
181,349,95730,1,10,0:0:0:0:
56,177,95887,1,10,0:0:0:0:
257,246,96045,2,0,L|374:223,1,113.999996520996,14|0,0:0|0:0,0:0:0:0:
483,96,96361,6,0,B|406:77|434:97|356:92,1,123.499994346619,14|0,0:1|0:0,0:0:0:0:
270,93,96835,1,10,0:1:0:0:
270,93,96993,2,0,P|257:57|242:31,1,61.7499971733095,8|0,0:0|0:0,0:0:0:0:
157,4,97309,2,0,P|142:31|132:60,1,61.7499971733095,2|8,0:0|0:1,0:0:0:0:
21,182,97624,6,0,L|86:164,1,61.7499971733095,10|0,0:1|0:0,0:0:0:0:
71,267,97940,2,0,L|11:283,1,61.7499971733095,2|8,0:0|0:1,0:0:0:0:
139,219,98256,2,0,L|204:201,1,61.7499971733095,10|0,0:0|0:0,0:0:0:0:
189,304,98572,2,0,L|129:320,1,61.7499971733095,2|8,0:0|0:1,0:0:0:0:
286,371,98888,6,0,B|279:328|297:288|297:288|319:329,1,123.499994346619,10|0,0:1|0:0,0:0:0:0:
421,260,99361,1,10,0:1:0:0:
421,260,99519,2,0,P|426:303|445:331,1,61.7499971733095,8|0,0:0|0:0,0:0:0:0:
358,164,99835,2,0,P|353:207|334:235,1,61.7499971733095,2|8,0:0|0:1,0:0:0:0:
455,155,100151,6,0,L|517:133,1,61.7499971733095,10|0,0:1|0:0,0:0:0:0:
358,164,100466,2,0,L|296:142,1,61.7499971733095,2|8,0:0|0:1,0:0:0:0:
435,70,100782,2,0,L|497:48,1,61.7499971733095,10|0,0:0|0:0,0:0:0:0:
338,79,101098,2,0,L|276:57,1,61.7499971733095,2|8,0:0|0:1,0:0:0:0:
158,152,101414,2,0,B|135:190|135:190|162:264,1,123.499994346619,10|0,0:1|0:0,0:0:0:0:
116,338,101888,5,10,0:1:0:0:
20,260,102045,2,0,L|45:132,1,123.499994346619,8|0,0:0|0:0,0:0:0:0:
139,60,102519,5,8,0:1:0:0:
43,138,102677,2,0,L|68:266,1,123.499994346619,10|2,0:1|0:0,0:0:0:0:
66,259,103151,1,8,0:1:0:0:
139,60,103309,5,10,0:0:0:0:
326,113,103466,2,0,B|377:109|377:109|405:118|405:118|451:115,1,123.499994346619,8|10,0:0|0:0,0:0:0:0:
390,269,103940,6,0,B|339:265|339:265|311:274|311:274|265:271,1,123.499994346619,10|0,0:1|0:0,0:0:0:0:
268,271,104414,1,10,0:1:0:0:
355,351,104572,2,0,P|408:359|487:381,1,123.499994346619,8|2,0:0|0:0,0:0:0:0:
509,302,105045,5,8,0:1:0:0:
268,271,105203,2,0,P|215:279|136:301,1,123.499994346619,10|0,0:1|0:0,0:0:0:0:
106,66,105677,5,8,0:1:0:0:
153,159,105835,1,8,0:0:0:0:
270,3,105993,5,8,0:3:0:0:
153,159,106151,1,8,0:3:0:0:
311,91,106309,1,8,0:1:0:0:
268,271,106466,6,0,B|246:204|284:226|253:143,1,123.499994346619,14|0,0:1|0:0,0:0:0:0:
357,192,106940,1,10,0:1:0:0:
357,192,107098,2,0,P|361:228|374:252,1,61.7499971733095,8|0,0:0|0:0,0:0:0:0:
479,162,107414,2,0,P|475:198|462:222,1,61.7499971733095,2|8,0:0|0:1,0:0:0:0:
440,79,107730,6,0,L|510:62,1,61.7499971733095,10|0,0:1|0:0,0:0:0:0:
346,15,108045,2,0,L|416:-2,1,61.7499971733095,2|8,0:0|0:1,0:0:0:0:
379,93,108361,2,0,L|449:76,1,61.7499971733095,10|0,0:0|0:0,0:0:0:0:
285,29,108677,2,0,L|355:12,1,61.7499971733095,2|8,0:0|0:1,0:0:0:0:
175,95,108993,6,0,B|114:115|114:115|62:60,1,123.499994346619,10|0,0:1|0:0,0:0:0:0:
13,153,109466,1,10,0:1:0:0:
13,153,109624,2,0,P|26:181|39:220,1,61.7499971733095,8|0,0:0|0:0,0:0:0:0:
112,275,109940,2,0,P|99:302|88:332,1,61.7499971733095,2|8,0:0|0:1,0:0:0:0:
246,366,110256,6,0,L|316:352,1,61.7499971733095,10|0,0:1|0:0,0:0:0:0:
427,316,110572,2,0,L|357:302,1,61.7499971733095,2|8,0:0|0:1,0:0:0:0:
237,275,110888,2,0,L|307:261,1,61.7499971733095,10|0,0:0|0:0,0:0:0:0:
418,225,111204,2,0,L|348:211,1,61.7499971733095,2|8,0:0|0:1,0:0:0:0:
303,52,111519,2,0,P|311:94|387:117,1,123.499994346619,14|0,0:1|0:0,0:0:0:0:
384,15,111993,5,8,0:1:0:0:
229,102,112151,2,0,L|215:230,1,123.499994346619,8|2,0:0|0:0,0:0:0:0:
370,311,112624,5,8,0:1:0:0:
215,224,112782,2,0,L|201:96,1,123.499994346619,10|0,0:1|0:0,0:0:0:0:
201,101,113256,1,8,0:1:0:0:
74,269,113414,5,10,0:0:0:0:
50,45,113572,2,0,B|32:91|66:125|66:125|32:164,1,123.499994346619,8|8,0:0|0:0,0:0:0:0:
144,371,114045,6,0,P|202:358|276:350,1,123.499994346619,10|0,0:1|0:0,0:0:0:0:
386,232,114519,1,8,0:1:0:0:
438,322,114677,1,8,0:0:0:0:
404,211,114835,2,8,B|363:202|363:202|323:220|323:220|269:209,1,123.499994346619,8|8,0:1|0:1,0:1:0:0:
286,212,115309,5,14,0:1:0:0:
256,192,115388,12,0,116414,0:0:0:0:
20,108,116572,5,14,0:1:0:0:
113,62,116730,1,8,0:1:0:0:
151,157,116888,1,8,0:0:0:0:
59,206,117045,2,8,P|52:262|94:321,1,123.499994346619,10|8,0:1|0:1,0:1:0:0:
287,222,117361,1,8,0:1:0:0:
368,274,117519,2,8,B|416:263|416:263|447:274|447:274|493:263,1,123.499994346619,10|8,0:0|0:1,0:1:0:0:
287,222,117835,5,10,0:1:0:0:
371,85,117993,1,8,0:1:0:0:
368,274,118151,1,8,0:0:0:0:
284,137,118309,1,10,0:1:0:0:
156,379,118466,5,10,0:1:0:0:
242,348,118624,1,8,0:1:0:0:
172,285,118782,1,8,0:0:0:0:
86,316,118940,1,8,0:1:0:0:
25,53,119098,6,8,B|15:111|15:111|51:178,1,123.499994346619,10|8,0:1|0:1,0:1:0:0:
141,10,119414,1,10,0:0:0:0:
284,137,119572,2,8,B|294:79|294:79|258:12,1,123.499994346619,10|8,0:1|0:1,0:1:0:0:
312,254,119888,2,8,B|363:249|363:249|386:261|386:261|443:257,1,123.499994346619,10|8,0:1|0:0,0:1:0:0:
432,257,120203,1,10,0:1:0:0:
485,158,120361,5,8,0:1:0:0:
435,351,120519,1,8,0:1:0:0:
284,137,120677,1,8,0:0:0:0:
334,330,120835,1,8,0:1:0:0:
467,177,120993,5,8,0:1:0:0:
417,370,121151,1,8,0:1:0:0:
266,156,121309,1,8,0:0:0:0:
316,349,121467,1,8,0:1:0:0:
124,228,121624,6,8,B|109:289|109:289|143:349,1,123.499994346619,10|8,0:1|0:1,0:1:0:0:
266,156,121940,1,8,0:0:0:0:
138,341,122098,1,8,0:1:0:0:
138,341,122177,1,8,0:1:0:0:
138,341,122256,1,10,0:1:0:0:
247,255,122414,1,8,0:1:0:0:
119,70,122572,1,10,0:0:0:0:
277,246,122730,6,8,B|319:240|319:240|353:248|353:248|403:238,1,123.499994346619,10|8,0:1|0:1,0:1:0:0:
458,311,123045,1,8,0:1:0:0:
466,25,123203,2,8,L|496:155,1,123.499994346619,10|8,0:0|0:1,0:1:0:0:
366,120,123519,2,8,L|338:0,1,123.499994346619,10|8,0:1|0:1,0:1:0:0:
119,70,123835,2,8,P|130:131|100:198,1,123.499994346619,10|8,0:0|0:1,0:1:0:0:
277,246,124151,5,10,0:1:0:0:
116,371,124309,1,8,0:1:0:0:
108,187,124466,1,8,0:0:0:0:
374,306,124624,1,8,0:1:0:0:
366,120,124782,5,10,0:1:0:0:
277,246,124940,1,10,0:1:0:0:
277,246,125019,1,10,0:1:0:0:
423,38,125177,1,10,0:1:0:0:
423,38,125256,1,10,0:1:0:0:
507,168,125414,6,8,B|486:226|486:226|518:297,1,123.499994346619,10|8,0:1|0:1,0:1:0:0:
242,118,125730,1,8,0:0:0:0:
277,246,125888,1,8,0:1:0:0:
299,56,126045,5,8,0:1:0:0:
320,48,126124,1,8,0:1:0:0:
108,187,126282,5,8,0:1:0:0:
87,179,126361,1,14,0:0:0:0:
111,0,126519,1,10,0:1:0:0:
4,255,126677,5,14,0:1:0:0:
127,88,126835,1,8,0:1:0:0:
126,277,126993,1,8,0:0:0:0:
3,110,127151,1,8,0:1:0:0:
173,182,127309,5,10,0:1:0:0:
50,348,127466,2,8,B|97:349|97:349|119:364|119:364|177:366,1,123.499994346619,10|8,0:1|0:0,0:1:0:0:
168,365,127782,1,10,0:1:0:0:
348,293,127940,5,8,0:1:0:0:
348,293,128098,1,8,0:1:0:0:
230,8,128256,6,8,B|215:71|215:71|240:134,1,123.499994346619,10|8,0:0|0:1,0:1:0:0:
480,117,128572,2,8,B|495:54|495:54|470:-9,1,123.499994346619,10|8,0:1|0:1,0:1:0:0:
348,293,128888,5,10,0:0:0:0:
363,301,128966,2,8,L|425:283,1,61.7499971733095,8|8,0:1|0:1,0:1:0:0:
267,273,129124,1,8,0:1:0:0:
250,280,129203,5,10,0:1:0:0:
79,214,129361,1,8,0:1:0:0:
150,66,129519,5,10,0:0:0:0:
321,0,129677,1,8,0:1:0:0:
235,285,129835,5,10,0:1:0:0:
64,219,129993,1,8,0:1:0:0:
135,71,130151,5,10,0:0:0:0:
306,5,130309,1,8,0:1:0:0:
42,39,130466,5,10,0:1:0:0:
193,173,130624,1,8,0:1:0:0:
193,173,130703,1,8,0:1:0:0:
193,173,130782,1,8,0:0:0:0:
173,0,130940,1,8,0:1:0:0:
173,0,131019,1,8,0:1:0:0:
173,0,131098,1,8,0:1:0:0:
22,134,131256,1,8,0:1:0:0:
22,134,131335,1,8,0:1:0:0:
22,134,131414,1,8,0:0:0:0:
135,71,131572,5,8,0:1:0:0:
135,71,131651,1,8,0:1:0:0:
135,71,131730,1,10,0:1:0:0:
64,219,131888,1,8,0:1:0:0:
289,137,132045,1,8,0:0:0:0:
193,173,132203,5,10,0:1:0:0:
418,91,132360,1,8,0:1:0:0:
347,239,132518,1,8,0:1:0:0:
472,368,132677,2,8,B|479:330|479:330|465:298|465:298|477:233,1,123.499994346619,10|8,0:0|0:1,0:1:0:0:
380,377,132993,5,10,0:1:0:0:
330,377,133071,1,8,0:1:0:0:
281,372,133150,1,8,0:1:0:0:
236,353,133229,1,8,0:1:0:0:
199,320,133308,1,8,0:0:0:0:
155,300,133387,1,8,0:1:0:0:
106,292,133466,1,8,0:1:0:0:
56,291,133545,1,8,0:1:0:0:
11,306,133624,5,10,0:1:0:0:
69,322,133702,1,8,0:1:0:0:
130,312,133781,1,8,0:1:0:0:
180,277,133860,1,8,0:1:0:0:
210,224,133939,1,8,0:0:0:0:
215,163,134018,1,8,0:1:0:0:
193,106,134097,1,8,0:1:0:0:
148,64,134176,1,8,0:1:0:0:
94,46,134256,6,8,B|106:103|70:133|70:133|67:187|113:220,1,185.249991519928,14|8,0:1|0:1,0:1:0:0:
84,241,134572,1,8,0:0:0:0:
445,62,134730,2,8,L|318:24,1,123.499994346619,14|8,0:1|0:1,0:1:0:0:
390,338,135045,2,8,L|263:376,1,123.499994346619,14|8,0:0|0:1,0:1:0:0:
505,195,135361,6,8,B|414:181|414:181|353:220|353:220|254:201,1,246.999988693238,14|10,0:1|0:0,0:1:0:0:
183,137,135756,1,8,0:0:0:0:
196,79,135834,1,10,0:0:0:0:
155,36,135913,1,8,0:0:0:0:
94,51,135993,2,8,B|212:95|212:95|312:15,1,246.999988693238,14|10,0:1|0:1,0:1:0:0:
65,247,136466,5,10,0:0:0:0:
65,247,136624,1,10,0:1:0:0:
112,171,136782,5,14,0:1:0:0:
9,314,136940,1,8,0:1:0:0:
0,157,137098,1,8,0:0:0:0:
135,335,137256,2,8,P|190:339|252:378,1,123.499994346619,10|8,0:1|0:1,0:1:0:0:
428,170,137572,1,8,0:1:0:0:
306,230,137730,2,8,B|311:186|311:186|301:160|301:160|305:103,1,123.499994346619,10|8,0:0|0:1,0:1:0:0:
470,316,138045,5,10,0:1:0:0:
306,230,138203,1,8,0:1:0:0:
428,170,138361,1,8,0:0:0:0:
348,376,138519,1,10,0:1:0:0:
169,157,138677,5,10,0:1:0:0:
34,183,138835,1,8,0:1:0:0:
145,275,138993,1,8,0:0:0:0:
66,60,139151,1,8,0:1:0:0:
261,8,139309,6,8,B|308:5|308:5|333:18|333:18|403:13,1,123.499994346619,10|8,0:1|0:1,0:1:0:0:
381,14,139624,1,8,0:0:0:0:
289,150,139782,2,8,B|242:147|242:147|217:160|217:160|147:155,1,123.499994346619,10|8,0:1|0:1,0:1:0:0:
417,113,140098,2,8,B|402:175|402:175|454:222,1,123.499994346619,10|8,0:1|0:0,0:1:0:0:
446,215,140414,1,10,0:1:0:0:
279,341,140572,5,8,0:1:0:0:
289,150,140730,1,8,0:1:0:0:
259,364,140888,1,8,0:0:0:0:
269,173,141046,1,8,0:1:0:0:
24,351,141203,5,8,0:1:0:0:
14,160,141361,1,8,0:1:0:0:
44,374,141519,1,8,0:0:0:0:
34,183,141677,1,8,0:1:0:0:
203,295,141835,6,8,L|74:270,1,123.499994346619,10|8,0:1|0:1,0:1:0:0:
257,52,142151,2,8,L|128:77,1,123.499994346619,10|8,0:0|0:1,0:1:0:0:
279,341,142466,2,8,L|150:316,1,123.499994346619,10|8,0:1|0:1,0:1:0:0:
434,176,142782,5,10,0:0:0:0:
375,265,142940,2,8,P|375:327|432:376,1,123.499994346619,10|8,0:1|0:1,0:1:0:0:
415,369,143256,1,8,0:1:0:0:
434,176,143414,2,8,B|393:167|393:167|351:175|351:175|302:163,1,123.499994346619,10|8,0:0|0:1,0:1:0:0:
136,62,143730,2,8,B|177:53|177:53|219:61|219:61|268:49,1,123.499994346619,10|8,0:1|0:1,0:1:0:0:
39,157,144045,2,8,B|25:219|25:219|62:278,1,123.499994346619,10|8,0:0|0:1,0:1:0:0:
240,353,144361,5,10,0:1:0:0:
179,195,144519,1,8,0:1:0:0:
434,176,144677,1,8,0:0:0:0:
495,18,144835,1,8,0:1:0:0:
495,252,144993,5,10,0:1:0:0:
434,94,145151,1,10,0:1:0:0:
434,94,145230,1,10,0:1:0:0:
386,370,145388,1,10,0:1:0:0:
386,370,145467,1,10,0:1:0:0:
327,214,145624,6,8,B|314:258|314:258|322:293|322:293|308:349,1,123.499994346619,10|8,0:1|0:1,0:1:0:0:
277,69,145940,1,8,0:0:0:0:
434,94,146098,1,8,0:1:0:0:
176,196,146256,2,8,L|118:165,3,61.7499971733095,8|8|8|8,0:1|0:1|0:1|0:1,0:1:0:0:
105,256,146572,5,10,0:0:0:0:
131,309,146650,1,8,0:0:0:0:
107,363,146729,1,10,0:0:0:0:
49,378,146808,1,8,0:0:0:0:
1,342,146887,5,14,0:1:0:0:
121,166,147045,1,8,0:1:0:0:
11,133,147203,1,8,0:0:0:0:
131,309,147361,1,8,0:1:0:0:
185,78,147519,5,10,0:1:0:0:
281,136,147677,2,8,B|332:131|332:131|353:140|353:140|410:135,1,123.499994346619,10|8,0:1|0:0,0:1:0:0:
402,135,147993,1,10,0:1:0:0:
277,256,148151,6,8,P|264:333|398:321,1,246.999988693238,8|10,0:1|0:0,0:1:0:0:
480,311,148624,1,8,0:1:0:0:
157,300,148782,2,8,B|97:320|97:320|41:275,1,123.499994346619,10|8,0:1|0:1,0:1:0:0:
47,250,149019,1,10,0:1:0:0:
47,250,149098,2,8,B|38:208|38:208|43:179|43:179|30:122,1,123.499994346619,8|10,0:0|0:1,0:1:0:0:
444,16,149414,5,10,0:1:0:0:
465,60,149492,1,8,0:1:0:0:
465,109,149571,1,8,0:1:0:0:
445,153,149650,1,8,0:1:0:0:
408,186,149729,1,8,0:0:0:0:
361,199,149808,1,8,0:1:0:0:
312,192,149887,1,8,0:1:0:0:
272,165,149966,1,8,0:1:0:0:
245,125,150045,5,10,0:1:0:0:
223,169,150123,1,8,0:1:0:0:
223,218,150202,1,8,0:1:0:0:
243,262,150281,1,8,0:1:0:0:
280,295,150360,1,8,0:0:0:0:
327,308,150439,1,8,0:1:0:0:
376,301,150518,1,8,0:1:0:0:
416,274,150597,1,8,0:1:0:0:
443,233,150677,5,10,0:1:0:0:
381,233,150755,1,8,0:1:0:0:
320,221,150834,1,8,0:1:0:0:
270,187,150913,1,8,0:1:0:0:
234,136,150992,1,8,0:0:0:0:
193,91,151071,1,8,0:1:0:0:
137,66,151150,1,8,0:1:0:0:
76,56,151229,1,8,0:1:0:0:
16,62,151309,1,8,0:1:0:0:
0,121,151387,1,8,0:1:0:0:
0,182,151466,1,8,0:1:0:0:
20,240,151545,1,8,0:1:0:0:
55,286,151624,6,8,L|39:216,1,61.7499971733095,10|8,0:0|0:1,0:1:0:0:
200,304,151782,2,8,L|186:364,1,61.7499971733095,10|8,0:1|0:1,0:1:0:0:
275,25,151940,5,10,0:0:0:0:
345,367,152098,1,8,0:0:0:0:
373,376,153046,5,8,0:1:0:0:
373,376,153124,1,8,0:1:0:0:
373,376,153203,1,10,0:0:0:0:
303,34,153361,1,8,0:0:0:0:
505,269,153677,6,0,B|328:238|328:238|262:143|262:143|50:100,1,493.999977386476,14|0,0:0|0:0,0:0:0:0:
0,224,154466,6,0,L|107:202,1,95,10|8,0:0|0:1,0:0:0:0:
93,204,154703,1,8,0:1:0:0:
93,204,154782,1,8,0:1:0:0:
0,373,154940,2,0,L|107:351,1,95,12|8,0:0|0:1,0:0:0:0:
175,306,155177,1,8,0:1:0:0:
190,294,155256,6,2,B|251:321|315:285|315:285|390:309|370:389,1,246.999988693238,14|10,0:0|0:1,0:0:0:0:
319,150,155730,5,10,0:0:0:0:
307,133,155809,1,8,0:0:0:0:
317,115,155888,1,10,0:1:0:0:
446,119,156045,5,10,0:1:0:0:
456,137,156124,1,8,0:1:0:0:
444,154,156203,1,10,0:1:0:0:
383,30,156361,5,10,0:1:0:0:
383,30,156440,1,8,0:1:0:0:
383,30,156519,2,0,B|427:22|427:22|456:30|456:30|520:17,1,123.499994346619,14|2,0:0|0:1,0:1:0:0:
181,93,156835,5,8,0:1:0:0:
181,93,156914,1,8,0:1:0:0:
181,93,156993,2,0,P|179:147|92:149,1,142.500005435944,14|0,0:1|0:0,0:0:0:0:
103,160,157466,1,8,0:1:0:0:
12,220,157624,2,0,P|14:274|101:276,1,142.500005435944,10|0,0:0|0:0,0:0:0:0:
208,238,158098,5,8,0:1:0:0:
208,238,158256,2,0,L|158:373,1,142.500005435944,10|0,0:1|0:0,0:0:0:0:
158,371,158730,1,10,0:1:0:0:
245,370,158888,2,0,L|275:292,1,71.2500027179719,8|0,0:0|0:0,0:0:0:0:
435,282,159203,5,2,0:0:0:0:
365,232,159361,1,10,0:1:0:0:
415,366,159519,2,0,L|365:232,1,142.500005435944,10|0,0:1|0:0,0:0:0:0:
365,232,159993,1,10,0:1:0:0:
437,149,160151,2,0,P|456:101|428:14,1,142.500005435944,8|2,0:0|0:0,0:0:0:0:
247,171,160624,5,8,0:1:0:0:
247,171,160782,2,0,P|279:211|368:230,1,142.500005435944,10|0,0:1|0:0,0:0:0:0:
364,231,161256,1,10,0:1:0:0:
308,13,161414,2,0,P|256:20|195:88,1,142.500005435944,8|0,0:0|0:0,0:0:0:0:
66,30,161888,5,8,0:1:0:0:
80,136,162045,2,0,B|34:117|34:117|69:25,1,142.500005435944,14|0,0:1|0:0,0:0:0:0:
66,30,162519,1,10,0:1:0:0:
196,84,162677,2,0,B|257:80|257:80|277:93|277:93|343:87,1,142.500005435944,8|0,0:0|0:0,0:0:0:0:
355,97,163072,1,2,0:0:0:0:
355,97,163151,1,10,0:1:0:0:
277,232,163309,6,0,P|266:277|296:309,1,71.2500027179719,10|0,0:1|0:0,0:0:0:0:
292,312,163545,2,0,L|326:302,1,35.625001358986,2|0,0:0|0:0,0:0:0:0:
381,358,163782,1,10,0:1:0:0:
485,232,163940,2,0,P|496:277|466:309,1,71.2500027179719,10|0,0:0|0:0,0:0:0:0:
470,312,164177,2,0,L|436:302,1,35.625001358986,2|0,0:0|0:0,0:0:0:0:
381,358,164413,1,10,0:1:0:0:
414,137,164572,6,0,B|451:123|485:134|485:134|521:103|496:63,1,142.500005435944,10|0,0:1|0:0,0:0:0:0:
414,23,165045,1,10,0:1:0:0:
414,23,165124,1,2,0:0:0:0:
414,23,165203,2,0,P|379:45|279:20,1,142.500005435944,10|0,0:0|0:0,0:0:0:0:
112,127,165677,5,10,0:1:0:0:
112,127,165835,2,0,P|147:149|247:124,1,142.500005435944,10|0,0:1|0:0,0:0:0:0:
120,25,166309,5,8,0:1:0:0:
41,262,166466,1,8,0:0:0:0:
18,131,166624,5,8,0:1:0:0:
97,368,166781,1,8,0:0:0:0:
298,245,166940,5,8,0:0:0:0:
298,245,167019,1,8,0:0:0:0:
298,245,167098,2,0,B|359:231|343:257|409:240,1,104.500003189087,2|0,0:0|0:0,0:0:0:0:
408,153,167572,1,2,0:0:0:0:
408,153,167730,2,0,L|349:137,1,52.2500015945435,2|0,0:0|0:0,0:0:0:0:
431,68,168045,2,0,L|481:81,1,52.2500015945435,2|0,0:0|0:0,0:0:0:0:
401,241,168361,6,0,P|391:285|427:345,1,104.500003189087,2|0,0:0|0:0,0:0:0:0:
327,374,168835,1,2,0:0:0:0:
327,374,168993,2,0,P|299:364|264:362,1,52.2500015945435,2|0,0:0|0:0,0:0:0:0:
204,322,169309,2,0,P|176:332|141:334,1,52.2500015945435,2|0,0:0|0:0,0:0:0:0:
230,173,169624,6,0,L|214:135,2,34.8333343963623,2|0|0,0:0|0:0|0:0,0:0:0:0:
308,110,169940,2,0,L|324:72,2,34.8333343963623,2|0|0,0:0|0:0|0:0,0:0:0:0:
373,201,170256,2,0,L|357:163,2,34.8333343963623,2|0|0,0:0|0:0|0:0,0:0:0:0:
451,138,170572,2,0,L|467:100,2,34.8333343963623,2|0|0,0:0|0:0|0:0,0:0:0:0:
348,213,170888,6,0,P|355:199|377:206,1,34.8333343963623,2|0,0:0|0:0,0:0:0:0:
299,313,171098,1,2,0:0:0:0:
312,309,171203,2,0,P|319:323|341:316,1,34.8333343963623,2|0,0:0|0:0,0:0:0:0:
145,280,171414,5,2,0:0:0:0:
158,276,171519,2,0,P|165:290|187:283,1,34.8333343963623,2|0,0:0|0:0,0:0:0:0:
177,174,171729,1,2,0:0:0:0:
190,178,171834,2,0,P|197:164|219:171,2,34.8333343963623,2|0|0,0:0|0:0|0:0,0:0:0:0:
78,55,172151,5,14,0:1:0:0:
71,72,172309,1,8,0:1:0:0:
69,90,172466,1,8,0:1:0:0:
70,108,172624,1,8,0:1:0:0:
207,113,172782,5,8,0:0:0:0:
214,130,172940,1,8,0:1:0:0:
216,148,173097,1,8,0:1:0:0:
215,166,173255,1,8,0:1:0:0:
70,108,173414,5,10,0:1:0:0:
59,133,173572,1,8,0:1:0:0:
56,160,173729,1,8,0:1:0:0:
58,187,173887,1,8,0:1:0:0:
215,166,174045,5,8,0:0:0:0:
226,191,174203,1,8,0:1:0:0:
229,218,174360,1,8,0:1:0:0:
227,245,174518,1,8,0:1:0:0:
356,90,174677,5,10,0:1:0:0:
349,107,174835,1,8,0:1:0:0:
347,125,174992,1,8,0:1:0:0:
348,143,175150,1,8,0:1:0:0:
485,148,175308,5,8,0:0:0:0:
492,165,175466,1,8,0:1:0:0:
494,183,175623,1,8,0:1:0:0:
493,201,175781,1,8,0:1:0:0:
348,143,175940,5,10,0:1:0:0:
337,168,176098,1,8,0:1:0:0:
334,195,176255,1,8,0:1:0:0:
336,222,176413,1,8,0:1:0:0:
493,201,176571,5,8,0:0:0:0:
504,226,176729,1,8,0:1:0:0:
507,253,176888,1,8,0:1:0:0:
505,280,177044,1,8,0:1:0:0:
244,366,177203,5,14,0:1:0:0:
262,363,177361,1,8,0:1:0:0:
280,361,177519,1,8,0:1:0:0:
298,359,177677,1,8,0:1:0:0:
131,285,177835,5,8,0:0:0:0:
113,282,177993,1,8,0:1:0:0:
95,280,178151,1,8,0:1:0:0:
77,278,178309,1,8,0:1:0:0:
255,233,178466,5,10,0:1:0:0:
282,228,178624,1,8,0:1:0:0:
309,225,178782,1,8,0:1:0:0:
336,222,178940,1,8,0:1:0:0:
241,73,179098,5,10,0:0:0:0:
281,81,179256,1,8,0:1:0:0:
322,86,179414,1,8,0:1:0:0:
363,90,179572,1,8,0:1:0:0:
138,21,179730,5,10,0:1:0:0:
130,38,179888,1,8,0:1:0:0:
117,51,180045,1,8,0:1:0:0:
98,52,180203,1,8,0:1:0:0:
0,139,180361,5,8,0:0:0:0:
19,140,180519,1,8,0:1:0:0:
32,153,180676,1,8,0:1:0:0:
40,170,180834,1,8,0:1:0:0:
98,52,180993,5,10,0:1:0:0:
117,301,181151,1,8,0:1:0:0:
117,301,181230,1,8,0:1:0:0:
117,301,181309,1,12,0:0:0:0:
264,0,181466,1,8,0:1:0:0:
264,0,181545,1,8,0:1:0:0:
264,0,181624,1,12,0:0:0:0:
283,249,181782,1,8,0:1:0:0:
283,249,181861,1,8,0:1:0:0:
283,249,181940,2,0,B|267:217|246:206|246:206|236:153|285:135,1,142.5,14|0,0:0|0:0,0:0:0:0:
368,103,182256,5,10,0:0:0:0:
349,352,182414,1,8,0:0:0:0:
349,352,182730,1,8,0:1:0:0:
494,176,183045,5,8,0:1:0:0:
484,151,183124,1,8,0:1:0:0:
475,131,183203,2,0,B|460:89|460:89|471:53|471:53|448:-12,1,142.500005435944,12|0,0:0|0:0,0:0:0:0:
175,119,183519,5,14,0:1:0:0:
68,38,183677,1,8,0:1:0:0:
28,167,183835,1,10,0:0:0:0:
135,248,183993,1,8,0:1:0:0:
35,253,184151,5,10,0:1:0:0:
35,253,184230,1,8,0:1:0:0:
247,197,184388,1,10,0:1:0:0:
247,197,184466,1,8,0:0:0:0:
135,248,184624,1,10,0:1:0:0:
344,305,184782,6,8,L|445:284,1,95,10|8,0:1|0:1,0:1:0:0:
277,107,185098,2,8,L|244:204,1,95,8|8,0:0|0:1,0:1:0:0:
475,145,185414,2,8,L|406:68,1,95,8|8,0:1|0:1,0:1:0:0:
155,33,185730,5,10,0:0:0:0:
155,33,185888,1,10,0:1:0:0:
277,107,186045,5,10,0:1:0:0:
61,53,186203,1,8,0:1:0:0:
31,249,186361,1,10,0:0:0:0:
246,196,186519,1,8,0:1:0:0:
151,150,186677,5,10,0:1:0:0:
151,150,186756,1,8,0:1:0:0:
205,350,186914,1,10,0:1:0:0:
205,350,186993,1,8,0:0:0:0:
367,134,187151,1,10,0:1:0:0:
323,335,187309,2,8,P|305:288|334:249,1,95,10|8,0:1|0:1,0:1:0:0:
463,75,187624,6,8,B|470:111|470:111|466:140|466:140|477:185,1,95,10|8,0:0|0:1,0:1:0:0:
285,12,187940,2,8,B|278:48|278:48|282:77|282:77|271:122,1,95,10|8,0:1|0:1,0:1:0:0:
478,32,188256,2,8,B|485:68|485:68|481:97|481:97|492:142,1,95,10|8,0:0|0:1,0:1:0:0:
114,164,188572,5,14,0:1:0:0:
152,168,188730,1,8,0:1:0:0:
110,138,188887,1,8,0:0:0:0:
148,142,189045,1,8,0:1:0:0:
46,258,189203,5,10,0:1:0:0:
148,142,189361,1,8,0:1:0:0:
118,304,189519,5,10,0:0:0:0:
16,188,189677,1,8,0:1:0:0:
235,305,189835,6,8,B|270:303|270:303|297:314|297:314|335:310,1,95,10|8,0:1|0:1,0:1:0:0:
342,294,190072,2,8,B|377:292|377:292|404:303|404:303|442:299,1,95,2|0,0:1|0:1,0:1:0:0:
454,288,190309,1,10,0:1:0:0:
468,117,190466,2,8,P|472:168|429:186,1,95,10|8,0:1|0:1,0:1:0:0:
343,97,190782,2,8,L|310:-10,1,95,10|8,0:0|0:1,0:1:0:0:
263,181,191098,5,10,0:1:0:0:
263,181,191256,1,8,0:1:0:0:
306,90,191414,2,8,L|273:-17,1,95,8|8,0:0|0:1,0:1:0:0:
8,293,191730,5,10,3:1:0:0:
31,287,191808,1,0,3:0:0:0:
54,283,191887,1,8,3:1:0:0:
78,280,191966,1,0,3:0:0:0:
101,279,192045,1,10,3:2:0:0:
125,282,192124,1,0,3:0:0:0:
147,290,192203,1,8,3:1:0:0:
166,304,192282,1,0,3:0:0:0:
182,322,192361,1,10,3:1:0:0:
201,336,192440,1,0,3:0:0:0:
222,346,192519,1,8,3:1:0:0:
246,351,192598,1,0,3:0:0:0:
269,353,192677,1,8,3:2:0:0:
293,352,192756,1,0,3:0:0:0:
317,350,192835,1,8,3:1:0:0:
340,347,192914,1,0,3:0:0:0:
370,340,192993,2,0,B|375:303|375:303|363:285|363:285|369:233,1,95,10|0,3:1|0:0,0:0:0:0:
497,86,193309,2,0,P|492:146|447:146,1,95,8|8,0:0|0:1,0:0:0:0:
174,37,193624,5,14,0:0:0:0:
161,71,193702,1,8,0:1:0:0:
155,108,193781,1,8,0:1:0:0:
157,145,193860,1,8,0:1:0:0:
167,181,193939,1,8,0:1:0:0:
183,214,194018,1,8,0:1:0:0:
206,243,194097,1,8,0:1:0:0:
234,267,194176,1,8,0:1:0:0:
266,285,194255,1,10,0:0:0:0:
301,296,194334,1,8,0:1:0:0:
338,300,194413,1,8,0:1:0:0:
375,297,194492,1,8,0:1:0:0:
410,286,194571,1,8,0:1:0:0:
443,268,194650,1,8,0:1:0:0:
471,244,194729,1,8,0:1:0:0:
494,215,194808,1,8,0:1:0:0:
508,180,194888,5,10,0:0:0:0:
470,177,194966,1,8,0:1:0:0:
433,177,195045,1,8,0:1:0:0:
396,179,195124,1,8,0:1:0:0:
360,186,195203,1,10,0:1:0:0:
326,201,195282,1,8,0:1:0:0:
300,226,195361,1,8,0:1:0:0:
281,258,195440,1,8,0:1:0:0:
266,292,195519,1,10,0:0:0:0:
246,323,195598,1,8,0:1:0:0:
218,345,195677,1,8,0:1:0:0:
183,359,195756,1,8,0:1:0:0:
146,365,195835,1,8,0:1:0:0:
109,367,195914,1,8,0:1:0:0:
72,365,195993,1,8,0:1:0:0:
35,362,196072,1,8,0:1:0:0:
2,344,196151,5,10,0:0:0:0:
19,311,196229,1,8,0:1:0:0:
41,281,196308,1,8,0:1:0:0:
66,254,196387,1,8,0:1:0:0:
95,230,196466,1,8,0:1:0:0:
126,210,196545,1,8,0:1:0:0:
159,194,196624,1,8,0:1:0:0:
194,183,196703,1,8,0:1:0:0:
231,175,196782,1,10,0:0:0:0:
268,173,196861,1,8,0:1:0:0:
305,174,196940,1,8,0:1:0:0:
341,181,197019,1,8,0:1:0:0:
376,192,197098,1,8,0:1:0:0:
410,207,197177,1,8,0:1:0:0:
442,226,197256,1,8,0:1:0:0:
471,249,197335,1,8,0:1:0:0:
494,276,197414,5,10,0:0:0:0:
457,274,197492,1,8,0:1:0:0:
420,269,197571,1,8,0:1:0:0:
384,261,197650,1,8,0:1:0:0:
350,247,197729,1,8,0:1:0:0:
320,225,197808,1,8,0:1:0:0:
297,195,197887,1,8,0:1:0:0:
280,162,197966,1,8,0:1:0:0:
264,129,198045,1,10,0:0:0:0:
241,100,198124,1,8,0:1:0:0:
212,78,198203,1,8,0:1:0:0:
178,63,198282,1,8,0:1:0:0:
142,54,198361,1,8,0:0:0:0:
105,49,198440,1,8,0:1:0:0:
68,47,198519,1,8,0:1:0:0:
31,46,198598,1,8,0:1:0:0:
2,51,198677,6,0,B|42:64|42:64|50:88|50:88|86:139,1,123.499994346619,14|8,0:0|0:1,0:0:0:0:
143,203,198914,1,8,0:1:0:0:
156,189,198993,2,0,L|305:142,1,123.499994346619,8|8,0:0|0:1,0:0:0:0:
283,74,199230,1,8,0:1:0:0:
298,58,199309,6,0,L|374:86,1,61.7499971733095,10|8,0:0|0:1,0:0:0:0:
442,138,199466,2,8,L|366:166,1,61.7499971733095,10|8,0:1|0:1,0:1:0:0:
336,267,199624,6,0,L|412:295,1,61.7499971733095,10|8,0:0|0:1,0:0:0:0:
480,347,199782,2,8,L|404:375,1,61.7499971733095,10|8,0:1|0:1,0:1:0:0:
241,337,199940,5,10,0:0:0:0:
180,326,200018,1,8,0:1:0:0:
120,339,200097,1,8,0:1:0:0:
61,356,200176,1,8,0:1:0:0:
11,338,200256,2,0,P|-2:305|3:269,1,61.7499971733095,8|8,0:0|0:1,0:0:0:0:
156,189,200414,5,10,0:1:0:0:
156,189,200493,1,10,0:1:0:0:
156,189,200572,2,8,P|156:219|144:247,1,61.7499971733095,8|8,0:0|0:1,0:1:0:0:
135,55,200730,2,8,P|104:55|76:43,1,61.7499971733095,8|8,0:1|0:1,0:1:0:0:
267,103,200888,2,8,P|266:72|278:44,1,61.7499971733095,8|8,0:0|0:1,0:0:0:0:
277,255,201045,2,8,P|307:254|335:266,1,61.7499971733095,8|8,0:1|0:1,0:1:0:0:
490,183,201203,5,14,0:0:0:0:
511,233,201281,1,8,0:1:0:0:
508,288,201360,1,8,0:1:0:0:
480,335,201439,1,8,0:1:0:0:
433,365,201518,1,8,0:0:0:0:
379,370,201597,1,8,0:1:0:0:
327,350,201676,1,8,0:1:0:0:
291,308,201755,1,8,0:1:0:0:
277,255,201835,1,8,0:0:0:0:
298,205,201913,1,8,0:1:0:0:
295,150,201992,1,8,0:1:0:0:
267,103,202071,1,8,0:1:0:0:
220,73,202150,1,8,0:0:0:0:
166,68,202229,1,8,0:1:0:0:
114,88,202308,1,8,0:1:0:0:
78,130,202387,1,8,0:1:0:0:
60,180,202466,5,14,0:0:0:0:
89,133,202544,1,8,0:1:0:0:
129,94,202623,1,8,0:1:0:0:
177,67,202702,1,8,0:1:0:0:
230,51,202781,1,8,0:0:0:0:
286,49,202860,1,8,0:1:0:0:
340,59,202939,1,8,0:1:0:0:
390,83,203018,1,8,0:1:0:0:
434,117,203097,1,8,0:0:0:0:
467,162,203176,1,8,0:1:0:0:
489,213,203255,1,8,0:1:0:0:
499,267,203334,1,8,0:1:0:0:
492,324,203414,2,8,L|478:386,3,61.7499971733095
393,242,203730,5,14,0:0:0:0:
375,306,203808,1,8,0:1:0:0:
325,349,203887,1,8,0:1:0:0:
259,356,203966,1,8,0:1:0:0:
208,312,204045,5,14,0:0:0:0:
275,305,204124,1,8,0:1:0:0:
324,261,204203,1,8,0:1:0:0:
341,198,204281,1,8,0:1:0:0:
303,141,204361,5,14,0:0:0:0:
284,204,204439,1,8,0:1:0:0:
235,248,204518,1,8,0:1:0:0:
169,255,204597,1,8,0:1:0:0:
118,211,204676,5,14,0:0:0:0:
184,203,204755,1,8,0:1:0:0:
234,160,204834,1,8,0:1:0:0:
251,96,204914,1,8,0:1:0:0:
200,49,204993,5,14,0:0:0:0:
184,114,205071,1,8,0:1:0:0:
169,179,205150,1,8,0:1:0:0:
153,244,205229,1,8,0:1:0:0:
191,300,205309,5,14,0:0:0:0:
253,315,205388,1,8,0:1:0:0:
318,331,205467,1,8,0:1:0:0:
383,346,205545,1,8,0:1:0:0:
434,302,205624,5,14,0:0:0:0:
449,240,205703,1,8,0:1:0:0:
465,175,205782,1,8,0:1:0:0:
480,110,205860,1,8,0:1:0:0:
454,49,205940,6,0,B|435:43|435:43|409:46|409:46|375:38,1,71.2500027179719,14|8,0:0|0:1,0:0:0:0:
380,249,206098,2,8,B|399:243|399:243|425:246|425:246|459:238,1,71.2500027179719,10|8,0:1|0:1,0:1:0:0:
47,18,206256,6,0,B|-3:214|180:370|180:370|266:238|185:106,1,665,14|0,0:0|0:0,0:0:0:0:
193,119,207519,5,2,0:0:0:0:
193,119,207835,1,2,0:0:0:0:
193,119,208151,1,2,0:0:0:0:
290,30,208309,5,8,0:1:0:0:
290,30,208388,1,8,0:1:0:0:
290,30,208466,1,8,0:0:0:0:
290,30,208782,6,0,B|288:93|288:93|327:151,1,123.499994346619,14|8,0:1|0:1,0:0:0:0:
430,113,209098,2,0,B|432:50|432:50|393:-8,1,123.499994346619,8|8,0:0|0:1,0:0:0:0:
285,258,209414,2,8,B|336:271|336:271|352:287|352:287|430:309,1,123.499994346619,10|8,0:1|0:1,0:1:0:0:
398,300,209651,1,2,0:0:0:0:
399,301,209730,2,0,B|450:314|450:314|466:330|466:330|544:352,1,123.499994346619,10|10,0:0|0:1,0:0:0:0:
246,188,210045,6,8,B|195:201|195:201|179:217|179:217|101:239,1,123.499994346619,10|8,0:1|0:1,0:1:0:0:
133,230,210282,1,2,0:0:0:0:
132,231,210361,2,8,B|81:244|81:244|65:260|65:260|-13:282,1,123.499994346619,10|10,0:0|0:1,0:0:0:0:
5,250,210598,1,8,0:1:0:0:
5,250,210677,1,10,0:1:0:0:
10,21,210835,5,8,0:1:0:0:
0,55,210913,1,8,0:1:0:0:
4,91,210992,1,8,0:0:0:0:
28,119,211071,1,8,0:0:0:0:
62,132,211150,1,8,0:1:0:0:
98,126,211229,1,8,0:1:0:0:
127,103,211309,6,0,L|144:11,1,82.3333295644126,14|2,0:1|0:0,0:0:0:0:
239,97,211519,1,2,0:0:0:0:
224,101,211624,2,0,L|238:181,2,82.3333295644126,10|2|2,0:0|0:0|0:0,0:0:0:0:
391,85,211940,5,10,0:1:0:0:
438,120,212018,1,2,0:0:0:0:
433,179,212097,1,10,0:1:0:0:
381,206,212176,1,2,0:0:0:0:
326,204,212256,5,10,0:0:0:0:
381,230,212334,1,2,0:0:0:0:
411,282,212413,1,2,0:1:0:0:
438,336,212492,1,2,0:0:0:0:
492,365,212571,5,10,0:1:0:0:
492,365,212651,2,0,L|480:298,1,61.7499971733095,8|0,0:1|0:0,0:0:0:0:
316,314,212809,1,8,0:1:0:0:
316,314,212889,2,0,L|303:381,1,61.7499971733095,10|0,0:0|0:0,0:0:0:0:
117,270,213045,5,10,0:1:0:0:
87,258,213124,1,10,0:1:0:0:
61,243,213203,2,0,P|30:231|8:203,1,61.7499971733095,10|0,0:1|0:0,0:0:0:0:
118,116,213361,5,10,0:1:0:0:
148,104,213440,1,10,0:1:0:0:
174,89,213519,2,0,P|205:77|227:49,1,61.7499971733095,10|0,0:0|0:0,0:0:0:0:
377,31,213677,5,10,0:1:0:0:
377,31,213756,1,10,0:1:0:0:
377,31,213835,2,8,B|365:94|365:94|399:151,1,123.499994346619,10|8,0:1|0:1,0:1:0:0:
491,126,214151,2,8,B|503:63|503:63|469:6,1,123.499994346619,8|8,0:0|0:1,0:1:0:0:
472,12,214466,1,8,0:1:0:0:
270,207,214624,5,10,0:1:0:0:
316,314,214782,1,10,0:0:0:0:
430,217,214940,1,10,0:1:0:0:
154,313,215098,5,10,0:1:0:0:
105,318,215176,1,8,0:1:0:0:
61,298,215255,1,8,0:1:0:0:
34,257,215334,1,8,0:1:0:0:
32,208,215413,5,10,0:0:0:0:
80,202,215492,1,8,0:1:0:0:
124,222,215571,1,8,0:1:0:0:
151,263,215650,1,8,0:1:0:0:
154,313,215730,5,10,0:1:0:0:
162,264,215808,1,8,0:1:0:0:
171,215,215887,1,8,0:1:0:0:
180,167,215966,1,8,0:1:0:0:
192,122,216045,6,8,P|177:99|186:61,1,61.7499971733095,10|8,0:0|0:1,0:1:0:0:
296,8,216203,2,8,P|301:37|286:63,1,61.7499971733095,10|8,0:1|0:1,0:1:0:0:
304,227,216361,5,10,0:1:0:0:
286,63,216519,1,8,0:1:0:0:
409,320,216677,1,8,0:0:0:0:
427,156,216835,5,10,0:1:0:0:
427,156,216914,1,10,0:1:0:0:
427,156,216993,1,10,0:1:0:0:
317,342,217151,1,8,0:1:0:0:
192,122,217309,1,8,0:0:0:0:
82,308,217467,1,8,0:1:0:0:
18,224,217624,5,10,0:0:0:0:
79,218,217702,1,8,0:0:0:0:
140,212,217781,1,8,0:0:0:0:
202,207,217860,1,8,0:0:0:0:
261,201,217940,5,10,0:1:0:0:
231,232,218018,1,8,0:1:0:0:
215,272,218097,1,8,0:1:0:0:
214,315,218176,1,8,0:1:0:0:
228,359,218256,5,10,0:0:0:0:
200,304,218334,1,8,0:0:0:0:
203,243,218413,1,8,0:0:0:0:
235,191,218492,1,8,0:0:0:0:
290,161,218572,6,8,L|304:229,1,61.7499971733095,10|8,0:1|0:1,0:1:0:0:
427,156,218730,2,8,L|439:95,1,61.7499971733095,10|8,0:1|0:1,0:1:0:0:
255,31,218888,5,14,3:1:0:0:
193,23,218966,1,0,3:0:0:0:
134,34,219045,1,8,3:1:0:0:
87,67,219124,1,0,3:0:0:0:
25,58,219203,5,10,3:2:0:0:
53,69,219281,1,0,3:0:0:0:
71,93,219360,1,8,3:1:0:0:
75,123,219439,1,0,3:0:0:0:
63,154,219519,5,10,3:1:0:0:
114,382,219677,1,10,3:1:0:0:
114,382,219756,1,2,3:0:0:0:
114,382,219835,1,10,3:2:0:0:
200,179,219993,5,10,3:1:0:0:
200,179,220072,1,2,3:0:0:0:
200,179,220151,5,10,3:1:0:0:
195,240,220229,1,0,3:0:0:0:
217,297,220308,1,8,3:1:0:0:
261,340,220387,1,0,3:0:0:0:
319,343,220466,5,10,3:2:0:0:
309,288,220544,1,0,3:0:0:0:
317,233,220623,1,8,3:1:0:0:
333,180,220702,1,0,3:0:0:0:
323,130,220782,5,10,3:1:0:0:
318,191,220860,1,0,3:0:0:0:
340,248,220939,1,8,3:1:0:0:
384,291,221018,1,0,3:0:0:0:
442,294,221097,5,10,3:2:0:0:
432,239,221177,1,0,3:0:0:0:
440,184,221256,1,8,3:1:0:0:
456,131,221335,1,0,3:0:0:0:
432,74,221414,5,10,3:1:0:0:
442,134,221492,1,0,3:0:0:0:
431,194,221571,1,8,3:1:0:0:
400,248,221650,1,0,3:0:0:0:
353,287,221729,1,8,3:2:0:0:
295,307,221808,1,0,3:0:0:0:
234,307,221887,1,8,3:1:0:0:
176,285,221966,1,0,3:0:0:0:
134,244,222045,5,10,3:1:0:0:
163,236,222123,1,0,3:0:0:0:
193,229,222202,1,8,3:1:0:0:
223,222,222281,1,0,3:0:0:0:
250,217,222361,5,10,3:2:0:0:
202,205,222439,1,0,3:0:0:0:
159,180,222518,1,8,3:1:0:0:
111,169,222597,1,0,3:0:0:0:
62,177,222677,5,10,3:1:0:0:
36,239,222755,1,8,3:1:0:0:
48,305,222834,1,8,3:1:0:0:
92,355,222913,1,0,3:0:0:0:
154,360,222993,5,10,3:2:0:0:
197,337,223071,1,8,3:1:0:0:
245,325,223150,1,8,3:1:0:0:
294,324,223229,1,0,3:0:0:0:
341,336,223309,5,10,3:1:0:0:
366,273,223387,1,8,3:1:0:0:
354,207,223466,1,8,3:1:0:0:
310,157,223545,1,0,3:0:0:0:
249,153,223625,5,10,3:2:0:0:
205,175,223703,1,8,3:1:0:0:
157,187,223782,1,8,3:1:0:0:
108,188,223861,1,0,3:0:0:0:
62,177,223940,6,0,B|44:94|97:12|97:12|175:52,1,246.999988693238,14|8,0:1|0:0,0:0:0:0:
394,28,224414,2,8,B|369:24|369:24|351:29|351:29|316:23,1,61.7499971733095,8|8,0:1|0:1,0:1:0:0:
277,103,224572,5,10,0:1:0:0:
229,148,224677,1,8,0:1:0:0:
258,206,224782,1,8,0:1:0:0:
322,223,224888,5,10,0:0:0:0:
370,268,224993,1,8,0:1:0:0:
341,326,225098,1,8,0:1:0:0:
247,362,225203,5,10,0:1:0:0:
187,333,225309,1,8,0:1:0:0:
121,337,225414,1,8,0:1:0:0:
63,305,225519,5,10,0:0:0:0:
123,276,225625,1,8,0:1:0:0:
189,280,225730,1,8,0:1:0:0:
149,195,225835,5,10,0:1:0:0:
138,130,225940,1,8,0:1:0:0:
197,158,226045,1,8,0:1:0:0:
135,182,226151,5,10,0:0:0:0:
124,117,226256,1,8,0:1:0:0:
183,145,226361,1,8,0:1:0:0:
267,92,226466,5,10,0:1:0:0:
297,151,226572,1,8,0:1:0:0:
283,215,226677,1,8,0:1:0:0:
344,238,226782,5,8,0:0:0:0:
358,174,226887,1,8,0:1:0:0:
328,115,226993,1,8,0:1:0:0:
392,105,227098,5,10,0:1:0:0:
422,164,227204,1,8,0:1:0:0:
408,228,227309,1,8,0:1:0:0:
469,251,227414,5,8,0:0:0:0:
483,187,227519,1,8,0:1:0:0:
453,128,227625,1,8,0:1:0:0:
443,38,227730,6,8,P|476:37|446:6,1,82.3333295644126,10|8,0:1|0:1,0:1:0:0:
453,128,227940,1,10,0:1:0:0:
445,148,228045,2,8,P|478:149|448:180,2,82.3333295644126,10|8|8,0:0|0:1|0:1,0:1:0:0:
275,37,228361,5,14,0:0:0:0:
218,107,228466,1,10,0:3:0:0:
127,118,228572,1,10,0:3:0:0:
102,204,228677,1,14,0:0:0:0:
159,274,228782,1,10,0:3:0:0:
250,285,228888,1,10,0:3:0:0:
319,233,228993,6,0,B|272:223|272:223|252:230|252:230|199:218,1,113.999996520996,14|0,0:1|0:0,0:0:0:0:
284,130,229466,1,10,0:1:0:0:
284,130,229624,2,0,P|275:91|290:71,1,56.9999982604981,8|0,0:0|0:0,0:0:0:0:
382,35,229940,2,0,P|373:74|388:94,1,56.9999982604981,2|8,0:0|0:1,0:0:0:0:
282,78,230256,6,0,L|218:65,1,56.9999982604981,10|0,0:1|0:0,0:0:0:0:
149,32,230572,2,0,L|85:45,1,56.9999982604981,2|8,0:0|0:1,0:0:0:0:
29,167,230888,6,0,L|93:180,1,56.9999982604981,10|0,0:0|0:0,0:0:0:0:
163,219,231204,2,0,L|227:206,1,56.9999982604981,2|0,0:0|0:0,0:0:0:0:
137,315,231519,6,0,P|126:350|52:348,1,113.999996520996,10|0,0:1|0:0,0:0:0:0:
230,293,231993,1,10,0:1:0:0:
230,293,232151,2,0,P|228:326|243:357,1,56.9999982604981,8|0,0:0|0:0,0:0:0:0:
330,365,232466,2,0,P|339:338|336:310,1,56.9999982604981,2|8,0:0|0:1,0:0:0:0:
428,246,232782,6,0,L|487:224,1,56.9999982604981,10|0,0:1|0:0,0:0:0:0:
375,185,233098,2,0,L|434:163,1,56.9999982604981,2|0,0:0|0:0,0:0:0:0:
280,158,233414,6,0,L|221:136,1,56.9999982604981,10|0,0:0|0:0,0:0:0:0:
337,97,233730,2,0,L|278:75,1,56.9999982604981,2|8,0:0|0:1,0:0:0:0:
181,268,234045,6,0,B|178:234|158:212|158:212|166:144|241:137,1,170.999994781494,10|8,0:1|0:1,0:0:0:0:
284,236,234677,2,0,P|273:281|357:373,1,170.999994781494,10|8,0:0|0:1,0:0:0:0:
219,377,235309,6,0,L|157:358,1,56.9999982604981,10|0,0:1|0:0,0:0:0:0:
126,284,235624,2,0,L|188:265,1,56.9999982604981,2|8,0:0|0:1,0:0:0:0:
75,121,235940,2,0,P|72:153|52:177,1,56.9999982604981,10|0,0:0|0:0,0:0:0:0:
57,172,236177,1,2,0:0:0:0:
57,172,236256,2,0,P|41:148|39:120,1,56.9999982604981,0|10,0:0|0:1,0:0:0:0:
172,42,236572,6,8,B|229:28|268:62|268:62|326:15,1,170.999994781494,10|10,0:1|0:1,0:1:0:0:
375,89,237203,2,0,B|345:129|345:129|392:176,1,113.999996520996,8|2,0:0|0:0,0:0:0:0:
390,174,237677,5,8,0:1:0:0:
463,241,237835,2,0,P|468:278|403:297,1,113.999996520996,10|0,0:1|0:0,0:0:0:0:
390,174,238309,5,8,0:1:0:0:
317,318,238466,1,8,0:0:0:0:
317,318,238782,5,0,0:0:0:0:
260,204,238940,1,8,0:1:0:0:
187,348,239098,6,0,B|172:312|189:268|189:268|214:298,1,113.999996520996,10|0,0:1|0:0,0:0:0:0:
260,204,239572,1,10,0:1:0:0:
260,204,239730,2,0,P|268:179|250:148,1,56.9999982604981,8|0,0:0|0:0,0:0:0:0:
167,124,240045,2,0,P|174:150|162:175,1,56.9999982604981,2|8,0:0|0:1,0:0:0:0:
206,40,240361,6,0,L|274:11,1,56.9999982604981,10|0,0:1|0:0,0:0:0:0:
222,10,240677,2,0,L|169:32,1,56.9999982604981,2|8,0:0|0:1,0:0:0:0:
354,74,240993,2,0,L|422:103,1,56.9999982604981,10|0,0:0|0:0,0:0:0:0:
370,104,241309,2,0,L|317:81,1,56.9999982604981,2|8,0:0|0:1,0:0:0:0:
372,210,241624,6,0,B|421:209|421:209|441:217|441:217|490:215,1,113.999996520996,10|0,0:1|0:0,0:0:0:0:
370,104,242098,1,10,0:1:0:0:
370,104,242256,2,0,P|364:69|385:42,1,56.9999982604981,8|0,0:0|0:0,0:0:0:0:
283,169,242572,2,0,P|277:204|298:231,1,56.9999982604981,2|8,0:0|0:1,0:0:0:0:
169,112,242888,6,0,L|230:87,1,56.9999982604981,10|0,0:1|0:0,0:0:0:0:
102,29,243203,2,0,L|41:4,1,56.9999982604981,2|8,0:0|0:1,0:0:0:0:
166,144,243519,2,0,L|227:119,1,56.9999982604981,10|0,0:0|0:0,0:0:0:0:
99,61,243835,2,0,L|38:36,1,56.9999982604981,2|8,0:0|0:1,0:0:0:0:
32,191,244151,6,0,P|24:235|128:265,1,170.999994781494,10|8,0:1|0:1,0:0:0:0:
202,304,244782,2,0,P|251:297|326:302,1,113.999996520996,8|2,0:0|0:0,0:0:0:0:
396,306,245256,5,8,0:1:0:0:
416,189,245414,2,8,B|305:189|377:151|245:156,1,170.999994781494,10|8,0:1|0:1,0:1:0:0:
227,15,246045,2,0,B|238:54|276:77|276:77|285:44,1,113.999996520996,10|0,0:0|0:0,0:0:0:0:
348,0,246519,5,10,0:1:0:0:
436,77,246677,2,0,P|425:121|414:212,1,113.999996520996,10|0,0:1|0:0,0:0:0:0:
493,268,247151,5,8,0:1:0:0:
297,202,247309,5,8,0:0:0:0:
436,77,247545,5,8,0:1:0:0:
348,0,247782,5,10,0:1:0:0:
348,0,247861,1,10,0:1:0:0:
348,0,247940,1,10,0:0:0:0:
256,192,248019,12,0,249045,0:0:0:0:
98,69,249203,5,14,0:1:0:0:
206,208,249361,1,8,0:1:0:0:
90,226,249519,1,8,0:0:0:0:
218,87,249677,2,8,B|263:83|263:83|293:91|293:91|352:86,1,123.499994346619,10|8,0:1|0:1,0:1:0:0:
308,346,249993,1,8,0:1:0:0:
386,284,250151,2,8,P|373:236|403:164,1,123.499994346619,10|8,0:0|0:1,0:1:0:0:
308,346,250466,5,10,0:1:0:0:
475,366,250624,1,8,0:1:0:0:
386,284,250782,1,8,0:0:0:0:
219,304,250940,1,10,0:1:0:0:
21,44,251098,5,10,0:1:0:0:
32,178,251256,1,8,0:1:0:0:
133,19,251414,1,8,0:0:0:0:
122,153,251572,1,8,0:1:0:0:
328,57,251730,6,8,P|273:68|228:12,1,123.499994346619,10|8,0:1|0:1,0:1:0:0:
298,197,252045,1,10,0:0:0:0:
420,111,252203,2,8,B|416:157|416:157|427:195|427:195|420:237,1,123.499994346619,10|8,0:1|0:1,0:1:0:0:
165,370,252519,2,8,B|158:332|158:332|169:294|169:294|165:248,1,123.499994346619,10|8,0:1|0:0,0:1:0:0:
165,248,252835,1,10,0:1:0:0:
23,39,252993,5,8,0:1:0:0:
155,31,253151,1,8,0:1:0:0:
33,240,253309,1,8,0:0:0:0:
165,248,253467,1,8,0:1:0:0:
45,21,253624,5,8,0:1:0:0:
177,13,253782,1,8,0:1:0:0:
55,222,253940,1,8,0:0:0:0:
187,230,254098,1,8,0:1:0:0:
287,57,254256,6,8,B|283:120|283:120|310:179,1,123.499994346619,10|8,0:1|0:1,0:1:0:0:
390,54,254572,1,8,0:0:0:0:
420,273,254730,1,8,0:1:0:0:
420,273,254809,1,8,0:1:0:0:
420,273,254888,1,10,0:1:0:0:
308,174,255045,1,8,0:1:0:0:
505,147,255203,1,10,0:0:0:0:
416,300,255361,6,8,L|291:274,1,123.499994346619,10|8,0:1|0:1,0:1:0:0:
207,150,255677,1,8,0:1:0:0:
56,379,255835,2,8,L|181:353,1,123.499994346619,10|8,0:0|0:1,0:1:0:0:
131,243,256151,2,8,L|10:268,1,123.499994346619,10|8,0:1|0:1,0:1:0:0:
182,38,256466,2,8,P|175:99|210:152,1,123.499994346619,10|8,0:0|0:1,0:1:0:0:
337,14,256782,5,10,0:1:0:0:
317,160,256940,1,8,0:1:0:0:
468,318,257098,1,8,0:0:0:0:
488,172,257256,1,8,0:1:0:0:
354,371,257414,5,10,0:1:0:0:
266,253,257572,1,10,0:1:0:0:
266,253,257651,1,10,0:1:0:0:
124,353,257809,1,10,0:1:0:0:
124,353,257888,1,10,0:1:0:0:
29,245,258045,6,8,B|74:237|74:237|105:242|105:242|166:229,1,123.499994346619,10|8,0:1|0:1,0:1:0:0:
382,197,258361,1,8,0:0:0:0:
266,253,258519,1,8,0:1:0:0:
250,64,258677,5,8,0:1:0:0:
265,52,258756,1,8,0:1:0:0:
397,209,258914,5,10,0:1:0:0:
382,197,258993,1,12,0:0:0:0:
405,19,259151,1,10,0:1:0:0:
453,281,259309,5,14,0:1:0:0:
380,110,259466,1,8,0:1:0:0:
489,291,259624,1,8,0:0:0:0:
416,120,259781,1,8,0:1:0:0:
351,315,259940,5,10,0:1:0:0:
253,140,260098,2,8,P|238:197|277:262,1,123.499994346619,10|8,0:1|0:0,0:1:0:0:
265,252,260414,1,10,0:1:0:0:
123,51,260572,5,8,0:1:0:0:
123,51,260730,1,8,0:1:0:0:
39,351,260888,6,8,B|46:311|46:311|41:280|41:280|54:224,1,123.499994346619,10|8,0:0|0:1,0:1:0:0:
239,18,261203,2,8,B|246:58|246:58|241:89|241:89|254:145,1,123.499994346619,10|8,0:1|0:1,0:1:0:0:
330,269,261519,5,10,0:0:0:0:
309,273,261598,2,8,P|281:278|271:237,1,61.7499971733095,8|8,0:1|0:1,0:1:0:0:
383,340,261756,1,8,0:1:0:0:
405,345,261835,5,10,0:1:0:0:
439,193,261993,1,8,0:1:0:0:
239,18,262151,5,10,0:0:0:0:
287,186,262309,1,8,0:1:0:0:
428,351,262466,5,10,0:1:0:0:
462,199,262624,1,8,0:1:0:0:
262,24,262782,5,10,0:0:0:0:
310,192,262940,1,8,0:1:0:0:
354,70,263098,5,10,0:1:0:0:
146,106,263256,1,8,0:1:0:0:
146,106,263335,1,8,0:1:0:0:
146,106,263414,1,8,0:0:0:0:
350,282,263572,1,8,0:1:0:0:
350,282,263651,1,8,0:1:0:0:
350,282,263730,1,8,0:1:0:0:
142,246,263888,1,8,0:1:0:0:
142,246,263966,1,8,0:1:0:0:
142,246,264045,1,8,0:0:0:0:
310,192,264203,5,8,0:1:0:0:
310,192,264282,1,8,0:1:0:0:
310,192,264361,1,10,0:1:0:0:
222,340,264519,1,8,0:1:0:0:
310,192,264677,1,8,0:0:0:0:
512,325,264835,5,10,0:1:0:0:
442,177,264993,1,8,0:1:0:0:
512,325,265151,1,8,0:1:0:0:
310,192,265309,2,8,B|266:182|266:182|228:191|228:191|179:174,1,123.499994346619,10|8,0:0|0:1,0:1:0:0:
27,178,265624,5,10,0:1:0:0:
3,220,265702,1,8,0:1:0:0:
0,269,265781,1,8,0:1:0:0:
13,316,265860,1,8,0:1:0:0:
44,355,265939,1,8,0:0:0:0:
88,377,266018,1,8,0:1:0:0:
137,383,266097,1,8,0:1:0:0:
184,369,266176,1,8,0:1:0:0:
222,340,266256,5,10,0:1:0:0:
228,279,266334,1,8,0:1:0:0:
259,226,266413,1,8,0:1:0:0:
310,192,266492,1,8,0:1:0:0:
371,183,266571,1,8,0:0:0:0:
429,200,266650,1,8,0:1:0:0:
475,241,266729,1,8,0:1:0:0:
498,298,266808,1,8,0:1:0:0:
494,361,266888,6,8,B|386:349|461:295|317:298,1,185.249991519928,14|0,0:1|0:1,0:1:0:0:
314,337,267203,1,8,0:0:0:0:
435,103,267361,2,8,B|457:48|457:48|410:-8,1,123.499994346619,14|8,0:1|0:1,0:1:0:0:
48,34,267677,2,8,B|26:89|26:89|73:145,1,123.499994346619,14|8,0:0|0:1,0:1:0:0:
352,162,267993,6,8,B|258:169|258:169|219:216|219:216|124:225,1,246.999988693238,14|10,0:1|0:0,0:1:0:0:
46,280,268388,1,8,0:0:0:0:
56,338,268466,1,10,0:0:0:0:
108,368,268545,1,8,0:0:0:0:
166,346,268624,2,0,B|234:326|285:355|285:355|357:342|368:267,1,246.999988693238,14|10,0:1|0:1,0:0:0:0:
390,90,269098,5,10,0:0:0:0:
390,90,269256,1,10,0:1:0:0:
348,17,269414,5,14,0:1:0:0:
352,162,269572,1,8,0:1:0:0:
470,92,269730,1,8,0:0:0:0:
323,33,269888,2,8,B|279:29|279:29|245:38|245:38|194:31,1,123.499994346619,10|8,0:1|0:1,0:1:0:0:
6,231,270203,1,8,0:1:0:0:
45,143,270361,2,8,B|89:139|89:139|123:148|123:148|174:141,1,123.499994346619,10|8,0:0|0:1,0:1:0:0:
226,371,270677,5,10,0:1:0:0:
188,269,270835,1,8,0:1:0:0:
397,256,270993,1,8,0:0:0:0:
359,358,271151,1,10,0:1:0:0:
352,162,271309,5,10,0:1:0:0:
489,292,271466,1,8,0:1:0:0:
487,103,271624,1,8,0:0:0:0:
489,292,271782,1,8,0:1:0:0:
346,134,271940,6,8,B|330:78|330:78|362:20,1,123.499994346619,10|8,0:1|0:1,0:1:0:0:
361,20,272256,1,8,0:0:0:0:
185,9,272414,2,8,B|201:65|201:65|169:123,1,123.499994346619,10|8,0:1|0:1,0:1:0:0:
21,337,272730,2,8,P|91:357|144:378,1,123.499994346619,10|8,0:1|0:0,0:1:0:0:
138,375,273045,1,10,0:1:0:0:
54,194,273203,5,8,0:1:0:0:
138,375,273361,1,8,0:1:0:0:
341,197,273519,1,8,0:0:0:0:
257,378,273677,1,8,0:1:0:0:
71,173,273835,5,8,0:1:0:0:
155,354,273993,1,8,0:1:0:0:
358,176,274151,1,8,0:0:0:0:
274,357,274309,1,8,0:1:0:0:
446,224,274466,6,8,L|472:350,1,123.499994346619,10|8,0:1|0:1,0:1:0:0:
233,156,274782,2,8,L|207:282,1,123.499994346619,10|8,0:0|0:1,0:1:0:0:
462,177,275098,2,8,L|488:303,1,123.499994346619,10|8,0:1|0:1,0:1:0:0:
358,176,275414,5,10,0:0:0:0:
408,77,275572,2,8,P|466:74|463:21,1,123.499994346619,10|8,0:1|0:1,0:1:0:0:
344,7,275888,1,8,0:1:0:0:
233,156,276045,2,8,B|221:216|221:216|254:272,1,123.499994346619,10|8,0:0|0:1,0:1:0:0:
77,156,276361,2,8,B|65:96|65:96|98:40,1,123.499994346619,10|8,0:1|0:1,0:1:0:0:
21,333,276677,2,8,B|70:329|70:329|95:340|95:340|143:340,1,123.499994346619,10|8,0:0|0:1,0:1:0:0:
402,261,276993,5,10,0:1:0:0:
233,156,277151,1,8,0:1:0:0:
465,208,277309,1,8,0:0:0:0:
296,313,277467,1,8,0:1:0:0:
344,7,277624,5,10,0:1:0:0:
389,157,277782,1,10,0:1:0:0:
389,157,277861,1,10,0:1:0:0:
213,55,278019,1,10,0:1:0:0:
213,55,278098,1,10,0:1:0:0:
167,205,278256,6,8,B|160:240|160:240|170:277|170:277|163:331,1,123.499994346619,10|8,0:1|0:1,0:1:0:0:
213,55,278572,1,8,0:0:0:0:
286,158,278730,1,8,0:1:0:0:
88,106,278888,2,8,L|12:127,3,61.7499971733095,8|8|8|8,0:1|0:1|0:1|0:1,0:1:0:0:
72,216,279203,5,10,0:0:0:0:
38,265,279281,1,8,0:0:0:0:
54,323,279360,1,10,0:0:0:0:
108,349,279439,1,8,0:0:0:0:
163,325,279518,5,14,0:1:0:0:
286,158,279677,1,8,0:1:0:0:
213,55,279835,1,8,0:0:0:0:
353,270,279994,1,8,0:1:0:0:
403,0,280151,5,10,0:1:0:0:
405,90,280309,2,8,B|398:150|398:150|443:196,1,123.499994346619,10|8,0:1|0:0,0:1:0:0:
442,195,280624,1,10,0:1:0:0:
271,369,280782,6,8,B|360:358|360:358|404:378|404:378|514:359,1,246.999988693238,8|10,0:1|0:0,0:1:0:0:
184,227,281256,1,8,0:1:0:0:
94,304,281414,2,8,P|89:350|163:362,1,123.499994346619,10|8,0:1|0:1,0:1:0:0:
112,164,281730,2,8,B|52:186|52:186|21:129,1,123.499994346619,10|8,0:0|0:1,0:1:0:0:
126,52,282045,5,10,0:1:0:0:
184,227,282203,1,8,0:1:0:0:
150,37,282361,1,8,0:0:0:0:
208,212,282519,1,8,0:1:0:0:
390,87,282677,5,10,0:1:0:0:
330,347,282835,1,8,0:1:0:0:
366,72,282993,1,8,0:0:0:0:
306,332,283151,1,8,0:1:0:0:
487,142,283309,5,10,0:1:0:0:
465,199,283387,1,8,0:1:0:0:
416,235,283466,1,8,0:1:0:0:
356,239,283545,1,8,0:1:0:0:
303,209,283624,1,8,0:0:0:0:
123,265,283782,1,8,0:1:0:0:
123,265,283861,1,8,0:1:0:0:
123,265,283941,5,8,0:1:0:0:
144,322,284019,1,8,0:1:0:0:
193,358,284098,1,8,0:1:0:0:
253,362,284177,1,8,0:1:0:0:
306,332,284256,1,8,0:0:0:0:
66,84,284414,5,8,0:1:0:0:
66,84,284493,1,8,0:1:0:0:
66,84,284572,1,10,0:1:0:0:
27,349,284730,1,8,0:1:0:0:
123,265,284888,1,8,0:0:0:0:
158,366,285045,5,10,0:1:0:0:
197,101,285203,1,8,0:1:0:0:
101,185,285361,1,8,0:1:0:0:
302,139,285519,2,8,B|345:135|345:135|381:148|381:148|437:141,1,123.499994346619,10|8,0:0|0:1,0:1:0:0:
499,349,285835,5,10,0:1:0:0:
473,306,285913,1,8,0:1:0:0:
437,273,285992,1,8,0:1:0:0:
394,250,286071,1,8,0:1:0:0:
346,239,286150,1,8,0:0:0:0:
296,242,286229,1,8,0:1:0:0:
250,258,286308,1,8,0:1:0:0:
209,286,286387,1,8,0:1:0:0:
187,329,286466,5,10,0:1:0:0:
131,352,286544,1,8,0:1:0:0:
70,344,286623,1,8,0:1:0:0:
22,306,286702,1,8,0:1:0:0:
0,249,286781,1,8,0:0:0:0:
10,189,286860,1,8,0:1:0:0:
49,142,286939,1,8,0:1:0:0:
106,121,287018,1,8,0:1:0:0:
163,131,287098,6,8,B|170:214|101:260|101:260|63:213|79:168,1,246.999988693238,14|8,0:1|0:1,0:1:0:0:
254,60,287572,2,8,L|383:18,1,123.499994346619,8|8,0:0|0:1,0:1:0:0:
407,29,287809,1,8,0:1:0:0:
407,29,287888,1,8,0:1:0:0:
296,168,288045,2,8,L|413:206,1,123.499994346619,8|8,0:0|0:1,0:1:0:0:
512,384,288361,6,8,L|440:361,1,61.7499971733095,10|8,0:0|0:1,0:1:0:0:
435,347,288519,2,8,L|493:365,1,61.7499971733095,10|8,0:1|0:1,0:1:0:0:
319,329,288677,6,8,L|247:351,1,61.7499971733095,10|8,0:0|0:1,0:1:0:0:
242,366,288835,2,8,L|300:347,1,61.7499971733095,10|8,0:1|0:1,0:1:0:0:
133,366,288993,6,8,L|61:343,1,61.7499971733095,10|8,0:0|0:1,0:1:0:0:
56,329,289151,2,8,L|114:347,1,61.7499971733095,10|8,0:1|0:1,0:1:0:0:
31,194,289309,2,8,B|7:135|7:135|34:79,1,123.499994346619,10|10,0:0|0:0,0:1:0:0:
117,64,289545,1,8,0:0:0:0:
117,64,289624,5,14,0:1:0:0:
107,106,289702,1,8,0:1:0:0:
107,149,289781,1,8,0:1:0:0:
115,191,289860,1,8,0:1:0:0:
132,231,289939,1,8,0:0:0:0:
157,266,290018,1,8,0:1:0:0:
189,295,290097,1,8,0:1:0:0:
226,317,290176,1,8,0:1:0:0:
267,330,290255,1,8,0:0:0:0:
310,335,290334,1,8,0:1:0:0:
353,331,290413,1,8,0:1:0:0:
394,318,290492,1,8,0:1:0:0:
432,297,290571,1,8,0:0:0:0:
464,268,290650,1,8,0:1:0:0:
489,233,290729,1,8,0:1:0:0:
507,194,290808,1,8,0:1:0:0:
508,149,290888,5,10,0:0:0:0:
461,165,290966,1,8,0:1:0:0:
413,178,291045,1,8,0:1:0:0:
364,182,291124,1,8,0:1:0:0:
316,173,291203,1,8,0:0:0:0:
268,162,291282,1,8,0:1:0:0:
219,164,291361,1,8,0:1:0:0:
171,176,291440,1,8,0:1:0:0:
129,211,291519,5,10,0:0:0:0:
175,227,291597,1,8,0:1:0:0:
223,240,291676,1,8,0:1:0:0:
272,244,291755,1,8,0:1:0:0:
320,235,291834,1,8,0:0:0:0:
368,224,291913,1,8,0:1:0:0:
417,226,291992,1,8,0:1:0:0:
465,238,292071,1,8,0:1:0:0:
496,281,292151,5,10,0:0:0:0:
462,307,292229,1,8,0:1:0:0:
421,322,292308,1,8,0:1:0:0:
378,322,292387,1,8,0:1:0:0:
337,309,292466,1,8,0:0:0:0:
303,284,292545,1,8,0:1:0:0:
278,249,292624,1,8,0:1:0:0:
266,207,292703,1,8,0:1:0:0:
271,167,292782,5,10,0:0:0:0:
258,208,292861,1,8,0:1:0:0:
234,243,292940,1,8,0:1:0:0:
199,269,293019,1,8,0:1:0:0:
158,282,293098,1,8,0:0:0:0:
115,281,293177,1,8,0:1:0:0:
75,266,293256,1,8,0:1:0:0:
41,240,293334,1,8,0:1:0:0:
18,202,293414,5,10,0:0:0:0:
73,197,293492,1,8,0:1:0:0:
126,181,293571,1,8,0:1:0:0:
164,141,293650,1,8,0:1:0:0:
198,98,293729,1,8,0:0:0:0:
247,73,293808,1,8,0:1:0:0:
301,61,293887,1,8,0:1:0:0:
356,55,293966,1,8,0:1:0:0:
408,71,294045,6,8,L|483:110,3,61.7499971733095,10|8|8|8,0:0|0:1|0:1|0:1,0:1:0:0:
504,173,294361,2,8,L|429:212,3,61.7499971733095,10|8|8|8,0:0|0:1|0:1|0:1,0:1:0:0:
354,163,294677,5,14,0:0:0:0:
333,125,294755,1,8,0:1:0:0:
302,94,294834,1,8,0:1:0:0:
264,75,294913,1,8,0:1:0:0:
222,68,294992,1,8,0:0:0:0:
179,73,295071,1,8,0:1:0:0:
140,91,295150,1,8,0:1:0:0:
108,120,295229,1,8,0:1:0:0:
86,157,295308,1,8,0:0:0:0:
76,199,295387,1,8,0:1:0:0:
79,242,295466,1,8,0:1:0:0:
95,282,295545,1,8,0:1:0:0:
122,316,295624,1,8,0:0:0:0:
158,340,295703,1,8,0:1:0:0:
199,352,295782,1,8,0:1:0:0:
242,352,295861,1,8,0:1:0:0:
290,340,295940,5,10,0:0:0:0:
236,325,296018,1,8,0:1:0:0:
182,311,296097,1,8,0:1:0:0:
165,261,296176,1,8,0:1:0:0:
152,207,296255,1,8,0:0:0:0:
107,183,296334,1,8,0:1:0:0:
53,167,296414,5,10,0:1:0:0:
98,143,296493,1,8,0:1:0:0:
111,89,296572,1,8,0:0:0:0:
128,39,296651,1,8,0:1:0:0:
182,25,296730,1,8,0:1:0:0:
236,11,296808,1,8,0:1:0:0:
295,3,296888,5,10,0:0:0:0:
269,57,296966,1,8,0:1:0:0:
291,113,297045,1,8,0:1:0:0:
347,134,297124,1,8,0:1:0:0:
404,108,297203,5,10,0:0:0:0:
397,138,297281,1,8,0:1:0:0:
391,168,297360,1,8,0:1:0:0:
385,198,297439,1,8,0:1:0:0:
379,229,297518,1,8,0:0:0:0:
373,259,297597,1,8,0:1:0:0:
397,303,297677,5,10,0:1:0:0:
403,272,297756,1,8,0:1:0:0:
409,242,297835,1,8,0:0:0:0:
415,212,297914,1,8,0:1:0:0:
421,181,297993,1,8,0:1:0:0:
427,151,298071,1,8,0:1:0:0:
433,125,298151,2,8,L|415:57,3,61.7499971733095,8|8|8|8,0:0|0:1|0:1|0:1,0:1:0:0:
270,165,298466,5,10,0:0:0:0:
226,161,298544,1,8,0:1:0:0:
185,149,298623,1,8,0:1:0:0:
149,125,298702,1,8,0:1:0:0:
109,109,298781,1,8,0:0:0:0:
67,105,298860,1,8,0:1:0:0:
43,145,298940,5,10,0:1:0:0:
86,149,299018,1,8,0:1:0:0:
127,161,299097,1,8,0:0:0:0:
163,185,299176,1,8,0:1:0:0:
203,201,299255,1,8,0:1:0:0:
245,205,299334,1,8,0:1:0:0:
225,238,299414,2,8,L|213:303,3,61.7499971733095
503,146,299730,5,14,0:1:0:0:
447,145,299808,1,8,0:1:0:0:
392,140,299887,1,8,0:0:0:0:
338,128,299966,1,8,0:1:0:0:
292,97,300045,1,8,0:1:0:0:
257,55,300124,1,8,0:1:0:0:
205,35,300203,1,8,0:0:0:0:
150,30,300282,1,8,0:1:0:0:
92,33,300361,1,8,0:1:0:0:
65,81,300439,1,8,0:1:0:0:
54,135,300518,1,8,0:0:0:0:
58,191,300597,1,8,0:1:0:0:
77,243,300676,1,8,0:1:0:0:
110,287,300755,1,8,0:1:0:0:
154,321,300834,1,8,0:0:0:0:
206,340,300913,1,8,0:1:0:0:
266,346,300993,5,10,0:1:0:0:
229,296,301071,1,8,0:1:0:0:
212,237,301150,1,8,0:0:0:0:
218,176,301229,1,8,0:1:0:0:
244,121,301308,1,8,0:1:0:0:
289,78,301387,1,8,0:1:0:0:
345,54,301466,1,8,0:0:0:0:
407,52,301545,1,8,0:1:0:0:
463,85,301624,5,10,0:1:0:0:
453,145,301702,1,8,0:1:0:0:
424,198,301781,1,8,0:0:0:0:
376,237,301860,1,8,0:1:0:0:
319,258,301939,1,8,0:1:0:0:
257,256,302018,1,8,0:1:0:0:
200,234,302097,1,8,0:0:0:0:
155,191,302176,1,8,0:1:0:0:
125,138,302256,5,10,0:1:0:0:
168,133,302334,1,8,0:1:0:0:
211,132,302413,1,8,0:0:0:0:
254,137,302492,1,8,0:1:0:0:
293,154,302571,1,8,0:1:0:0:
328,179,302650,1,8,0:1:0:0:
369,192,302729,1,8,0:0:0:0:
412,197,302808,1,8,0:1:0:0:
456,187,302888,5,10,0:1:0:0:
413,182,302966,1,8,0:1:0:0:
369,181,303045,1,8,0:0:0:0:
327,186,303124,1,8,0:1:0:0:
287,203,303203,1,8,0:1:0:0:
252,228,303282,1,8,0:1:0:0:
211,241,303361,1,8,0:0:0:0:
168,246,303440,1,8,0:1:0:0:
127,244,303519,6,8,L|56:219,1,71.2500027179719,10|8,0:1|0:1,0:1:0:0:
201,319,303677,2,8,L|133:352,1,71.2500027179719,10|8,0:0|0:1,0:1:0:0:
308,321,303835,2,8,L|283:392,1,71.2500027179719,10|8,0:1|0:1,0:1:0:0:
383,246,303993,2,8,L|416:314,1,71.2500027179719,10|8,0:0|0:1,0:1:0:0:
385,140,304151,2,8,L|456:165,1,71.2500027179719,10|8,0:1|0:1,0:1:0:0:
310,64,304309,2,8,L|378:31,1,71.2500027179719,10|8,0:0|0:1,0:1:0:0:
207,67,304466,2,8,L|231:-3,1,71.2500027179719,10|8,0:1|0:1,0:1:0:0:
128,137,304624,2,8,L|95:69,1,71.2500027179719,10|8,0:0|0:1,0:1:0:0:
254,189,304782,5,14,0:1:0:0:
292,141,304860,1,8,0:1:0:0:
347,114,304939,1,8,0:0:0:0:
408,114,305018,1,8,0:1:0:0:
463,140,305097,1,8,0:1:0:0:
502,188,305176,1,8,0:1:0:0:
512,248,305255,1,8,0:0:0:0:
502,308,305334,1,8,0:1:0:0:
464,355,305414,1,8,0:1:0:0:
402,358,305492,1,8,0:1:0:0:
340,357,305571,1,8,0:0:0:0:
280,345,305650,1,8,0:1:0:0:
231,309,305729,1,8,0:1:0:0:
181,274,305808,1,8,0:1:0:0:
120,263,305887,1,8,0:0:0:0:
58,262,305966,1,8,0:1:0:0:
1,268,306045,5,10,0:1:0:0:
22,312,306123,1,8,0:1:0:0:
59,343,306202,1,8,0:0:0:0:
107,356,306281,1,8,0:1:0:0:
155,349,306360,1,8,0:1:0:0:
196,323,306439,1,8,0:1:0:0:
223,282,306518,1,8,0:0:0:0:
231,233,306597,1,8,0:1:0:0:
217,186,306676,1,8,0:1:0:0:
183,146,306756,2,8,L|166:213,2,61.7499971733095,10|8|8,0:1|0:0|0:1,0:1:0:0:
291,131,306993,5,10,0:1:0:0:
282,101,307071,1,8,0:1:0:0:
274,71,307150,1,8,0:0:0:0:
266,41,307229,1,8,0:1:0:0:
257,12,307309,5,10,0:1:0:0:
306,17,307387,1,8,0:1:0:0:
352,35,307466,1,8,0:0:0:0:
391,65,307545,1,8,0:1:0:0:
421,105,307624,1,8,0:1:0:0:
438,150,307703,1,8,0:1:0:0:
431,205,307782,2,8,L|448:272,1,61.7499971733095,10|8,0:0|0:1,0:1:0:0:
463,359,307940,5,10,0:1:0:0:
413,359,308018,1,8,0:1:0:0:
364,356,308097,1,8,0:0:0:0:
315,346,308176,1,8,0:1:0:0:
273,322,308255,1,8,0:1:0:0:
247,280,308334,1,8,0:1:0:0:
210,249,308413,1,8,0:0:0:0:
162,237,308492,1,8,0:1:0:0:
120,226,308572,5,8,0:1:0:0:
168,214,308651,1,8,0:1:0:0:
205,183,308730,1,8,0:0:0:0:
231,141,308809,1,8,0:1:0:0:
273,117,308888,1,8,0:1:0:0:
322,107,308967,1,8,0:1:0:0:
371,104,309046,1,8,0:0:0:0:
421,105,309124,1,8,0:1:0:0:
468,113,309203,6,8,L|483:53,3,61.7499971733095,10|8|8|8,0:1|0:1|0:0|0:1,0:1:0:0:
355,44,309519,2,8,L|370:103,3,61.7499971733095,10|8|8|8,0:1|0:1|0:0|0:1,0:1:0:0:
194,77,309835,6,8,P|202:44|168:28,1,61.7499971733095,10|8,0:1|0:1,0:1:0:0:
218,92,309993,2,8,P|226:59|192:43,1,61.7499971733095,10|8,0:0|0:1,0:1:0:0:
79,166,310151,6,8,P|71:133|105:117,1,61.7499971733095,10|8,0:1|0:1,0:1:0:0:
55,181,310309,2,8,P|47:148|81:132,1,61.7499971733095,10|8,0:0|0:1,0:1:0:0:
227,259,310466,6,8,P|235:226|201:210,1,61.7499971733095,10|8,0:1|0:1,0:1:0:0:
251,274,310624,2,8,P|259:241|225:225,1,61.7499971733095,10|8,0:0|0:1,0:1:0:0:
112,348,310782,6,8,P|104:315|138:299,1,61.7499971733095,10|8,0:1|0:1,0:1:0:0:
88,363,310940,2,8,P|80:330|114:314,1,61.7499971733095,10|8,0:0|0:1,0:1:0:0:
331,315,311098,5,10,0:1:0:0:
384,355,311176,1,8,0:1:0:0:
448,333,311255,1,8,0:1:0:0:
471,269,311334,1,8,0:1:0:0:
444,207,311414,5,8,0:1:0:0:
390,193,311492,1,8,0:1:0:0:
350,153,311571,1,8,0:1:0:0:
297,133,311650,1,8,0:1:0:0:
238,119,311729,5,10,0:0:0:0:
206,195,311835,1,8,0:0:0:0:
129,166,311940,1,8,0:0:0:0:
102,243,312046,5,8,0:1:0:0:
145,280,312151,1,8,0:3:0:0:
107,323,312256,1,4,0:3:0:0:
148,358,312361,6,0,B|206:350|206:350|249:376|249:376|319:364,1,170.999994781494,14|0,0:1|0:0,0:0:0:0:
310,365,312835,1,0,0:0:0:0:
372,231,312993,2,0,B|361:206|336:191|336:191|323:119|382:96,1,170.999994781494,2|0,0:0|0:0,0:0:0:0:
382,96,313466,1,0,0:0:0:0:
171,113,313624,6,0,L|-8:61,1,170.999994781494,2|0,0:0|0:0,0:0:0:0:
6,65,314256,2,0,B|60:43|101:77|101:77|71:6,1,170.999994781494,2|0,0:0|0:0,0:0:0:0:
15,186,314730,1,2,0:0:0:0:
15,186,314809,1,2,0:0:0:0:
15,186,314888,1,2,0:0:0:0:
148,358,315098,5,2,0:0:0:0:
162,352,315203,2,0,L|147:282,1,63.3333333333333,2|0,0:0|0:0,0:0:0:0:
327,349,315414,5,2,0:0:0:0:
314,339,315519,2,0,L|260:386,1,63.3333333333333,2|0,0:0|0:0,0:0:0:0:
233,210,315730,5,2,0:0:0:0:
230,226,315835,2,0,L|298:248,2,63.3333333333333,2|0|0,0:0|0:0|0:0,0:0:0:0:
235,309,316151,5,2,0:0:0:0:
