osu file format v14

[General]
AudioFilename: audio.mp3
AudioLeadIn: 0
PreviewTime: -1
Countdown: 1
SampleSet: Soft
StackLeniency: 0.7
Mode: 0
LetterboxInBreaks: 0
WidescreenStoryboard: 0

[Editor]
DistanceSpacing: 2.5
BeatDivisor: 3
GridSize: 8
TimelineZoom: 1.6

[Metadata]
Title:Incense & Iron
TitleUnicode:Incense & Iron
Artist:Powerwolf
ArtistUnicode:Powerwolf
Creator:SpeChan
Version:Sacrament
Source:
Tags:
BeatmapID:1773259
BeatmapSetID:847946

[Difficulty]
HPDrainRate:7
CircleSize:4.2
OverallDifficulty:7
ApproachRate:9
SliderMultiplier:1.4
SliderTickRate:1

[Events]
//Background and Video events
0,0,"Incense&Iron.jpg",0,0
//Break Periods
//Storyboard Layer 0 (Background)
//Storyboard Layer 1 (Fail)
//Storyboard Layer 2 (Pass)
//Storyboard Layer 3 (Foreground)
//Storyboard Sound Samples

[TimingPoints]
500,1875,4,2,0,70,1,0
8000,476.190476190476,4,2,0,70,1,0
12603,-149.253731343284,4,2,0,70,0,0
13238,-100,4,2,0,70,0,0
13555,-149.253731343284,4,2,0,70,0,0
14190,-100,4,2,0,70,0,0
14507,-149.253731343284,4,2,0,70,0,0
15619,-100,4,2,0,70,0,0
42126,-100,4,2,0,40,0,0
49904,-149.253731343284,4,2,0,70,0,0
51809,-100,4,2,0,50,0,0

[HitObjects]
256,192,500,12,0,7375,0:0:0:0:
118,89,8000,6,0,P|89:155|105:209,1,93.3333333333333
132,257,8476,1,0,0:0:0:0:
209,308,8634,1,0,0:0:0:0:
302,310,8793,2,0,P|363:299|397:243,1,93.3333333333333
323,239,9269,1,0,0:0:0:0:
303,147,9428,2,0,P|266:100|249:93,2,46.6666666666667
299,240,9904,2,0,P|271:291|227:312,1,93.3333333333333
223,237,10380,1,0,0:0:0:0:
135,202,10539,1,0,0:0:0:0:
74,130,10698,1,0,0:0:0:0:
28,48,10857,2,0,P|85:28|174:48,2,140
95,100,11968,2,0,P|130:196|151:205,1,93.3333333333333
206,211,12444,1,0,0:0:0:0:
259,243,12603,2,0,P|329:231|370:192,1,93.3333333333333
386,132,13238,1,0,0:0:0:0:
298,100,13396,1,0,0:0:0:0:
202,71,13555,2,0,P|135:63|91:83,1,93.3333333333333
121,210,14190,1,0,0:0:0:0:
191,270,14348,1,0,0:0:0:0:
273,314,14507,2,0,P|389:322|463:252,1,186.666666666667
338,76,15619,6,0,P|262:116|224:109,1,93.3333333333333
141,125,16095,1,0,0:0:0:0:
68,215,16253,1,0,0:0:0:0:
81,331,16412,2,0,P|138:345|229:328,1,140
321,280,17047,1,0,0:0:0:0:
412,207,17206,1,0,0:0:0:0:
479,111,17365,2,0,P|436:77|350:61,1,140
240,90,18000,1,0,0:0:0:0:
141,151,18158,1,0,0:0:0:0:
78,249,18317,2,0,P|142:310|227:321,2,140
342,91,19428,2,0,P|319:163|261:203,1,140
165,253,20063,1,0,0:0:0:0:
215,147,20222,1,0,0:0:0:0:
288,236,20380,2,0,P|350:196|369:133,1,140
287,51,21015,1,0,0:0:0:0:
191,118,21174,1,0,0:0:0:0:
297,165,21333,2,0,P|345:248|326:293,1,140
220,250,21968,1,0,0:0:0:0:
268,144,22126,1,0,0:0:0:0:
370,199,22285,1,0,0:0:0:0:
101,84,23238,6,0,P|119:160|144:183,1,93.3333333333333
255,227,23714,1,0,0:0:0:0:
349,123,23873,1,0,0:0:0:0:
217,76,24031,2,0,P|153:91|129:122,1,93.3333333333333
94,243,24507,1,0,0:0:0:0:
183,350,24666,1,0,0:0:0:0:
285,254,24825,1,0,0:0:0:0:
169,174,24984,1,0,0:0:0:0:
117,303,25142,2,0,P|198:303|235:269,1,93.3333333333333
271,173,25619,1,0,0:0:0:0:
157,91,25777,1,0,0:0:0:0:
112,223,25936,1,0,0:0:0:0:
241,276,26095,2,0,P|342:308|379:304,2,140
171,154,27206,1,0,0:0:0:0:
258,44,27365,1,0,0:0:0:0:
358,140,27523,1,0,0:0:0:0:
257,237,27682,2,0,P|198:277|197:281,2,46.6666666666667
302,104,28158,1,0,0:0:0:0:
179,172,28317,6,0,L|174:220,1,46.6666666666667
174,218,28634,1,0,0:0:0:0:
248,99,28793,2,0,P|297:106|306:115,2,46.6666666666667
314,222,29269,1,0,0:0:0:0:
203,308,29428,1,0,0:0:0:0:
132,186,29587,1,0,0:0:0:0:
199,63,29746,1,0,0:0:0:0:
324,123,29904,2,0,P|324:195|209:304,1,233.333333333333
355,322,30857,2,0,P|427:306|438:266,1,93.3333333333333
362,173,31333,1,0,0:0:0:0:
222,157,31492,1,0,0:0:0:0:
285,281,31650,1,0,0:0:0:0:
422,251,31809,2,0,P|472:170|468:150,1,93.3333333333333
438,42,32285,1,0,0:0:0:0:
340,142,32444,1,0,0:0:0:0:
220,215,32603,1,0,0:0:0:0:
203,76,32761,2,0,P|270:43|326:45,1,93.3333333333333
367,157,33238,1,0,0:0:0:0:
268,255,33396,1,0,0:0:0:0:
144,187,33555,1,0,0:0:0:0:
247,92,33714,2,0,P|292:66|386:55,2,140
157,199,34825,1,0,0:0:0:0:
256,298,34984,1,0,0:0:0:0:
348,193,35142,1,0,0:0:0:0:
249,93,35301,2,0,L|180:77,1,46.6666666666667
203,82,35619,1,0,0:0:0:0:
107,183,35777,2,0,L|117:236,1,46.6666666666667
115,228,36095,1,0,0:0:0:0:
247,274,36253,1,0,0:0:0:0:
369,204,36412,1,0,0:0:0:0:
432,78,36571,6,0,P|474:116|484:158,1,93.3333333333333
411,270,37047,1,0,0:0:0:0:
271,258,37206,1,0,0:0:0:0:
193,140,37365,1,0,0:0:0:0:
303,55,37523,1,0,0:0:0:0:
256,192,37682,12,0,38317,0:0:0:0:
70,222,38476,5,0,0:0:0:0:
96,81,42126,1,0,0:0:0:0:
96,81,42285,1,0,0:0:0:0:
314,138,45936,1,0,0:0:0:0:
314,138,46095,1,0,0:0:0:0:
60,52,49904,2,0,B|82:214|199:320|263:339,1,343.933317064515
274,193,51809,2,0,L|251:256,1,46.6666666666667
176,123,52126,1,0,0:0:0:0:
309,79,52285,2,0,L|361:105,1,46.6666666666667
351,240,52603,1,0,0:0:0:0:
217,281,52761,2,0,L|157:269,1,46.6666666666667
159,131,53079,1,0,0:0:0:0:
284,68,53238,2,0,L|341:40,1,46.6666666666667
361,183,53555,1,0,0:0:0:0:
300,309,53714,2,0,P|231:331|190:313,1,93.3333333333333
139,235,54190,1,0,0:0:0:0:
171,122,54349,1,0,0:0:0:0:
277,75,54507,1,0,0:0:0:0:
393,82,54666,2,0,P|429:148|434:217,1,140
317,218,55301,1,0,0:0:0:0:
206,178,55460,1,0,0:0:0:0:
112,108,55619,2,0,P|66:175|70:206,1,93.3333333333333
164,246,56095,1,0,0:0:0:0:
280,247,56253,1,0,0:0:0:0:
392,217,56412,1,0,0:0:0:0:
458,121,56571,2,0,P|443:89|398:49,1,93.3333333333333
284,66,57047,1,0,0:0:0:0:
205,152,57206,1,0,0:0:0:0:
263,253,57365,1,0,0:0:0:0:
360,316,57523,2,0,P|433:331|461:311,1,93.3333333333333
450,207,57999,1,0,0:0:0:0:
379,113,58158,1,0,0:0:0:0:
267,77,58317,1,0,0:0:0:0:
150,74,58476,2,0,P|103:126|93:173,1,93.3333333333333
85,263,58952,1,0,0:0:0:0:
185,322,59111,1,0,0:0:0:0:
267,240,59269,1,0,0:0:0:0:
170,173,59428,2,0,P|145:114|149:84,1,93.3333333333333
264,73,59904,1,0,0:0:0:0:
350,151,60063,1,0,0:0:0:0:
326,265,60222,1,0,0:0:0:0:
216,304,60380,2,0,P|172:332|117:328,1,93.3333333333333
127,215,60857,1,0,0:0:0:0:
217,142,61015,1,0,0:0:0:0:
294,229,61174,1,0,0:0:0:0:
369,317,61333,2,0,P|444:330|473:303,1,93.3333333333333
417,212,61809,1,0,0:0:0:0:
311,160,61968,1,0,0:0:0:0:
209,216,62126,1,0,0:0:0:0:
118,289,62285,2,0,P|68:307|29:288,1,93.3333333333333
73,182,62761,1,0,0:0:0:0:
178,132,62920,1,0,0:0:0:0:
249,224,63079,1,0,0:0:0:0:
319,317,63238,2,0,P|399:341|422:333,1,93.3333333333333
463,237,63714,1,0,0:0:0:0:
415,130,63873,1,0,0:0:0:0:
312,75,64031,1,0,0:0:0:0:
197,52,64190,2,0,P|138:49|103:66,1,93.3333333333333
51,165,64666,1,0,0:0:0:0:
67,280,64825,1,0,0:0:0:0:
173,328,64984,1,0,0:0:0:0:
282,290,65142,2,0,P|338:266|362:235,1,93.3333333333333
362,124,65619,1,0,0:0:0:0:
254,79,65777,1,0,0:0:0:0:
159,147,65936,1,0,0:0:0:0:
96,245,66095,2,0,P|120:311|154:325,1,93.3333333333333
252,302,66571,1,0,0:0:0:0:
320,207,66730,1,0,0:0:0:0:
236,125,66888,1,0,0:0:0:0:
121,101,67047,2,0,L|128:176,1,46.6666666666667
215,223,67365,1,0,0:0:0:0:
325,187,67523,2,0,L|366:141,1,46.6666666666667
394,263,67841,1,0,0:0:0:0:
286,307,67999,2,0,L|213:310,1,46.6666666666667
169,214,68317,1,0,0:0:0:0:
