osu file format v14

[General]
AudioFilename: audio.mp3
AudioLeadIn: 0
PreviewTime: 83953
Countdown: 0
SampleSet: None
StackLeniency: 0.2
Mode: 0
LetterboxInBreaks: 0
WidescreenStoryboard: 1

[Editor]
Bookmarks: 23021,38398,55064,56493,68874,112683,119350,159985,194588,213636,231731
DistanceSpacing: 1
BeatDivisor: 3
GridSize: 4
TimelineZoom: 1.6

[Metadata]
Title:Incense & Iron
TitleUnicode:Incense & Iron
Artist:Powerwolf
ArtistUnicode:Powerwolf
Creator:Pappy
Version:Normal
Source:
Tags:
BeatmapID:3654545
BeatmapSetID:885991

[Difficulty]
HPDrainRate:4
CircleSize:3
OverallDifficulty:4
ApproachRate:5
SliderMultiplier:1.26
SliderTickRate:1

[Events]
//Background and Video events
0,0,"wallhaven-586586.jpg",0,0
//Break Periods
2,164312,174341
2,202407,204817
//Storyboard Layer 0 (Background)
//Storyboard Layer 1 (Fail)
//Storyboard Layer 2 (Pass)
//Storyboard Layer 3 (Foreground)
//Storyboard Layer 4 (Overlay)
//Storyboard Sound Samples

[TimingPoints]
7922,476.190476190476,4,2,1,62,1,0
15541,-100,4,2,1,80,0,0
23160,-100,4,2,1,85,0,0
23795,-100,4,2,1,80,0,0
26017,-100,4,2,1,80,0,0
26970,-100,4,2,1,80,0,0
29827,-100,4,2,1,80,0,0
30779,-100,4,2,1,80,0,0
33636,-100,4,2,1,80,0,0
34588,-100,4,2,1,80,0,0
37445,-100,4,2,1,80,0,0
37921,-100,4,2,1,80,0,0
38398,-100,4,2,1,80,0,0
82208,-100,4,2,1,80,0,0
82525,-100,4,2,1,80,0,0
82683,-100,4,2,1,80,0,0
83160,-100,4,2,1,80,0,0
83636,-100,4,2,1,80,0,0
83715,-100,4,2,1,5,0,0
83795,-100,4,2,1,80,0,0
83874,-100,4,2,1,5,0,0
83953,-100,4,2,1,80,0,0
84033,-100,4,2,1,5,0,0
84113,-83.3333333333333,4,2,1,90,0,1
86970,-100,4,2,1,90,0,1
87922,-100,4,2,1,90,0,1
91334,-100,4,2,1,5,0,1
91414,-100,4,2,1,90,0,1
91493,-100,4,2,1,5,0,1
91572,-100,4,2,1,90,0,1
91652,-100,4,2,1,5,0,1
91731,-100,4,2,1,90,0,1
94588,-100,4,2,1,90,0,1
95541,-100,4,2,1,90,0,1
98874,-100,4,2,1,90,0,1
98953,-100,4,2,1,5,0,1
99033,-100,4,2,1,90,0,1
99112,-100,4,2,1,5,0,1
99191,-100,4,2,1,90,0,1
99271,-100,4,2,1,5,0,1
99350,-100,4,2,1,80,0,0
137445,-100,4,2,1,80,0,0
141255,-100,4,2,1,80,0,0
143160,-100,4,2,1,80,0,0
143477,-100,4,2,1,80,0,0
143795,-100,4,2,1,80,0,0
144112,-100,4,2,1,80,0,0
144588,-100,4,2,1,80,0,0
144668,-100,4,2,1,5,0,0
144747,-100,4,2,1,80,0,0
144826,-100,4,2,1,5,0,0
144906,-100,4,2,1,80,0,0
144985,-100,4,2,1,5,0,0
145064,-83.3333333333333,4,2,1,90,0,1
147921,-100,4,2,1,90,0,1
148874,-100,4,2,1,90,0,1
152287,-100,4,2,1,5,0,1
152366,-100,4,2,1,90,0,1
152445,-100,4,2,1,5,0,1
152525,-100,4,2,1,90,0,1
152604,-100,4,2,1,5,0,1
152683,-100,4,2,1,90,0,1
155541,-100,4,2,1,90,0,1
156493,-100,4,2,1,90,0,1
159906,-100,4,2,1,5,0,1
159985,-100,4,2,1,90,0,1
160064,-100,4,2,1,5,0,1
160144,-100,4,2,1,90,0,1
160223,-100,4,2,1,5,0,1
160302,-100,4,2,1,90,0,1
164112,-133.333333333333,4,2,1,70,0,0
178874,-100,4,2,1,90,0,0
179350,-100,4,2,1,80,0,0
185064,-100,4,2,1,80,0,0
186969,-100,4,2,1,80,0,0
192683,-100,4,2,1,80,0,0
193318,-100,4,2,1,80,0,0
202207,-133.333333333333,4,2,1,80,0,0
206017,-83.3333333333333,4,2,1,80,0,0
207921,-100,4,2,1,80,0,0
208874,-100,4,2,1,80,0,0
208953,-100,4,2,1,5,0,0
209033,-100,4,2,1,80,0,0
209112,-100,4,2,1,5,0,0
209191,-100,4,2,1,80,0,0
209271,-100,4,2,1,5,0,0
209350,-100,4,2,1,80,0,0
209429,-100,4,2,1,5,0,0
209509,-100,4,2,1,80,0,0
209588,-100,4,2,1,5,0,0
209668,-100,4,2,1,80,0,0
209747,-100,4,2,1,5,0,0
209826,-83.3333333333333,4,2,1,95,0,1
212683,-100,4,2,1,95,0,1
213636,-100,4,2,1,95,0,1
220302,-100,4,2,1,95,0,1
221255,-100,4,2,1,95,0,1
224112,-100,4,2,1,95,0,1
224588,-100,4,2,1,95,0,1
224668,-100,4,2,1,5,0,1
224747,-100,4,2,1,95,0,1
224826,-100,4,2,1,5,0,1
224906,-100,4,2,1,95,0,1
224985,-100,4,2,1,5,0,1
225064,-100,4,2,1,90,0,1
228874,-133.333333333333,4,2,1,80,0,0
231810,-100,4,2,1,5,0,0

[Colours]
Combo1 : 214,214,214
Combo2 : 134,49,51

[HitObjects]
203,106,7921,6,0,B|158:156|158:156|194:337,1,252,2|2,0:0|0:0,0:0:0:0:
309,106,9826,2,0,B|354:156|354:156|317:337,1,252,2|2,0:0|0:0,0:0:0:0:
256,226,11255,1,0,0:0:0:0:
194,337,11731,6,0,P|81:308|83:191,1,252,2|2,0:0|0:0,0:0:0:0:
194,46,13636,2,0,P|81:75|83:192,1,252,2|2,0:0|0:0,0:0:0:0:
209,191,15064,1,2,0:0:0:0:
320,131,15541,6,0,P|381:118|442:130,1,126,2|2,3:2|3:2,0:0:0:0:
442,253,16493,2,0,P|381:265|320:253,1,126,2|2,3:2|3:2,0:0:0:0:
209,191,17445,2,0,L|83:191,1,126,2|2,3:2|3:2,0:0:0:0:
83,317,18398,1,2,3:2:0:0:
209,317,18874,1,2,3:2:0:0:
209,191,19350,6,0,P|186:162|195:78,1,126,2|2,3:2|3:2,0:0:0:0:
317,78,20302,2,0,P|333:137|303:191,1,126,2|2,3:2|3:2,0:0:0:0:
317,316,21255,2,0,B|283:320|256:301|256:301|231:320|197:316,1,126,2|2,3:2|3:2,0:0:0:0:
128,210,22207,1,2,1:2:0:0:
384,210,23160,6,0,P|409:117|399:86,1,126,6|10,0:0|0:0,0:0:0:0:
306,8,24112,2,0,P|281:101|291:132,1,126,2|10,0:0|0:0,0:0:0:0:
384,210,25064,2,0,L|406:358,1,126,2|8,0:0|0:0,0:0:0:0:
285,287,26017,1,6,0:0:0:0:
160,305,26493,1,14,0:0:0:0:
61,382,26969,6,0,L|42:257,1,126,6|10,0:0|0:0,0:0:0:0:
143,181,27921,2,0,L|124:56,1,126,2|10,0:0|0:0,0:0:0:0:
243,99,28874,2,0,P|301:120|363:115,1,126,6|10,0:0|0:0,0:0:0:0:
482,72,29826,1,6,0:0:0:0:
442,321,30779,6,0,P|382:300|319:301,1,126,6|10,0:0|0:0,0:0:0:0:
192,301,31731,2,0,P|129:300|70:321,1,126,2|10,0:0|0:0,0:0:0:0:
9,210,32683,2,0,L|30:85,1,126,2|10,0:0|0:0,0:0:0:0:
127,166,33636,1,6,0:0:0:0:
245,123,34112,1,14,0:0:0:0:
363,79,34588,6,0,L|341:203,1,126,6|10,0:0|0:0,0:0:0:0:
437,285,35541,2,0,L|458:160,1,126,2|10,0:0|0:0,0:0:0:0:
363,79,36493,6,0,L|295:88,3,42,2|2|2|10,0:0|0:0|0:0|0:0,0:0:0:0:
204,36,37445,1,2,0:0:0:0:
204,35,38398,6,0,P|180:157|231:270,1,252,0|2,0:0|0:0,0:0:0:0:
392,318,39985,1,2,0:0:0:0:
437,312,40144,1,2,0:0:0:0:
454,274,40302,2,0,P|450:211|417:158,2,126,2|8|2,0:0|0:0|0:0,0:0:0:0:
342,333,41731,1,10,0:0:0:0:
231,270,42207,6,0,B|147:252|69:296|69:296|26:223,1,252,6|2,0:0|0:0,0:0:0:0:
163,123,43795,1,2,0:0:0:0:
163,123,43953,1,2,0:0:0:0:
163,123,44112,2,0,P|161:185|145:246,2,126,2|8|2,0:0|0:0|0:0,0:0:0:0:
53,59,45541,1,10,0:0:0:0:
163,123,46017,6,0,B|279:65|292:149|405:82,1,252,6|2,0:0|0:0,0:0:0:0:
372,247,47604,1,2,0:0:0:0:
379,288,47763,1,2,0:0:0:0:
387,328,47921,2,0,L|262:311,2,126,2|8|2,0:0|0:0|0:0,0:0:0:0:
495,264,49350,5,8,0:0:0:0:
486,138,49826,2,0,P|405:118|343:126,1,126,6|8,3:2|3:2,0:0:0:0:
256,188,50779,2,0,P|193:189|133:171,1,126,2|8,3:2|3:2,0:0:0:0:
25,105,51731,2,0,B|13:44|13:44|23:24,2,84,2|2|2,3:2|3:2|3:2,0:0:0:0:
51,185,52683,2,0,B|63:246|63:246|52:265,2,84,2|2|2,3:2|3:2|3:2,0:0:0:0:
132,171,53636,5,6,0:0:0:0:
255,140,54112,2,0,B|316:126|316:126|377:140,2,126,10|2|8,0:0|0:0|0:0,0:0:0:0:
276,176,55223,1,2,0:0:0:0:
297,212,55382,1,2,0:0:0:0:
318,248,55541,2,0,B|257:262|257:262|196:248,2,126,2|8|2,0:0|0:0|0:0,0:0:0:0:
255,139,56969,1,14,0:0:0:0:
129,136,57445,6,0,P|112:72|129:17,1,126,6|8,0:0|0:0,0:0:0:0:
255,13,58398,2,0,L|255:139,1,126,2|8,0:0|0:0,0:0:0:0:
297,139,59033,1,2,0:0:0:0:
338,139,59191,1,2,0:0:0:0:
382,136,59350,2,0,P|400:76|382:16,2,126,2|8|2,0:0|0:0|0:0,0:0:0:0:
255,139,60779,1,14,0:0:0:0:
255,263,61255,6,0,P|197:289|135:288,1,126,6|8,0:0|0:0,0:0:0:0:
37,210,62207,2,0,P|94:184|156:185,1,126,2|8,0:0|0:0,0:0:0:0:
190,159,62842,1,2,0:0:0:0:
223,133,63001,1,2,0:0:0:0:
256,107,63160,2,0,P|313:132|375:131,1,126,2|8,0:0|0:0,0:0:0:0:
472,52,64112,1,2,0:0:0:0:
493,177,64588,1,10,0:0:0:0:
375,131,65064,6,0,L|399:258,1,126,6|8,0:0|0:0,0:0:0:0:
277,219,66017,2,0,L|301:346,1,126,2|10,0:0|0:0,0:0:0:0:
179,307,66969,2,0,P|134:313|96:308,2,84,2|2|2,0:0|0:0|0:0,0:0:0:0:
137,233,67921,2,0,P|92:227|54:232,2,84,2|0|0,0:0|0:0|0:0,0:0:0:0:
221,233,68874,5,6,0:0:0:0:
327,166,69350,2,0,L|388:192,3,42,10|0|0|2,0:0|0:0|0:0|0:0,0:0:0:0:
471,115,70302,1,8,0:0:0:0:
367,42,70779,2,0,P|326:32|285:41,1,84,2|2,0:0|0:0,0:0:0:0:
209,77,71414,1,2,0:0:0:0:
125,89,71731,2,0,P|62:85|10:52,2,126,2|8|6,0:0|0:0|0:0,0:0:0:0:
189,197,73160,6,0,L|201:255,3,42,10|0|0|2,0:0|0:0|0:0|0:0,0:0:0:0:
272,275,73953,2,0,L|295:186,1,84,2|2,0:0|0:0,0:0:0:0:
367,233,74588,2,0,B|409:328|409:328|484:205|484:205|425:88,1,378,2|8,0:0|0:0,0:0:0:0:
299,75,76493,5,6,0:0:0:0:
172,61,76969,2,0,L|108:39,3,42,8|0|0|2,0:0|0:0|0:0|0:0,0:0:0:0:
34,126,77921,1,8,0:0:0:0:
131,204,78398,2,0,P|133:246|155:282,2,84,2|2|2,0:0|0:0|0:0,0:0:0:0:
213,220,79350,2,0,P|234:255|237:297,2,84,2|2|2,0:0|0:0|0:0,0:0:0:0:
256,192,80302,12,2,82207,0:0:0:0:
80,77,84112,6,0,P|72:139|97:196,1,126,6|8,1:2|0:0,0:0:0:0:
131,233,84747,2,0,L|120:311,1,50.3999984619141,0|0,0:0|0:0,0:0:0:0:
94,323,85064,2,0,L|241:290,1,151.199995385742,2|8,1:2|0:0,0:0:0:0:
287,312,85699,2,0,L|360:295,1,50.3999984619141,0|0,0:0|0:0,0:0:0:0:
384,285,86017,1,6,1:2:0:0:
448,148,86493,2,0,L|521:164,2,50.3999984619141,0|0|0,0:0|0:0|0:0,0:0:0:0:
398,154,86969,2,0,P|323:154|256:119,1,151.199995385742,6|12,1:2|0:0,0:0:0:0:
113,70,87921,6,0,L|141:218,1,151.199995385742,6|8,0:0|0:0,0:0:0:0:
133,268,88556,2,0,P|166:340|177:352,1,50.3999984619141,0|0,0:0|0:0,0:0:0:0:
189,346,88874,2,0,P|259:321|330:343,1,151.199995385742,2|8,1:2|0:0,0:0:0:0:
380,352,89509,2,0,L|446:335,1,50.3999984619141,0|0,0:0|0:0,0:0:0:0:
463,302,89826,2,0,P|468:227|430:164,2,151.199995385742,6|8|2,1:2|0:0|1:2,0:0:0:0:
115,258,91731,6,0,L|265:244,1,151.199995385742,6|10,0:0|0:0,0:0:0:0:
312,226,92366,2,0,P|326:205|338:183,1,50.3999984619141,0|0,0:0|0:0,0:0:0:0:
351,134,92683,2,0,L|501:120,1,151.199995385742,2|8,1:2|0:0,0:0:0:0:
496,170,93318,2,0,P|484:192|469:212,1,50.3999984619141,0|0,0:0|0:0,0:0:0:0:
425,237,93636,1,2,1:2:0:0:
297,318,94112,2,0,L|306:367,2,50.3999984619141,8|0|0,0:0|0:0|0:0,0:0:0:0:
247,308,94588,2,0,L|276:159,1,151.199995385742,6|12,1:2|0:0,0:0:0:0:
170,51,95541,6,0,L|140:199,1,151.199995385742,6|8,1:2|0:0,0:0:0:0:
136,249,96175,2,0,P|160:244|185:244,1,50.3999984619141,0|0,0:0|0:0,0:0:0:0:
235,256,96493,2,0,P|310:256|384:243,1,151.199995385742,2|8,1:2|0:0,0:0:0:0:
433,256,97128,2,0,L|452:179,1,50.3999984619141,0|0,0:0|0:0,0:0:0:0:
495,211,97445,2,0,L|466:57,2,151.199995385742,2|10|8,1:2|0:0|1:2,0:0:0:0:
56,271,99350,6,0,P|164:223|240:313,1,252,6|2,0:0|0:0,0:0:0:0:
408,315,100937,1,2,0:0:0:0:
373,291,101096,1,2,0:0:0:0:
357,252,101255,2,0,P|351:190|373:132,2,126,2|8|2,0:0|0:0|0:0,0:0:0:0:
472,202,102683,1,10,0:0:0:0:
373,131,103160,6,0,B|301:87|301:87|219:115|142:60,1,252,6|2,0:0|0:0,0:0:0:0:
78,216,104747,1,2,0:0:0:0:
111,241,104906,1,2,0:0:0:0:
143,266,105064,2,0,L|271:232,2,126,2|8|2,0:0|0:0|0:0,0:0:0:0:
22,304,106493,1,10,0:0:0:0:
133,362,106969,6,0,B|244:300|265:385|375:318,1,252,6|2,0:0|0:0,0:0:0:0:
482,189,108556,1,2,0:0:0:0:
482,189,108715,1,2,0:0:0:0:
482,189,108874,2,0,L|456:65,2,126,2|8|2,0:0|0:0|0:0,0:0:0:0:
361,153,110302,1,10,0:0:0:0:
240,117,110779,6,0,P|179:132|116:134,1,126,6|8,0:0|0:0,0:0:0:0:
116,249,111731,2,0,P|179:251|240:266,1,126,2|8,0:0|0:0,0:0:0:0:
362,292,112683,2,0,P|368:333|392:366,2,84,2|2|2,0:0|0:0|0:0,0:0:0:0:
446,304,113636,2,0,P|440:262|416:229,2,84,2|2|2,0:0|0:0|0:0,0:0:0:0:
503,365,114588,5,6,0:0:0:0:
377,360,115064,2,0,L|255:327,2,126,10|2|8,0:0|0:0|0:0,0:0:0:0:
371,318,116175,1,2,0:0:0:0:
366,276,116334,1,2,0:0:0:0:
360,234,116493,6,0,L|481:201,2,126,2|8|2,0:0|0:0|0:0,0:0:0:0:
256,162,117921,1,12,0:0:0:0:
152,233,118398,2,0,P|124:289|69:319,1,126,6|8,0:0|0:0,0:0:0:0:
30,199,119350,2,0,P|57:143|112:113,1,126,2|8,0:0|0:0,0:0:0:0:
154,112,119985,1,2,0:0:0:0:
194,124,120144,1,2,0:0:0:0:
225,151,120302,2,0,L|289:39,2,126,2|8|2,0:0|0:0|0:0,0:0:0:0:
193,273,121731,1,12,0:0:0:0:
319,272,122207,6,0,P|376:249|439:253,1,126,6|10,0:0|0:0,0:0:0:0:
486,124,123160,2,0,B|464:52|464:52|410:25,1,126,2|10,0:0|0:0,0:0:0:0:
379,42,123795,1,2,0:0:0:0:
338,50,123953,1,2,0:0:0:0:
296,58,124112,2,0,B|265:97|265:97|277:173,1,126,2|8,0:0|0:0,0:0:0:0:
321,290,125064,1,2,0:0:0:0:
191,290,125541,1,14,0:0:0:0:
320,289,126017,2,0,P|382:301|444:289,1,126,6|10,0:0|0:0,0:0:0:0:
504,178,126969,2,0,P|443:167|381:179,1,126,2|8,0:0|0:0,0:0:0:0:
297,85,127921,6,0,L|314:1,2,84,2|2|2,0:0|0:0|0:0,0:0:0:0:
215,85,128874,2,0,L|198:1,2,84,2|2|2,0:0|0:0|0:0,0:0:0:0:
256,158,129826,5,6,0:0:0:0:
150,227,130302,2,0,P|129:226|109:220,3,42,10|0|2|2,0:0|0:0|0:0|0:0,0:0:0:0:
70,99,131255,1,8,0:0:0:0:
192,68,131731,2,0,P|230:51|272:50,1,84,2|2,0:0|0:0,0:0:0:0:
350,82,132366,1,2,0:0:0:0:
414,28,132683,2,0,L|400:153,2,126,2|10|6,0:0|0:0|0:0,0:0:0:0:
287,33,134112,6,0,L|292:74,3,42,10|0|2|2,0:0|0:0|0:0|0:0,0:0:0:0:
214,103,134906,2,0,L|202:186,1,84,2|2,0:0|0:0,0:0:0:0:
124,217,135541,2,0,B|182:293|182:293|261:248|261:248|324:342|429:302,1,378,6|10,0:0|0:0,0:0:0:0:
370,190,137445,5,6,0:0:0:0:
256,192,141255,12,2,143160,0:0:0:0:
8,248,145064,6,0,B|37:318|37:318|63:248,1,151.199995385742,6|8,1:2|0:0,0:0:0:0:
105,219,145699,2,0,P|129:214|154:219,1,50.3999984619141,0|0,0:0|0:0,0:0:0:0:
197,246,146017,2,0,L|219:84,1,151.199995385742,2|8,1:2|0:0,0:0:0:0:
259,122,146652,2,0,P|283:126|308:122,1,50.3999984619141,0|0,0:0|0:0,0:0:0:0:
355,104,146969,1,2,1:2:0:0:
496,49,147445,2,0,L|485:-13,2,50.3999984619141,8|0|0,0:0|0:0|0:0,0:0:0:0:
506,97,147921,2,0,P|517:171|487:240,1,151.199995385742,6|12,1:2|0:0,0:0:0:0:
374,341,148874,6,0,L|217:317,1,151.199995385742,6|0,1:2|0:0,0:0:0:0:
200,273,149509,2,0,L|121:285,1,50.3999984619141,0|0,0:0|0:0,0:0:0:0:
107,306,149826,2,0,P|68:242|72:168,1,151.199995385742,2|8,1:2|0:0,0:0:0:0:
98,124,150461,2,0,P|115:105|137:93,1,50.3999984619141,0|0,0:0|0:0,0:0:0:0:
186,85,150779,2,0,P|252:113|250:185,2,151.199995385742,2|8|2,1:2|0:0|1:2,0:0:0:0:
487,52,152683,6,0,L|461:234,1,151.199995385742,6|8,1:2|0:0,0:0:0:0:
453,250,153318,2,0,P|425:311|414:324,1,50.3999984619141,0|0,0:0|0:0,0:0:0:0:
396,329,153636,2,0,P|322:338|261:295,1,151.199995385742,2|8,1:2|0:0,0:0:0:0:
258,245,154271,2,0,L|165:258,1,50.3999984619141,0|0,0:0|0:0,0:0:0:0:
158,260,154588,1,2,1:2:0:0:
258,139,155064,2,0,L|165:126,2,50.3999984619141,8|0|0,0:0|0:0|0:0,0:0:0:0:
261,88,155541,2,0,P|322:45|396:54,1,151.199995385742,6|10,1:2|0:0,0:0:0:0:
458,191,156493,6,0,L|468:355,1,151.199995385742,6|8,1:2|0:0,0:0:0:0:
419,326,157128,2,0,P|394:321|369:318,1,50.3999984619141,0|0,0:0|0:0,0:0:0:0:
318,321,157445,2,0,P|242:312|168:298,1,151.199995385742,2|8,1:2|0:0,0:0:0:0:
124,274,158080,2,0,L|140:190,1,50.3999984619141,0|0,0:0|0:0,0:0:0:0:
160,181,158398,2,0,L|131:32,2,151.199995385742,2|8|2,1:2|0:0|1:2,0:0:0:0:
256,192,160302,5,6,1:2:0:0:
197,331,160779,2,0,P|114:336|39:308,2,151.199995385742,8|2|8,0:0|1:2|0:0,0:0:0:0:
256,192,162207,2,0,P|339:187|414:215,1,151.199995385742,2|10,1:2|0:0,0:0:0:0:
462,347,163160,1,2,1:2:0:0:
402,208,163636,1,8,0:0:0:0:
419,57,164112,5,4,0:3:0:0:
256,192,175541,12,2,178398,0:0:0:0:
116,355,179350,6,0,P|81:303|83:241,1,126,6|10,0:0|0:0,0:0:0:0:
100,202,179985,1,0,0:0:0:0:
100,202,180144,2,0,P|104:160|93:120,1,84,2|0,0:0|0:0,0:0:0:0:
71,84,180620,1,0,0:0:0:0:
71,84,180779,2,0,L|88:16,2,42,8|0|0,0:0|0:0|0:0,0:0:0:0:
93,120,181255,6,0,L|226:104,1,126,6|10,0:0|0:0,0:0:0:0:
252,129,181890,1,0,0:0:0:0:
252,129,182048,2,0,L|335:119,1,84,2|0,0:0|0:0,0:0:0:0:
377,114,182525,1,0,0:0:0:0:
377,114,182683,2,0,P|366:96|362:75,2,42,8|0|8,0:0|0:0|0:0,0:0:0:0:
410,137,183160,6,0,P|437:194|433:256,1,126,6|10,0:0|0:0,0:0:0:0:
411,291,183795,1,0,0:0:0:0:
411,291,183953,2,0,L|327:279,1,84,2|0,0:0|0:0,0:0:0:0:
297,250,184429,1,0,0:0:0:0:
297,250,184588,2,0,L|255:255,2,42,10|0|8,0:0|0:0|0:0,0:0:0:0:
310,210,185064,2,0,B|321:166|321:166|307:129,2,84,2|0|2,0:0|0:0|0:0,0:0:0:0:
234,171,186017,2,0,B|223:127|223:127|237:90,2,84,2|0|2,0:0|0:0|0:0,0:0:0:0:
149,172,186969,6,0,L|173:295,1,126,6|10,0:0|0:0,0:0:0:0:
146,327,187604,1,0,0:0:0:0:
146,326,187763,2,0,P|104:327|64:313,1,84,2|0,0:0|0:0,0:0:0:0:
36,282,188239,1,0,0:0:0:0:
36,282,188398,2,0,L|-12:288,2,42,10|0|2,0:0|0:0|0:0,0:0:0:0:
69,256,188874,6,0,P|73:151|59:123,1,126,2|10,0:0|0:0,0:0:0:0:
41,99,189509,1,0,0:0:0:0:
41,98,189668,2,0,P|76:76|116:67,1,84,2|0,0:0|0:0,0:0:0:0:
158,71,190144,1,0,0:0:0:0:
158,70,190302,2,0,P|178:69|199:65,2,42,10|0|2,0:0|0:0|0:0,0:0:0:0:
135,106,190779,6,0,B|105:147|105:147|119:220,1,126,6|10,0:0|0:0,0:0:0:0:
133,265,191414,1,0,0:0:0:0:
133,265,191572,2,0,P|133:321|117:355,1,84,2|0,0:0|0:0,0:0:0:0:
86,368,192048,1,0,0:0:0:0:
85,368,192207,2,0,P|65:369|44:367,2,42,10|0|10,0:0|0:0|0:0,0:0:0:0:
256,192,192683,12,6,194588,0:0:0:0:
116,122,195382,6,0,B|161:119|198:91|198:91|232:104,2,126,2|0|2,0:0|0:0|0:0,0:0:0:0:
74,112,196493,2,0,B|86:167|61:214|61:214|118:201|160:236,1,210,2|0,0:0|0:0,0:0:0:0:
349,325,198080,1,0,0:0:0:0:
390,331,198239,1,8,0:0:0:0:
428,313,198398,2,0,P|439:190|379:131,2,210,6|10|0,0:0|0:0|0:0,0:0:0:0:
256,192,200302,12,6,202207,0:0:0:0:
387,95,206017,6,0,L|286:85,2,100.799996923828,6|0|0,0:0|0:0|0:0,0:0:0:0:
333,180,206969,2,0,L|232:170,2,100.799996923828,2|0|0,0:0|0:0|0:0,0:0:0:0:
279,265,207921,2,0,B|128:250|128:250|65:307|65:307|0:298,1,302.399990771485,2|8,0:0|0:0,0:0:0:0:
0,298,209826,6,0,P|48:242|37:170,1,151.199995385742,6|8,1:2|0:0,0:0:0:0:
45,120,210461,2,0,L|96:87,1,50.3999984619141,0|0,0:0|0:0,0:0:0:0:
135,106,210779,2,0,P|197:145|268:124,1,151.199995385742,2|8,1:2|0:0,0:0:0:0:
311,97,211414,2,0,L|362:64,1,50.3999984619141,0|0,0:0|0:0,0:0:0:0:
395,41,211731,1,2,1:2:0:0:
446,183,212207,2,0,L|403:210,2,50.3999984619141,8|0|0,0:0|0:0|0:0,0:0:0:0:
487,154,212683,2,0,P|504:227|481:298,1,151.199995385742,4|6,1:2|0:0,0:0:0:0:
331,278,213636,6,0,P|314:205|337:134,1,151.199995385742,6|8,0:0|0:0,0:0:0:0:
366,93,214271,2,0,P|381:36|379:26,1,50.3999984619141,0|0,0:0|0:0,0:0:0:0:
360,0,214588,2,0,L|212:32,1,151.199995385742,2|8,1:2|0:0,0:0:0:0:
162,45,215223,2,0,P|137:43|112:39,1,50.3999984619141,0|0,0:0|0:0,0:0:0:0:
64,24,215541,2,0,B|36:67|36:67|53:165,2,151.199995385742,6|8|10,1:2|0:0|1:2,0:0:0:0:
185,205,217445,5,14,1:2:0:0:
256,339,217921,1,10,0:0:0:0:
390,268,218398,1,14,1:2:0:0:
319,135,218874,1,10,0:0:0:0:
185,204,219350,2,0,P|111:212|53:166,1,151.199995385742,14|10,1:2|0:0,0:0:0:0:
159,58,220302,2,0,P|232:50|290:96,1,151.199995385742,6|12,1:2|0:0,0:0:0:0:
400,199,221255,5,14,1:2:0:0:
434,52,221731,1,10,0:0:0:0:
290,96,222207,1,10,0:0:0:0:
256,243,222683,1,10,0:0:0:0:
400,199,223160,2,0,L|447:181,2,50.3999984619141,14|0|0,1:2|0:0|0:0,0:0:0:0:
387,248,223636,2,0,L|434:230,2,50.3999984619141,10|0|0,0:0|0:0|0:0,0:0:0:0:
374,297,224112,2,0,B|361:346|361:346|264:369,2,151.199995385742,14|8|6,1:2|0:0|0:0,0:0:0:0:
256,200,225541,5,10,0:0:0:0:
108,167,226017,2,0,P|55:114|46:41,2,151.199995385742,2|10|2,0:0|0:0|0:0,0:0:0:0:
192,291,227445,2,0,P|244:238|253:165,2,151.199995385742,10|2|10,0:0|0:0|0:0,0:0:0:0:
70,365,228874,5,4,0:3:0:0:
256,192,229033,12,4,231731,0:3:0:0:
