osu file format v14

[General]
AudioFilename: audio.mp3
AudioLeadIn: 0
PreviewTime: 83953
Countdown: 0
SampleSet: Soft
StackLeniency: 0.2
Mode: 0
LetterboxInBreaks: 0
WidescreenStoryboard: 1

[Editor]
Bookmarks: 23021,159985,217445,231731
DistanceSpacing: 1.8
BeatDivisor: 3
GridSize: 4
TimelineZoom: 1.6

[Metadata]
Title:Incense & Iron
TitleUnicode:Incense & Iron
Artist:Powerwolf
ArtistUnicode:Powerwolf
Creator:Pappy
Version:Insane
Source:
Tags:
BeatmapID:1877620
BeatmapSetID:885991

[Difficulty]
HPDrainRate:5
CircleSize:4
OverallDifficulty:8
ApproachRate:9
SliderMultiplier:2.01
SliderTickRate:1

[Events]
//Background and Video events
0,0,"wallhaven-586586.jpg",0,0
//Break Periods
2,164629,171131
2,172248,174941
2,202407,205417
//Storyboard Layer 0 (Background)
//Storyboard Layer 1 (Fail)
//Storyboard Layer 2 (Pass)
//Storyboard Layer 3 (Foreground)
//Storyboard Layer 4 (Overlay)
//Storyboard Sound Samples

[TimingPoints]
7922,476.190476190476,4,2,1,62,1,0
7922,-133.333333333333,4,2,1,62,0,0
15541,-100,4,2,1,80,0,0
23160,-100,4,2,1,85,0,0
23795,-100,4,2,1,80,0,0
26017,-83.3333333333333,4,2,1,80,0,0
26969,-100,4,2,1,80,0,0
26970,-100,4,2,1,80,0,0
29827,-83.3333333333333,4,2,1,80,0,0
30779,-100,4,2,1,80,0,0
33636,-83.3333333333333,4,2,1,80,0,0
34588,-100,4,2,1,80,0,0
37445,-133.333333333333,4,2,1,80,0,0
37921,-83.3333333333333,4,2,1,80,0,0
38398,-100,4,2,1,80,0,0
82208,-52.6315789473684,4,2,1,80,0,0
82525,-68.9655172413793,4,2,1,80,0,0
82683,-52.6315789473684,4,2,1,80,0,0
83160,-111.111111111111,4,2,1,80,0,0
83636,-83.3333333333333,4,2,1,80,0,0
83715,-100,4,2,1,5,0,0
83795,-100,4,2,1,80,0,0
83874,-100,4,2,1,5,0,0
83953,-100,4,2,1,80,0,0
84033,-100,4,2,1,5,0,0
84113,-83.3333333333333,4,2,1,90,0,1
86970,-66.6666666666667,4,2,1,90,0,1
87922,-83.3333333333333,4,2,1,90,0,1
91334,-100,4,2,1,5,0,1
91414,-100,4,2,1,90,0,1
91493,-100,4,2,1,5,0,1
91572,-100,4,2,1,90,0,1
91652,-100,4,2,1,5,0,1
91731,-100,4,2,1,90,0,1
94588,-66.6666666666667,4,2,1,90,0,1
95541,-83.3333333333333,4,2,1,90,0,1
98874,-100,4,2,1,90,0,1
98953,-100,4,2,1,5,0,1
99033,-100,4,2,1,90,0,1
99112,-100,4,2,1,5,0,1
99191,-100,4,2,1,90,0,1
99271,-100,4,2,1,5,0,1
99350,-100,4,2,1,80,0,0
137445,-153.846153846153,4,2,1,80,0,0
141255,-100,4,2,1,80,0,0
143160,-100,4,2,1,80,0,0
143477,-68.9655172413793,4,2,1,80,0,0
143795,-52.6315789473684,4,2,1,80,0,0
144112,-111.111111111111,4,2,1,80,0,0
144588,-83.3333333333333,4,2,1,80,0,0
144668,-100,4,2,1,5,0,0
144747,-100,4,2,1,80,0,0
144826,-100,4,2,1,5,0,0
144906,-100,4,2,1,80,0,0
144985,-100,4,2,1,5,0,0
145064,-83.3333333333333,4,2,1,90,0,1
147921,-66.6666666666667,4,2,1,90,0,1
148874,-83.3333333333333,4,2,1,90,0,1
152287,-100,4,2,1,5,0,1
152366,-100,4,2,1,90,0,1
152445,-100,4,2,1,5,0,1
152525,-100,4,2,1,90,0,1
152604,-100,4,2,1,5,0,1
152683,-100,4,2,1,90,0,1
155541,-66.6666666666667,4,2,1,90,0,1
156493,-83.3333333333333,4,2,1,90,0,1
159906,-100,4,2,1,5,0,1
159985,-100,4,2,1,90,0,1
160064,-100,4,2,1,5,0,1
160144,-100,4,2,1,90,0,1
160223,-100,4,2,1,5,0,1
160302,-111.111111111111,4,2,1,90,0,1
164112,-133.333333333333,4,2,1,70,0,0
178874,-100,4,2,1,90,0,0
179350,-95.2380952380952,4,2,1,80,0,0
185064,-100,4,2,1,80,0,0
186017,-71.4285714285714,4,2,1,80,0,0
186969,-95.2380952380952,4,2,1,80,0,0
192683,-71.4285714285714,4,2,1,80,0,0
193318,-100,4,2,1,80,0,0
194588,-90.9090909090909,4,2,1,80,0,0
202207,-111.111111111111,4,2,1,80,0,0
207921,-200,4,2,1,80,0,0
208874,-68.9655172413793,4,2,1,80,0,0
208953,-100,4,2,1,5,0,0
209033,-100,4,2,1,80,0,0
209112,-100,4,2,1,5,0,0
209191,-100,4,2,1,80,0,0
209271,-100,4,2,1,5,0,0
209350,-100,4,2,1,80,0,0
209429,-100,4,2,1,5,0,0
209509,-100,4,2,1,80,0,0
209588,-100,4,2,1,5,0,0
209668,-100,4,2,1,80,0,0
209747,-100,4,2,1,5,0,0
209826,-71.4285714285714,4,2,1,95,0,1
212683,-55.5555555555556,4,2,1,95,0,1
213636,-71.4285714285714,4,2,1,95,0,1
220302,-55.5555555555556,4,2,1,95,0,1
221255,-71.4285714285714,4,2,1,95,0,1
224112,-111.111111111111,4,2,1,95,0,1
224588,-71.4285714285714,4,2,1,95,0,1
224668,-100,4,2,1,5,0,1
224747,-100,4,2,1,95,0,1
224826,-100,4,2,1,5,0,1
224906,-100,4,2,1,95,0,1
224985,-100,4,2,1,5,0,1
225064,-100,4,2,1,90,0,1
228874,-133.333333333333,4,2,1,80,0,0
231810,-133.333333333333,4,2,1,5,0,0

[Colours]
Combo1 : 214,214,214
Combo2 : 134,49,51

[HitObjects]
111,82,7921,6,0,L|123:215,1,134,2|0,0:0|0:0,0:0:0:0:
156,145,8398,2,0,P|179:138|204:134,2,50.2500019168854,2|0|0,0:0|0:0|0:0,0:0:0:0:
63,284,8874,2,0,P|36:242|36:193,1,100.500003833771,2|0,0:0|0:0,0:0:0:0:
79,130,9350,2,0,P|79:105|65:84,1,50.2500019168854,2|2,0:0|0:0,0:0:0:0:
5,38,9668,1,0,0:0:0:0:
79,130,9826,6,0,L|179:136,1,100.500003833771,2|0,0:0|0:0,0:0:0:0:
205,207,10302,2,0,L|255:203,1,50.2500019168854,2|0,0:0|0:0,0:0:0:0:
330,195,10620,1,0,0:0:0:0:
465,265,10779,2,0,P|453:334|383:339,1,150.750005750656,2|0,0:0|0:0,0:0:0:0:
211,321,11731,6,0,P|250:291|300:287,1,100.500003833771,2|0,0:0|0:0,0:0:0:0:
127,367,12207,2,0,L|116:317,1,50.2500019168854,2|0,0:0|0:0,0:0:0:0:
162,257,12525,1,0,0:0:0:0:
35,306,12683,2,0,L|56:207,1,100.500003833771,2|0,0:0|0:0,0:0:0:0:
151,140,13160,1,2,0:0:0:0:
162,257,13319,1,2,0:0:0:0:
68,124,13477,1,0,0:0:0:0:
218,192,13636,6,0,P|291:183|332:157,1,100.500003833771,2|0,0:0|0:0,0:0:0:0:
233,22,14112,2,0,P|233:47|241:71,1,50.2500019168854,2|0,0:0|0:0,0:0:0:0:
343,73,14429,1,0,0:0:0:0:
512,8,14588,2,0,L|412:1,1,100.500003833771,2|0,0:0|0:0,0:0:0:0:
343,73,15064,1,2,0:0:0:0:
410,149,15223,1,0,0:0:0:0:
287,198,15382,1,0,0:0:0:0:
407,304,15541,5,2,3:2:0:0:
407,304,15858,1,0,0:0:0:0:
271,355,16017,2,0,P|261:323|261:289,1,67,2|0,3:2|0:0,0:0:0:0:
340,226,16334,1,0,0:0:0:0:
215,157,16493,2,0,L|81:167,1,134,2|0,3:2|0:0,0:0:0:0:
161,315,16969,2,0,L|156:249,1,67,2|2,3:2|0:0,0:0:0:0:
145,120,17287,1,0,0:0:0:0:
16,323,17445,6,0,P|103:344|149:325,1,134,2|0,3:2|0:0,0:0:0:0:
71,180,17921,2,0,P|70:213|84:244,1,67,2|0,3:2|0:0,0:0:0:0:
171,195,18239,1,0,0:0:0:0:
131,102,18398,2,0,P|68:82|6:105,1,134,2|0,3:2|0:0,0:0:0:0:
171,195,18874,2,0,P|233:214|295:191,1,134,2|0,3:2|0:0,0:0:0:0:
427,145,19350,6,0,L|409:277,1,134,2|0,3:2|0:0,0:0:0:0:
245,317,19826,2,0,L|234:252,1,67,2|0,3:2|0:0,0:0:0:0:
373,208,20144,1,0,0:0:0:0:
458,355,20302,2,0,P|395:372|339:337,1,134,2|0,3:2|0:0,0:0:0:0:
398,212,20779,2,0,L|407:279,2,67,2|2|0,3:2|0:0|0:0,0:0:0:0:
431,84,21255,6,0,B|365:57|369:102|301:78,1,134,2|0,3:2|0:0,0:0:0:0:
219,206,21731,1,2,3:2:0:0:
159,135,21890,1,2,0:2:0:0:
307,171,22048,1,0,0:0:0:0:
209,54,22207,1,2,1:2:0:0:
176,203,23160,6,0,P|142:205|111:194,1,67,6|0,0:0|0:0,0:0:0:0:
32,132,23477,1,0,0:0:0:0:
18,231,23636,2,0,L|29:296,2,67,10|0|0,0:0|0:0|0:0,0:0:0:0:
158,134,24112,2,0,L|169:68,1,67,2|0,0:0|0:0,0:0:0:0:
256,16,24429,1,0,0:0:0:0:
354,102,24588,2,0,P|323:112|290:110,1,67,10|2,0:0|0:0,0:0:0:0:
430,34,24906,1,0,0:0:0:0:
506,105,25064,6,0,L|494:171,2,67,2|0|0,0:0|0:0|0:0,0:0:0:0:
401,182,25541,2,0,L|412:248,1,67,8|0,0:0|0:0,0:0:0:0:
495,362,25858,1,0,0:0:0:0:
329,378,26017,6,0,P|285:276|380:220,1,241.19999263916,6|14,0:0|0:0,0:0:0:0:
286,58,26969,6,0,P|287:91|295:123,1,67,6|0,0:0|0:0,0:0:0:0:
370,191,27287,1,0,0:0:0:0:
446,125,27445,2,0,P|478:117|511:116,1,67,10|0,0:0|0:0,0:0:0:0:
370,191,27763,1,0,0:0:0:0:
294,255,27921,2,0,P|262:263|229:265,1,67,2|0,0:0|0:0,0:0:0:0:
146,205,28239,1,0,0:0:0:0:
113,336,28398,2,0,L|46:325,2,67,10|2|2,0:0|0:0|0:0,0:0:0:0:
229,265,28874,5,6,0:0:0:0:
253,167,29033,1,2,0:0:0:0:
201,81,29191,1,0,0:0:0:0:
103,57,29350,2,0,L|36:60,1,67,10|2,0:0|0:0,0:0:0:0:
201,81,29668,1,2,0:0:0:0:
90,234,29826,6,0,P|56:142|102:56,1,201,6|8,0:0|0:0,0:0:0:0:
201,81,30461,1,8,0:0:0:0:
253,167,30620,1,8,0:0:0:0:
228,266,30779,6,0,B|224:299|228:326|228:326|311:347|359:298,1,201,6|10,0:0|0:0,0:0:0:0:
457,278,31414,2,0,P|459:311|451:343,1,67,0|0,0:0|0:0,0:0:0:0:
390,203,31731,2,0,P|369:108|432:34,1,201,2|10,0:0|0:0,0:0:0:0:
332,104,32366,2,0,L|265:109,1,67,2|0,0:0|0:0,0:0:0:0:
123,174,32683,6,0,B|74:127|102:50|102:50|169:43,1,201,2|10,0:0|0:0,0:0:0:0:
215,200,33318,1,0,0:0:0:0:
110,207,33477,1,0,0:0:0:0:
265,109,33636,6,0,L|215:344,1,241.19999263916,6|14,0:0|0:0,0:0:0:0:
215,344,34588,6,0,B|311:293|319:362|408:306,1,201,6|10,0:0|0:0,0:0:0:0:
353,167,35223,2,0,P|339:197|338:230,1,67,0|0,0:0|0:0,0:0:0:0:
512,339,35541,2,0,P|523:247|437:212,1,201,2|10,0:0|0:0,0:0:0:0:
407,306,36175,1,2,0:0:0:0:
445,189,36334,1,0,0:0:0:0:
394,331,36493,6,0,L|328:316,1,67,2|2,0:0|0:0,0:0:0:0:
231,288,36810,1,2,0:0:0:0:
85,364,36969,2,0,L|150:378,1,67,10|2,0:0|0:0,0:0:0:0:
241,264,37287,1,2,0:0:0:0:
182,122,37445,6,0,P|111:101|52:144,1,150.750005750656,2|8,0:0|0:0,0:0:0:0:
135,228,38080,1,8,0:0:0:0:
182,122,38239,1,8,0:0:0:0:
125,251,38398,6,0,L|151:382,1,134,0|0,0:0|0:0,0:0:0:0:
231,321,38874,2,0,P|264:317|295:327,1,67,10|0,0:0|0:0,0:0:0:0:
392,354,39191,1,0,0:0:0:0:
469,290,39350,2,0,P|476:224|441:168,1,134,2|0,0:0|0:0,0:0:0:0:
364,103,39826,1,8,0:0:0:0:
404,10,39985,1,2,0:0:0:0:
480,76,40144,1,2,0:0:0:0:
347,126,40302,6,0,L|281:112,1,67,2|0,0:0|0:0,0:0:0:0:
180,106,40620,2,0,L|200:169,1,67,2|8,0:0|0:0,0:0:0:0:
247,261,40937,2,0,L|291:211,1,67,2|0,0:0|0:0,0:0:0:0:
347,126,41255,6,0,L|150:84,1,201,2|10,0:0|0:0,0:0:0:0:
52,163,41890,1,0,0:0:0:0:
118,260,42048,1,0,0:0:0:0:
32,350,42207,6,0,P|98:343|157:374,1,134,6|0,0:0|0:0,0:0:0:0:
212,290,42683,2,0,P|292:277|305:268,1,67,10|0,0:0|0:0,0:0:0:0:
348,211,43001,1,0,0:0:0:0:
248,164,43160,2,0,L|447:198,1,201,2|8,0:0|0:0,0:0:0:0:
413,292,43795,1,2,0:0:0:0:
413,292,43953,1,2,0:0:0:0:
347,171,44112,6,0,P|343:138|348:105,1,67,2|0,0:0|0:0,0:0:0:0:
249,86,44429,2,0,P|259:55|277:27,1,67,2|8,0:0|0:0,0:0:0:0:
147,93,44747,2,0,P|156:125|174:153,1,67,2|0,0:0|0:0,0:0:0:0:
258,207,45064,2,0,P|175:255|90:209,1,201,2|10,0:0|0:0,0:0:0:0:
96,74,45699,1,0,0:0:0:0:
115,183,45858,1,0,0:0:0:0:
213,111,46017,6,0,P|277:101|341:137,1,134,6|0,0:0|0:0,0:0:0:0:
295,276,46493,2,0,P|271:252|259:222,1,67,8|0,0:0|0:0,0:0:0:0:
406,210,46810,1,2,0:0:0:0:
419,314,46969,2,0,P|352:308|294:275,1,134,2|0,0:0|0:0,0:0:0:0:
269,155,47445,1,10,0:0:0:0:
361,114,47604,2,0,L|458:100,1,67,2|2,0:0|0:0,0:0:0:0:
256,181,47921,6,0,L|189:190,1,67,2|0,0:0|0:0,0:0:0:0:
200,92,48239,2,0,L|266:82,1,67,2|8,0:0|0:0,0:0:0:0:
107,135,48556,2,0,L|40:144,1,67,2|0,0:0|0:0,0:0:0:0:
249,287,48874,2,0,L|268:155,1,134,2|0,0:0|0:0,0:0:0:0:
88,228,49350,2,0,L|107:360,1,134,8|0,0:0|0:0,0:0:0:0:
246,313,49826,6,0,P|344:307|420:369,1,201,6|8,3:2|3:2,0:0:0:0:
222,174,50779,2,0,P|304:120|401:135,1,201,2|8,3:2|3:2,0:0:0:0:
60,167,51731,6,0,P|42:138|38:105,1,67,2|0,3:2|0:0,0:0:0:0:
38,228,52048,2,0,P|55:199|59:166,1,67,2|8,3:2|0:0,0:0:0:0:
26,292,52366,2,0,P|25:258|37:227,1,67,2|0,3:2|0:0,0:0:0:0:
118,277,52683,2,0,L|184:265,1,67,2|0,3:2|0:0,0:0:0:0:
171,304,53001,2,0,L|237:292,1,67,2|8,3:2|3:2,0:0:0:0:
242,206,53318,2,0,L|309:195,1,67,2|0,3:2|0:0,0:0:0:0:
362,384,53636,6,0,P|392:326|372:264,1,134,6|0,0:0|0:0,0:0:0:0:
223,144,54112,2,0,P|208:174|213:207,1,67,10|2,0:0|0:0,0:0:0:0:
274,288,54429,1,2,0:0:0:0:
371,263,54588,2,0,P|401:203|391:137,1,134,2|0,0:0|0:0,0:0:0:0:
306,85,55064,1,8,0:0:0:0:
223,144,55223,2,0,L|158:125,1,67,2|2,0:0|0:0,0:0:0:0:
57,117,55541,6,0,L|73:181,1,67,2|0,0:0|0:0,0:0:0:0:
164,228,55858,2,0,L|116:275,1,67,2|8,0:0|0:0,0:0:0:0:
56,177,56175,2,0,L|40:113,1,67,2|0,0:0|0:0,0:0:0:0:
189,177,56493,2,0,B|93:271,1,134,2|0,0:0|0:0,0:0:0:0:
165,341,56969,2,0,P|230:338|283:298,1,134,14|0,0:0|0:0,0:0:0:0:
360,234,57445,6,0,P|425:236|478:276,1,134,6|0,0:0|0:0,0:0:0:0:
420,358,57921,2,0,L|354:370,2,67,8|0|0,0:0|0:0|0:0,0:0:0:0:
479,276,58398,2,0,B|465:208|511:218|492:146,1,134,2|0,0:0|0:0,0:0:0:0:
394,121,58874,1,8,0:0:0:0:
428,26,59033,2,0,P|458:12|491:10,1,67,2|2,0:0|0:0,0:0:0:0:
394,121,59350,6,0,P|360:118|330:105,1,67,2|0,0:0|0:0,0:0:0:0:
288,197,59668,2,0,P|260:178|240:151,1,67,2|8,0:0|0:0,0:0:0:0:
158,210,59985,2,0,P|143:179|139:146,1,67,2|0,0:0|0:0,0:0:0:0:
48,104,60302,2,0,P|93:56|158:47,1,134,2|0,0:0|0:0,0:0:0:0:
235,113,60779,1,14,0:0:0:0:
223,212,60937,1,2,0:0:0:0:
126,240,61096,1,2,0:0:0:0:
49,174,61255,6,0,L|115:58,1,134,6|0,0:0|0:0,0:0:0:0:
214,76,61731,2,0,L|181:134,1,67,8|0,0:0|0:0,0:0:0:0:
132,222,62048,1,0,0:0:0:0:
166,316,62207,2,0,P|231:323|286:287,1,134,2|0,0:0|0:0,0:0:0:0:
369,230,62683,1,8,0:0:0:0:
455,281,62842,2,0,B|458:304|458:304|444:345,1,67,2|2,0:0|0:0,0:0:0:0:
369,230,63160,6,0,B|366:207|366:207|379:165,1,67,2|0,0:0|0:0,0:0:0:0:
466,298,63477,2,0,B|469:321|469:321|455:362,1,67,2|8,0:0|0:0,0:0:0:0:
358,213,63795,2,0,B|355:190|355:190|368:148,1,67,2|0,0:0|0:0,0:0:0:0:
486,68,64112,2,0,B|492:114|492:114|464:197,1,134,2|0,0:0|0:0,0:0:0:0:
336,342,64588,2,0,B|330:296|330:296|357:212,1,134,10|0,0:0|0:0,0:0:0:0:
383,100,65064,6,0,P|318:87|264:122,1,134,6|0,0:0|0:0,0:0:0:0:
176,151,65541,2,0,P|240:163|294:128,1,134,8|0,0:0|0:0,0:0:0:0:
433,29,66017,2,0,P|368:16|314:51,1,134,2|0,0:0|0:0,0:0:0:0:
246,195,66493,2,0,P|310:207|364:172,1,134,10|0,0:0|0:0,0:0:0:0:
224,34,66969,6,0,P|221:67|234:97,1,67,2|0,0:0|0:0,0:0:0:0:
160,155,67287,2,0,P|181:179|212:192,1,67,2|8,0:0|0:0,0:0:0:0:
200,285,67604,2,0,P|233:287|263:274,1,67,2|0,0:0|0:0,0:0:0:0:
420,245,67921,6,0,P|389:232|356:234,1,67,2|0,0:0|0:0,0:0:0:0:
351,133,68239,2,0,P|320:145|298:170,1,67,0|10,0:0|0:0,0:0:0:0:
223,102,68556,2,0,P|210:132|212:165,1,67,0|0,0:0|0:0,0:0:0:0:
125,243,68874,6,0,P|179:280|245:280,1,134,6|0,0:0|0:0,0:0:0:0:
343,301,69350,1,10,0:0:0:0:
310,205,69509,1,0,0:0:0:0:
393,149,69668,1,0,0:0:0:0:
354,56,69826,2,0,L|221:78,1,134,2|0,0:0|0:0,0:0:0:0:
122,96,70302,1,8,0:0:0:0:
125,196,70461,2,0,P|157:191|186:173,1,67,0|0,0:0|0:0,0:0:0:0:
280,19,70779,6,0,P|247:23|218:41,1,67,2|0,0:0|0:0,0:0:0:0:
72,54,71096,2,0,P|92:80|121:95,1,67,2|8,0:0|0:0,0:0:0:0:
207,217,71414,2,0,P|219:186|218:152,1,67,2|0,0:0|0:0,0:0:0:0:
24,167,71731,2,0,P|34:232|69:290,1,134,2|0,0:0|0:0,0:0:0:0:
210,261,72207,1,8,0:0:0:0:
156,359,72366,1,0,0:0:0:0:
121,200,72525,1,8,0:0:0:0:
129,375,72683,6,0,B|168:388|168:388|258:366,1,134,6|0,0:0|0:0,0:0:0:0:
316,283,73160,2,0,P|288:263|255:263,1,67,10|0,0:0|0:0,0:0:0:0:
258,365,73477,1,0,0:0:0:0:
358,375,73636,2,0,L|420:352,1,67,2|0,0:0|0:0,0:0:0:0:
411,251,73953,2,0,L|473:228,1,67,2|8,0:0|0:0,0:0:0:0:
302,233,74271,2,0,L|240:256,1,67,2|0,0:0|0:0,0:0:0:0:
372,130,74588,6,0,L|498:85,1,134,2|0,0:0|0:0,0:0:0:0:
407,28,75064,1,8,0:0:0:0:
512,78,75223,1,0,0:0:0:0:
407,28,75382,1,0,0:0:0:0:
309,51,75541,2,0,P|243:62|185:32,1,134,0|0,0:0|0:0,0:0:0:0:
61,51,76017,2,0,P|119:21|185:32,1,134,8|0,0:0|0:0,0:0:0:0:
134,119,76493,6,0,L|159:256,1,134,6|0,0:0|0:0,0:0:0:0:
256,272,76969,1,8,0:0:0:0:
353,250,77128,1,0,0:0:0:0:
256,272,77287,1,0,0:0:0:0:
353,250,77445,2,0,P|442:274|475:336,1,134,2|0,0:0|0:0,0:0:0:0:
375,349,77921,1,8,0:0:0:0:
438,228,78080,2,0,L|502:210,1,67,2|2,0:0|0:0,0:0:0:0:
398,125,78398,6,0,L|333:142,1,67,2|0,0:0|0:0,0:0:0:0:
371,110,78715,2,0,L|388:45,1,67,2|8,0:0|0:0,0:0:0:0:
397,94,79033,2,0,L|444:141,1,67,2|0,0:0|0:0,0:0:0:0:
361,173,79350,6,0,P|329:162|305:139,1,67,2|0,0:0|0:0,0:0:0:0:
331,64,79668,2,0,P|356:42|387:32,1,67,2|8,0:0|0:0,0:0:0:0:
441,98,79985,2,0,P|447:130|439:163,1,67,2|0,0:0|0:0,0:0:0:0:
302,269,80302,6,0,P|289:203|304:138,1,134,6|0,0:0|0:0,0:0:0:0:
387,32,80779,1,8,0:0:0:0:
439,163,80937,1,0,0:0:0:0:
304,138,81096,1,0,0:0:0:0:
387,32,81255,2,0,L|520:19,1,134,6|0,0:0|0:0,0:0:0:0:
439,163,81731,1,8,0:0:0:0:
304,138,81890,1,0,0:0:0:0:
387,32,82048,1,0,0:0:0:0:
460,179,82207,5,2,0:0:0:0:
143,106,84112,6,0,P|204:57|281:67,1,160.799995092774,6|0,1:2|0:0,0:0:0:0:
252,229,84588,2,0,P|234:193|232:154,1,80.3999975463868,8|0,0:0|0:0,0:0:0:0:
364,276,84906,1,0,0:0:0:0:
219,314,85064,2,0,L|232:147,1,160.799995092774,2|0,1:2|0:0,0:0:0:0:
116,115,85541,2,0,L|109:34,1,80.3999975463868,8|0,0:0|0:0,0:0:0:0:
229,21,85858,1,0,0:0:0:0:
196,234,86017,6,0,P|119:251|40:239,1,160.799995092774,6|0,1:2|0:0,0:0:0:0:
165,367,86493,2,0,P|202:352|241:342,1,80.3999975463868,8|0,0:0|0:0,0:0:0:0:
359,369,86810,1,0,0:0:0:0:
165,367,86969,6,0,B|83:388|57:336|57:336|113:306|123:242,1,241.19999263916,6|12,1:2|0:0,0:0:0:0:
359,83,87921,6,0,P|437:140|434:236,1,201.000007667542,6|0,0:0|0:0,0:0:0:0:
278,119,88398,2,0,P|268:80|279:42,1,80.3999975463868,8|0,0:0|0:0,0:0:0:0:
392,0,88715,1,0,0:0:0:0:
353,180,88874,2,0,L|193:158,1,160.799995092774,2|0,1:2|0:0,0:0:0:0:
157,324,89350,2,0,L|236:313,1,80.3999975463868,8|0,0:0|0:0,0:0:0:0:
266,209,89668,1,0,0:0:0:0:
107,133,89826,6,0,P|104:172|117:210,2,80.3999975463868,6|0|0,1:2|0:0|0:0,0:0:0:0:
273,50,90302,2,0,P|285:87|283:127,1,80.3999975463868,8|0,0:0|0:0,0:0:0:0:
138,241,90620,1,0,0:0:0:0:
43,57,90779,2,0,B|157:-6|165:103|272:50,1,241.19999263916,2|8,1:2|0:0,0:0:0:0:
423,112,91414,1,8,0:0:0:0:
292,206,91572,1,8,0:0:0:0:
479,185,91731,6,0,L|461:25,1,160.799995092774,6|0,0:0|0:0,0:0:0:0:
388,227,92207,2,0,L|379:306,1,80.3999975463868,10|0,0:0|0:0,0:0:0:0:
491,354,92525,1,0,0:0:0:0:
379,306,92683,2,0,P|301:297|242:348,1,160.799995092774,2|0,1:2|0:0,0:0:0:0:
127,307,93160,1,8,0:0:0:0:
242,348,93318,1,0,0:0:0:0:
95,294,93477,1,0,0:0:0:0:
213,189,93636,6,0,L|241:347,1,160.799995092774,2|0,1:2|0:0,0:0:0:0:
94,294,94112,2,0,P|55:301|19:319,2,80.3999975463868,8|0|0,0:0|0:0|0:0,0:0:0:0:
271,261,94588,6,0,P|275:120|133:137,1,301.500011501313,6|12,1:2|0:0,0:0:0:0:
181,291,95541,6,0,L|336:331,1,160.799995092774,6|0,1:2|0:0,0:0:0:0:
485,224,96017,2,0,P|446:220|409:235,1,80.3999975463868,8|0,0:0|0:0,0:0:0:0:
462,342,96334,1,0,0:0:0:0:
485,224,96493,2,0,L|460:65,1,160.799995092774,2|0,1:2|0:0,0:0:0:0:
354,7,96969,2,0,L|341:86,1,80.3999975463868,8|0,0:0|0:0,0:0:0:0:
318,205,97287,1,0,0:0:0:0:
193,112,97445,6,0,P|179:75|173:36,2,80.3999975463868,2|2|2,1:2|0:0|0:0,0:0:0:0:
317,224,97921,2,0,P|311:263|296:300,1,80.3999975463868,10|2,0:0|0:0,0:0:0:0:
211,335,98239,1,2,0:0:0:0:
369,364,98398,6,0,L|210:334,1,160.799995092774,8|0,1:2|0:0,0:0:0:0:
82,267,98874,1,8,0:0:0:0:
224,246,99033,1,8,0:0:0:0:
121,346,99191,1,8,0:0:0:0:
144,204,99350,6,0,P|84:179|22:200,1,134,6|0,0:0|0:0,0:0:0:0:
174,101,99826,2,0,P|159:71|157:37,1,67,10|0,0:0|0:0,0:0:0:0:
258,45,100144,1,2,0:0:0:0:
362,160,100302,2,0,L|228:174,1,134,2|0,0:0|0:0,0:0:0:0:
213,265,100779,1,8,0:0:0:0:
293,133,100937,2,0,P|290:99|276:69,1,67,2|2,0:0|0:0,0:0:0:0:
105,179,101255,6,0,P|108:213|122:243,1,67,2|0,0:0|0:0,0:0:0:0:
213,265,101572,2,0,L|277:246,1,67,2|8,0:0|0:0,0:0:0:0:
147,332,101890,2,0,L|82:313,1,67,2|0,0:0|0:0,0:0:0:0:
316,322,102207,2,0,P|360:274|355:210,1,134,2|0,0:0|0:0,0:0:0:0:
278,144,102683,1,10,0:0:0:0:
277,246,102842,1,0,0:0:0:0:
369,205,103001,1,0,0:0:0:0:
323,73,103160,6,0,L|198:121,1,134,6|0,0:0|0:0,0:0:0:0:
139,203,103636,2,0,P|145:236|158:267,2,67,10|0|2,0:0|0:0|0:0,0:0:0:0:
74,125,104112,2,0,P|135:100|197:120,1,134,2|0,0:0|0:0,0:0:0:0:
290,161,104588,1,8,0:0:0:0:
376,109,104747,2,0,L|359:13,1,67,2|2,0:0|0:0,0:0:0:0:
463,166,105064,6,0,L|439:297,1,134,2|2,0:0|0:0,0:0:0:0:
343,266,105541,2,0,L|326:170,1,67,8|2,0:0|0:0,0:0:0:0:
439,297,105858,1,0,0:0:0:0:
363,363,106017,2,0,P|297:356|252:309,1,134,2|0,0:0|0:0,0:0:0:0:
177,242,106493,1,10,0:0:0:0:
343,266,106652,1,0,0:0:0:0:
232,334,106810,1,0,0:0:0:0:
161,219,106969,6,0,L|170:85,1,134,6|0,0:0|0:0,0:0:0:0:
272,20,107445,2,0,P|269:53|255:83,1,67,10|0,0:0|0:0,0:0:0:0:
117,149,107763,1,2,0:0:0:0:
117,149,107921,2,0,P|87:91|109:29,1,134,2|0,0:0|0:0,0:0:0:0:
299,163,108398,1,8,0:0:0:0:
299,163,108556,2,0,P|280:190|252:209,1,67,2|2,0:0|0:0,0:0:0:0:
133,289,108874,6,0,L|66:283,1,67,2|0,0:0|0:0,0:0:0:0:
36,183,109191,2,0,L|103:189,1,67,2|8,0:0|0:0,0:0:0:0:
217,316,109509,2,0,L|151:311,1,67,2|0,0:0|0:0,0:0:0:0:
17,160,109826,2,0,L|28:26,1,134,2|0,0:0|0:0,0:0:0:0:
128,34,110302,2,0,P|136:93|76:95,1,134,10|0,0:0|0:0,0:0:0:0:
76,95,110779,6,0,P|161:45|259:57,1,201,6|8,0:0|0:0,0:0:0:0:
435,288,111731,2,0,P|350:338|252:326,1,201,2|8,0:0|0:0,0:0:0:0:
252,326,112683,6,0,B|237:296|237:296|236:262,1,67,2|0,0:0|0:0,0:0:0:0:
260,58,113001,2,0,B|274:87|274:87|275:121,1,67,2|8,0:0|0:0,0:0:0:0:
236,262,113318,2,0,B|202:259|202:259|173:243,1,67,2|0,0:0|0:0,0:0:0:0:
71,139,113636,2,0,B|89:111|89:111|118:94,1,67,2|0,0:0|0:0,0:0:0:0:
260,58,113953,2,0,L|326:67,2,67,2|8|2,0:0|0:0|0:0,0:0:0:0:
417,149,114588,6,0,L|285:169,1,134,6|0,0:0|0:0,0:0:0:0:
231,252,115064,2,0,P|219:283|225:316,2,67,10|0|2,0:0|0:0|0:0,0:0:0:0:
285,169,115541,2,0,P|290:103|250:52,1,134,2|0,0:0|0:0,0:0:0:0:
152,28,116017,1,8,0:0:0:0:
250,52,116175,2,0,L|314:35,1,67,2|2,0:0|0:0,0:0:0:0:
437,101,116493,6,0,L|373:118,1,67,2|0,0:0|0:0,0:0:0:0:
285,169,116810,2,0,L|220:185,1,67,2|8,0:0|0:0,0:0:0:0:
132,237,117128,2,0,L|67:253,1,67,2|0,0:0|0:0,0:0:0:0:
32,137,117445,2,0,P|26:202|66:253,1,134,2|0,0:0|0:0,0:0:0:0:
126,334,117921,2,0,L|256:302,1,134,12|0,0:0|0:0,0:0:0:0:
318,221,118398,6,0,B|371:204|418:236|418:236|414:264,1,134,6|0,0:0|0:0,0:0:0:0:
349,341,118874,1,8,0:0:0:0:
348,341,119033,2,0,P|315:340|285:327,1,67,2|2,0:0|0:0,0:0:0:0:
180,254,119350,2,0,P|161:316|195:372,1,134,2|0,0:0|0:0,0:0:0:0:
107,322,119826,1,8,0:0:0:0:
107,322,119985,2,0,P|73:322|43:335,1,67,2|2,0:0|0:0,0:0:0:0:
118,228,120302,6,0,L|180:254,1,67,2|0,0:0|0:0,0:0:0:0:
237,175,120620,2,0,L|276:230,1,67,2|8,0:0|0:0,0:0:0:0:
366,193,120937,2,0,L|370:260,1,67,2|0,0:0|0:0,0:0:0:0:
472,359,121255,2,0,L|465:226,1,134,2|0,0:0|0:0,0:0:0:0:
362,126,121731,2,0,L|369:259,1,134,12|0,0:0|0:0,0:0:0:0:
478,198,122207,6,0,P|452:259|395:292,1,134,6|0,0:0|0:0,0:0:0:0:
355,286,122683,2,0,P|323:292|291:283,1,67,10|0,0:0|0:0,0:0:0:0:
230,202,123001,1,2,0:0:0:0:
229,202,123160,2,0,P|268:152|326:175,1,134,2|0,0:0|0:0,0:0:0:0:
291,283,123636,1,10,0:0:0:0:
190,293,123795,2,0,P|161:276|142:249,1,67,2|2,0:0|0:0,0:0:0:0:
45,223,124112,6,0,P|44:189|59:159,1,67,2|0,0:0|0:0,0:0:0:0:
104,70,124429,2,0,P|132:86|151:113,1,67,2|8,0:0|0:0,0:0:0:0:
207,197,124747,2,0,P|178:214|145:216,1,67,2|0,0:0|0:0,0:0:0:0:
150,113,125064,2,0,P|206:77|273:74,1,134,2|0,0:0|0:0,0:0:0:0:
364,118,125541,2,0,P|430:114|486:79,1,134,14|0,0:0|0:0,0:0:0:0:
273,74,126017,6,0,L|311:202,1,134,6|0,0:0|0:0,0:0:0:0:
402,246,126493,2,0,L|363:117,1,134,10|0,0:0|0:0,0:0:0:0:
232,63,126969,2,0,L|270:191,1,134,2|0,0:0|0:0,0:0:0:0:
443,257,127445,2,0,L|404:128,1,134,8|0,0:0|0:0,0:0:0:0:
270,191,127921,6,0,P|241:208|207:214,1,67,2|0,0:0|0:0,0:0:0:0:
173,309,128239,2,0,P|143:292|121:266,1,67,2|8,0:0|0:0,0:0:0:0:
22,283,128556,2,0,P|21:249|32:217,1,67,2|0,0:0|0:0,0:0:0:0:
66,22,128874,2,0,P|95:38|117:64,1,67,2|0,0:0|0:0,0:0:0:0:
216,46,129191,2,0,P|216:79|205:111,1,67,2|8,0:0|0:0,0:0:0:0:
270,191,129509,2,0,P|241:208|207:214,1,67,2|0,0:0|0:0,0:0:0:0:
28,113,129826,6,0,P|89:86|153:100,1,134,6|0,0:0|0:0,0:0:0:0:
204,187,130302,1,10,0:0:0:0:
150,272,130461,1,0,0:0:0:0:
100,184,130620,1,2,0:0:0:0:
153,100,130779,2,0,L|284:72,1,134,2|0,0:0|0:0,0:0:0:0:
284,72,131255,1,8,0:0:0:0:
308,170,131414,2,0,P|274:171|242:162,1,67,2|2,0:0|0:0,0:0:0:0:
380,100,131731,6,0,P|398:127|406:160,1,67,2|0,0:0|0:0,0:0:0:0:
284,72,132048,2,0,P|299:42|322:18,1,67,2|8,0:0|0:0,0:0:0:0:
504,187,132366,2,0,P|488:216|465:240,1,67,2|0,0:0|0:0,0:0:0:0:
322,303,132683,2,0,L|307:169,1,134,2|0,0:0|0:0,0:0:0:0:
296,69,133160,1,10,0:0:0:0:
266,244,133318,1,0,0:0:0:0:
296,69,133477,1,2,0:0:0:0:
183,201,133636,6,0,P|116:205|54:181,1,134,6|0,0:0|0:0,0:0:0:0:
0,96,134112,1,10,0:0:0:0:
100,94,134271,1,0,0:0:0:0:
54,181,134429,1,2,0:0:0:0:
105,267,134588,2,0,L|125:330,1,67,2|0,0:0|0:0,0:0:0:0:
204,267,134906,2,0,L|200:200,1,67,2|8,0:0|0:0,0:0:0:0:
290,312,135223,2,0,L|275:377,1,67,2|0,0:0|0:0,0:0:0:0:
379,275,135541,6,0,P|419:223|411:158,1,134,6|0,0:0|0:0,0:0:0:0:
319,116,136017,2,0,P|291:135|258:142,2,67,10|0|0,0:0|0:0|0:0,0:0:0:0:
378,35,136493,2,0,P|410:41|438:60,2,67,0|0|0,0:0|0:0|0:0,0:0:0:0:
277,30,136969,1,10,0:0:0:0:
182,64,137128,1,0,0:0:0:0:
136,153,137287,1,8,0:0:0:0:
143,250,137445,6,0,B|136:322|211:354|211:354|268:310|246:238|246:238|368:261|434:166,1,479.049978070832,6|2,0:0|0:0,0:0:0:0:
398,81,139350,6,0,L|432:296,1,217.749990032196,6|0,0:0|0:0,0:0:0:0:
432,296,140302,2,0,P|346:285|270:325,1,174.199992025757,2|2,0:0|0:0,0:0:0:0:
178,298,141255,6,0,P|95:301|42:262,1,134,6|0,0:0|0:0,0:0:0:0:
53,275,141731,2,0,L|68:340,2,67,8|0|8,0:0|0:0|0:0,0:0:0:0:
133,179,142207,2,0,P|213:160|255:109,1,134,2|0,0:0|0:0,0:0:0:0:
247,124,142683,2,0,L|232:189,2,67,8|0|8,0:0|0:0|0:0,0:0:0:0:
101,47,143160,5,2,0:0:0:0:
101,47,145064,6,0,L|134:258,1,160.799995092774,6|0,1:2|0:0,0:0:0:0:
41,269,145541,2,0,P|22:233|23:194,1,80.3999975463868,8|0,0:0|0:0,0:0:0:0:
95,130,145858,1,0,0:0:0:0:
224,189,146017,2,0,P|210:265|143:305,1,160.799995092774,2|0,1:2|0:0,0:0:0:0:
258,268,146493,2,0,L|335:244,1,80.3999975463868,8|0,0:0|0:0,0:0:0:0:
511,195,146810,1,0,0:0:0:0:
354,276,146969,6,0,P|325:206|363:132,1,160.799995092774,2|0,1:2|0:0,0:0:0:0:
478,42,147445,2,0,P|475:82|454:116,1,80.3999975463868,8|0,0:0|0:0,0:0:0:0:
285,199,147763,1,0,0:0:0:0:
309,50,147921,6,0,B|237:37|237:37|176:68|176:68|98:27|24:71,1,301.500011501313,6|12,1:2|0:0,0:0:0:0:
39,46,148874,6,0,B|70:92|70:92|55:196,1,160.799995092774,6|0,1:2|0:0,0:0:0:0:
138,272,149350,2,0,L|151:193,1,80.3999975463868,0|0,0:0|0:0,0:0:0:0:
105,106,149668,1,0,0:0:0:0:
170,34,149826,2,0,P|248:21|319:54,1,160.799995092774,2|0,1:2|0:0,0:0:0:0:
404,101,150302,2,0,P|443:102|481:89,2,80.3999975463868,8|0|0,0:0|0:0|0:0,0:0:0:0:
322,151,150779,5,2,1:2:0:0:
406,197,150937,1,0,0:0:0:0:
404,101,151096,1,0,0:0:0:0:
324,247,151255,5,8,0:0:0:0:
408,293,151413,1,0,0:0:0:0:
406,197,151572,1,0,0:0:0:0:
326,343,151731,6,0,B|268:306|191:312|191:312|146:344|96:317,1,241.19999263916,2|8,1:2|0:0,0:0:0:0:
0,223,152366,1,8,0:0:0:0:
139,249,152525,1,8,0:0:0:0:
88,98,152683,6,0,L|247:80,1,160.799995092774,6|0,1:2|0:0,0:0:0:0:
395,2,153160,2,0,L|316:11,1,80.3999975463868,8|0,0:0|0:0,0:0:0:0:
247,80,153477,1,0,0:0:0:0:
404,154,153636,2,0,P|421:76|395:2,1,160.799995092774,2|0,1:2|0:0,0:0:0:0:
303,161,154112,2,0,P|290:198|291:238,1,80.3999975463868,8|0,0:0|0:0,0:0:0:0:
348,341,154429,1,0,0:0:0:0:
442,266,154588,6,0,B|331:225|331:225|290:238,1,160.799995092774,2|0,1:2|0:0,0:0:0:0:
202,278,155064,1,8,0:0:0:0:
162,189,155223,1,0,0:0:0:0:
73,228,155382,1,0,0:0:0:0:
169,358,155541,6,0,B|160:303|191:261|191:261|173:207|173:207|224:158|209:75,1,301.500011501313,6|10,1:2|0:0,0:0:0:0:
181,74,156493,6,0,P|255:97|326:62,1,160.799995092774,6|0,1:2|0:0,0:0:0:0:
257,130,156969,2,0,P|279:222|298:240,1,80.3999975463868,8|0,0:0|0:0,0:0:0:0:
350,155,157287,1,0,0:0:0:0:
471,50,157445,2,0,P|396:26|325:61,1,160.799995092774,2|0,1:2|0:0,0:0:0:0:
255,238,157921,2,0,L|360:256,2,80.3999975463868,8|0|0,0:0|0:0|0:0,0:0:0:0:
114,304,158398,5,2,1:2:0:0:
188,168,158556,1,0,0:0:0:0:
209,324,158715,1,0,0:0:0:0:
102,208,158874,1,8,0:0:0:0:
255,238,159033,1,0,0:0:0:0:
114,304,159191,1,0,0:0:0:0:
188,167,159350,2,0,P|183:89|28:108,1,241.19999263916,2|8,1:2|0:0,0:0:0:0:
279,103,159985,1,8,0:0:0:0:
110,134,160144,1,8,0:0:0:0:
311,212,160302,6,0,L|325:31,1,180.89999447937,6|8,1:2|0:0,0:0:0:0:
507,151,161255,2,0,P|495:234|465:267,1,120.59999631958,2|0,1:2|0:0,0:0:0:0:
509,336,161731,2,0,B|464:350|464:350|391:335,1,120.59999631958,8|0,0:0|0:0,0:0:0:0:
311,237,162207,6,0,B|220:221|229:279|134:248,1,180.89999447937,2|10,1:2|0:0,0:0:0:0:
210,44,163160,2,0,L|342:59,1,120.59999631958,2|0,1:2|0:0,0:0:0:0:
404,97,163636,2,0,L|389:229,1,120.59999631958,8|0,0:0|0:0,0:0:0:0:
386,303,164112,5,4,0:3:0:0:
343,150,164429,1,8,0:3:0:0:
386,303,171731,5,4,0:3:0:0:
343,150,172048,1,8,0:3:0:0:
126,81,175541,5,2,0:0:0:0:
169,234,175858,1,0,0:0:0:0:
256,192,177445,12,8,178874,0:0:0:0:
249,193,179350,6,0,L|228:53,1,140.699995706177,6|0,0:0|0:0,0:0:0:0:
152,88,179826,1,10,0:0:0:0:
229,54,179985,1,0,0:0:0:0:
138,117,180144,2,0,L|161:274,1,140.699995706177,2|0,0:0|0:0,0:0:0:0:
176,338,180620,1,0,0:0:0:0:
255,308,180779,2,0,P|278:227|278:220,2,70.3499978530884,8|0|0,0:0|0:0|0:0,0:0:0:0:
395,321,181255,6,0,L|234:305,1,140.699995706177,6|0,0:0|0:0,0:0:0:0:
296,215,181731,1,10,0:0:0:0:
245,334,181890,1,0,0:0:0:0:
296,215,182048,2,0,L|437:229,1,140.699995706177,2|0,0:0|0:0,0:0:0:0:
377,111,182525,2,0,L|370:181,1,70.3499978530884,0|8,0:0|0:0,0:0:0:0:
294,132,182842,2,0,L|301:62,1,70.3499978530884,0|8,0:0|0:0,0:0:0:0:
425,32,183160,6,0,P|357:22|301:62,1,140.699995706177,6|0,0:0|0:0,0:0:0:0:
175,91,183636,1,10,0:0:0:0:
256,143,183795,1,0,0:0:0:0:
175,91,183953,2,0,P|243:101|300:62,1,140.699995706177,2|0,0:0|0:0,0:0:0:0:
93,60,184429,1,0,0:0:0:0:
93,60,184588,2,0,P|85:94|93:127,2,70.3499978530884,10|0|8,0:0|0:0|0:0,0:0:0:0:
203,139,185064,6,0,L|178:237,1,67,2|0,0:0|0:0,0:0:0:0:
287,195,185382,2,0,L|262:293,1,67,0|8,0:0|0:0,0:0:0:0:
371,251,185699,2,0,L|346:349,1,67,2|0,0:0|0:0,0:0:0:0:
255,381,186017,6,0,L|232:289,1,93.7999971374513,2|0,0:0|0:0,0:0:0:0:
153,329,186334,2,0,L|130:237,1,93.7999971374513,0|8,0:0|0:0,0:0:0:0:
51,277,186652,2,0,L|28:185,1,93.7999971374513,2|0,0:0|0:0,0:0:0:0:
128,102,186969,6,0,P|191:72|261:65,1,140.699995706177,6|0,0:0|0:0,0:0:0:0:
337,30,187445,2,0,P|371:37|403:52,1,70.3499978530884,10|0,0:0|0:0,0:0:0:0:
334,125,187763,2,0,P|271:155|201:162,1,140.699995706177,2|0,0:0|0:0,0:0:0:0:
303,200,188239,1,0,0:0:0:0:
390,234,188398,2,0,P|423:244|458:247,1,70.3499978530884,10|0,0:0|0:0,0:0:0:0:
272,239,188715,1,2,0:0:0:0:
483,209,188874,6,0,L|468:348,1,140.699995706177,2|0,0:0|0:0,0:0:0:0:
345,372,189350,2,0,L|332:302,1,70.3499978530884,10|0,0:0|0:0,0:0:0:0:
470,180,189668,2,0,L|455:319,1,140.699995706177,2|0,0:0|0:0,0:0:0:0:
301,302,190144,1,0,0:0:0:0:
282,220,190302,2,0,L|269:150,1,70.3499978530884,10|0,0:0|0:0,0:0:0:0:
332,302,190620,1,2,0:0:0:0:
237,149,190779,6,0,P|168:152|111:191,1,140.699995706177,6|0,0:0|0:0,0:0:0:0:
155,114,191255,2,0,P|156:78|148:44,1,70.3499978530884,10|0,0:0|0:0,0:0:0:0:
25,240,191572,2,0,P|82:278|151:281,1,140.699995706177,2|0,0:0|0:0,0:0:0:0:
124,149,192048,1,0,0:0:0:0:
70,315,192207,2,0,P|68:350|76:384,1,70.3499978530884,10|0,0:0|0:0,0:0:0:0:
112,180,192525,1,10,0:0:0:0:
168,338,192683,6,0,P|221:348|239:359,3,46.8999985687256,12|0|0|0,0:0|0:0|0:0|0:0,0:0:0:0:
278,288,193001,2,0,P|331:278|349:267,3,46.8999985687256,2|0|8|0,0:0|0:0|0:0|0:0,0:0:0:0:
361,366,193318,2,0,P|409:389|424:404,3,46.8999985687256,8|0|0|0,0:0|0:0|0:0|0:0,0:0:0:0:
467,313,193636,2,0,L|475:266,3,46.8999985687256,2|0|8|0,0:0|0:0|0:0|0:0,0:0:0:0:
393,218,193953,2,0,L|384:171,3,46.8999985687256,8|0|0|0,0:0|0:0|0:0|0:0,0:0:0:0:
478,96,194271,2,0,L|486:49,3,46.8999985687256,0|0|0|0,0:0|0:0|0:0|0:0,0:0:0:0:
310,67,194588,6,0,P|249:36|142:78,1,147.400004498291,6|0,0:0|0:0,0:0:0:0:
102,104,195064,2,0,P|66:102|33:86,2,73.7000022491456,8|0|2,0:0|0:0|0:0,0:0:0:0:
144,182,195541,2,0,L|110:325,1,147.400004498291,2|0,0:0|0:0,0:0:0:0:
175,264,196017,2,0,P|243:237|316:232,1,147.400004498291,8|2,0:0|0:0,0:0:0:0:
452,271,196493,6,0,B|475:178|475:178|458:129,1,147.400004498291,2|0,0:0|0:0,0:0:0:0:
403,59,196969,2,0,P|472:40|488:43,2,73.7000022491456,8|0|0,0:0|0:0|0:0,0:0:0:0:
308,210,197445,2,0,B|292:162|292:162|315:69,1,147.400004498291,2|0,0:0|0:0,0:0:0:0:
255,134,197921,1,8,0:0:0:0:
168,151,198080,1,0,0:0:0:0:
81,131,198239,1,8,0:0:0:0:
22,64,198398,6,0,L|53:254,1,147.400004498291,6|0,0:0|0:0,0:0:0:0:
130,235,198874,2,0,L|118:307,1,73.7000022491456,8|0,0:0|0:0,0:0:0:0:
197,176,199191,1,10,0:0:0:0:
281,203,199350,2,0,P|344:238|415:227,1,147.400004498291,2|0,0:0|0:0,0:0:0:0:
488,176,199826,1,8,0:0:0:0:
337,274,199985,1,0,0:0:0:0:
428,345,200144,2,0,L|473:340,1,36.8500011245728,2|0,0:0|0:0,0:0:0:0:
414,365,200302,6,0,B|348:340|338:382|274:335,1,147.400004498291,2|0,0:0|0:0,0:0:0:0:
203,279,200779,1,8,0:0:0:0:
117,300,200937,1,0,0:0:0:0:
83,382,201096,1,8,0:0:0:0:
114,273,201255,2,0,L|98:194,1,73.7000022491456,2|0,0:0|0:0,0:0:0:0:
99,200,201572,1,2,0:0:0:0:
182,169,201731,2,0,L|198:90,2,73.7000022491456,8|0|8,0:0|0:0|0:0,0:0:0:0:
308,232,202207,5,6,0:0:0:0:
99,113,206017,6,0,L|237:95,2,120.59999631958,6|0|0,0:0|0:0|0:0,0:0:0:0:
297,220,206969,2,0,L|159:202,2,120.59999631958,2|0|0,0:0|0:0|0:0,0:0:0:0:
433,159,207921,6,0,B|452:89|419:42|419:42|370:43|348:71,1,201,2|8,0:0|0:0,0:0:0:0:
354,88,209826,6,0,B|321:116|321:116|246:130|189:70,1,187.599994274903,6|0,1:2|0:0,0:0:0:0:
101,40,210302,2,0,L|119:131,1,93.7999971374513,8|0,0:0|0:0,0:0:0:0:
148,238,210620,1,0,0:0:0:0:
63,223,210779,2,0,L|100:39,1,187.599994274903,2|0,1:2|0:0,0:0:0:0:
119,130,211255,2,0,P|72:129|33:105,1,93.7999971374513,8|0,0:0|0:0,0:0:0:0:
206,61,211572,1,0,0:0:0:0:
228,203,211731,6,0,P|216:291|132:323,1,187.599994274903,2|0,1:2|0:0,0:0:0:0:
225,335,212207,1,8,0:0:0:0:
106,309,212366,1,0,0:0:0:0:
225,335,212525,1,0,0:0:0:0:
32,376,212683,6,0,B|-4:320|20:259|20:259|52:232|52:232|27:123|105:52,1,361.799988958741,4|6,1:2|0:0,0:0:0:0:
87,37,213636,6,0,P|104:120|188:106,1,187.599994274903,6|0,0:0|0:0,0:0:0:0:
301,57,214112,2,0,P|301:103|275:141,1,93.7999971374513,8|0,0:0|0:0,0:0:0:0:
202,200,214429,1,0,0:0:0:0:
223,365,214588,2,0,P|300:321|289:234,1,187.599994274903,2|0,1:2|0:0,0:0:0:0:
202,200,215064,1,8,0:0:0:0:
108,200,215223,2,0,P|81:237|81:283,1,93.7999971374513,0|0,0:0|0:0,0:0:0:0:
196,355,215541,5,6,1:2:0:0:
191,229,215699,1,0,0:0:0:0:
85,297,215858,1,0,0:0:0:0:
209,368,216017,5,8,0:0:0:0:
204,242,216175,1,0,0:0:0:0:
98,310,216334,1,0,0:0:0:0:
222,382,216493,6,0,L|315:372,2,93.7999971374513,10|0|0,1:2|0:0|0:0,0:0:0:0:
297,277,216969,2,0,L|390:286,2,93.7999971374513,8|0|0,0:0|0:0|0:0,0:0:0:0:
371,191,217445,6,0,P|383:145|380:99,1,93.7999971374513,14|0,1:2|0:0,0:0:0:0:
321,25,217763,1,0,0:0:0:0:
221,134,217921,2,0,P|209:179|212:225,1,93.7999971374513,10|0,0:0|0:0,0:0:0:0:
271,300,218239,1,2,0:0:0:0:
371,191,218398,6,0,L|463:177,1,93.7999971374513,14|0,1:2|0:0,0:0:0:0:
429,265,218715,1,0,0:0:0:0:
405,103,218874,2,0,L|312:89,1,93.7999971374513,10|0,0:0|0:0,0:0:0:0:
370,15,219191,1,2,0:0:0:0:
218,44,219350,6,0,P|172:47|130:68,2,93.7999971374513,14|0|0,1:2|0:0|0:0,0:0:0:0:
326,119,219826,1,10,0:0:0:0:
208,174,219985,1,2,0:0:0:0:
315,248,220144,1,10,0:0:0:0:
195,302,220302,6,0,B|86:313|58:348|58:348|19:319|19:319|18:270|18:270|60:248|44:154,1,361.799988958741,6|12,1:2|0:0,0:0:0:0:
41,142,221255,6,0,P|79:167|126:166,1,93.7999971374513,14|0,1:2|0:0,0:0:0:0:
106,74,221572,1,0,0:0:0:0:
217,194,221731,2,0,P|194:234|153:256,1,93.7999971374513,10|0,0:0|0:0,0:0:0:0:
126,166,222048,1,0,0:0:0:0:
87,324,222207,6,0,L|180:342,1,93.7999971374513,10|0,0:0|0:0,0:0:0:0:
270,365,222525,1,0,0:0:0:0:
406,304,222683,2,0,L|499:322,2,93.7999971374513,10|0|2,0:0|0:0|0:0,0:0:0:0:
311,279,223160,5,14,1:2:0:0:
380,209,223318,1,0,0:0:0:0:
406,304,223477,1,0,0:0:0:0:
302,267,223636,5,10,0:0:0:0:
371,197,223794,1,0,0:0:0:0:
397,292,223953,1,0,0:0:0:0:
230,334,224112,6,0,P|202:282|216:225,1,120.59999631958,14|0,1:2|0:0,0:0:0:0:
314,109,224588,1,8,0:0:0:0:
166,144,224747,1,8,0:0:0:0:
306,203,224906,1,8,0:0:0:0:
228,72,225064,6,0,B|315:97|372:49|372:49|397:90,1,201,6|10,0:0|0:0,0:0:0:0:
411,76,226017,2,0,P|419:141|397:204,1,134,2|0,0:0|0:0,0:0:0:0:
336,349,226493,2,0,L|317:217,1,134,10|0,0:0|0:0,0:0:0:0:
214,114,226969,6,0,P|170:201|202:294,1,201,2|10,0:0|0:0,0:0:0:0:
239,101,227921,2,0,L|372:92,1,134,2|0,0:0|0:0,0:0:0:0:
357,172,228398,2,0,L|223:180,1,134,10|0,0:0|0:0,0:0:0:0:
105,173,228874,6,0,P|86:126|78:76,1,100.500003833771,4|0,0:3|0:0,0:0:0:0:
184,50,229350,2,0,P|180:74|175:99,2,50.2500019168854,2|0|0,0:0|0:0|0:0,0:0:0:0:
269,98,229826,2,0,L|368:83,1,100.500003833771,2|0,0:0|0:0,0:0:0:0:
451,119,230302,2,0,P|454:94|459:69,2,50.2500019168854,2|0|0,0:0|0:0|0:0,0:0:0:0:
497,216,230779,6,0,P|496:265|474:310,1,100.500003833771,2|0,0:0|0:0,0:0:0:0:
393,351,231255,1,2,0:0:0:0:
304,330,231414,1,0,0:0:0:0:
256,253,231572,1,2,0:0:0:0:
278,165,231731,5,4,0:3:0:0:
