osu file format v14

[General]
AudioFilename: audio.mp3
AudioLeadIn: 0
PreviewTime: 83953
Countdown: 0
SampleSet: Soft
StackLeniency: 0.2
Mode: 0
LetterboxInBreaks: 0
WidescreenStoryboard: 1

[Editor]
Bookmarks: 23021,68874,159985,194588,231731
DistanceSpacing: 1.3
BeatDivisor: 6
GridSize: 4
TimelineZoom: 1.6

[Metadata]
Title:Incense & Iron
TitleUnicode:Incense & Iron
Artist:Powerwolf
ArtistUnicode:Powerwolf
Creator:Pappy
Version:Hard
Source:
Tags:
BeatmapID:1877619
BeatmapSetID:4

[Difficulty]
HPDrainRate:4
CircleSize:3
OverallDifficulty:7
ApproachRate:8
SliderMultiplier:1.79
SliderTickRate:1

[Events]
//Background and Video events
0,0,"wallhaven-586586.jpg",0,0
//Break Periods
2,137645,138600
2,139550,140505
2,164629,167171
2,168438,170981
2,172248,174791
//Storyboard Layer 0 (Background)
//Storyboard Layer 1 (Fail)
//Storyboard Layer 2 (Pass)
//Storyboard Layer 3 (Foreground)
//Storyboard Layer 4 (Overlay)
//Storyboard Sound Samples

[TimingPoints]
7922,476.190476190476,4,2,1,62,1,0
7922,-133.333333333333,4,2,1,62,0,0
15541,-100,4,2,1,80,0,0
23160,-100,4,2,1,85,0,0
23795,-100,4,2,1,80,0,0
26017,-83.3333333333333,4,2,1,80,0,0
26969,-100,4,2,1,80,0,0
26970,-100,4,2,1,80,0,0
29827,-100,4,2,1,80,0,0
30779,-100,4,2,1,80,0,0
33636,-83.3333333333333,4,2,1,80,0,0
34588,-100,4,2,1,80,0,0
37445,-133.333333333333,4,2,1,80,0,0
37921,-100,4,2,1,80,0,0
38398,-100,4,2,1,80,0,0
82208,-100,4,2,1,80,0,0
82525,-100,4,2,1,80,0,0
82683,-100,4,2,1,80,0,0
83160,-100,4,2,1,80,0,0
83636,-100,4,2,1,80,0,0
83715,-100,4,2,1,5,0,0
83795,-100,4,2,1,80,0,0
83874,-100,4,2,1,5,0,0
83953,-100,4,2,1,80,0,0
84033,-100,4,2,1,5,0,0
84113,-83.3333333333333,4,2,1,90,0,1
86970,-66.6666666666667,4,2,1,90,0,1
87922,-83.3333333333333,4,2,1,90,0,1
91334,-100,4,2,1,5,0,1
91414,-100,4,2,1,90,0,1
91493,-100,4,2,1,5,0,1
91572,-100,4,2,1,90,0,1
91652,-100,4,2,1,5,0,1
91731,-100,4,2,1,90,0,1
94588,-66.6666666666667,4,2,1,90,0,1
95541,-83.3333333333333,4,2,1,90,0,1
98874,-100,4,2,1,90,0,1
98953,-100,4,2,1,5,0,1
99033,-100,4,2,1,90,0,1
99112,-100,4,2,1,5,0,1
99191,-100,4,2,1,90,0,1
99271,-100,4,2,1,5,0,1
99350,-100,4,2,1,80,0,0
137445,-100,4,2,1,80,0,0
141255,-100,4,2,1,80,0,0
143160,-100,4,2,1,80,0,0
143477,-100,4,2,1,80,0,0
143795,-100,4,2,1,80,0,0
144112,-100,4,2,1,80,0,0
144588,-100,4,2,1,80,0,0
144668,-100,4,2,1,5,0,0
144747,-100,4,2,1,80,0,0
144826,-100,4,2,1,5,0,0
144906,-100,4,2,1,80,0,0
144985,-100,4,2,1,5,0,0
145064,-83.3333333333333,4,2,1,90,0,1
147921,-66.6666666666667,4,2,1,90,0,1
148874,-83.3333333333333,4,2,1,90,0,1
152287,-100,4,2,1,5,0,1
152366,-100,4,2,1,90,0,1
152445,-100,4,2,1,5,0,1
152525,-100,4,2,1,90,0,1
152604,-100,4,2,1,5,0,1
152683,-100,4,2,1,90,0,1
155541,-66.6666666666667,4,2,1,90,0,1
156493,-83.3333333333333,4,2,1,90,0,1
159906,-100,4,2,1,5,0,1
159985,-100,4,2,1,90,0,1
160064,-100,4,2,1,5,0,1
160144,-100,4,2,1,90,0,1
160223,-100,4,2,1,5,0,1
160302,-100,4,2,1,90,0,1
164112,-133.333333333333,4,2,1,70,0,0
178874,-100,4,2,1,90,0,0
179350,-95.2380952380952,4,2,1,80,0,0
185064,-100,4,2,1,80,0,0
186969,-100,4,2,1,80,0,0
192683,-100,4,2,1,80,0,0
193318,-100,4,2,1,80,0,0
202207,-142.857142857143,4,2,1,80,0,0
207921,-200,4,2,1,80,0,0
208874,-68.9655172413793,4,2,1,80,0,0
208953,-100,4,2,1,5,0,0
209033,-100,4,2,1,80,0,0
209112,-100,4,2,1,5,0,0
209191,-100,4,2,1,80,0,0
209271,-100,4,2,1,5,0,0
209350,-100,4,2,1,80,0,0
209429,-100,4,2,1,5,0,0
209509,-100,4,2,1,80,0,0
209588,-100,4,2,1,5,0,0
209668,-100,4,2,1,80,0,0
209747,-100,4,2,1,5,0,0
209826,-83.3333333333333,4,2,1,95,0,1
212683,-66.6666666666667,4,2,1,95,0,1
213636,-83.3333333333333,4,2,1,95,0,1
220302,-66.6666666666667,4,2,1,95,0,1
221255,-83.3333333333333,4,2,1,95,0,1
224112,-111.111111111111,4,2,1,95,0,1
224588,-100,4,2,1,95,0,1
224668,-100,4,2,1,5,0,1
224747,-100,4,2,1,95,0,1
224826,-100,4,2,1,5,0,1
224906,-100,4,2,1,95,0,1
224985,-100,4,2,1,5,0,1
225064,-100,4,2,1,90,0,1
228874,-133.333333333333,4,2,1,80,0,0
231810,-100,4,2,1,5,0,0

[Colours]
Combo1 : 214,214,214
Combo2 : 134,49,51

[HitObjects]
41,65,7921,6,0,L|159:48,1,119.333333333333,2|0,0:0|0:0,0:0:0:0:
239,90,8398,2,0,L|283:83,2,44.7500017070771,2|0|0,0:0|0:0|0:0,0:0:0:0:
163,139,8874,2,0,P|152:182|159:226,1,89.5000034141542,2|0,0:0|0:0,0:0:0:0:
183,312,9350,2,0,P|186:333|181:355,2,44.7500017070771,2|2|0,0:0|0:0|0:0,0:0:0:0:
80,268,9826,6,0,L|97:180,1,89.5000034141542,2|0,0:0|0:0,0:0:0:0:
183,154,10302,2,0,L|174:110,2,44.7500017070771,2|0|0,0:0|0:0|0:0,0:0:0:0:
257,205,10779,2,0,L|390:188,1,134.250005121231,2|0,0:0|0:0,0:0:0:0:
390,188,11731,6,0,P|388:232|379:276,1,89.5000034141542,2|0,0:0|0:0,0:0:0:0:
317,340,12207,2,0,P|312:361|311:384,2,44.7500017070771,2|0|0,0:0|0:0|0:0,0:0:0:0:
378,276,12683,2,0,L|465:258,1,89.5000034141542,2|0,0:0|0:0,0:0:0:0:
414,184,13160,2,0,L|370:175,2,44.7500017070771,2|2|0,0:0|0:0|0:0,0:0:0:0:
424,94,13636,6,0,P|414:50|412:5,1,89.5000034141542,2|0,0:0|0:0,0:0:0:0:
502,14,14112,2,0,P|506:35|507:58,1,44.7500017070771,2|0,0:0|0:0,0:0:0:0:
503,147,14429,1,0,0:0:0:0:
417,181,14588,2,0,B|386:181|386:181|366:176|366:176|344:180|275:157|266:97|279:57,1,223.750008535385,2|0,0:0|0:0,0:0:0:0:
363,85,15541,6,0,P|422:87|473:57,1,119.333333333333,2|0,3:2|0:0,0:0:0:0:
437,139,16017,2,0,L|445:198,1,59.6666666666667,2|0,3:2|0:0,0:0:0:0:
461,286,16334,1,0,0:0:0:0:
376,257,16493,2,0,P|317:258|266:228,1,119.333333333333,2|0,3:2|0:0,0:0:0:0:
186,187,16969,1,2,3:2:0:0:
186,187,17128,2,0,L|126:179,1,59.6666666666667,2|0,0:0|0:0,0:0:0:0:
168,100,17445,6,0,L|286:85,1,119.333333333333,2|0,3:2|0:0,0:0:0:0:
352,25,17921,2,0,L|411:32,1,59.6666666666667,2|0,3:2|0:0,0:0:0:0:
500,43,18239,1,0,0:0:0:0:
445,114,18398,6,0,B|426:155|426:155|451:224,1,119.333333333333,2|0,3:2|0:0,0:0:0:0:
363,240,18874,2,0,B|382:281|382:281|356:350,1,119.333333333333,2|0,3:2|0:0,0:0:0:0:
292,286,19350,6,0,P|236:267|180:287,1,119.333333333333,2|0,3:2|0:0,0:0:0:0:
98,323,19826,2,0,P|30:310|19:299,1,59.6666666666667,2|0,3:2|0:0,0:0:0:0:
10,231,20144,1,0,0:0:0:0:
10,231,20302,2,0,L|24:112,1,119.333333333333,2|0,3:2|0:0,0:0:0:0:
8,22,20779,2,0,P|37:20|65:29,2,59.6666666666667,2|2|0,3:2|0:0|0:0,0:0:0:0:
24,112,21255,6,0,L|141:135,1,119.333333333333,2|0,3:2|0:0,0:0:0:0:
216,86,21731,1,2,3:2:0:0:
286,142,21890,1,2,0:2:0:0:
253,225,22048,1,0,0:0:0:0:
164,221,22207,1,2,1:2:0:0:
74,95,23160,6,0,L|192:77,1,119.333333333333,6|0,0:0|0:0,0:0:0:0:
280,62,23636,1,10,0:0:0:0:
249,144,23795,2,0,P|241:173|239:203,1,59.6666666666667,0|0,0:0|0:0,0:0:0:0:
327,186,24112,2,0,L|352:302,1,119.333333333333,2|0,0:0|0:0,0:0:0:0:
436,268,24588,2,0,P|461:254|491:249,1,59.6666666666667,10|2,0:0|0:0,0:0:0:0:
352,302,24906,1,0,0:0:0:0:
314,382,25064,2,0,P|255:371|203:342,1,119.333333333333,2|0,0:0|0:0,0:0:0:0:
115,325,25541,2,0,L|120:384,2,59.6666666666667,8|0|0,0:0|0:0|0:0,0:0:0:0:
127,219,26017,6,0,P|165:308|255:272,1,214.799993444824,6|14,0:0|0:0,0:0:0:0:
255,272,26969,6,0,L|374:263,1,119.333333333333,6|0,0:0|0:0,0:0:0:0:
397,176,27445,2,0,L|339:161,1,59.6666666666667,10|0,0:0|0:0,0:0:0:0:
250,178,27763,1,0,0:0:0:0:
279,91,27921,2,0,P|334:71|391:87,1,119.333333333333,2|0,0:0|0:0,0:0:0:0:
471,127,28398,1,10,0:0:0:0:
475,215,28556,2,0,P|457:239|432:254,1,59.6666666666667,2|2,0:0|0:0,0:0:0:0:
346,283,28874,6,0,L|357:341,2,59.6666666666667,6|2|0,0:0|0:0|0:0,0:0:0:0:
268,238,29350,2,0,L|279:179,2,59.6666666666667,10|2|2,0:0|0:0|0:0,0:0:0:0:
193,287,29826,2,0,B|135:270|135:270|24:312,1,179,6|8,0:0|0:0,0:0:0:0:
35,223,30461,1,8,0:0:0:0:
47,134,30620,1,8,0:0:0:0:
59,44,30779,6,0,P|143:18|228:42,1,179,6|10,0:0|0:0,0:0:0:0:
308,82,31414,2,0,L|299:140,1,59.6666666666667,0|0,0:0|0:0,0:0:0:0:
254,218,31731,2,0,L|228:42,1,179,2|10,0:0|0:0,0:0:0:0:
314,19,32366,1,2,0:0:0:0:
382,77,32525,1,0,0:0:0:0:
446,15,32683,6,0,P|467:99|410:163,1,179,2|10,0:0|0:0,0:0:0:0:
334,211,33318,2,0,P|329:241|334:270,1,59.6666666666667,0|0,0:0|0:0,0:0:0:0:
404,335,33636,6,0,B|330:293|261:352|261:352|207:325,1,214.799993444824,6|14,0:0|0:0,0:0:0:0:
31,364,34588,6,0,L|47:245,1,119.333333333333,6|0,0:0|0:0,0:0:0:0:
114,186,35064,2,0,L|105:126,1,59.6666666666667,10|0,0:0|0:0,0:0:0:0:
82,39,35382,1,0,0:0:0:0:
166,64,35541,2,0,P|219:91|279:91,1,119.333333333333,2|0,0:0|0:0,0:0:0:0:
325,168,36017,2,0,P|298:181|268:181,1,59.6666666666667,10|2,0:0|0:0,0:0:0:0:
279,91,36334,1,0,0:0:0:0:
370,86,36493,6,0,L|428:75,2,59.6666666666667,2|2|2,0:0|0:0|0:0,0:0:0:0:
413,164,36969,2,0,L|471:153,2,59.6666666666667,10|2|2,0:0|0:0|0:0,0:0:0:0:
371,250,37445,6,0,L|239:224,1,134.250005121231,2|8,0:0|0:0,0:0:0:0:
153,197,38080,1,8,0:0:0:0:
171,285,38239,1,8,0:0:0:0:
84,257,38398,5,0,0:0:0:0:
84,257,38874,2,0,L|25:266,2,59.6666666666667,10|0|0,0:0|0:0|0:0,0:0:0:0:
152,197,39350,2,0,P|138:112|59:79,1,179,2|8,0:0|0:0,0:0:0:0:
59,79,39985,1,2,0:0:0:0:
69,168,40144,1,2,0:0:0:0:
86,257,40302,6,0,L|102:375,2,119.333333333333,2|2|2,0:0|0:0|0:0,0:0:0:0:
154,158,41255,2,0,B|240:116|253:173|328:135,1,179,2|10,0:0|0:0,0:0:0:0:
364,53,41890,1,0,0:0:0:0:
417,125,42048,1,0,0:0:0:0:
500,94,42207,5,6,0:0:0:0:
500,94,42683,2,0,P|489:67|485:38,2,59.6666666666667,10|0|0,0:0|0:0|0:0,0:0:0:0:
486,184,43160,2,0,P|461:266|379:290,1,179,2|8,0:0|0:0,0:0:0:0:
379,290,43795,2,0,L|264:295,1,59.6666666666667,2|2,0:0|0:0,0:0:0:0:
345,206,44112,6,0,L|225:200,2,119.333333333333,2|2|2,0:0|0:0|0:0,0:0:0:0:
295,95,45064,2,0,P|245:26|159:30,1,179,2|10,0:0|0:0,0:0:0:0:
207,105,45699,1,0,0:0:0:0:
170,186,45858,1,0,0:0:0:0:
80,190,46017,5,6,0:0:0:0:
80,189,46493,2,0,P|66:216|64:245,2,59.6666666666667,8|0|2,0:0|0:0|0:0,0:0:0:0:
170,186,46969,2,0,P|218:114|172:30,1,179,2|10,0:0|0:0,0:0:0:0:
127,107,47604,2,0,L|68:97,1,59.6666666666667,2|2,0:0|0:0,0:0:0:0:
170,186,47921,6,0,L|287:167,2,119.333333333333,2|2|2,0:0|0:0|0:0,0:0:0:0:
84,269,48874,2,0,P|166:299|251:276,1,179,2|8,0:0|0:0,0:0:0:0:
417,342,49826,6,0,L|395:164,1,179,6|8,3:2|3:2,0:0:0:0:
395,316,50779,2,0,L|373:138,1,179,2|8,3:2|3:2,0:0:0:0:
197,102,51731,5,2,3:2:0:0:
82,68,52048,2,0,P|52:63|22:66,2,59.6666666666667,2|8|2,3:2|0:0|3:2,0:0:0:0:
111,183,52683,1,2,3:2:0:0:
226,217,53000,2,0,P|255:221|285:218,2,59.6666666666667,2|8|2,3:2|3:2|3:2,0:0:0:0:
335,302,53636,6,0,L|308:124,1,179,6|10,0:0|0:0,0:0:0:0:
377,68,54271,2,0,L|363:-20,1,59.6666666666667,2|2,0:0|0:0,0:0:0:0:
283,39,54588,2,0,P|197:56|145:126,1,179,2|8,0:0|0:0,0:0:0:0:
64,185,55223,2,0,P|56:156|54:127,1,59.6666666666667,2|2,0:0|0:0,0:0:0:0:
144,125,55541,6,0,P|163:182|147:238,2,119.333333333333,2|2|2,0:0|0:0|0:0,0:0:0:0:
95,16,56493,2,0,B|151:-6|196:16|196:16|231:2|231:2|267:9,1,179,2|14,0:0|0:0,0:0:0:0:
381,147,57445,2,0,P|423:221|383:298,1,179,6|8,0:0|0:0,0:0:0:0:
331,224,58080,1,0,0:0:0:0:
273,292,58239,1,0,0:0:0:0:
241,207,58398,2,0,P|159:218|144:300,1,179,2|8,0:0|0:0,0:0:0:0:
59,327,59033,2,0,L|49:268,1,59.6666666666667,2|2,0:0|0:0,0:0:0:0:
74,182,59350,6,0,L|55:64,2,119.333333333333,2|2|2,0:0|0:0|0:0,0:0:0:0:
217,187,60302,2,0,L|393:158,1,179,2|14,0:0|0:0,0:0:0:0:
393,157,61255,6,0,P|424:78|371:11,1,179,6|8,0:0|0:0,0:0:0:0:
334,93,61890,2,0,P|305:101|275:104,1,59.6666666666667,0|0,0:0|0:0,0:0:0:0:
189,74,62207,2,0,P|101:79|19:114,1,179,2|8,0:0|0:0,0:0:0:0:
77,183,62842,2,0,L|52:248,1,59.6666666666667,2|2,0:0|0:0,0:0:0:0:
141,264,63160,6,0,L|149:383,2,119.333333333333,2|2|2,0:0|0:0|0:0,0:0:0:0:
275,315,64112,2,0,P|362:315|422:253,1,179,2|10,0:0|0:0,0:0:0:0:
422,253,65064,6,0,B|427:116|427:116|397:85,1,179,6|8,0:0|0:0,0:0:0:0:
187,40,66017,2,0,B|182:177|182:177|211:207,1,179,2|10,0:0|0:0,0:0:0:0:
30,323,66969,5,2,0:0:0:0:
91,193,67287,2,0,L|94:133,2,59.6666666666667,2|8|2,0:0|0:0|0:0,0:0:0:0:
30,323,67921,2,0,L|89:326,1,59.6666666666667,2|0,0:0|0:0,0:0:0:0:
159,260,68239,2,0,L|218:256,1,59.6666666666667,0|10,0:0|0:0,0:0:0:0:
313,247,68556,1,0,0:0:0:0:
419,87,68874,6,0,P|341:46|254:60,1,179,6|10,0:0|0:0,0:0:0:0:
173,112,69509,2,0,P|102:117|78:110,1,59.6666666666667,0|0,0:0|0:0,0:0:0:0:
60,39,69826,2,0,L|96:214,1,179,2|8,0:0|0:0,0:0:0:0:
174,268,70461,2,0,P|169:297|156:323,1,59.6666666666667,0|0,0:0|0:0,0:0:0:0:
62,300,70779,5,2,0:0:0:0:
189,157,71096,1,2,0:0:0:0:
249,338,71414,2,0,P|322:348|334:346,1,59.6666666666667,2|0,0:0|0:0,0:0:0:0:
323,254,71731,2,0,P|401:217|477:257,1,179,2|8,0:0|0:0,0:0:0:0:
400,312,72366,1,0,0:0:0:0:
478,257,72525,1,8,0:0:0:0:
425,178,72683,6,0,B|438:41|438:41|390:0,1,179,6|10,0:0|0:0,0:0:0:0:
339,82,73318,2,0,L|333:141,1,59.6666666666667,0|0,0:0|0:0,0:0:0:0:
264,209,73636,2,0,P|237:156|247:99,2,119.333333333333,2|2|2,0:0|0:0|0:0,0:0:0:0:
295,348,74588,6,0,L|152:312,1,119.333333333333,2|0,0:0|0:0,0:0:0:0:
85,299,75064,2,0,P|82:328|88:357,2,59.6666666666667,8|0|0,0:0|0:0|0:0,0:0:0:0:
9,238,75541,2,0,L|124:208,1,119.333333333333,0|0,0:0|0:0,0:0:0:0:
178,129,76017,2,0,P|180:99|174:70,2,59.6666666666667,8|0|0,0:0|0:0|0:0,0:0:0:0:
86,98,76493,6,0,P|97:13|174:-22,1,179,6|8,0:0|0:0,0:0:0:0:
174,70,77128,2,0,L|233:76,1,59.6666666666667,0|0,0:0|0:0,0:0:0:0:
268,165,77445,2,0,L|445:145,1,179,2|8,0:0|0:0,0:0:0:0:
479,234,78080,2,0,P|469:302|460:319,1,59.6666666666667,2|2,0:0|0:0,0:0:0:0:
403,359,78398,5,2,0:0:0:0:
358,173,78715,1,2,0:0:0:0:
273,344,79033,2,0,L|213:336,1,59.6666666666667,2|0,0:0|0:0,0:0:0:0:
128,379,79350,2,0,P|98:327|89:268,1,119.333333333333,2|2,0:0|0:0,0:0:0:0:
181,244,79826,2,0,L|240:236,2,59.6666666666667,8|2|0,0:0|0:0|0:0,0:0:0:0:
110,179,80302,6,0,L|114:59,1,119.333333333333,6|0,0:0|0:0,0:0:0:0:
207,34,80779,2,0,L|204:93,2,59.6666666666667,8|0|0,0:0|0:0|0:0,0:0:0:0:
299,8,81255,2,0,L|294:127,1,119.333333333333,6|0,0:0|0:0,0:0:0:0:
383,160,81731,2,0,L|385:100,2,59.6666666666667,8|0|0,0:0|0:0|0:0,0:0:0:0:
471,192,82207,5,2,0:0:0:0:
218,257,84112,5,6,1:2:0:0:
301,59,84588,1,8,0:0:0:0:
240,129,84747,1,0,0:0:0:0:
210,41,84906,1,0,0:0:0:0:
149,111,85064,1,2,1:2:0:0:
53,303,85541,1,8,0:0:0:0:
126,246,85699,1,0,0:0:0:0:
218,257,85858,1,0,0:0:0:0:
275,330,86017,5,6,1:2:0:0:
397,153,86493,1,8,0:0:0:0:
486,178,86652,1,0,0:0:0:0:
464,88,86810,1,0,0:0:0:0:
375,63,86969,6,0,L|160:79,2,214.799993444824,6|12|6,1:2|0:0|0:0,0:0:0:0:
216,208,88398,1,8,0:0:0:0:
165,285,88556,1,0,0:0:0:0:
232,350,88715,1,0,0:0:0:0:
308,299,88873,1,2,1:2:0:0:
433,124,89350,1,8,0:0:0:0:
456,33,89508,1,0,0:0:0:0:
366,59,89667,1,0,0:0:0:0:
433,124,89826,6,0,L|485:172,2,71.5999978149415,6|0|0,1:2|0:0|0:0,0:0:0:0:
343,149,90302,2,0,L|290:100,2,71.5999978149415,8|0|0,0:0|0:0|0:0,0:0:0:0:
320,240,90779,2,0,P|194:287|96:253,1,214.799993444824,2|8,1:2|0:0,0:0:0:0:
17,6,91731,5,6,0:0:0:0:
222,68,92207,1,10,0:0:0:0:
309,34,92366,1,0,0:0:0:0:
295,127,92525,1,0,0:0:0:0:
382,93,92683,1,2,1:2:0:0:
291,299,93160,1,8,0:0:0:0:
257,212,93319,1,0,0:0:0:0:
295,127,93478,1,0,0:0:0:0:
382,93,93636,5,2,1:2:0:0:
291,299,94112,1,8,0:0:0:0:
232,372,94271,1,0,0:0:0:0:
140,382,94430,1,0,0:0:0:0:
67,324,94588,6,0,P|51:226|193:130,2,268.500010242463,6|12|6,1:2|0:0|1:2,0:0:0:0:
282,321,96017,1,8,0:0:0:0:
309,239,96175,1,0,0:0:0:0:
366,303,96334,1,0,0:0:0:0:
393,221,96493,1,2,1:2:0:0:
291,31,96969,1,8,0:0:0:0:
325,109,97128,1,0,0:0:0:0:
241,99,97287,1,0,0:0:0:0:
207,21,97445,6,0,P|173:8|138:9,2,71.5999978149415,2|2|2,1:2|0:0|0:0,0:0:0:0:
241,99,97921,2,0,P|274:111|309:114,2,71.5999978149415,10|2|2,0:0|0:0|0:0,0:0:0:0:
155,112,98398,2,0,P|78:173|132:255,1,214.799993444824,8|8,1:2|0:0,0:0:0:0:
429,248,99350,5,6,0:0:0:0:
429,248,99826,2,0,L|434:307,2,59.6666666666667,10|0|2,0:0|0:0|0:0,0:0:0:0:
343,222,100302,2,0,P|322:138|380:76,1,179,2|8,0:0|0:0,0:0:0:0:
409,161,100937,1,2,0:0:0:0:
409,161,101096,1,2,0:0:0:0:
429,248,101255,6,0,L|400:376,2,119.333333333333,2|2|2,0:0|0:0|0:0,0:0:0:0:
450,70,102207,2,0,P|391:67|338:93,1,119.333333333333,2|0,0:0|0:0,0:0:0:0:
259,136,102683,1,10,0:0:0:0:
259,136,102842,2,0,L|269:223,1,59.6666666666667,0|0,0:0|0:0,0:0:0:0:
164,119,103160,5,6,0:0:0:0:
109,322,103636,2,0,P|47:310|30:296,2,59.6666666666667,10|0|2,0:0|0:0|0:0,0:0:0:0:
167,253,104112,2,0,B|267:233|249:294|339:278,1,179,2|8,0:0|0:0,0:0:0:0:
407,219,104747,2,0,P|469:231|486:245,1,59.6666666666667,2|2,0:0|0:0,0:0:0:0:
507,149,105064,6,0,L|489:14,2,119.333333333333,2|2|2,0:0|0:0|0:0,0:0:0:0:
338,87,106017,2,0,L|160:65,1,179,2|10,0:0|0:0,0:0:0:0:
80,107,106652,1,0,0:0:0:0:
95,196,106811,1,0,0:0:0:0:
186,209,106969,5,6,0:0:0:0:
446,273,107445,2,0,L|455:364,2,59.6666666666667,10|0|2,0:0|0:0|0:0,0:0:0:0:
361,243,107921,2,0,L|378:65,1,179,2|8,0:0|0:0,0:0:0:0:
453,14,108556,2,0,P|482:14|511:21,1,59.6666666666667,2|2,0:0|0:0,0:0:0:0:
378,64,108874,6,0,P|318:65|260:51,2,119.333333333333,2|2|2,0:0|0:0|0:0,0:0:0:0:
448,228,109826,2,0,P|367:190|279:198,1,179,2|10,0:0|0:0,0:0:0:0:
46,331,110779,2,0,B|11:218|11:218|33:161,1,179,6|8,0:0|0:0,0:0:0:0:
267,29,111731,2,0,B|302:142|302:142|279:198,1,179,2|8,0:0|0:0,0:0:0:0:
46,331,112683,6,0,B|13:236|13:236|23:195,2,119.333333333333,2|2|2,0:0|0:0|0:0,0:0:0:0:
147,182,113636,2,0,B|114:87|114:87|124:46,2,119.333333333333,2|2|2,0:0|0:0|0:0,0:0:0:0:
286,293,114588,6,0,P|341:269|399:277,1,119.333333333333,6|0,0:0|0:0,0:0:0:0:
486,256,115064,2,0,P|479:318|471:332,2,59.6666666666667,10|0|2,0:0|0:0|0:0,0:0:0:0:
502,167,115541,2,0,P|443:174|389:151,1,119.333333333333,2|0,0:0|0:0,0:0:0:0:
332,82,116017,1,8,0:0:0:0:
332,82,116175,2,0,L|246:88,1,59.6666666666667,2|2,0:0|0:0,0:0:0:0:
240,170,116493,6,0,L|120:161,2,119.333333333333,2|2|2,0:0|0:0|0:0,0:0:0:0:
359,303,117445,2,0,L|180:290,1,179,2|12,0:0|0:0,0:0:0:0:
180,290,118398,6,0,L|359:303,1,179,6|8,0:0|0:0,0:0:0:0:
448,313,119033,2,0,P|510:303|530:305,1,59.6666666666667,2|2,0:0|0:0,0:0:0:0:
497,213,119350,2,0,P|482:125|431:52,1,179,2|8,0:0|0:0,0:0:0:0:
349,90,119985,2,0,P|319:87|290:79,1,59.6666666666667,2|2,0:0|0:0,0:0:0:0:
212,35,120302,6,0,L|246:186,2,119.333333333333,2|2|2,0:0|0:0|0:0,0:0:0:0:
59,130,121255,2,0,L|98:304,1,179,2|12,0:0|0:0,0:0:0:0:
98,304,122207,6,0,L|59:130,1,179,6|10,0:0|0:0,0:0:0:0:
105,53,122842,2,0,L|162:38,1,59.6666666666667,0|2,0:0|0:0,0:0:0:0:
237,89,123160,2,0,B|317:39|331:105|408:58,1,179,2|10,0:0|0:0,0:0:0:0:
493,32,123795,2,0,P|496:61|491:90,1,59.6666666666667,2|2,0:0|0:0,0:0:0:0:
426,152,124112,6,0,P|423:211|444:266,2,119.333333333333,2|2|2,0:0|0:0|0:0,0:0:0:0:
426,152,125064,2,0,P|435:235|363:317,1,179,2|14,0:0|0:0,0:0:0:0:
380,308,126017,6,0,P|433:239|426:152,1,179,6|10,0:0|0:0,0:0:0:0:
380,74,126652,1,0,0:0:0:0:
380,74,126810,1,0,0:0:0:0:
380,74,126969,2,0,B|325:94|325:94|209:59,1,179,2|8,0:0|0:0,0:0:0:0:
60,210,127921,6,0,B|144:192|144:192|135:229,2,119.333333333333,2|2|2,0:0|0:0|0:0,0:0:0:0:
183,79,128874,2,0,B|99:97|99:97|108:60,2,119.333333333333,2|2|2,0:0|0:0|0:0,0:0:0:0:
313,68,129826,6,0,L|253:250,1,179,6|10,0:0|0:0,0:0:0:0:
337,276,130461,2,0,P|347:347|345:359,1,59.6666666666667,0|2,0:0|0:0,0:0:0:0:
258,322,130779,2,0,P|340:247|416:198,1,179,2|8,0:0|0:0,0:0:0:0:
474,158,131414,2,0,P|482:187|485:217,1,59.6666666666667,2|2,0:0|0:0,0:0:0:0:
436,292,131731,5,2,0:0:0:0:
385,120,132048,1,2,0:0:0:0:
262,251,132366,2,0,P|189:264|177:269,1,59.6666666666667,2|0,0:0|0:0,0:0:0:0:
137,319,132683,2,0,P|145:212|91:161,1,179,2|10,0:0|0:0,0:0:0:0:
60,84,133318,1,0,0:0:0:0:
9,158,133477,1,2,0:0:0:0:
99,165,133636,6,0,L|276:144,1,179,6|10,0:0|0:0,0:0:0:0:
312,61,134271,2,0,L|396:78,1,59.6666666666667,0|2,0:0|0:0,0:0:0:0:
435,11,134588,2,0,P|458:93|435:140,2,119.333333333333,2|2|2,0:0|0:0|0:0,0:0:0:0:
273,89,135541,6,0,L|156:65,1,119.333333333333,6|0,0:0|0:0,0:0:0:0:
66,58,136017,2,0,P|80:138|84:146,2,59.6666666666667,10|0|0,0:0|0:0|0:0,0:0:0:0:
156,65,136493,2,0,L|272:88,1,119.333333333333,0|0,0:0|0:0,0:0:0:0:
363,96,136969,2,0,P|349:16|345:8,2,59.6666666666667,10|0|8,0:0|0:0|0:0,0:0:0:0:
410,179,137445,5,6,0:0:0:0:
88,325,139350,5,6,0:0:0:0:
402,205,141255,6,0,L|398:325,1,119.333333333333,6|0,0:0|0:0,0:0:0:0:
305,350,141732,2,0,L|308:291,2,59.6666666666667,8|0|8,0:0|0:0|0:0,0:0:0:0:
213,376,142208,2,0,L|218:257,1,119.333333333333,2|0,0:0|0:0,0:0:0:0:
129,224,142684,2,0,L|127:284,2,59.6666666666667,8|0|8,0:0|0:0|0:0,0:0:0:0:
41,192,143160,5,2,0:0:0:0:
271,110,145064,5,6,1:2:0:0:
103,334,145541,1,8,0:0:0:0:
152,255,145699,1,0,0:0:0:0:
243,234,145858,1,0,0:0:0:0:
322,283,146017,1,2,1:2:0:0:
481,54,146493,1,8,0:0:0:0:
432,133,146651,1,0,0:0:0:0:
341,154,146810,1,0,0:0:0:0:
262,105,146969,5,2,1:2:0:0:
14,234,147445,1,8,0:0:0:0:
62,313,147604,1,0,0:0:0:0:
108,232,147763,1,0,0:0:0:0:
155,310,147921,2,0,B|326:298|326:298|390:225,2,268.500010242463,6|12|6,1:2|0:0|1:2,0:0:0:0:
95,38,149350,5,0,0:0:0:0:
67,127,149509,1,0,0:0:0:0:
40,216,149668,1,0,0:0:0:0:
13,305,149826,1,2,1:2:0:0:
193,376,150302,1,8,0:0:0:0:
165,287,150461,1,0,0:0:0:0:
138,198,150620,1,0,0:0:0:0:
111,109,150779,6,0,P|126:30|136:12,2,71.5999978149415,2|0|0,1:2|0:0|0:0,0:0:0:0:
202,88,151255,2,0,P|254:27|272:16,2,71.5999978149415,8|0|0,0:0|0:0|0:0,0:0:0:0:
291,114,151731,2,0,P|323:253|296:321,1,214.799993444824,2|8,1:2|0:0,0:0:0:0:
49,302,152683,5,6,1:2:0:0:
194,63,153160,1,8,0:0:0:0:
276,17,153318,1,0,0:0:0:0:
370,20,153477,1,0,0:0:0:0:
444,77,153635,1,2,1:2:0:0:
309,322,154112,1,8,0:0:0:0:
272,235,154271,1,0,0:0:0:0:
186,272,154429,1,0,0:0:0:0:
222,358,154588,5,2,1:2:0:0:
71,123,155064,1,8,0:0:0:0:
108,210,155223,1,0,0:0:0:0:
194,173,155381,1,0,0:0:0:0:
158,87,155541,2,0,L|141:374,2,268.500010242463,6|10|6,1:2|0:0|1:2,0:0:0:0:
417,190,156969,5,8,0:0:0:0:
418,283,157128,1,0,0:0:0:0:
330,311,157287,1,0,0:0:0:0:
275,237,157445,1,2,1:2:0:0:
7,156,157921,1,8,0:0:0:0:
7,63,158080,1,0,0:0:0:0:
94,36,158239,1,0,0:0:0:0:
149,109,158398,6,0,L|130:212,2,71.5999978149415,2|0|0,1:2|0:0|0:0,0:0:0:0:
241,98,158874,2,0,L|222:201,2,71.5999978149415,8|0|0,0:0|0:0|0:0,0:0:0:0:
333,87,159350,2,0,L|288:327,1,214.799993444824,2|8,1:2|0:0,0:0:0:0:
294,298,160302,6,0,P|410:258|506:274,1,214.799993444824,6|8,1:2|0:0,0:0:0:0:
218,86,161255,2,0,P|102:126|6:110,1,214.799993444824,2|8,1:2|0:0,0:0:0:0:
197,322,162207,5,2,1:2:0:0:
315,62,162683,1,10,0:0:0:0:
306,325,163160,1,2,1:2:0:0:
205,58,163636,1,8,0:0:0:0:
379,205,164112,6,0,P|421:193|466:198,1,89.5000034141542,4|8,0:3|0:3,0:0:0:0:
133,179,167921,6,0,P|90:190|45:185,1,89.5000034141542,0|0,0:0|0:0,0:0:0:0:
261,148,171731,6,0,L|249:236,1,89.5000034141542,4|8,0:3|0:3,0:0:0:0:
256,192,175541,12,2,178398,0:0:0:0:
72,107,179350,6,0,L|240:91,1,125.299996176148,6|0,0:0|0:0,0:0:0:0:
256,36,179826,1,10,0:0:0:0:
256,36,179985,1,0,0:0:0:0:
315,95,180144,2,0,L|440:107,1,125.299996176148,2|0,0:0|0:0,0:0:0:0:
487,173,180620,1,0,0:0:0:0:
449,245,180779,2,0,P|470:321|482:335,1,62.6499980880738,8|0,0:0|0:0,0:0:0:0:
409,369,181096,1,0,0:0:0:0:
350,312,181255,6,0,L|208:298,1,125.299996176148,6|0,0:0|0:0,0:0:0:0:
144,291,181731,1,10,0:0:0:0:
144,291,181890,1,0,0:0:0:0:
154,210,182048,2,0,L|12:196,1,125.299996176148,2|0,0:0|0:0,0:0:0:0:
41,116,182525,1,0,0:0:0:0:
108,71,182683,2,0,P|86:0|81:-7,2,62.6499980880738,8|0|8,0:0|0:0|0:0,0:0:0:0:
187,51,183160,6,0,P|202:151|217:184,1,125.299996176148,6|0,0:0|0:0,0:0:0:0:
256,240,183636,1,10,0:0:0:0:
256,240,183795,1,0,0:0:0:0:
300,172,183953,2,0,P|320:113|325:51,1,125.299996176148,2|0,0:0|0:0,0:0:0:0:
397,12,184429,1,0,0:0:0:0:
441,80,184588,2,0,L|510:100,1,62.6499980880738,10|0,0:0|0:0,0:0:0:0:
395,151,184906,1,8,0:0:0:0:
443,216,185064,6,0,B|426:310|426:310|361:331,2,125.299996176148,2|0|2,0:0|0:0|0:0,0:0:0:0:
285,170,186017,2,0,B|302:76|302:76|367:55,2,125.299996176148,2|0|2,0:0|0:0|0:0,0:0:0:0:
193,304,186969,6,0,P|198:212|121:172,1,187.949994264221,6|10,0:0|0:0,0:0:0:0:
128,253,187604,1,0,0:0:0:0:
54,218,187763,2,0,P|44:145|81:101,1,125.299996176148,2|0,0:0|0:0,0:0:0:0:
153,96,188239,1,0,0:0:0:0:
107,30,188398,2,0,L|44:22,2,62.6499980880738,10|0|2,0:0|0:0|0:0,0:0:0:0:
152,95,188874,6,0,P|243:111|318:59,1,187.949994264221,2|10,0:0|0:0,0:0:0:0:
397,40,189509,1,0,0:0:0:0:
456,95,189668,2,0,B|469:135|469:135|440:213,1,125.299996176148,2|0,0:0|0:0,0:0:0:0:
388,275,190144,1,0,0:0:0:0:
373,354,190302,2,0,P|404:355|432:343,2,62.6499980880738,10|0|2,0:0|0:0|0:0,0:0:0:0:
311,299,190779,6,0,P|217:293|130:326,1,187.949994264221,6|10,0:0|0:0,0:0:0:0:
69,380,191414,1,0,0:0:0:0:
69,380,191572,2,0,L|87:256,1,125.299996176148,2|0,0:0|0:0,0:0:0:0:
143,196,192048,1,0,0:0:0:0:
63,176,192207,2,0,L|53:114,2,62.6499980880738,10|0|10,0:0|0:0|0:0,0:0:0:0:
256,192,192683,12,0,194112,0:0:0:0:
51,139,194588,6,0,B|107:107|168:135|168:135|222:97|222:97|296:115,1,250.599992352295,6|0,0:0|0:0,0:0:0:0:
350,65,195382,2,0,P|354:153|274:192,2,187.949994264221,2|0|2,0:0|0:0|0:0,0:0:0:0:
281,111,196493,2,0,B|255:150|261:198|261:198|314:238|316:304|276:362|208:351,2,313.249990440369,2|0|0,0:0|0:0|0:0,0:0:0:0:
350,65,198239,1,8,0:0:0:0:
427,84,198398,6,0,B|414:141|370:172|243:173|283:107|320:39|192:31|144:84|139:129,1,375.899988528443,6|2,0:0|0:0,0:0:0:0:
132,152,200144,2,0,L|144:207,2,31.3249990440369,2|0|2,0:0|0:0|0:0,0:0:0:0:
32,280,202207,6,0,B|117:305|194:263|194:263|315:292|315:292|425:277|425:277|501:339,2,501.19998470459,6|2|6,0:0|0:0|0:0,0:0:0:0:
64,177,206334,2,0,P|46:139|38:98,1,83.5333307840984,0|0,0:0|0:0,0:0:0:0:
122,29,206969,2,0,P|139:66|147:107,2,83.5333307840984,2|0|0,0:0|0:0|0:0,0:0:0:0:
38,98,207921,6,0,B|27:131|27:131|38:157|38:157|16:179|16:179|28:218|28:218|20:261,1,179,2|8,0:0|0:0,0:0:0:0:
36,284,209826,5,6,1:2:0:0:
56,311,210302,1,8,0:0:0:0:
146,289,210461,1,0,0:0:0:0:
236,267,210620,1,0,0:0:0:0:
326,245,210779,1,2,1:2:0:0:
483,164,211255,5,8,0:0:0:0:
393,142,211414,1,0,0:0:0:0:
303,120,211573,1,0,0:0:0:0:
213,98,211732,5,2,1:2:0:0:
240,317,212207,1,8,0:0:0:0:
279,232,212366,1,0,0:0:0:0:
233,152,212525,1,0,0:0:0:0:
272,67,212683,6,0,P|360:48|494:164,2,268.500010242463,4|6|6,1:2|0:0|0:0,0:0:0:0:
72,195,214112,1,8,0:0:0:0:
30,277,214271,1,0,0:0:0:0:
108,322,214429,1,0,0:0:0:0:
154,241,214588,5,2,1:2:0:0:
323,93,215064,1,8,0:0:0:0:
365,175,215223,1,0,0:0:0:0:
287,220,215381,1,0,0:0:0:0:
241,139,215541,6,0,L|170:150,2,71.5999978149415,6|0|0,1:2|0:0|0:0,0:0:0:0:
242,45,216017,2,0,L|171:56,2,71.5999978149415,8|0|0,0:0|0:0|0:0,0:0:0:0:
319,97,216493,2,0,L|389:108,2,71.5999978149415,10|0|0,1:2|0:0|0:0,0:0:0:0:
318,191,216969,2,0,L|388:202,2,71.5999978149415,8|0|0,0:0|0:0|0:0,0:0:0:0:
257,261,217445,5,14,1:2:0:0:
115,358,217921,1,10,0:0:0:0:
37,306,218080,1,0,0:0:0:0:
18,214,218239,1,2,0:0:0:0:
70,137,218398,1,14,1:2:0:0:
213,40,218874,1,10,0:0:0:0:
289,92,219033,1,0,0:0:0:0:
308,183,219191,1,2,0:0:0:0:
257,261,219350,5,14,1:2:0:0:
125,330,219826,1,10,0:0:0:0:
152,241,219985,1,2,0:0:0:0:
179,152,220144,1,10,0:0:0:0:
206,62,220302,6,0,P|336:48|438:130,2,268.500010242463,6|12|14,1:2|0:0|1:2,0:0:0:0:
438,130,221731,1,10,0:0:0:0:
364,187,221890,1,0,0:0:0:0:
374,279,222048,1,0,0:0:0:0:
448,222,222207,1,10,0:0:0:0:
354,95,222683,1,10,0:0:0:0:
280,152,222842,1,0,0:0:0:0:
290,244,223000,1,2,0:0:0:0:
363,187,223160,2,0,P|369:151|362:116,2,71.5999978149415,14|0|0,1:2|0:0|0:0,0:0:0:0:
290,244,223636,2,0,P|284:279|291:314,2,71.5999978149415,10|0|0,0:0|0:0|0:0,0:0:0:0:
363,187,224112,6,0,P|335:76|170:121,1,322.199990167237,14|6,1:2|0:0,0:0:0:0:
170,119,225541,5,10,0:0:0:0:
54,321,226017,2,0,P|138:291|227:296,1,179,2|10,0:0|0:0,0:0:0:0:
441,206,226969,2,0,P|352:213|268:185,1,179,2|10,0:0|0:0,0:0:0:0:
40,109,227921,1,2,0:0:0:0:
132,214,228398,1,10,0:0:0:0:
256,45,228874,5,4,0:3:0:0:
256,192,228953,12,4,231731,0:3:0:0:
