osu file format v14

[General]
AudioFilename: audio.mp3
AudioLeadIn: 0
PreviewTime: -1
Countdown: 0
SampleSet: Normal
StackLeniency: 0.9
Mode: 0
LetterboxInBreaks: 0
WidescreenStoryboard: 1

[Editor]
Bookmarks: 13490,26641,39441,52241,65041,77841,90641,103441,128793,143564,166577,179381
DistanceSpacing: 2.3
BeatDivisor: 4
GridSize: 8
TimelineZoom: 1.4

[Metadata]
Title:In the Name of God
TitleUnicode:In the Name of God
Artist:Powerwolf
ArtistUnicode:Powerwolf
Creator:TheCrash
Version:Test
Source:
Tags:
BeatmapID:1622424
BeatmapSetID:753649

[Difficulty]
HPDrainRate:7
CircleSize:4.3
OverallDifficulty:7
ApproachRate:9.2
SliderMultiplier:2
SliderTickRate:1

[Events]
//Background and Video events
0,0,"maxresdefault-1.jpg",0,0
//Break Periods
//Storyboard Layer 0 (Background)
//Storyboard Layer 1 (Fail)
//Storyboard Layer 2 (Pass)
//Storyboard Layer 3 (Foreground)
//Storyboard Sound Samples

[TimingPoints]
340,410.958904109589,4,1,0,70,1,0
340,-66.6666666666667,4,1,0,70,0,0
3011,-55.5555555555556,4,1,0,70,0,0
3833,-66.6666666666667,4,1,0,70,0,0
9586,-55.5555555555556,4,1,0,70,0,0
10408,-66.6666666666667,4,1,0,70,0,0
13490,-100,4,1,0,70,0,1
18216,-66.6666666666667,4,1,0,70,0,1
20887,-100,4,1,0,70,0,1
26641,400,4,1,0,70,1,0
103441,422.535211267606,4,1,0,70,1,0
130422,408.163265306122,4,1,0,70,1,0
143564,410.958904109589,4,1,0,70,1,0
166581,400,4,1,0,70,1,0

[Colours]
Combo1 : 255,255,255
Combo2 : 255,0,0
Combo3 : 192,192,192
Combo4 : 128,0,0

[HitObjects]
92,162,340,5,0,0:0:0:0:
196,69,545,2,0,P|228:58|274:61,1,75.0000028610231
326,82,750,1,0,0:0:0:0:
388,218,956,1,0,0:0:0:0:
294,334,1161,1,0,0:0:0:0:
124,150,1367,2,4,L|124:311,1,150.000005722046
201,203,1778,2,4,L|38:203,1,150.000005722046
40,347,2189,6,0,P|73:364|110:367,1,75.0000028610231
164,345,2394,1,0,0:0:0:0:
316,222,2600,1,0,0:0:0:0:
249,39,2805,1,0,0:0:0:0:
90,14,3011,2,4,L|90:203,1,179.999994506836
179,75,3422,2,4,L|-21:74,1,179.999994506836
139,224,3833,6,0,P|142:186|159:153,1,75.0000028610231
207,119,4038,1,0,0:0:0:0:
410,21,4244,1,0,0:0:0:0:
452,241,4449,1,0,0:0:0:0:
236,175,4655,1,0,0:0:0:0:
392,336,4860,1,0,0:0:0:0:
461,121,5066,1,0,0:0:0:0:
256,29,5271,1,0,0:0:0:0:
61,72,5476,5,8,0:0:0:0:
48,98,5578,1,8,0:0:0:0:
44,128,5681,1,8,0:0:0:0:
49,157,5784,1,8,0:0:0:0:
64,183,5886,1,8,0:0:0:0:
86,204,5989,1,8,0:0:0:0:
184,126,6093,1,4,0:0:0:0:
277,212,6298,5,8,0:0:0:0:
289,238,6400,1,8,0:0:0:0:
293,268,6503,1,8,0:0:0:0:
288,297,6606,1,8,0:0:0:0:
273,323,6708,1,8,0:0:0:0:
251,344,6811,1,8,0:0:0:0:
164,255,6915,1,4,0:0:0:0:
316,69,7120,6,0,P|284:58|238:61,1,75.0000028610231
186,82,7324,1,0,0:0:0:0:
124,218,7530,1,0,0:0:0:0:
272,200,7735,1,0,0:0:0:0:
89,27,7941,2,4,L|89:188,1,150.000005722046
12,80,8352,2,4,L|175:80,1,150.000005722046
192,293,8764,6,0,P|227:304|264:302,1,75.0000028610231
323,280,8968,1,0,0:0:0:0:
413,105,9175,1,0,0:0:0:0:
483,287,9381,1,0,0:0:0:0:
274,75,9586,2,4,L|274:267,1,179.999994506836
182,129,9997,2,4,L|371:129,1,179.999994506836
89,110,10408,6,0,P|83:146|91:183,1,75.0000028610231
122,237,10612,1,0,0:0:0:0:
265,61,10819,1,0,0:0:0:0:
272,285,11024,1,0,0:0:0:0:
416,111,11230,1,0,0:0:0:0:
472,328,11435,2,0,P|382:350|315:336,1,150.000005722046
146,297,11846,5,8,0:0:0:0:
121,279,11948,1,0,0:0:0:0:
104,255,12051,1,0,0:0:0:0:
97,226,12154,1,0,0:0:0:0:
100,196,12257,2,0,P|124:150|169:130,1,75.0000028610231
287,31,12463,5,8,0:0:0:0:
311,49,12565,1,0,0:0:0:0:
328,73,12668,1,0,0:0:0:0:
335,102,12771,1,0,0:0:0:0:
332,132,12874,2,0,P|308:178|263:198,1,75.0000028610231
169,110,13079,1,4,0:0:0:0:
33,208,13490,5,8,0:0:0:0:
37,239,13592,1,0,0:0:0:0:
51,268,13695,1,0,0:0:0:0:
71,293,13798,1,0,0:0:0:0:
97,312,13900,1,8,0:0:0:0:
127,323,14003,1,0,0:0:0:0:
159,326,14106,1,0,0:0:0:0:
191,320,14209,1,0,0:0:0:0:
280,183,14312,6,0,L|328:205,1,50,8|0,0:0|0:0,0:0:0:0:
373,332,14518,2,0,L|327:352,1,50
436,212,14723,2,0,L|481:190,1,50,8|0,0:0|0:0,0:0:0:0:
396,84,14929,2,0,L|350:62,1,50
190,34,15134,5,8,0:0:0:0:
158,39,15236,1,0,0:0:0:0:
129,53,15339,1,0,0:0:0:0:
104,73,15442,1,0,0:0:0:0:
85,99,15544,1,8,0:0:0:0:
74,129,15647,1,0,0:0:0:0:
71,161,15750,1,0,0:0:0:0:
77,193,15853,1,0,0:0:0:0:
212,188,15956,6,0,L|260:215,1,50,8|0,0:0|0:0,0:0:0:0:
343,316,16161,2,0,L|297:336,1,50
169,384,16367,2,0,L|124:362,1,50,8|0,0:0|0:0,0:0:0:0:
40,256,16572,2,0,L|83:231,1,50
223,122,16778,5,8,0:0:0:0:
250,114,16880,1,0,0:0:0:0:
273,98,16983,1,0,0:0:0:0:
288,74,17086,1,0,0:0:0:0:
298,47,17188,1,8,0:0:0:0:
316,24,17291,1,0,0:0:0:0:
340,11,17394,1,0,0:0:0:0:
369,9,17497,1,0,0:0:0:0:
398,17,17600,5,8,0:0:0:0:
439,29,17702,1,0,0:0:0:0:
474,57,17805,1,0,0:0:0:0:
494,98,17908,1,0,0:0:0:0:
496,144,18010,1,8,0:0:0:0:
481,185,18113,1,0,0:0:0:0:
449,217,18216,2,0,P|428:235|373:250,1,75.0000028610231
217,225,18422,5,8,0:0:0:0:
179,216,18525,1,0,0:0:0:0:
144,200,18627,1,0,0:0:0:0:
118,171,18730,1,0,0:0:0:0:
101,136,18833,2,0,P|93:111|105:58,1,75.0000028610231
250,117,19038,5,8,0:0:0:0:
288,126,19141,1,0,0:0:0:0:
323,142,19243,1,0,0:0:0:0:
349,171,19346,1,0,0:0:0:0:
366,206,19449,2,0,P|373:230|361:283,1,75.0000028610231
244,384,19655,5,8,0:0:0:0:
206,377,19758,1,0,0:0:0:0:
174,355,19860,2,0,P|158:335|151:281,1,75.0000028610231
177,117,20066,5,12,0:0:0:0:
170,75,20168,1,0,0:0:0:0:
145,40,20271,1,0,0:0:0:0:
107,22,20374,1,0,0:0:0:0:
64,24,20476,1,8,0:0:0:0:
27,45,20579,1,0,0:0:0:0:
5,81,20682,1,0,0:0:0:0:
2,123,20785,1,0,0:0:0:0:
81,231,20887,6,0,L|108:272,1,50,8|0,0:0|0:0,0:0:0:0:
210,147,21093,2,0,L|237:106,1,50
305,271,21298,2,0,L|332:312,1,50,8|0,0:0|0:0,0:0:0:0:
396,164,21504,2,0,L|423:123,1,50
303,32,21709,5,8,0:0:0:0:
271,37,21811,1,0,0:0:0:0:
242,51,21914,1,0,0:0:0:0:
217,71,22017,1,0,0:0:0:0:
198,97,22119,1,8,0:0:0:0:
187,127,22222,1,0,0:0:0:0:
184,159,22325,1,0,0:0:0:0:
190,191,22428,1,0,0:0:0:0:
348,24,22531,6,0,L|402:-7,1,50,8|0,0:0|0:0,0:0:0:0:
369,139,22737,2,0,L|430:129,1,50
369,245,22942,2,0,L|430:255,1,50,8|0,0:0|0:0,0:0:0:0:
348,360,23148,2,0,L|402:391,1,50
166,341,23353,5,8,0:0:0:0:
153,334,23455,1,0,0:0:0:0:
141,326,23558,1,0,0:0:0:0:
130,317,23661,1,0,0:0:0:0:
120,307,23764,1,8,0:0:0:0:
111,296,23866,1,0,0:0:0:0:
104,283,23969,1,0,0:0:0:0:
98,270,24072,1,0,0:0:0:0:
100,141,24175,6,0,L|148:100,1,50,8|0,0:0|0:0,0:0:0:0:
312,165,24381,2,0,L|263:180,1,50
333,15,24586,2,0,L|391:-4,1,50,8|0,0:0|0:0,0:0:0:0:
508,83,24792,2,0,L|458:122,1,50
328,286,24997,5,8,0:0:0:0:
280,303,25099,1,8,0:0:0:0:
230,309,25202,1,8,0:0:0:0:
181,303,25305,1,8,0:0:0:0:
134,286,25407,1,8,0:0:0:0:
93,258,25510,1,8,0:0:0:0:
59,221,25613,1,8,0:0:0:0:
36,178,25716,1,8,0:0:0:0:
22,130,25818,1,8,0:0:0:0:
