osu file format v14

[General]
AudioFilename: audio.mp3
AudioLeadIn: 0
PreviewTime: -1
Countdown: 1
SampleSet: Soft
StackLeniency: 0.7
Mode: 0
LetterboxInBreaks: 0
WidescreenStoryboard: 0

[Editor]
Bookmarks: 340,13490,26641,39041,52241,65041,77441,90641,103441,130422,143564,166581,179381
DistanceSpacing: 1.4
BeatDivisor: 4
GridSize: 8
TimelineZoom: 1.9

[Metadata]
Title:In the Name of God
TitleUnicode:In the Name of God
Artist:Powerwolf
ArtistUnicode:Powerwolf
Creator:TheCrash
Version:March
Source:
Tags:
BeatmapID:1586692
BeatmapSetID:753649

[Difficulty]
HPDrainRate:8
CircleSize:4
OverallDifficulty:8
ApproachRate:8
SliderMultiplier:1
SliderTickRate:1

[Events]
//Background and Video events
0,0,"maxresdefault-1.jpg",0,0
//Break Periods
//Storyboard Layer 0 (Background)
//Storyboard Layer 1 (Fail)
//Storyboard Layer 2 (Pass)
//Storyboard Layer 3 (Foreground)
//Storyboard Sound Samples

[TimingPoints]
340,410.958904109589,4,2,0,80,1,0
340,-62.5,4,2,0,80,0,0
5271,-71.4285714285714,4,2,0,80,0,0
7531,-62.5,4,2,0,80,0,0
15339,-55.5555555555556,4,2,0,80,0,0
26641,400,4,2,0,80,1,0
26641,-71.4285714285714,4,2,0,80,0,0
31441,-76.9230769230769,4,2,0,80,0,0
33041,-71.4285714285714,4,2,0,80,0,0
37841,-76.9230769230769,4,2,0,80,0,0
41041,-66.6666666666667,4,2,0,80,0,0
42641,-76.9230769230769,4,2,0,80,0,0
47841,-66.6666666666667,4,2,0,80,0,0
49041,-76.9230769230769,4,2,0,80,0,0
53241,-62.5,4,2,0,80,0,0
65041,-71.4285714285714,4,2,0,80,0,0
77441,-66.6666666666667,4,2,0,80,0,0
81041,-76.9230769230769,4,2,0,80,0,0
84041,-66.6666666666667,4,2,0,80,0,0
87441,-76.9230769230769,4,2,0,80,0,0
91241,-62.5,4,2,0,80,0,0
103441,422.535211267606,4,2,0,100,1,0
103441,-83.3333333333333,4,2,0,100,0,0
128724,408.163265306122,4,2,0,100,1,0
130422,408.163265306122,4,2,0,100,1,0
133891,-55.5555555555556,4,2,0,100,0,0
143564,410.958904109589,4,2,0,100,1,0
146851,-71.4285714285714,4,2,0,100,0,0
166581,400,4,2,0,100,1,0
168181,-55.5555555555556,4,2,0,100,0,0
182581,-71.4285714285714,4,2,0,100,0,0

[Colours]
Combo1 : 255,255,255
Combo2 : 255,0,0
Combo3 : 192,192,192
Combo4 : 128,0,0

[HitObjects]
176,240,340,5,8,3:3:0:0:
208,160,545,1,0,3:3:0:0:
232,136,648,1,0,3:3:0:0:
264,128,750,1,0,3:3:0:0:
344,120,956,2,0,P|376:152|392:192,1,80,0|0,3:3|3:3,3:3:0:0:
344,272,1367,6,8,L|344:352,2,80,8|8|8,3:3|3:3|3:3,3:3:0:0:
264,264,1983,1,8,3:3:0:0:
192,264,2189,6,0,L|192:320,2,40,0|0|0,3:3|3:3|3:3,3:3:0:0:
112,272,2600,2,0,P|72:272|24:248,1,80,0|0,3:3|3:3,3:3:0:0:
8,192,3011,5,8,3:3:0:0:
48,120,3216,1,8,3:3:0:0:
128,96,3422,1,8,3:3:0:0:
200,128,3627,1,8,3:3:0:0:
272,104,3833,5,0,3:3:0:0:
304,96,3935,1,0,3:3:0:0:
336,112,4038,1,0,3:3:0:0:
416,144,4244,1,0,3:3:0:0:
448,232,4449,1,0,3:3:0:0:
400,304,4655,1,0,3:3:0:0:
320,344,4860,2,0,P|280:352|224:328,1,80,0|0,3:3|3:3,3:3:0:0:
176,304,5271,6,0,B|136:304|80:280|64:224,1,139.999995727539,0|0,3:3|3:3,3:3:0:0:
64,208,5785,1,0,3:3:0:0:
72,184,5887,1,0,3:3:0:0:
88,168,5990,1,0,3:3:0:0:
112,152,6093,2,0,P|192:152|232:192,1,139.999995727539,0|0,3:3|3:3,3:3:0:0:
232,208,6607,1,0,3:3:0:0:
232,224,6709,1,0,3:3:0:0:
224,240,6812,1,0,3:3:0:0:
208,256,6915,1,0,3:3:0:0:
256,312,7120,5,0,3:3:0:0:
280,304,7223,1,0,3:3:0:0:
296,288,7326,1,0,3:3:0:0:
352,232,7531,2,0,L|392:160,1,80,0|0,3:3|3:3,3:3:0:0:
416,88,7942,5,8,3:3:0:0:
336,56,8148,1,8,3:3:0:0:
248,64,8353,1,8,3:3:0:0:
168,104,8559,1,0,3:3:0:0:
120,168,8764,5,0,3:3:0:0:
112,200,8867,1,0,3:3:0:0:
120,240,8970,2,0,P|136:280|176:296,1,80,0|0,3:3|3:3,3:3:0:0:
240,320,9381,1,0,3:3:0:0:
328,304,9586,6,8,L|408:288,3,80,8|8|8|8,3:3|3:3|3:3|3:3,3:3:0:0:
456,240,10408,6,0,L|408:184,2,40,0|0|0,3:3|3:3|3:3,3:3:0:0:
376,144,10819,1,0,3:3:0:0:
432,80,11024,1,0,3:3:0:0:
352,48,11230,1,0,3:3:0:0:
256,48,11435,2,0,L|176:80,1,80,0|0,3:3|3:3,3:3:0:0:
104,136,11846,5,4,3:3:0:0:
112,168,11949,1,4,3:3:0:0:
136,192,12052,1,4,3:3:0:0:
168,200,12155,1,4,3:3:0:0:
208,192,12257,1,4,3:3:0:0:
240,184,12360,1,4,3:3:0:0:
272,168,12463,1,4,3:3:0:0:
304,168,12566,1,4,3:3:0:0:
328,184,12668,1,4,3:3:0:0:
344,208,12771,1,4,3:3:0:0:
344,240,12874,1,4,3:3:0:0:
328,272,12976,1,4,3:3:0:0:
296,288,13079,1,4,3:3:0:0:
352,40,13490,5,8,3:3:0:0:
392,80,13696,1,8,3:3:0:0:
416,128,13901,1,8,3:3:0:0:
432,184,14107,1,8,3:3:0:0:
424,240,14312,1,8,3:3:0:0:
408,296,14518,1,8,3:3:0:0:
368,336,14723,1,8,3:3:0:0:
312,352,14929,1,8,3:3:0:0:
184,328,15339,6,8,L|112:272,1,89.9999972534181,8|8,3:3|3:3,3:3:0:0:
160,224,15750,2,8,L|248:176,1,89.9999972534181,8|8,3:3|3:3,3:3:0:0:
208,128,16165,2,8,L|112:96,1,89.9999972534181,8|8,3:3|3:3,3:3:0:0:
168,48,16572,1,8,3:3:0:0:
288,40,16983,5,8,3:3:0:0:
344,48,17189,1,8,3:3:0:0:
312,104,17394,1,8,3:3:0:0:
368,112,17600,1,8,3:3:0:0:
344,168,17805,1,8,3:3:0:0:
408,168,18011,1,8,3:3:0:0:
384,224,18216,1,8,3:3:0:0:
328,296,18422,5,8,3:3:0:0:
312,304,18524,1,8,3:3:0:0:
296,304,18627,1,8,3:3:0:0:
280,304,18730,1,8,3:3:0:0:
264,304,18833,1,8,3:3:0:0:
248,296,18935,1,8,3:3:0:0:
232,288,19038,1,8,3:3:0:0:
216,280,19135,1,8,3:3:0:0:
200,272,19244,1,8,3:3:0:0:
184,256,19346,5,8,3:3:0:0:
168,240,19449,1,8,3:3:0:0:
160,224,19552,1,8,3:3:0:0:
152,208,19655,1,8,3:3:0:0:
152,184,19757,1,8,3:3:0:0:
160,168,19860,1,8,3:3:0:0:
176,152,19963,1,8,3:3:0:0:
192,144,20066,1,12,3:3:0:0:
376,40,20271,6,8,L|456:80,1,89.9999972534181,8|8,3:3|3:3,3:3:0:0:
496,120,20682,2,8,L|496:224,1,89.9999972534181,8|8,3:3|3:3,3:3:0:0:
472,272,21093,1,8,3:3:0:0:
424,312,21298,1,8,3:3:0:0:
360,328,21504,1,8,3:3:0:0:
264,320,21915,5,8,3:3:0:0:
208,304,22120,1,8,3:3:0:0:
160,272,22326,1,8,3:3:0:0:
216,248,22531,1,8,3:3:0:0:
272,224,22737,1,8,3:3:0:0:
224,192,22942,2,8,L|136:168,1,89.9999972534181,8|8,3:3|3:3,3:3:0:0:
264,64,23559,5,8,3:3:0:0:
344,72,23764,1,8,3:3:0:0:
416,104,23970,2,8,P|456:128|472:184,1,89.9999972534181,8|8,3:3|3:3,3:3:0:0:
472,240,24381,2,8,B|448:288|400:312|376:288,1,89.9999972534181,8|8,3:3|3:3,3:3:0:0:
336,320,24792,1,8,3:3:0:0:
232,320,24997,5,8,3:3:0:0:
216,320,25100,1,8,3:3:0:0:
200,312,25203,1,8,3:3:0:0:
184,304,25305,1,8,3:3:0:0:
168,296,25408,1,8,3:3:0:0:
152,288,25511,1,8,3:3:0:0:
136,272,25613,1,8,3:3:0:0:
128,256,25716,1,8,3:3:0:0:
120,240,25819,1,12,3:3:0:0:
200,64,26641,6,0,L|344:72,1,139.999995727539,0|0,3:3|3:3,3:3:0:0:
408,96,27241,1,0,3:3:0:0:
440,176,27441,2,0,L|392:328,1,139.999995727539,0|0,3:3|3:3,3:3:0:0:
312,336,28041,1,0,3:3:0:0:
232,320,28241,1,8,3:3:0:0:
168,232,28641,2,0,B|112:240|72:216|32:168,1,139.999995727539,0|0,3:3|3:3,3:3:0:0:
16,104,29241,1,0,3:3:0:0:
72,32,29441,1,0,3:3:0:0:
144,72,29641,5,0,3:3:0:0:
232,48,29841,2,0,L|280:128,3,69.9999978637696,0|0|0|0,3:3|3:3|3:3|3:3,3:3:0:0:
336,32,30641,2,0,L|416:72,1,69.9999978637696,0|0,3:3|3:3,3:3:0:0:
456,120,31041,1,0,3:3:0:0:
448,216,31241,1,0,3:3:0:0:
376,272,31441,2,4,L|248:320,2,129.999994049073,4|4|4,3:3|3:3|3:3,3:3:0:0:
224,192,33041,6,0,L|280:64,1,139.999995727539,0|0,3:3|3:3,3:3:0:0:
360,32,33641,1,0,3:3:0:0:
440,80,33841,2,0,L|480:216,1,139.999995727539,0|0,3:3|3:3,3:3:0:0:
472,312,34441,1,0,3:3:0:0:
384,336,34641,1,0,3:3:0:0:
248,336,35041,1,0,3:3:0:0:
96,272,35441,1,4,3:3:0:0:
72,176,35841,6,0,L|96:112,1,64.9999970245363,0|0,3:3|3:3,3:3:0:0:
160,48,36241,1,0,3:3:0:0:
240,32,36441,1,0,3:3:0:0:
328,32,36641,1,0,3:3:0:0:
408,56,36841,2,0,L|456:112,1,64.9999970245363,0|0,3:3|3:3,3:3:0:0:
472,184,37241,1,0,3:3:0:0:
440,264,37441,1,0,3:3:0:0:
368,312,37641,1,0,3:3:0:0:
288,320,37841,2,4,L|152:320,2,129.999994049073,4|4|4,3:3|3:3|3:3,3:3:0:0:
424,224,39041,5,8,3:3:0:0:
424,152,39241,1,8,3:3:0:0:
424,80,39441,1,8,3:3:0:0:
264,80,39841,1,8,3:3:0:0:
264,152,40041,1,8,3:3:0:0:
264,224,40241,1,8,3:3:0:0:
152,224,40641,5,8,3:3:0:0:
152,152,40841,1,8,3:3:0:0:
152,80,41041,2,8,L|0:80,1,150.000005722046,8|8,3:3|3:3,3:3:0:0:
0,224,41841,1,4,3:3:0:0:
144,208,42241,5,0,3:3:0:0:
224,240,42441,1,0,3:3:0:0:
280,312,42641,2,0,L|424:312,1,129.999994049073,0|0,3:3|3:3,3:3:0:0:
488,256,43241,1,0,3:3:0:0:
496,168,43441,1,0,3:3:0:0:
400,64,43841,1,0,3:3:0:0:
328,200,44241,2,0,L|184:200,2,129.999994049073,0|0|0,3:3|3:3|3:3,3:3:0:0:
224,120,45441,5,8,3:3:0:0:
264,64,45641,1,8,3:3:0:0:
288,128,45841,1,8,3:3:0:0:
400,216,46241,1,8,3:3:0:0:
424,280,46441,1,8,3:3:0:0:
360,272,46641,1,8,3:3:0:0:
248,200,47041,5,8,3:3:0:0:
240,136,47241,1,8,3:3:0:0:
296,160,47441,1,8,3:3:0:0:
232,264,47841,2,4,L|72:264,1,150.000005722046,4|4,3:3|3:3,3:3:0:0:
72,48,48841,5,0,3:3:0:0:
144,96,49041,2,0,L|288:96,1,129.999994049073,0|0,3:3|3:3,3:3:0:0:
336,24,49641,1,0,3:3:0:0:
424,96,49841,1,0,3:3:0:0:
472,192,50241,2,0,L|456:264,1,64.9999970245363,0|0,3:3|3:3,3:3:0:0:
392,320,50641,2,0,L|312:344,1,64.9999970245363,0|0,3:3|3:3,3:3:0:0:
248,304,51041,1,0,3:3:0:0:
224,224,51241,1,0,3:3:0:0:
288,168,51441,1,4,3:3:0:0:
192,144,52241,5,0,3:3:0:0:
232,88,52441,1,0,3:3:0:0:
264,72,52541,1,0,3:3:0:0:
304,80,52641,1,0,3:3:0:0:
392,96,52841,1,0,3:3:0:0:
448,160,53041,1,0,3:3:0:0:
448,248,53241,6,8,L|448:336,3,80,8|8|8|8,3:3|3:3|3:3|3:3,3:3:0:0:
344,288,54041,2,0,L|304:288,2,40,0|0|0,3:3|3:3|3:3,3:3:0:0:
240,288,54441,1,0,3:3:0:0:
160,304,54641,1,0,3:3:0:0:
120,224,54841,5,8,3:3:0:0:
80,152,55041,1,8,3:3:0:0:
168,152,55241,1,8,3:3:0:0:
120,80,55441,1,8,3:3:0:0:
176,32,55641,5,0,3:3:0:0:
208,32,55741,1,0,3:3:0:0:
224,56,55841,1,0,3:3:0:0:
280,120,56041,1,0,3:3:0:0:
352,72,56241,2,0,L|416:24,1,80,0|0,3:3|3:3,3:3:0:0:
496,80,56641,1,0,3:3:0:0:
424,136,56846,1,0,3:3:0:0:
392,216,57041,5,0,3:3:0:0:
408,224,57141,1,0,3:3:0:0:
424,240,57241,1,0,3:3:0:0:
432,256,57341,1,0,3:3:0:0:
432,272,57441,1,0,3:3:0:0:
424,288,57541,1,0,3:3:0:0:
408,304,57641,1,0,3:3:0:0:
392,312,57741,1,0,3:3:0:0:
368,320,57841,5,0,3:3:0:0:
344,320,57941,1,0,3:3:0:0:
328,312,58041,1,0,3:3:0:0:
312,296,58141,1,0,3:3:0:0:
304,272,58241,1,0,3:3:0:0:
304,248,58341,1,0,3:3:0:0:
312,224,58441,1,0,3:3:0:0:
328,208,58541,1,4,3:3:0:0:
344,200,58641,1,0,3:3:0:0:
272,144,58841,6,0,L|240:112,2,40,0|0|0,3:3|3:3|3:3,3:3:0:0:
336,80,59241,1,0,3:3:0:0:
408,120,59441,1,0,3:3:0:0:
432,200,59641,5,8,3:3:0:0:
400,280,59841,2,0,P|368:312|320:336,1,80,0|0,3:3|3:3,3:3:0:0:
248,336,60241,1,8,3:3:0:0:
184,312,60441,5,0,3:3:0:0:
152,296,60541,1,0,3:3:0:0:
144,264,60641,1,0,3:3:0:0:
152,176,60841,1,0,3:3:0:0:
216,112,61041,1,0,3:3:0:0:
304,72,61241,6,0,P|360:72|408:88,1,80,0|0,3:3|3:3,3:3:0:0:
464,128,61641,1,8,3:3:0:0:
480,224,61841,1,8,3:3:0:0:
408,280,62041,5,0,3:3:0:0:
376,288,62141,1,0,3:3:0:0:
344,280,62241,1,0,3:3:0:0:
272,272,62441,2,0,L|192:304,1,80,0|0,3:3|3:3,3:3:0:0:
112,312,62841,2,0,L|48:240,2,80,0|0|0,3:3|3:3|3:3,3:3:0:0:
256,192,63441,12,8,64641,3:3:0:0:
32,48,65041,6,0,B|16:136|112:184|192:128,1,209.999993591309,0|0,3:3|3:3,3:3:0:0:
248,96,65841,1,0,3:3:0:0:
328,80,66041,1,4,3:3:0:0:
352,96,66141,1,4,3:3:0:0:
360,128,66241,1,4,3:3:0:0:
376,216,66441,1,0,3:3:0:0:
312,296,66641,1,4,3:3:0:0:
288,304,66741,1,4,3:3:0:0:
256,296,66841,1,4,3:3:0:0:
176,264,67041,1,0,3:3:0:0:
128,184,67241,1,0,3:3:0:0:
192,120,67441,1,8,3:3:0:0:
168,192,68041,5,0,3:3:0:0:
192,120,68241,2,0,P|224:88|248:80,1,69.9999978637696,0|0,3:3|3:3,3:3:0:0:
280,72,68541,1,4,3:3:0:0:
312,80,68641,1,4,3:3:0:0:
392,120,68841,1,0,3:3:0:0:
424,200,69041,2,0,P|416:240|384:272,1,69.9999978637696,0|0,3:3|3:3,3:3:0:0:
368,288,69341,1,4,3:3:0:0:
336,288,69441,1,4,3:3:0:0:
256,256,69641,1,8,3:3:0:0:
168,288,69841,6,0,B|112:272|80:224|104:160,1,139.999995727539,0|0,3:3|3:3,3:3:0:0:
128,72,70641,2,0,L|208:72,1,69.9999978637696,0|4,3:3|3:3,3:3:0:0:
224,80,70941,1,4,3:3:0:0:
248,104,71041,1,4,3:3:0:0:
72,160,71441,5,0,3:3:0:0:
168,56,71841,1,0,3:3:0:0:
200,40,71941,1,0,3:3:0:0:
232,48,72041,1,0,3:3:0:0:
320,64,72241,2,0,P|360:80|400:112,1,69.9999978637696,0|0,3:3|3:3,3:3:0:0:
440,160,72641,1,0,3:3:0:0:
448,192,72741,1,0,3:3:0:0:
432,216,72841,1,0,3:3:0:0:
384,272,73041,2,0,P|352:296|320:304,1,69.9999978637696,0|0,3:3|3:3,3:3:0:0:
264,296,73441,1,0,3:3:0:0:
160,208,73841,1,8,3:3:0:0:
256,56,74441,5,0,3:3:0:0:
304,104,74641,1,0,3:3:0:0:
360,64,74841,1,0,3:3:0:0:
440,80,75041,1,0,3:3:0:0:
424,160,75241,2,0,L|408:232,1,69.9999978637696,0|0,3:3|3:3,3:3:0:0:
344,288,75641,1,0,3:3:0:0:
256,264,75841,1,0,3:3:0:0:
208,192,76041,1,0,3:3:0:0:
200,112,76241,2,4,L|296:0,2,139.999995727539,4|4|4,3:3|3:3|3:3,3:3:0:0:
80,144,77441,6,8,L|168:144,2,75.0000028610231,8|8|8,3:3|3:3|3:3,3:3:0:0:
208,248,78241,2,8,L|104:248,2,75.0000028610231,8|8|8,3:3|3:3|3:3,3:3:0:0:
280,160,79041,2,8,L|280:80,2,75.0000028610231,8|8|8,3:3|3:3|3:3,3:3:0:0:
320,296,79841,1,8,3:3:0:0:
176,296,80241,1,12,3:3:0:0:
144,128,81041,6,0,L|208:160,1,64.9999970245363,0|0,3:3|3:3,3:3:0:0:
280,104,81441,1,0,3:3:0:0:
304,184,81641,1,0,3:3:0:0:
408,152,81841,2,0,L|360:288,1,129.999994049073,0|0,3:3|3:3,3:3:0:0:
296,208,82641,1,0,3:3:0:0:
200,224,82841,1,0,3:3:0:0:
152,288,83041,2,0,L|208:336,1,64.9999970245363,0|0,3:3|3:3,3:3:0:0:
288,320,83441,1,0,3:3:0:0:
224,224,83841,5,8,3:3:0:0:
184,168,84041,2,8,L|160:240,1,75.0000028610231,8|8,3:3|3:3,3:3:0:0:
280,152,84641,2,8,L|248:80,1,75.0000028610231,8|8,3:3|3:3,3:3:0:0:
312,96,85041,1,8,3:3:0:0:
408,208,85441,5,8,3:3:0:0:
424,272,85641,1,8,3:3:0:0:
360,256,85841,1,8,3:3:0:0:
224,288,86241,1,8,3:3:0:0:
104,224,86641,1,4,3:3:0:0:
144,96,87441,2,0,L|208:136,1,64.9999970245363,0|0,3:3|3:3,3:3:0:0:
248,56,87841,1,0,3:3:0:0:
320,96,88041,2,0,L|376:136,1,64.9999970245363,0|0,3:3|3:3,3:3:0:0:
336,272,88641,5,0,3:3:0:0:
280,184,89041,2,0,L|208:208,1,64.9999970245363,0|0,3:3|3:3,3:3:0:0:
136,232,89441,1,0,3:3:0:0:
144,320,89641,1,0,3:3:0:0:
224,352,89841,1,4,3:3:0:0:
176,24,90641,5,0,3:3:0:0:
112,88,90841,1,0,3:3:0:0:
112,128,90941,1,0,3:3:0:0:
144,152,91041,1,0,3:3:0:0:
216,192,91241,2,0,L|296:192,1,80,0|0,3:3|3:3,3:3:0:0:
360,136,91641,5,8,3:3:0:0:
432,192,91841,1,8,3:3:0:0:
352,232,92041,1,8,3:3:0:0:
424,288,92241,1,8,3:3:0:0:
352,344,92441,6,0,L|400:360,2,40,0|0|0,3:3|3:3|3:3,3:3:0:0:
256,336,92841,2,0,L|176:312,1,80,0|0,3:3|3:3,3:3:0:0:
104,280,93241,5,8,3:3:0:0:
88,192,93441,1,8,3:3:0:0:
144,128,93641,1,8,3:3:0:0:
232,128,93841,1,8,3:3:0:0:
304,176,94041,5,0,3:3:0:0:
328,168,94141,1,0,3:3:0:0:
344,152,94241,1,0,3:3:0:0:
432,136,94441,2,0,P|472:168|480:200,1,80,0|0,3:3|3:3,3:3:0:0:
440,272,94841,5,0,3:3:0:0:
360,288,95041,1,0,3:3:0:0:
288,288,95241,1,0,3:3:0:0:
232,328,95441,5,8,3:3:0:0:
224,336,95541,1,8,3:3:0:0:
216,344,95641,1,8,3:3:0:0:
200,352,95741,1,8,3:3:0:0:
184,352,95841,1,8,3:3:0:0:
168,352,95941,1,8,3:3:0:0:
152,352,96041,1,8,3:3:0:0:
136,352,96141,1,8,3:3:0:0:
120,352,96241,5,8,3:3:0:0:
104,352,96341,1,8,3:3:0:0:
88,352,96441,1,8,3:3:0:0:
72,344,96541,1,8,3:3:0:0:
64,336,96641,1,8,3:3:0:0:
56,328,96741,1,8,3:3:0:0:
48,312,96841,1,8,3:3:0:0:
40,296,96941,1,12,3:3:0:0:
32,280,97041,1,0,3:3:0:0:
96,232,97241,6,0,L|136:232,2,40,0|0|0,3:3|3:3|3:3,3:3:0:0:
96,144,97641,1,0,3:3:0:0:
152,80,97841,1,0,3:3:0:0:
232,48,98041,5,8,3:3:0:0:
296,80,98241,2,8,L|296:160,1,80,8|8,3:3|3:3,3:3:0:0:
376,120,98641,1,8,3:3:0:0:
440,184,98841,5,0,3:3:0:0:
408,200,98941,1,0,3:3:0:0:
376,200,99041,1,0,3:3:0:0:
288,192,99241,1,0,3:3:0:0:
232,128,99441,1,0,3:3:0:0:
152,168,99641,6,8,L|152:88,3,80,8|8|8|8,3:3|3:3|3:3|3:3,3:3:0:0:
80,144,100441,2,0,L|40:144,2,40,0|0|0,3:3|3:3|3:3,3:3:0:0:
96,224,100841,5,0,3:3:0:0:
168,264,101041,1,0,3:3:0:0:
256,256,101241,1,0,3:3:0:0:
320,192,101441,1,0,3:3:0:0:
392,248,101641,1,4,3:3:0:0:
240,184,102041,6,0,L|304:200,2,40,0|0|0,3:3|3:3|3:3,3:3:0:0:
192,256,102441,1,0,3:3:0:0:
104,256,102641,1,0,3:3:0:0:
144,176,102841,1,0,3:3:0:0:
56,168,103041,1,0,3:3:0:0:
104,96,103241,1,4,3:3:0:0:
184,104,103441,6,8,L|312:104,1,119.999996337891,8|8,3:3|3:3,3:3:0:0:
344,112,104004,1,0,3:3:0:0:
376,144,104145,1,0,3:3:0:0:
384,184,104286,1,0,3:3:0:0:
136,168,104708,2,0,L|136:224,2,39.9999987792969,0|0|0,3:3|3:3|3:3,3:3:0:0:
136,88,105131,2,8,L|256:88,1,119.999996337891,8|8,3:3|3:3,3:3:0:0:
296,104,105694,1,0,3:3:0:0:
320,136,105835,1,0,3:3:0:0:
328,176,105976,1,0,3:3:0:0:
176,128,106398,6,0,L|208:184,2,39.9999987792969,0|0|0,3:3|3:3|3:3,3:3:0:0:
104,160,106821,2,0,L|104:288,1,119.999996337891,0|0,3:3|3:3,3:3:0:0:
240,312,107666,1,8,3:3:0:0:
360,216,108088,1,8,3:3:0:0:
352,64,108511,2,4,L|216:64,1,119.999996337891,4|4,3:3|3:3,3:3:0:0:
200,64,109074,1,0,3:3:0:0:
176,80,109215,1,0,3:3:0:0:
160,104,109356,1,0,3:3:0:0:
120,200,109779,5,0,3:3:0:0:
152,216,109919,1,0,3:3:0:0:
192,208,110060,1,0,3:3:0:0:
224,176,110201,2,0,L|248:56,1,119.999996337891,0|0,3:3|3:3,3:3:0:0:
304,32,110764,2,0,L|352:72,2,39.9999987792969,0|0|0,3:3|3:3|3:3,3:3:0:0:
272,232,111469,5,0,3:3:0:0:
256,264,111610,1,0,3:3:0:0:
232,288,111750,1,0,3:3:0:0:
192,328,111891,2,0,B|152:336|104:336|72:320,1,119.999996337891,0|0,3:3|3:3,3:3:0:0:
56,296,112455,1,0,3:3:0:0:
48,264,112595,1,0,3:3:0:0:
40,232,112736,2,0,B|64:192|104:168|152:168,1,119.999996337891,0|0,3:3|3:3,3:3:0:0:
256,192,113581,12,4,115271,3:3:0:0:
168,144,115694,5,8,3:3:0:0:
248,272,116117,1,8,3:3:0:0:
320,144,116539,1,8,3:3:0:0:
264,88,116962,6,0,L|384:88,1,119.999996337891,0|0,3:3|3:3,3:3:0:0:
416,112,117525,1,0,3:3:0:0:
424,152,117666,1,0,3:3:0:0:
400,192,117807,2,0,L|280:192,1,119.999996337891,0|0,3:3|3:3,3:3:0:0:
248,192,118370,1,0,3:3:0:0:
216,168,118511,1,0,3:3:0:0:
216,128,118652,6,0,L|328:80,1,119.999996337891,0|0,3:3|3:3,3:3:0:0:
384,104,119215,2,0,L|384:176,2,39.9999987792969,0|0|0,3:3|3:3|3:3,3:3:0:0:
200,264,119919,5,0,3:3:0:0:
264,232,120060,1,0,3:3:0:0:
264,192,120201,1,0,3:3:0:0:
224,184,120342,2,0,L|104:184,1,119.999996337891,0|0,3:3|3:3,3:3:0:0:
80,152,120905,2,0,L|80:88,2,39.9999987792969,0|0|0,3:3|3:3|3:3,3:3:0:0:
360,88,121610,5,0,3:3:0:0:
296,224,122032,2,0,L|416:176,1,119.999996337891,0|0,3:3|3:3,3:3:0:0:
408,144,122595,1,0,3:3:0:0:
376,112,122736,1,0,3:3:0:0:
336,104,122877,1,0,3:3:0:0:
216,144,123300,1,0,3:3:0:0:
432,224,123722,6,0,L|304:248,1,119.999996337891,0|0,3:3|3:3,3:3:0:0:
272,256,124286,1,0,3:3:0:0:
232,232,124426,1,0,3:3:0:0:
216,192,124567,1,0,3:3:0:0:
248,80,124990,2,0,L|384:80,1,119.999996337891,0|0,3:3|3:3,3:3:0:0:
312,208,125835,2,0,L|368:208,2,39.9999987792969,0|0|0,3:3|3:3|3:3,3:3:0:0:
264,208,126257,2,0,L|128:128,1,119.999996337891,0|0,3:3|3:3,3:3:0:0:
168,64,127102,6,0,L|272:128,1,119.999996337891,0|0,3:3|3:3,3:3:0:0:
360,208,127948,1,0,3:3:0:0:
384,328,128370,1,0,3:3:0:0:
312,296,128724,5,8,3:3:0:0:
312,280,128826,1,8,3:3:0:0:
312,264,128928,1,8,3:3:0:0:
312,248,129030,1,8,3:3:0:0:
312,232,129132,1,8,3:3:0:0:
312,216,129234,1,8,3:3:0:0:
312,200,129336,1,8,3:3:0:0:
312,184,129438,5,8,3:3:0:0:
312,168,129540,1,8,3:3:0:0:
312,152,129642,1,8,3:3:0:0:
312,136,129744,1,8,3:3:0:0:
312,120,129846,1,8,3:3:0:0:
312,104,129948,1,12,3:3:0:0:
216,48,130422,5,8,3:3:0:0:
160,88,130626,1,8,3:3:0:0:
216,128,130830,1,8,3:3:0:0:
160,168,131034,1,8,3:3:0:0:
216,208,131238,1,8,3:3:0:0:
160,248,131442,1,8,3:3:0:0:
216,288,131646,1,8,3:3:0:0:
160,328,131850,1,8,3:3:0:0:
208,232,132258,5,8,3:3:0:0:
272,248,132462,1,8,3:3:0:0:
328,208,132666,1,8,3:3:0:0:
344,144,132870,1,8,3:3:0:0:
296,96,133075,1,8,3:3:0:0:
232,112,133279,1,8,3:3:0:0:
176,152,133483,1,8,3:3:0:0:
256,96,133891,6,8,L|336:136,1,89.9999972534181,8|8,3:3|3:3,3:3:0:0:
264,168,134299,2,8,L|352:216,1,89.9999972534181,8|8,3:3|3:3,3:3:0:0:
280,248,134707,2,8,L|360:288,1,89.9999972534181,8|8,3:3|3:3,3:3:0:0:
336,344,135115,1,8,3:3:0:0:
440,304,135319,5,0,3:3:0:0:
440,288,135422,1,8,3:3:0:0:
440,272,135524,1,8,3:3:0:0:
440,256,135626,1,8,3:3:0:0:
440,240,135728,1,8,3:3:0:0:
440,224,135830,1,8,3:3:0:0:
440,208,135932,1,8,3:3:0:0:
440,192,136034,1,8,3:3:0:0:
440,176,136136,1,8,3:3:0:0:
440,160,136238,5,8,3:3:0:0:
440,144,136340,1,8,3:3:0:0:
440,128,136442,1,8,3:3:0:0:
440,112,136544,1,8,3:3:0:0:
440,96,136646,1,8,3:3:0:0:
432,88,136748,1,8,3:3:0:0:
416,80,136850,1,8,3:3:0:0:
400,72,136952,1,12,3:3:0:0:
312,64,137156,6,8,L|384:128,1,89.9999972534181,8|8,3:3|3:3,3:3:0:0:
304,144,137564,1,8,3:3:0:0:
240,168,137768,2,8,L|320:224,1,89.9999972534181,8|8,3:3|3:3,3:3:0:0:
240,248,138177,1,8,3:3:0:0:
312,296,138381,1,8,3:3:0:0:
160,336,138789,5,8,3:3:0:0:
88,336,138993,1,8,3:3:0:0:
88,264,139197,1,8,3:3:0:0:
160,264,139401,1,8,3:3:0:0:
160,192,139605,1,8,3:3:0:0:
88,192,139809,1,8,3:3:0:0:
88,120,140013,1,8,3:3:0:0:
200,40,140422,6,8,L|288:72,3,89.9999972534181,8|8|8|8,3:3|3:3|3:3|3:3,3:3:0:0:
312,152,141238,1,8,3:3:0:0:
256,224,141442,2,8,L|160:240,1,89.9999972534181,8|8,3:3|3:3,3:3:0:0:
120,256,141850,5,8,3:3:0:0:
120,280,141952,1,8,3:3:0:0:
128,296,142054,1,8,3:3:0:0:
144,312,142156,1,8,3:3:0:0:
160,312,142258,1,8,3:3:0:0:
176,312,142360,1,8,3:3:0:0:
192,312,142462,1,8,3:3:0:0:
208,312,142564,1,8,3:3:0:0:
224,312,142666,1,12,3:3:0:0:
72,56,143564,5,4,3:3:0:0:
144,56,143769,1,4,3:3:0:0:
216,56,143974,1,4,3:3:0:0:
288,56,144180,1,4,3:3:0:0:
360,56,144385,1,4,3:3:0:0:
432,56,144591,1,4,3:3:0:0:
472,112,144796,1,4,3:3:0:0:
472,184,145002,1,4,3:3:0:0:
472,256,145207,5,4,3:3:0:0:
472,328,145413,1,4,3:3:0:0:
408,360,145618,1,4,3:3:0:0:
336,360,145824,1,4,3:3:0:0:
264,360,146029,1,4,3:3:0:0:
192,360,146235,1,4,3:3:0:0:
120,360,146440,1,4,3:3:0:0:
48,360,146646,1,4,3:3:0:0:
32,272,146851,6,0,L|128:168,1,139.999995727539,0|0,3:3|3:3,3:3:0:0:
216,168,147468,1,0,3:3:0:0:
264,248,147673,1,0,3:3:0:0:
384,176,148084,2,0,L|448:224,1,69.9999978637696,0|0,3:3|3:3,3:3:0:0:
488,136,148495,2,0,P|456:80|376:64,1,139.999995727539,0|0,3:3|3:3,3:3:0:0:
216,88,149317,1,4,3:3:0:0:
472,184,150139,6,0,L|424:320,1,139.999995727539,0|0,3:3|3:3,3:3:0:0:
336,344,150755,1,0,3:3:0:0:
256,288,150961,1,0,3:3:0:0:
160,192,151372,2,0,P|80:200|40:256,1,139.999995727539,0|0,3:3|3:3,3:3:0:0:
128,288,151988,5,4,3:3:0:0:
184,248,152194,1,4,3:3:0:0:
128,208,152399,1,4,3:3:0:0:
184,168,152605,1,4,3:3:0:0:
128,128,152810,1,4,3:3:0:0:
184,88,153016,1,4,3:3:0:0:
136,48,153221,1,4,3:3:0:0:
200,16,153427,6,0,L|336:48,1,139.999995727539,0|0,3:3|3:3,3:3:0:0:
416,96,154043,1,0,3:3:0:0:
408,168,154248,1,0,3:3:0:0:
376,280,154659,1,0,3:3:0:0:
304,328,154865,1,0,3:3:0:0:
224,312,155070,1,0,3:3:0:0:
144,232,155481,1,0,3:3:0:0:
200,104,155892,1,4,3:3:0:0:
344,160,156714,5,0,3:3:0:0:
408,288,157125,1,0,3:3:0:0:
360,208,157331,2,0,L|432:208,1,69.9999978637696,0|0,3:3|3:3,3:3:0:0:
232,160,157947,1,0,3:3:0:0:
192,48,158358,1,4,3:3:0:0:
128,72,158564,5,4,3:3:0:0:
72,120,158769,1,4,3:3:0:0:
136,144,158974,1,4,3:3:0:0:
200,168,159180,1,4,3:3:0:0:
152,216,159385,1,4,3:3:0:0:
96,256,159591,1,4,3:3:0:0:
40,296,159796,1,4,3:3:0:0:
104,328,160002,6,0,L|232:272,1,139.999995727539,0|0,3:3|3:3,3:3:0:0:
304,224,160618,1,0,3:3:0:0:
224,192,160824,2,0,L|80:192,1,139.999995727539,0|0,3:3|3:3,3:3:0:0:
8,144,161440,1,0,3:3:0:0:
72,88,161646,1,0,3:3:0:0:
208,56,162057,1,0,3:3:0:0:
352,64,162468,1,4,3:3:0:0:
432,248,163290,5,0,3:3:0:0:
272,256,163700,1,0,3:3:0:0:
184,256,163906,2,0,L|184:176,1,69.9999978637696,0|0,3:3|3:3,3:3:0:0:
88,256,164522,1,4,3:3:0:0:
88,96,164933,5,8,3:3:0:0:
104,96,165036,1,8,3:3:0:0:
120,96,165138,1,8,3:3:0:0:
136,96,165241,1,8,3:3:0:0:
152,96,165344,1,8,3:3:0:0:
168,96,165447,1,8,3:3:0:0:
184,96,165549,1,8,3:3:0:0:
200,104,165652,1,8,3:3:0:0:
208,112,165755,5,8,3:3:0:0:
216,120,165858,1,8,3:3:0:0:
224,136,165960,1,8,3:3:0:0:
224,152,166063,1,8,3:3:0:0:
224,168,166166,1,8,3:3:0:0:
224,184,166269,1,8,3:3:0:0:
224,200,166371,1,8,3:3:0:0:
224,216,166474,1,12,3:3:0:0:
184,248,166581,5,8,3:3:0:0:
256,248,166781,1,8,3:3:0:0:
328,248,166981,1,8,3:3:0:0:
400,248,167181,1,8,3:3:0:0:
472,248,167381,1,8,3:3:0:0:
472,320,167581,1,8,3:3:0:0:
400,320,167781,1,8,3:3:0:0:
328,320,167981,1,8,3:3:0:0:
283,289,168181,6,8,L|240:208,1,89.9999972534181,8|8,3:3|3:3,3:3:0:0:
176,208,168581,2,8,L|136:304,1,89.9999972534181,8|8,3:3|3:3,3:3:0:0:
80,288,168981,2,8,L|56:192,1,89.9999972534181,8|8,3:3|3:3,3:3:0:0:
64,136,169381,2,8,L|176:136,1,89.9999972534181,8|8,3:3|3:3,3:3:0:0:
136,208,169781,5,8,3:3:0:0:
272,208,169981,2,8,L|224:208,6,44.999998626709,8|8|8|8|8|8|8,3:3|3:3|3:3|3:3|3:3|3:3|3:3,3:3:0:0:
384,208,170990,1,8,3:3:0:0:
120,288,171381,5,8,3:3:0:0:
136,288,171481,1,8,3:3:0:0:
152,288,171581,1,8,3:3:0:0:
168,288,171681,1,8,3:3:0:0:
184,288,171781,1,8,3:3:0:0:
200,288,171881,1,8,3:3:0:0:
216,288,171981,1,8,3:3:0:0:
232,288,172081,1,8,3:3:0:0:
248,288,172181,5,8,3:3:0:0:
264,288,172281,1,8,3:3:0:0:
280,288,172381,1,8,3:3:0:0:
296,288,172481,1,8,3:3:0:0:
312,288,172581,1,8,3:3:0:0:
328,288,172681,1,8,3:3:0:0:
336,272,172781,1,8,3:3:0:0:
336,256,172881,1,12,3:3:0:0:
336,224,172981,6,8,L|272:160,1,89.9999972534181,8|8,3:3|3:3,3:3:0:0:
224,200,173381,2,8,L|112:200,1,89.9999972534181,8|8,3:3|3:3,3:3:0:0:
72,208,173781,2,8,L|128:288,1,89.9999972534181,8|8,3:3|3:3,3:3:0:0:
128,344,174181,2,8,L|16:344,1,89.9999972534181,8|8,3:3|3:3,3:3:0:0:
40,216,174581,6,8,L|104:152,1,89.9999972534181,8|8,3:3|3:3,3:3:0:0:
184,128,174981,1,8,3:3:0:0:
216,208,175181,2,8,L|152:280,1,89.9999972534181,8|8,3:3|3:3,3:3:0:0:
168,352,175581,1,8,3:3:0:0:
256,344,175781,2,8,L|320:280,1,89.9999972534181,8|8,3:3|3:3,3:3:0:0:
256,216,176181,5,8,3:3:0:0:
320,96,176581,1,8,3:3:0:0:
360,232,176981,1,8,3:3:0:0:
248,152,177381,1,8,3:3:0:0:
392,152,177781,1,12,3:3:0:0:
312,272,178181,2,8,L|312:216,4,44.999998626709,8|8|8|8|8,3:3|3:3|3:3|3:3|3:3,3:3:0:0:
232,320,178781,1,8,3:3:0:0:
152,256,178981,1,8,3:3:0:0:
232,216,179181,1,8,3:3:0:0:
176,152,179381,5,0,3:3:0:0:
312,152,179781,1,0,3:3:0:0:
240,272,180181,1,0,3:3:0:0:
240,128,180581,1,0,3:3:0:0:
104,72,180981,5,0,3:3:0:0:
104,160,181181,1,0,3:3:0:0:
104,248,181381,1,0,3:3:0:0:
104,336,181581,1,0,3:3:0:0:
192,336,181781,1,4,3:3:0:0:
440,296,182581,6,0,L|440:152,3,139.999995727539,0|0|0|0,3:3|3:3|3:3|3:3,3:3:0:0:
304,224,184181,1,0,3:3:0:0:
304,136,184381,1,0,3:3:0:0:
216,136,184581,1,0,3:3:0:0:
128,136,184781,2,4,L|128:64,1,69.9999978637696,4|4,3:3|3:3,3:3:0:0:
96,120,185781,5,0,3:3:0:0:
96,240,186181,1,0,3:3:0:0:
224,184,186581,2,0,L|368:184,1,139.999995727539,0|0,3:3|3:3,3:3:0:0:
200,248,187381,5,0,3:3:0:0:
200,104,187781,1,0,3:3:0:0:
320,176,188181,1,0,3:3:0:0:
184,176,188581,1,0,3:3:0:0:
256,192,188981,12,4,190581,3:3:0:0:
