osu file format v14

[General]
AudioFilename: audio.mp3
AudioLeadIn: 0
PreviewTime: -1
Countdown: 0
SampleSet: Normal
StackLeniency: 0.6
Mode: 0
LetterboxInBreaks: 0
WidescreenStoryboard: 1

[Editor]
Bookmarks: 140,6715,13290,18222,19866,24797,25619,26441,32841,39241,42441,45641,48841,51241,52041,58441,64841,71241,77641,80841,84041,87241,89641,90441,96841,103241,110001,116762,123522,126902,128545,130189,135121,136765,141696,142518,143340,146628,153203,159778,163066,164710,166345,172745,179145,180745,181545,182345,183945,184745,185545,187145,188745,190345
DistanceSpacing: 2.7
BeatDivisor: 12
GridSize: 4
TimelineZoom: 1.1

[Metadata]
Title:In the Name of God
TitleUnicode:In the Name of God
Artist:Powerwolf
ArtistUnicode:Powerwolf
Creator:Aximes
Version:DEUS VULT
Source:
Tags:Power Wolf In the Name of God Deus Vult Metal Powermetal
BeatmapID:1514838
BeatmapSetID:716941

[Difficulty]
HPDrainRate:6
CircleSize:4
OverallDifficulty:6
ApproachRate:9
SliderMultiplier:2.8
SliderTickRate:1

[Events]
//Background and Video events
//Break Periods
2,103441,129589
//Storyboard Layer 0 (Background)
//Storyboard Layer 1 (Fail)
//Storyboard Layer 2 (Pass)
//Storyboard Layer 3 (Foreground)
//Storyboard Sound Samples

[TimingPoints]
140,410.958904109589,4,1,0,50,1,0
26441,400,4,1,0,50,1,0
103241,422.535211267606,4,1,0,50,1,0
126902,410.958904109589,4,1,0,50,1,0
166345,400,4,1,0,50,1,0

[HitObjects]
144,292,140,5,0,0:0:0:0:
240,292,345,2,0,L|312:292,2,70
144,292,756,1,0,0:0:0:0:
100,204,961,1,0,0:0:0:0:
296,276,1167,5,0,0:0:0:0:
100,348,1372,1,0,0:0:0:0:
208,168,1578,1,0,0:0:0:0:
24,272,1783,1,0,0:0:0:0:
120,256,1989,5,0,0:0:0:0:
120,256,2092,1,0,0:0:0:0:
120,256,2194,1,0,0:0:0:0:
188,184,2400,1,0,0:0:0:0:
168,88,2605,1,0,0:0:0:0:
324,228,2811,5,0,0:0:0:0:
120,256,3016,1,0,0:0:0:0:
276,116,3222,1,0,0:0:0:0:
224,320,3427,1,0,0:0:0:0:
312,276,3633,5,0,0:0:0:0:
312,276,3735,1,0,0:0:0:0:
312,276,3838,1,0,0:0:0:0:
352,184,4044,1,0,0:0:0:0:
304,100,4249,1,0,0:0:0:0:
208,92,4455,1,0,0:0:0:0:
168,180,4660,1,0,0:0:0:0:
96,112,4866,1,0,0:0:0:0:
248,256,5071,5,0,0:0:0:0:
248,256,5276,2,0,L|320:280,5,70
416,312,5893,1,0,0:0:0:0:
416,312,5996,2,0,L|496:336,6,70
320,272,6715,5,0,0:0:0:0:
228,236,6920,1,0,0:0:0:0:
228,236,7023,1,0,0:0:0:0:
228,236,7126,1,0,0:0:0:0:
160,168,7331,1,0,0:0:0:0:
216,88,7537,1,0,0:0:0:0:
132,280,7742,5,0,0:0:0:0:
272,268,7948,1,0,0:0:0:0:
324,140,8153,1,0,0:0:0:0:
464,132,8359,1,0,0:0:0:0:
420,220,8564,5,0,0:0:0:0:
420,220,8667,1,0,0:0:0:0:
420,220,8770,1,0,0:0:0:0:
432,316,8975,1,0,0:0:0:0:
340,280,9181,1,0,0:0:0:0:
324,140,9386,5,0,0:0:0:0:
188,168,9592,1,0,0:0:0:0:
324,140,9797,1,0,0:0:0:0:
220,48,10003,1,0,0:0:0:0:
256,192,10208,12,0,11441,0:0:0:0:
116,96,11646,5,0,0:0:0:0:
148,80,11749,1,0,0:0:0:0:
184,72,11852,1,0,0:0:0:0:
220,72,11955,1,0,0:0:0:0:
252,80,12057,1,0,0:0:0:0:
224,152,12263,5,0,0:0:0:0:
256,160,12366,1,0,0:0:0:0:
292,152,12468,1,0,0:0:0:0:
320,128,12571,1,0,0:0:0:0:
360,124,12674,1,0,0:0:0:0:
400,152,12776,1,0,0:0:0:0:
420,220,12879,1,0,0:0:0:0:
296,328,13290,6,0,P|208:344|132:316,1,140
80,272,13701,2,0,P|168:212|188:152,1,140
188,88,14112,2,0,P|172:188|232:248,1,140
276,264,14523,2,0,P|260:188|168:152,1,140
112,152,14934,6,0,P|144:232|208:228,1,140
272,188,15345,2,0,P|344:160|416:212,1,140
444,272,15756,2,0,P|400:340|328:336,1,140
272,280,16167,2,0,P|220:224|224:140,1,140
256,76,16578,6,0,P|300:28|384:48,1,140
436,108,16989,2,0,P|464:176|432:248,1,140
376,308,17400,2,0,P|355:242|383:180,1,140
452,108,17811,2,0,P|372:72|304:112,1,140
256,160,18222,1,0,0:0:0:0:
236,188,18324,1,0,0:0:0:0:
224,220,18427,1,0,0:0:0:0:
224,256,18530,1,0,0:0:0:0:
232,292,18633,1,0,0:0:0:0:
340,240,18838,5,0,0:0:0:0:
308,232,18941,1,0,0:0:0:0:
272,232,19044,1,0,0:0:0:0:
240,248,19146,1,0,0:0:0:0:
200,244,19249,1,0,0:0:0:0:
156,220,19352,1,0,0:0:0:0:
120,160,19455,1,0,0:0:0:0:
188,40,19660,5,0,0:0:0:0:
328,40,19866,2,0,P|408:64|452:136,1,140
468,184,20276,2,0,P|388:160|344:88,1,140
324,40,20687,2,0,P|256:16|204:56,1,140
184,132,21098,2,0,P|204:216|264:256,1,140
328,256,21509,2,0,P|400:220|400:164,1,140
316,168,21920,2,0,L|440:264,1,140
492,308,22331,2,0,P|444:376|352:336,1,140
320,336,22742,2,0,P|272:272|276:200,1,140
284,132,23153,2,0,P|292:60|236:0,1,140
168,12,23564,2,0,P|100:52|68:124,1,140
72,188,23975,2,0,P|144:152|224:192,1,140
144,232,24386,2,0,P|140:152|168:68,1,140
204,28,24797,1,0,0:0:0:0:
236,12,24900,1,0,0:0:0:0:
272,16,25003,1,0,0:0:0:0:
300,36,25105,1,0,0:0:0:0:
320,64,25208,1,0,0:0:0:0:
328,100,25311,1,0,0:0:0:0:
320,140,25413,1,0,0:0:0:0:
284,172,25516,1,0,0:0:0:0:
220,196,25619,1,0,0:0:0:0:
248,192,26441,5,0,0:0:0:0:
248,192,26641,1,0,0:0:0:0:
248,192,26741,1,0,0:0:0:0:
248,192,26841,1,0,0:0:0:0:
248,192,27041,1,0,0:0:0:0:
248,192,27241,1,0,0:0:0:0:
248,192,27441,1,0,0:0:0:0:
248,192,27541,1,0,0:0:0:0:
248,192,27641,1,0,0:0:0:0:
248,192,27841,1,0,0:0:0:0:
248,192,28041,1,0,0:0:0:0:
248,192,28241,1,0,0:0:0:0:
248,192,28341,1,0,0:0:0:0:
248,192,28441,1,0,0:0:0:0:
248,192,28641,1,0,0:0:0:0:
248,192,28741,1,0,0:0:0:0:
248,192,28841,1,0,0:0:0:0:
228,180,29041,1,0,0:0:0:0:
100,116,29241,1,0,0:0:0:0:
236,184,29441,1,0,0:0:0:0:
368,244,29641,1,0,0:0:0:0:
252,192,29841,1,0,0:0:0:0:
312,216,29941,1,0,0:0:0:0:
252,192,30041,1,0,0:0:0:0:
336,284,30241,1,0,0:0:0:0:
252,192,30441,1,0,0:0:0:0:
252,192,30541,1,0,0:0:0:0:
252,192,30641,1,0,0:0:0:0:
252,192,30741,1,0,0:0:0:0:
252,192,30841,1,0,0:0:0:0:
252,192,31041,1,0,0:0:0:0:
252,192,31241,1,0,0:0:0:0:
252,192,31441,1,0,0:0:0:0:
252,192,31541,1,0,0:0:0:0:
252,192,31641,1,0,0:0:0:0:
252,192,31841,1,0,0:0:0:0:
252,192,32041,1,0,0:0:0:0:
252,192,32241,1,0,0:0:0:0:
252,192,32341,1,0,0:0:0:0:
252,192,32441,1,0,0:0:0:0:
252,192,32641,1,0,0:0:0:0:
248,192,32841,5,0,0:0:0:0:
248,192,33041,1,0,0:0:0:0:
248,192,33141,1,0,0:0:0:0:
248,192,33241,1,0,0:0:0:0:
248,192,33441,1,0,0:0:0:0:
248,192,33641,1,0,0:0:0:0:
248,192,33841,1,0,0:0:0:0:
248,192,33941,1,0,0:0:0:0:
248,192,34041,1,0,0:0:0:0:
248,192,34241,1,0,0:0:0:0:
248,192,34441,1,0,0:0:0:0:
248,192,34641,1,0,0:0:0:0:
248,192,34741,1,0,0:0:0:0:
248,192,34841,1,0,0:0:0:0:
248,192,35041,1,0,0:0:0:0:
248,192,35141,1,0,0:0:0:0:
248,192,35241,1,0,0:0:0:0:
228,180,35441,1,0,0:0:0:0:
100,116,35641,1,0,0:0:0:0:
236,184,35841,1,0,0:0:0:0:
368,244,36041,1,0,0:0:0:0:
252,192,36241,1,0,0:0:0:0:
312,216,36341,1,0,0:0:0:0:
252,192,36441,1,0,0:0:0:0:
336,284,36641,1,0,0:0:0:0:
252,192,36841,1,0,0:0:0:0:
252,192,36941,1,0,0:0:0:0:
252,192,37041,1,0,0:0:0:0:
252,192,37141,1,0,0:0:0:0:
252,192,37241,1,0,0:0:0:0:
252,192,37441,1,0,0:0:0:0:
252,192,37641,1,0,0:0:0:0:
252,192,37841,1,0,0:0:0:0:
252,192,37941,1,0,0:0:0:0:
252,192,38041,1,0,0:0:0:0:
252,192,38241,1,0,0:0:0:0:
252,192,38441,1,0,0:0:0:0:
252,192,38641,1,0,0:0:0:0:
252,192,38741,1,0,0:0:0:0:
96,104,38841,6,0,P|72:208|88:296,1,140
84,280,39241,1,0,0:0:0:0:
96,104,39641,2,0,P|127:206|185:274,1,140
173,262,40041,1,0,0:0:0:0:
96,104,40441,2,0,P|174:176|258:206,1,140
241,202,40841,1,0,0:0:0:0:
252,192,41241,1,0,0:0:0:0:
252,192,41641,1,0,0:0:0:0:
252,192,42041,1,0,0:0:0:0:
252,192,42441,5,0,0:0:0:0:
252,192,42641,1,0,0:0:0:0:
252,192,42741,1,0,0:0:0:0:
252,192,42841,1,0,0:0:0:0:
252,192,43041,1,0,0:0:0:0:
252,192,43241,1,0,0:0:0:0:
252,192,43341,1,0,0:0:0:0:
252,192,43441,1,0,0:0:0:0:
252,192,43641,1,0,0:0:0:0:
252,192,43741,1,0,0:0:0:0:
252,192,43841,1,0,0:0:0:0:
252,192,44041,1,0,0:0:0:0:
252,192,44241,1,0,0:0:0:0:
252,192,44341,1,0,0:0:0:0:
252,192,44441,1,0,0:0:0:0:
136,128,44641,1,0,0:0:0:0:
248,188,44841,1,0,0:0:0:0:
188,160,44941,1,0,0:0:0:0:
244,184,45041,1,0,0:0:0:0:
244,184,45241,1,0,0:0:0:0:
244,184,45341,1,0,0:0:0:0:
244,184,45441,1,0,0:0:0:0:
252,192,45641,1,0,0:0:0:0:
252,192,46041,1,0,0:0:0:0:
252,192,46241,1,0,0:0:0:0:
252,192,46441,1,0,0:0:0:0:
252,192,46841,1,0,0:0:0:0:
252,192,47041,1,0,0:0:0:0:
252,192,47241,1,0,0:0:0:0:
252,192,47641,1,0,0:0:0:0:
252,192,48041,1,0,0:0:0:0:
252,192,48441,1,0,0:0:0:0:
252,192,48841,5,0,0:0:0:0:
252,192,49041,1,0,0:0:0:0:
252,192,49141,1,0,0:0:0:0:
252,192,49241,1,0,0:0:0:0:
252,192,49441,1,0,0:0:0:0:
252,192,49641,1,0,0:0:0:0:
252,192,49741,1,0,0:0:0:0:
252,192,49841,1,0,0:0:0:0:
252,192,50041,1,0,0:0:0:0:
252,192,50141,1,0,0:0:0:0:
252,192,50241,1,0,0:0:0:0:
252,192,50441,1,0,0:0:0:0:
252,192,50641,1,0,0:0:0:0:
252,192,50741,1,0,0:0:0:0:
252,192,50841,1,0,0:0:0:0:
136,128,51041,1,0,0:0:0:0:
248,188,51241,1,0,0:0:0:0:
164,212,52041,1,0,0:0:0:0:
164,212,53041,1,0,0:0:0:0:
164,212,53241,1,0,0:0:0:0:
164,212,53441,1,0,0:0:0:0:
164,212,53641,1,0,0:0:0:0:
164,212,54641,1,0,0:0:0:0:
164,212,54841,1,0,0:0:0:0:
164,212,55041,1,0,0:0:0:0:
164,212,55241,1,0,0:0:0:0:
164,212,56841,1,0,0:0:0:0:
164,212,57641,1,0,0:0:0:0:
164,212,58441,1,0,0:0:0:0:
196,200,59441,1,0,0:0:0:0:
196,200,59641,1,0,0:0:0:0:
196,200,59841,1,0,0:0:0:0:
196,200,60041,1,0,0:0:0:0:
196,200,61041,1,0,0:0:0:0:
196,200,61241,1,0,0:0:0:0:
196,200,61441,1,0,0:0:0:0:
196,200,61641,1,0,0:0:0:0:
196,200,63241,1,0,0:0:0:0:
196,200,64041,1,0,0:0:0:0:
196,200,64841,1,0,0:0:0:0:
196,200,65041,1,0,0:0:0:0:
196,200,65141,1,0,0:0:0:0:
196,200,65241,1,0,0:0:0:0:
196,200,65441,1,0,0:0:0:0:
196,200,65641,1,0,0:0:0:0:
196,200,65841,1,0,0:0:0:0:
196,200,65941,1,0,0:0:0:0:
196,200,66041,1,0,0:0:0:0:
196,200,66241,1,0,0:0:0:0:
196,200,66441,1,0,0:0:0:0:
196,200,66641,1,0,0:0:0:0:
196,200,66741,1,0,0:0:0:0:
196,200,66841,1,0,0:0:0:0:
196,200,67041,1,0,0:0:0:0:
196,200,67241,1,0,0:0:0:0:
196,200,67441,1,0,0:0:0:0:
196,200,67541,1,0,0:0:0:0:
196,200,67641,1,0,0:0:0:0:
196,200,67841,1,0,0:0:0:0:
196,200,68041,1,0,0:0:0:0:
196,200,68241,1,0,0:0:0:0:
196,200,68341,1,0,0:0:0:0:
196,200,68441,1,0,0:0:0:0:
196,200,68641,1,0,0:0:0:0:
196,200,68841,1,0,0:0:0:0:
196,200,69041,1,0,0:0:0:0:
196,200,69141,1,0,0:0:0:0:
196,200,69241,1,0,0:0:0:0:
196,200,69441,1,0,0:0:0:0:
196,200,69641,1,0,0:0:0:0:
196,200,70041,1,0,0:0:0:0:
196,200,70441,1,0,0:0:0:0:
196,200,70641,1,0,0:0:0:0:
196,200,70741,1,0,0:0:0:0:
196,200,70841,1,0,0:0:0:0:
196,200,71041,1,0,0:0:0:0:
196,200,71241,1,0,0:0:0:0:
196,200,71441,1,0,0:0:0:0:
196,200,71541,1,0,0:0:0:0:
196,200,71641,1,0,0:0:0:0:
196,200,71841,1,0,0:0:0:0:
196,200,72041,1,0,0:0:0:0:
196,200,72241,1,0,0:0:0:0:
196,200,72341,1,0,0:0:0:0:
196,200,72441,1,0,0:0:0:0:
196,200,72641,1,0,0:0:0:0:
196,200,72841,1,0,0:0:0:0:
196,200,73241,1,0,0:0:0:0:
196,200,73641,1,0,0:0:0:0:
216,228,73841,1,0,0:0:0:0:
216,228,73941,1,0,0:0:0:0:
216,228,74041,1,0,0:0:0:0:
216,228,74241,1,0,0:0:0:0:
216,228,74441,1,0,0:0:0:0:
216,228,74641,1,0,0:0:0:0:
216,228,74741,1,0,0:0:0:0:
216,228,74841,1,0,0:0:0:0:
216,228,75041,1,0,0:0:0:0:
216,228,75241,1,0,0:0:0:0:
216,228,75441,1,0,0:0:0:0:
216,228,75541,1,0,0:0:0:0:
216,228,75641,1,0,0:0:0:0:
216,228,75841,1,0,0:0:0:0:
216,228,76041,1,0,0:0:0:0:
216,228,76441,1,0,0:0:0:0:
216,228,76841,1,0,0:0:0:0:
216,228,77041,1,0,0:0:0:0:
216,228,77141,1,0,0:0:0:0:
216,228,77241,1,0,0:0:0:0:
216,228,77641,1,0,0:0:0:0:
216,228,77841,1,0,0:0:0:0:
216,228,77941,1,0,0:0:0:0:
216,228,78041,1,0,0:0:0:0:
216,228,78141,1,0,0:0:0:0:
216,228,78241,1,0,0:0:0:0:
216,228,80841,1,0,0:0:0:0:
216,228,81041,1,0,0:0:0:0:
216,228,81141,1,0,0:0:0:0:
216,228,81241,1,0,0:0:0:0:
216,228,81441,1,0,0:0:0:0:
216,228,81641,1,0,0:0:0:0:
216,228,81741,1,0,0:0:0:0:
216,228,81841,1,0,0:0:0:0:
216,228,82041,1,0,0:0:0:0:
216,228,82141,1,0,0:0:0:0:
216,228,82241,1,0,0:0:0:0:
216,228,82441,1,0,0:0:0:0:
216,228,82641,1,0,0:0:0:0:
216,228,82741,1,0,0:0:0:0:
216,228,82841,1,0,0:0:0:0:
216,228,83041,1,0,0:0:0:0:
216,228,83241,1,0,0:0:0:0:
216,228,83341,1,0,0:0:0:0:
216,228,83441,1,0,0:0:0:0:
216,228,83641,1,0,0:0:0:0:
216,228,83741,1,0,0:0:0:0:
216,228,83841,1,0,0:0:0:0:
216,228,84041,1,0,0:0:0:0:
216,228,84441,1,0,0:0:0:0:
216,228,84641,1,0,0:0:0:0:
216,228,84841,1,0,0:0:0:0:
216,228,85241,1,0,0:0:0:0:
216,228,85441,1,0,0:0:0:0:
216,228,85641,1,0,0:0:0:0:
216,228,86041,1,0,0:0:0:0:
216,228,86441,1,0,0:0:0:0:
216,228,86841,1,0,0:0:0:0:
216,228,87241,1,0,0:0:0:0:
216,228,87441,1,0,0:0:0:0:
216,228,87541,1,0,0:0:0:0:
216,228,87641,1,0,0:0:0:0:
216,228,87841,1,0,0:0:0:0:
216,228,88041,1,0,0:0:0:0:
216,228,88141,1,0,0:0:0:0:
216,228,88241,1,0,0:0:0:0:
216,228,88441,1,0,0:0:0:0:
216,228,88541,1,0,0:0:0:0:
216,228,88641,1,0,0:0:0:0:
216,228,88841,1,0,0:0:0:0:
216,228,89041,1,0,0:0:0:0:
216,228,89141,1,0,0:0:0:0:
216,228,89241,1,0,0:0:0:0:
216,228,89441,1,0,0:0:0:0:
216,228,89641,1,0,0:0:0:0:
216,228,90441,1,0,0:0:0:0:
216,228,91441,1,0,0:0:0:0:
216,228,91641,1,0,0:0:0:0:
216,228,91841,1,0,0:0:0:0:
216,228,92041,1,0,0:0:0:0:
216,228,93041,1,0,0:0:0:0:
216,228,93241,1,0,0:0:0:0:
216,228,93441,1,0,0:0:0:0:
216,228,93641,1,0,0:0:0:0:
216,228,95241,1,0,0:0:0:0:
216,228,96041,1,0,0:0:0:0:
216,228,96841,1,0,0:0:0:0:
216,228,97841,1,0,0:0:0:0:
216,228,98041,1,0,0:0:0:0:
216,228,98241,1,0,0:0:0:0:
216,228,98441,1,0,0:0:0:0:
216,228,99441,1,0,0:0:0:0:
216,228,99641,1,0,0:0:0:0:
216,228,99841,1,0,0:0:0:0:
216,228,100041,1,0,0:0:0:0:
216,228,101641,1,0,0:0:0:0:
216,228,103241,1,0,0:0:0:0:
248,200,130189,5,0,0:0:0:0:
248,200,130600,1,0,0:0:0:0:
248,200,131011,1,0,0:0:0:0:
248,200,131422,1,0,0:0:0:0:
248,200,131833,1,0,0:0:0:0:
248,200,132244,1,0,0:0:0:0:
248,200,132655,1,0,0:0:0:0:
248,200,133066,1,0,0:0:0:0:
248,200,133477,1,0,0:0:0:0:
248,200,133888,1,0,0:0:0:0:
248,200,134299,1,0,0:0:0:0:
248,200,134710,1,0,0:0:0:0:
248,200,135121,1,0,0:0:0:0:
244,264,135737,1,0,0:0:0:0:
244,264,136354,1,0,0:0:0:0:
256,208,136765,1,0,0:0:0:0:
256,208,137175,1,0,0:0:0:0:
256,208,137586,1,0,0:0:0:0:
256,208,137997,1,0,0:0:0:0:
256,208,138408,1,0,0:0:0:0:
256,208,138819,1,0,0:0:0:0:
256,208,139230,1,0,0:0:0:0:
256,208,139641,1,0,0:0:0:0:
256,208,140052,1,0,0:0:0:0:
256,208,140463,1,0,0:0:0:0:
256,208,140874,1,0,0:0:0:0:
256,208,141285,1,0,0:0:0:0:
256,208,141696,1,0,0:0:0:0:
256,208,142518,1,0,0:0:0:0:
256,208,143340,1,0,0:0:0:0:
256,208,143545,1,0,0:0:0:0:
256,208,143751,1,0,0:0:0:0:
256,208,143956,1,0,0:0:0:0:
256,208,144162,1,0,0:0:0:0:
256,208,144367,1,0,0:0:0:0:
256,208,144573,1,0,0:0:0:0:
256,208,144778,1,0,0:0:0:0:
256,208,144984,1,0,0:0:0:0:
256,208,145189,1,0,0:0:0:0:
256,208,145395,1,0,0:0:0:0:
256,208,145600,1,0,0:0:0:0:
256,208,145806,1,0,0:0:0:0:
256,208,146011,1,0,0:0:0:0:
256,208,146217,1,0,0:0:0:0:
256,208,146422,1,0,0:0:0:0:
256,208,146628,1,0,0:0:0:0:
256,208,146833,1,0,0:0:0:0:
256,208,147038,1,0,0:0:0:0:
256,208,147244,1,0,0:0:0:0:
256,208,147449,1,0,0:0:0:0:
256,208,147655,1,0,0:0:0:0:
256,208,147860,1,0,0:0:0:0:
256,208,148066,1,0,0:0:0:0:
256,208,148271,1,0,0:0:0:0:
256,208,148477,1,0,0:0:0:0:
256,208,148682,1,0,0:0:0:0:
256,208,148888,1,0,0:0:0:0:
256,208,149093,1,0,0:0:0:0:
256,208,149299,1,0,0:0:0:0:
256,208,149504,1,0,0:0:0:0:
256,208,149710,1,0,0:0:0:0:
256,208,149915,1,0,0:0:0:0:
256,208,150121,1,0,0:0:0:0:
256,208,150326,1,0,0:0:0:0:
256,208,150532,1,0,0:0:0:0:
256,208,150737,1,0,0:0:0:0:
256,208,150943,1,0,0:0:0:0:
256,208,151148,1,0,0:0:0:0:
256,208,151354,1,0,0:0:0:0:
256,208,151559,1,0,0:0:0:0:
256,208,151765,1,0,0:0:0:0:
256,208,151970,1,0,0:0:0:0:
256,208,152175,1,0,0:0:0:0:
256,208,152381,1,0,0:0:0:0:
256,208,152586,1,0,0:0:0:0:
256,208,152792,1,0,0:0:0:0:
256,208,152997,1,0,0:0:0:0:
256,208,153203,1,0,0:0:0:0:
256,208,153408,1,0,0:0:0:0:
256,208,153614,1,0,0:0:0:0:
256,208,153819,1,0,0:0:0:0:
256,208,154025,1,0,0:0:0:0:
256,208,154230,1,0,0:0:0:0:
256,208,154436,1,0,0:0:0:0:
256,208,154641,1,0,0:0:0:0:
256,208,154847,1,0,0:0:0:0:
256,208,155052,1,0,0:0:0:0:
256,208,155258,1,0,0:0:0:0:
256,208,155463,1,0,0:0:0:0:
256,208,155669,1,0,0:0:0:0:
256,208,155874,1,0,0:0:0:0:
256,208,156080,1,0,0:0:0:0:
256,208,156285,1,0,0:0:0:0:
256,208,156491,1,0,0:0:0:0:
256,208,156696,1,0,0:0:0:0:
256,208,156902,1,0,0:0:0:0:
256,208,157107,1,0,0:0:0:0:
256,208,157312,1,0,0:0:0:0:
256,208,157518,1,0,0:0:0:0:
256,208,157724,1,0,0:0:0:0:
256,208,157929,1,0,0:0:0:0:
256,208,158135,1,0,0:0:0:0:
256,208,158340,1,0,0:0:0:0:
256,208,158546,1,0,0:0:0:0:
256,208,158751,1,0,0:0:0:0:
256,208,158957,1,0,0:0:0:0:
256,208,159162,1,0,0:0:0:0:
256,208,159367,1,0,0:0:0:0:
256,208,159573,1,0,0:0:0:0:
256,208,159778,1,0,0:0:0:0:
236,192,159984,1,0,0:0:0:0:
236,192,160189,1,0,0:0:0:0:
236,192,160395,1,0,0:0:0:0:
236,192,160600,1,0,0:0:0:0:
236,192,160806,1,0,0:0:0:0:
236,192,161011,1,0,0:0:0:0:
236,192,161217,1,0,0:0:0:0:
236,192,161422,1,0,0:0:0:0:
236,192,161628,1,0,0:0:0:0:
236,192,161833,1,0,0:0:0:0:
236,192,162038,1,0,0:0:0:0:
236,192,162244,1,0,0:0:0:0:
236,192,162449,1,0,0:0:0:0:
236,192,162655,1,0,0:0:0:0:
236,192,162860,1,0,0:0:0:0:
236,192,163066,1,0,0:0:0:0:
236,192,164710,1,0,0:0:0:0:
236,192,166345,1,0,0:0:0:0:
236,192,166745,1,0,0:0:0:0:
236,192,167145,1,0,0:0:0:0:
236,192,167545,1,0,0:0:0:0:
236,192,167945,1,0,0:0:0:0:
236,192,168345,1,0,0:0:0:0:
236,192,168745,1,0,0:0:0:0:
236,192,169145,1,0,0:0:0:0:
236,192,169545,1,0,0:0:0:0:
236,192,169945,1,0,0:0:0:0:
236,192,170345,1,0,0:0:0:0:
236,192,170745,1,0,0:0:0:0:
236,192,171145,1,0,0:0:0:0:
236,192,172745,1,0,0:0:0:0:
236,192,173145,1,0,0:0:0:0:
236,192,173545,1,0,0:0:0:0:
236,192,173945,1,0,0:0:0:0:
236,192,174345,1,0,0:0:0:0:
236,192,174745,1,0,0:0:0:0:
236,192,175145,1,0,0:0:0:0:
236,192,175545,1,0,0:0:0:0:
236,192,175945,1,0,0:0:0:0:
236,192,176345,1,0,0:0:0:0:
236,192,176745,1,0,0:0:0:0:
236,192,177145,1,0,0:0:0:0:
236,192,177545,1,0,0:0:0:0:
236,192,177945,1,0,0:0:0:0:
236,192,178345,1,0,0:0:0:0:
236,192,178745,1,0,0:0:0:0:
236,192,179145,1,0,0:0:0:0:
236,192,180745,1,0,0:0:0:0:
236,192,180945,1,0,0:0:0:0:
236,192,181145,1,0,0:0:0:0:
236,192,181345,1,0,0:0:0:0:
236,192,181545,1,0,0:0:0:0:
236,192,182345,1,0,0:0:0:0:
236,192,183945,1,0,0:0:0:0:
236,192,184145,1,0,0:0:0:0:
236,192,184345,1,0,0:0:0:0:
236,192,184545,1,0,0:0:0:0:
236,192,184745,1,0,0:0:0:0:
236,192,185545,1,0,0:0:0:0:
236,192,187145,1,0,0:0:0:0:
236,192,187545,1,0,0:0:0:0:
236,192,187945,1,0,0:0:0:0:
236,192,188345,1,0,0:0:0:0:
236,192,188745,1,0,0:0:0:0:
236,192,190345,1,0,0:0:0:0:
