osu file format v14

[General]
AudioFilename: audio.mp3
AudioLeadIn: 0
PreviewTime: 56512
Countdown: 0
SampleSet: None
StackLeniency: 0.2
Mode: 0
LetterboxInBreaks: 0
WidescreenStoryboard: 1

[Editor]
Bookmarks: 37908,58752,120506,164142,167259,191317
DistanceSpacing: 1.2
BeatDivisor: 4
GridSize: 4
TimelineZoom: 1

[Metadata]
Title:Christ & Combat
TitleUnicode:Christ & Combat
Artist:Powerwolf
ArtistUnicode:Powerwolf
Creator:Pappy
Version:Extra
Source:
Tags:
BeatmapID:1831707
BeatmapSetID:853682

[Difficulty]
HPDrainRate:5
CircleSize:4
OverallDifficulty:8.2
ApproachRate:9.2
SliderMultiplier:2.84
SliderTickRate:1

[Events]
//Background and Video events
0,0,"world_of_warcraft_worgen-wallpaper-1920x1080.jpg",0,0
//Break Periods
//Storyboard Layer 0 (Background)
//Storyboard Layer 1 (Fail)
//Storyboard Layer 2 (Pass)
//Storyboard Layer 3 (Foreground)
//Storyboard Sound Samples

[TimingPoints]
506,389.61038961039,4,2,1,85,1,0
2064,-166.666666666667,4,2,1,85,0,0
3622,-125,4,2,1,85,0,0
6350,-212.765957446809,4,2,1,85,0,0
6739,-100,4,2,1,85,0,0
17648,-166.666666666667,4,2,1,85,0,0
18525,-166.666666666667,4,2,1,65,0,0
18817,-166.666666666667,4,2,1,35,0,0
19207,-166.666666666667,4,2,1,85,0,0
55051,-250,4,2,1,85,0,0
55830,-142.857142857143,4,2,1,85,0,0
56609,-90.9090909090908,4,2,1,85,0,1
70538,-100,4,2,1,85,0,0
70635,-100,4,2,1,85,0,1
70733,-100,4,2,1,85,0,0
118947,-500,4,2,1,85,0,0
120506,-90.9090909090909,4,2,1,85,0,1
134434,-100,4,2,1,85,0,0
134531,-100,4,2,1,85,0,1
134629,-142.857142857143,4,2,1,85,0,0
195311,-90.9090909090909,4,2,1,85,0,1
209272,-90.9090909090909,4,2,1,85,0,0
209337,-100,4,2,1,85,0,1
209402,-100,4,2,1,85,0,0
211674,-333.333333333333,4,2,1,85,0,0
212259,-166.666666666667,4,2,1,85,0,0

[Colours]
Combo1 : 119,129,168
Combo2 : 52,74,152

[HitObjects]
296,316,506,5,0,0:0:0:0:
150,268,766,1,0,0:0:0:0:
150,115,1025,1,0,0:0:0:0:
386,192,1285,1,0,0:0:0:0:
296,67,1544,1,0,0:0:0:0:
150,268,1804,1,0,0:0:0:0:
304,341,2064,5,0,0:0:0:0:
128,99,2324,1,0,0:0:0:0:
413,192,2583,1,0,0:0:0:0:
128,284,2843,1,0,0:0:0:0:
304,42,3233,1,0,0:0:0:0:
107,116,3428,1,0,0:0:0:0:
348,26,3622,6,0,L|339:139,1,113.6
452,161,3915,1,0,0:0:0:0:
452,161,4012,2,0,P|461:187|464:215,1,56.8
388,300,4207,2,0,P|378:273|375:245,1,56.8
437,384,4402,2,0,P|383:399|332:376,1,113.6
223,311,4694,1,0,0:0:0:0:
223,311,4791,2,0,L|235:366,1,56.8
111,284,4986,2,0,L|123:339,1,56.8
21,229,5181,5,0,0:0:0:0:
114,179,5441,1,0,0:0:0:0:
18,334,5700,1,0,0:0:0:0:
25,124,5960,2,0,B|71:88|123:88|123:88|179:117,1,170.4
206,126,6350,6,0,P|255:125|303:109,1,100.109998472443
361,44,6739,6,0,L|349:185,1,142
398,263,7031,1,0,0:0:0:0:
397,262,7129,2,0,P|433:262|467:252,1,71
349,334,7324,2,0,P|315:324|284:305,1,71
214,339,7518,6,0,B|318:316|318:316|348:333,1,142
439,346,7811,1,0,0:0:0:0:
439,346,7908,2,0,L|508:330,1,71
365,241,8103,2,0,L|295:225,1,71
191,249,8298,5,0,0:0:0:0:
133,250,8395,1,0,0:0:0:0:
85,220,8493,1,0,0:0:0:0:
59,169,8590,1,0,0:0:0:0:
65,113,8687,1,0,0:0:0:0:
101,68,8785,1,0,0:0:0:0:
155,51,8882,1,0,0:0:0:0:
210,66,8980,1,0,0:0:0:0:
248,107,9077,1,0,0:0:0:0:
300,126,9174,1,0,0:0:0:0:
356,122,9272,1,0,0:0:0:0:
405,94,9369,1,0,0:0:0:0:
436,49,9467,2,0,P|470:36|505:34,3,71
496,137,9856,6,0,L|474:277,1,142
416,349,10148,1,0,0:0:0:0:
415,349,10246,2,0,P|381:354|346:349,1,71
310,262,10441,2,0,P|345:256|380:262,1,71
251,334,10635,2,0,P|218:274|237:207,1,142
294,133,10928,1,0,0:0:0:0:
294,133,11025,2,0,L|282:62,1,71
377,92,11220,2,0,L|366:22,1,71
460,51,11415,6,0,B|467:97|467:97|498:133|498:133|505:180,1,142
308,210,11707,2,0,B|300:163|300:163|320:119|320:119|313:73,1,142
404,176,11999,2,0,L|414:246,1,71
435,370,12194,6,0,P|399:368|365:358,1,71
288,384,12389,2,0,P|256:366|229:343,1,71
148,334,12583,2,0,P|126:305|112:272,1,71
42,229,12778,2,0,P|34:193|35:158,1,71
4,297,12973,6,0,L|34:159,1,142
109,58,13265,1,0,0:0:0:0:
109,58,13363,2,0,P|115:93|114:129,1,71
193,199,13557,2,0,P|193:164|199:129,1,71
282,24,13752,6,0,P|286:94|276:165,1,142
171,214,14044,1,0,0:0:0:0:
171,214,14142,2,0,L|187:283,1,71
348,279,14337,2,0,L|281:259,1,71
273,360,14531,1,0,0:0:0:0:
320,384,14628,1,0,0:0:0:0:
372,384,14725,1,0,0:0:0:0:
420,358,14823,1,0,0:0:0:0:
451,315,14920,1,0,0:0:0:0:
456,262,15018,1,0,0:0:0:0:
438,211,15116,1,0,0:0:0:0:
400,172,15213,1,0,0:0:0:0:
382,120,15311,1,0,0:0:0:0:
387,65,15408,1,0,0:0:0:0:
414,17,15506,1,0,0:0:0:0:
422,23,15603,1,0,0:0:0:0:
428,27,15700,6,0,P|440:61|441:96,1,71
347,165,15895,2,0,P|335:131|334:96,1,71
512,26,16090,6,0,L|486:165,1,142
434,279,16382,1,0,0:0:0:0:
434,279,16480,2,0,P|417:248|415:212,1,71
484,355,16674,2,0,L|414:366,1,71
344,331,16869,6,0,L|483:354,1,142
300,255,17161,1,0,0:0:0:0:
300,255,17259,2,0,P|265:257|231:267,1,71
178,373,17454,2,0,P|212:382|247:384,1,71
422,293,17648,6,0,P|433:222|437:152,2,141.999995666504
340,349,18428,2,0,P|333:328|327:308,7,42.5999986999512
256,364,19207,6,0,L|339:348,1,85.1999973999024
440,329,19499,1,0,0:0:0:0:
440,329,19596,2,0,P|447:288|446:245,1,85.1999973999024
316,145,19889,1,0,0:0:0:0:
255,194,19986,2,0,P|297:189|339:180,1,85.1999973999024
482,133,20278,1,0,0:0:0:0:
482,133,20376,2,0,P|439:128|397:119,1,85.1999973999024
240,114,20668,1,0,0:0:0:0:
164,143,20765,6,0,L|176:227,1,85.1999973999024
137,334,21057,2,0,L|149:249,1,85.1999973999024
42,283,21350,2,0,P|21:286|0:289,1,42.5999986999512
230,299,21544,2,0,P|251:301|272:305,1,42.5999986999512
341,353,21739,1,0,0:0:0:0:
239,209,21934,2,0,P|217:211|196:215,1,42.5999986999512
143,382,22129,1,0,0:0:0:0:
427,381,22324,6,0,P|438:340|439:297,1,85.1999973999024
331,237,22616,2,0,P|332:279|343:320,1,85.1999973999024
311,166,22908,2,0,P|303:185|298:206,1,42.5999986999512
436,164,23103,2,0,B|426:105|426:105|409:86,1,85.1999973999024
362,23,23395,2,0,B|372:82|372:82|388:100,1,85.1999973999024
465,187,23687,2,0,L|457:145,1,42.5999986999512
279,80,23882,5,0,0:0:0:0:
270,99,23980,1,0,0:0:0:0:
261,116,24077,2,0,L|303:111,1,42.5999986999512
197,183,24272,1,0,0:0:0:0:
197,183,24369,1,0,0:0:0:0:
196,183,24467,2,0,P|195:204|198:225,1,42.5999986999512
188,58,24661,2,0,L|145:53,1,42.5999986999512
20,174,24856,2,0,L|62:169,1,42.5999986999512
221,258,25051,2,0,P|221:279|218:300,1,42.5999986999512
0,342,25246,2,0,P|0:363|2:384,1,42.5999986999512
290,361,25441,6,0,L|374:375,1,85.1999973999024
454,258,25733,1,0,0:0:0:0:
454,258,25830,2,0,L|370:272,1,85.1999973999024
460,348,26122,1,0,0:0:0:0:
490,239,26220,2,0,P|481:197|469:156,1,85.1999973999024
341,340,26512,1,0,0:0:0:0:
341,340,26609,2,0,P|343:297|342:254,1,85.1999973999024
276,116,26902,1,0,0:0:0:0:
197,111,26999,6,0,P|204:152|232:183,1,85.1999973999024
355,119,27291,2,0,P|347:77|319:46,1,85.1999973999024
130,60,27583,2,0,P|120:78|113:99,1,42.5999986999512
211,188,27778,2,0,P|204:167|194:148,1,42.5999986999512
52,47,27973,1,0,0:0:0:0:
176,257,28168,2,0,P|178:235|177:214,1,42.5999986999512
38,72,28363,2,0,P|36:94|37:115,1,42.5999986999512
0,232,28557,5,0,0:0:0:0:
24,277,28655,1,0,0:0:0:0:
60,313,28752,1,0,0:0:0:0:
106,336,28850,1,0,0:0:0:0:
156,345,28947,1,0,0:0:0:0:
207,339,29044,1,0,0:0:0:0:
254,318,29142,1,0,0:0:0:0:
292,284,29239,1,0,0:0:0:0:
342,275,29337,1,0,0:0:0:0:
393,279,29434,1,0,0:0:0:0:
441,296,29531,1,0,0:0:0:0:
483,325,29629,1,0,0:0:0:0:
512,366,29726,2,0,L|506:323,1,42.5999986999512
345,350,29921,2,0,L|350:307,1,42.5999986999512
393,172,30116,5,0,0:0:0:0:
0,269,30506,1,0,0:0:0:0:
393,172,30895,1,0,0:0:0:0:
192,81,31090,2,0,P|192:103|195:124,1,42.5999986999512
331,93,31285,2,0,P|330:71|327:50,1,42.5999986999512
99,204,31480,2,0,P|114:218|131:231,1,42.5999986999512
382,256,31674,6,0,L|395:154,1,85.1999973999024
259,131,31967,1,0,0:0:0:0:
259,130,32064,2,0,P|261:151|269:170,1,42.5999986999512
439,213,32259,2,0,L|481:218,1,42.5999986999512
433,346,32454,2,0,L|348:356,1,85.1999973999024
238,275,32746,1,0,0:0:0:0:
238,274,32843,2,0,P|235:296|236:317,1,42.5999986999512
334,243,33038,2,0,P|336:221|335:200,1,42.5999986999512
155,290,33233,6,0,P|197:287|237:274,1,85.1999973999024
418,185,33525,2,0,P|375:187|335:200,1,85.1999973999024
207,341,33817,2,0,L|248:351,1,42.5999986999512
319,209,34012,2,0,L|307:167,1,42.5999986999512
149,179,34207,1,0,0:0:0:0:
149,179,34304,1,0,0:0:0:0:
149,179,34402,2,0,L|119:209,1,42.5999986999512
123,81,34596,1,0,0:0:0:0:
61,272,34791,6,0,P|97:293|139:292,1,85.1999973999024
189,351,35083,2,0,P|147:349|111:371,1,85.1999973999024
24,299,35376,2,0,P|14:280|11:259,1,42.5999986999512
121,163,35570,2,0,L|106:247,1,85.1999973999024
27,171,35863,2,0,L|41:86,1,85.1999973999024
141,234,36155,2,0,L|133:276,1,42.5999986999512
8,323,36350,6,0,P|2:302|0:281,3,42.5999986999512
104,166,36739,2,0,P|106:144|112:124,3,42.5999986999512
112,282,37129,1,0,0:0:0:0:
157,305,37226,1,0,0:0:0:0:
204,284,37324,1,0,0:0:0:0:
249,307,37421,1,0,0:0:0:0:
297,291,37518,1,0,0:0:0:0:
342,314,37615,1,0,0:0:0:0:
389,293,37713,1,0,0:0:0:0:
434,316,37810,1,0,0:0:0:0:
479,339,37908,6,0,L|483:253,1,85.1999973999024
409,182,38200,1,0,0:0:0:0:
409,182,38298,2,0,L|413:96,1,85.1999973999024
331,22,38590,1,0,0:0:0:0:
249,11,38687,2,0,P|207:17|170:39,1,85.1999973999024
166,142,38980,1,0,0:0:0:0:
166,142,39077,2,0,P|207:135|244:113,1,85.1999973999024
226,184,39369,1,0,0:0:0:0:
159,226,39467,6,0,L|165:141,1,85.1999973999024
75,195,39759,2,0,L|81:279,1,85.1999973999024
163,365,40051,2,0,L|166:322,1,42.5999986999512
255,268,40246,2,0,P|296:260|339:257,2,85.1999973999024
139,378,40830,1,0,0:0:0:0:
35,274,41025,5,0,0:0:0:0:
45,224,41122,1,0,0:0:0:0:
55,173,41220,1,0,0:0:0:0:
65,123,41317,1,0,0:0:0:0:
76,72,41415,1,0,0:0:0:0:
114,105,41511,1,0,0:0:0:0:
153,140,41609,1,0,0:0:0:0:
191,173,41706,1,0,0:0:0:0:
230,208,41804,1,0,0:0:0:0:
182,224,41901,1,0,0:0:0:0:
132,240,41999,1,0,0:0:0:0:
85,257,42096,1,0,0:0:0:0:
35,273,42194,5,0,0:0:0:0:
55,173,42291,1,0,0:0:0:0:
76,72,42389,1,0,0:0:0:0:
153,140,42486,1,0,0:0:0:0:
230,208,42583,6,0,L|220:309,1,85.1999973999024
318,156,42973,2,0,L|308:257,1,85.1999973999024
409,110,43363,1,0,0:0:0:0:
76,72,43557,2,0,L|80:114,1,42.5999986999512
153,140,43752,2,0,L|157:182,1,42.5999986999512
230,208,43947,2,0,L|234:250,1,42.5999986999512
155,359,44142,6,0,P|132:355|113:350,1,42.5999986999512
232,329,44337,2,0,P|254:325|273:320,1,42.5999986999512
75,277,44531,2,0,L|79:234,1,42.5999986999512
358,288,44726,2,0,L|362:330,1,42.5999986999512
173,253,44921,2,0,L|164:169,1,85.1999973999024
100,43,45213,2,0,P|141:32|183:31,1,85.1999973999024
67,139,45506,2,0,P|45:138|25:133,1,42.5999986999512
280,62,45700,5,0,0:0:0:0:
292,57,45798,1,0,0:0:0:0:
305,52,45895,1,0,0:0:0:0:
169,196,46090,2,0,P|148:199|128:207,2,42.5999986999512
308,67,46480,5,0,0:0:0:0:
320,62,46578,1,0,0:0:0:0:
333,57,46674,1,0,0:0:0:0:
345,52,46772,1,0,0:0:0:0:
358,47,46869,1,0,0:0:0:0:
353,98,46967,1,0,0:0:0:0:
348,148,47064,1,0,0:0:0:0:
343,198,47161,1,0,0:0:0:0:
338,249,47259,6,0,L|334:301,1,42.5999986999512
445,244,47454,2,0,L|415:287,1,42.5999986999512
234,217,47648,2,0,L|256:264,1,42.5999986999512
387,167,47843,2,0,L|390:124,1,42.5999986999512
310,75,48038,2,0,L|303:159,1,85.1999973999024
338,249,48330,2,0,L|331:333,1,85.1999973999024
241,362,48622,2,0,P|219:359|199:351,1,42.5999986999512
27,260,48817,5,0,0:0:0:0:
27,260,48915,1,0,0:0:0:0:
27,260,49012,2,0,P|42:329|45:335,1,42.5999986999512
163,259,49207,1,0,0:0:0:0:
129,244,49304,1,0,0:0:0:0:
108,211,49402,2,0,P|96:193|91:172,1,42.5999986999512
190,82,49596,2,0,P|177:99|171:119,1,42.5999986999512
273,204,49791,2,0,P|260:186|254:166,1,42.5999986999512
373,92,49986,2,0,P|354:102|340:118,1,42.5999986999512
457,201,50181,2,0,P|438:190|424:174,1,42.5999986999512
392,71,50376,5,0,0:0:0:0:
271,232,50570,1,0,0:0:0:0:
167,50,50765,1,0,0:0:0:0:
87,254,50960,1,0,0:0:0:0:
87,254,51155,2,0,L|115:349,1,85.1999973999024
152,159,51447,2,0,L|176:240,1,85.1999973999024
57,165,51739,2,0,L|44:124,1,42.5999986999512
