osu file format v14

[General]
AudioFilename: audio.mp3
AudioLeadIn: 0
PreviewTime: 101268
Countdown: 0
SampleSet: Drum
StackLeniency: 0.5
Mode: 0
LetterboxInBreaks: 0
WidescreenStoryboard: 0

[Editor]
Bookmarks: 455,11617,22780,33943,45106,56268,78594,89757,102315,124641,135803,146966,158129,170687,193013,198594
DistanceSpacing: 0.8
BeatDivisor: 4
GridSize: 32
TimelineZoom: 1.5

[Metadata]
Title:Army Of The Night
TitleUnicode:Army Of The Night
Artist:Powerwolf
ArtistUnicode:Powerwolf
Creator:piroshki
Version:Normal
Source:
Tags:blessed & possessed and metal rock english gazpriest nekroman4ik
BeatmapID:2229522
BeatmapSetID:1044785

[Difficulty]
HPDrainRate:3
CircleSize:3.5
OverallDifficulty:4
ApproachRate:5
SliderMultiplier:1.1
SliderTickRate:1

[Events]
//Background and Video events
0,0,"72022147_p0.jpg",0,0
//Break Periods
2,146966,156908
//Storyboard Layer 0 (Background)
//Storyboard Layer 1 (Fail)
//Storyboard Layer 2 (Pass)
//Storyboard Layer 3 (Foreground)
//Storyboard Layer 4 (Overlay)
//Storyboard Sound Samples

[TimingPoints]
455,348.837209302326,4,3,1,50,1,0
11617,-100,4,3,1,70,0,1
12838,-100,4,3,2,70,0,1
12925,-100,4,3,1,70,0,1
13186,-100,4,3,2,70,0,1
13623,-100,4,3,1,70,0,1
13885,-100,4,3,2,70,0,1
14059,-100,4,3,1,70,0,1
15629,-100,4,3,2,70,0,1
15716,-100,4,3,1,70,0,1
15977,-100,4,3,2,70,0,1
16414,-100,4,3,1,70,0,1
18420,-100,4,3,2,70,0,1
18507,-100,4,3,1,70,0,1
18768,-100,4,3,2,70,0,1
19204,-100,4,3,1,70,0,1
19466,-100,4,3,2,70,0,1
19641,-100,4,3,1,70,0,1
22780,-100,4,3,1,60,0,0
24001,-100,4,3,2,60,0,0
24088,-100,4,3,1,60,0,0
24349,-100,4,3,2,60,0,0
24786,-100,4,3,1,60,0,0
25048,-100,4,3,2,60,0,0
25222,-100,4,3,1,60,0,0
26792,-100,4,3,2,60,0,0
26879,-100,4,3,1,60,0,0
27140,-100,4,3,2,60,0,0
27576,-100,4,3,1,60,0,0
29582,-100,4,3,2,60,0,0
29669,-100,4,3,1,60,0,0
29930,-100,4,3,2,60,0,0
30367,-100,4,3,1,60,0,0
30629,-100,4,3,2,60,0,0
30803,-100,4,3,1,60,0,0
33245,-100,4,3,1,40,0,0
33943,-100,4,3,1,50,0,0
34466,-100,4,3,2,50,0,0
34989,-100,4,3,1,50,0,0
37257,-100,4,3,2,50,0,0
37780,-100,4,3,1,50,0,0
40048,-100,4,3,2,50,0,0
40571,-100,4,3,1,50,0,0
42838,-100,4,3,2,50,0,0
43361,-100,4,3,1,50,0,0
45106,-100,4,3,1,65,0,0
45629,-100,4,3,2,65,0,0
45716,-100,4,3,1,65,0,0
47024,-100,4,3,2,65,0,0
47111,-100,4,3,1,65,0,0
48420,-100,4,3,2,65,0,0
48507,-100,4,3,1,65,0,0
51210,-100,4,3,2,65,0,0
51297,-100,4,3,1,65,0,0
52606,-100,4,3,2,65,0,0
52693,-100,4,3,1,65,0,0
56268,-100,4,3,1,80,0,1
57489,-100,4,3,2,80,0,1
57577,-100,4,3,1,80,0,1
57837,-100,4,3,2,80,0,1
58275,-100,4,3,1,80,0,1
58536,-100,4,3,2,80,0,1
58710,-100,4,3,1,80,0,1
60280,-100,4,3,2,80,0,1
60368,-100,4,3,1,80,0,1
60628,-100,4,3,2,80,0,1
61066,-100,4,3,1,80,0,1
63071,-100,4,3,2,80,0,1
63159,-100,4,3,1,80,0,1
63419,-100,4,3,2,80,0,1
64292,-100,4,3,1,80,0,1
68652,-100,4,3,2,80,0,1
68740,-100,4,3,1,80,0,1
69000,-100,4,3,2,80,0,1
69873,-100,4,3,1,80,0,1
71443,-100,4,3,2,80,0,1
71531,-100,4,3,1,80,0,1
71791,-100,4,3,2,80,0,1
72229,-100,4,3,1,80,0,1
74234,-100,4,3,2,80,0,1
74322,-100,4,3,1,80,0,1
74582,-100,4,3,2,80,0,1
75455,-100,4,3,1,80,0,1
78594,-100,4,3,1,55,0,0
79117,-100,4,3,2,55,0,0
79641,-100,4,3,1,55,0,0
81908,-100,4,3,2,55,0,0
82431,-100,4,3,1,55,0,0
84699,-100,4,3,2,55,0,0
85222,-100,4,3,1,55,0,0
87489,-100,4,3,2,55,0,0
88013,-100,4,3,1,55,0,0
89757,-100,4,3,1,65,0,0
90280,-100,4,3,2,65,0,0
90367,-100,4,3,1,65,0,0
91675,-100,4,3,2,65,0,0
91762,-100,4,3,1,65,0,0
93071,-100,4,3,2,65,0,0
93158,-100,4,3,1,65,0,0
95861,-100,4,3,2,65,0,0
95948,-100,4,3,1,65,0,0
97257,-100,4,3,2,65,0,0
97344,-100,4,3,1,65,0,0
102315,-100,4,3,1,80,0,1
103536,-100,4,3,2,80,0,1
103623,-100,4,3,1,80,0,1
103884,-100,4,3,2,80,0,1
104757,-100,4,3,1,80,0,1
106327,-100,4,3,2,80,0,1
106414,-100,4,3,1,80,0,1
106675,-100,4,3,2,80,0,1
107111,-100,4,3,1,80,0,1
109117,-100,4,3,2,80,0,1
109204,-100,4,3,1,80,0,1
109465,-100,4,3,2,80,0,1
110338,-100,4,3,1,80,0,1
114699,-100,4,3,2,80,0,1
114786,-100,4,3,1,80,0,1
115047,-100,4,3,2,80,0,1
115920,-100,4,3,1,80,0,1
117489,-100,4,3,2,80,0,1
117576,-100,4,3,1,80,0,1
117837,-100,4,3,2,80,0,1
118274,-100,4,3,1,80,0,1
120280,-100,4,3,2,80,0,1
120367,-100,4,3,1,80,0,1
120628,-100,4,3,2,80,0,1
121501,-100,4,3,1,80,0,1
124292,-100,4,3,1,50,0,1
124641,-100,4,3,2,60,0,0
144175,-100,4,3,2,70,0,0
158129,-100,4,3,2,50,0,0
159873,-100,4,3,1,50,0,0
166501,-100,4,3,1,40,0,0
167896,-100,4,3,1,60,0,0
170687,-100,4,3,1,80,0,1
171908,-100,4,3,2,80,0,1
171995,-100,4,3,1,80,0,1
172256,-100,4,3,2,80,0,1
173129,-100,4,3,1,80,0,1
174699,-100,4,3,2,80,0,1
174786,-100,4,3,1,80,0,1
175047,-100,4,3,2,80,0,1
175483,-100,4,3,1,80,0,1
177489,-100,4,3,2,80,0,1
177576,-100,4,3,1,80,0,1
177837,-100,4,3,2,80,0,1
178710,-100,4,3,1,80,0,1
183071,-100,4,3,2,80,0,1
183158,-100,4,3,1,80,0,1
183419,-100,4,3,2,80,0,1
184292,-100,4,3,1,80,0,1
185861,-100,4,3,2,80,0,1
185948,-100,4,3,1,80,0,1
186209,-100,4,3,2,80,0,1
186646,-100,4,3,1,80,0,1
188652,-100,4,3,2,80,0,1
188739,-100,4,3,1,80,0,1
189000,-100,4,3,2,80,0,1
189873,-100,4,3,1,80,0,1
193013,-100,4,3,1,60,0,0

[Colours]
Combo1 : 118,121,124
Combo2 : 128,64,64
Combo3 : 155,16,13
Combo4 : 203,184,184

[HitObjects]
344,5,455,5,4,3:2:0:0:
489,225,1501,5,4,3:2:0:0:
489,225,1675,1,4,3:2:0:0:
219,374,2896,2,0,L|221:319,1,55,4|0,3:2|3:0,3:0:0:0:
247,283,3245,1,4,3:2:0:0:
217,21,4292,5,4,3:2:0:0:
217,21,4466,1,4,3:2:0:0:
6,245,5687,6,0,L|60:255,1,55,4|0,3:2|3:0,3:0:0:0:
90,287,6036,1,4,3:2:0:0:
337,195,7082,5,4,3:2:0:0:
337,195,7257,1,4,3:2:0:0:
81,0,8827,6,0,B|101:16|101:16|90:115,1,110,4|0,3:2|3:0,3:0:0:0:
62,132,9350,2,0,L|72:212,1,55,4|0,3:2|3:0,3:0:0:0:
8,250,9873,6,0,P|25:271|46:287,1,55,4|0,3:2|3:0,3:0:0:0:
68,326,10222,2,0,B|106:307|106:307|296:324,1,220,4|4,3:2|3:2,3:0:0:0:
454,281,11617,6,0,P|459:224|435:161,1,110,6|10,3:2|3:2,3:0:0:0:
476,92,12315,1,2,3:2:0:0:
407,37,12664,1,10,3:2:0:0:
407,37,12838,2,0,L|285:56,1,110,2|2,3:2|3:2,3:0:0:0:
219,92,13536,1,2,3:2:0:0:
139,53,13885,1,2,3:2:0:0:
96,63,14059,1,10,3:2:0:0:
59,140,14408,6,0,B|72:157|72:157|67:249,1,110,6|10,3:2|3:2,3:0:0:0:
137,298,15106,1,2,3:2:0:0:
209,248,15455,1,10,3:2:0:0:
209,248,15629,2,0,L|215:135,1,110,10|2,3:2|3:2,3:0:0:0:
176,58,16327,1,2,3:2:0:0:
260,34,16675,2,0,P|281:50|306:61,1,55,8|8,3:2|3:2,3:0:0:0:
348,45,17024,1,8,3:2:0:0:
348,45,17199,6,0,L|343:154,1,110,6|10,3:2|3:2,3:0:0:0:
413,219,17896,1,2,3:2:0:0:
406,306,18245,1,10,3:2:0:0:
406,306,18420,2,0,B|386:324|386:324|303:316,1,110,2|2,3:2|3:2,3:0:0:0:
223,279,19117,1,2,3:2:0:0:
143,311,19466,1,2,3:2:0:0:
114,344,19641,1,10,3:2:0:0:
34,305,19989,6,0,P|32:251|42:197,1,110,4|4,3:2|3:0,3:0:0:0:
33,152,20513,2,0,L|158:164,1,110,4|4,3:0|3:0,3:0:0:0:
171,128,21036,1,4,3:0:0:0:
255,151,21385,2,0,B|283:158|283:158|415:125,1,165,8|8,3:0|3:0,3:0:0:0:
458,133,22082,2,0,L|453:189,1,55,8|8,3:0|3:0,3:0:0:0:
473,226,22431,1,8,3:2:0:0:
467,269,22606,1,0,3:0:0:0:
461,312,22780,6,0,L|338:298,1,110,6|10,3:2|3:2,3:0:0:0:
275,255,23478,1,2,3:2:0:0:
219,323,23827,1,10,3:2:0:0:
219,323,24001,2,0,L|109:311,1,110,2|2,3:2|3:2,3:0:0:0:
31,351,24699,1,2,3:2:0:0:
9,265,25048,1,2,3:2:0:0:
9,265,25222,1,10,3:2:0:0:
32,180,25571,6,0,L|151:197,1,110,6|10,3:2|3:2,3:0:0:0:
198,129,26268,1,2,3:2:0:0:
254,61,26617,1,10,3:2:0:0:
254,61,26792,2,0,L|362:77,1,110,10|2,3:2|3:2,3:0:0:0:
445,46,27489,2,0,P|461:84|470:113,1,55,2|2,3:2|3:2,3:0:0:0:
458,140,27838,2,0,P|442:178|433:207,1,55,8|8,3:2|3:2,3:0:0:0:
458,229,28187,1,8,3:2:0:0:
481,265,28361,6,0,P|437:298|386:319,1,110,6|10,3:2|3:2,3:0:0:0:
317,261,29059,1,2,3:2:0:0:
259,194,29408,1,10,3:2:0:0:
259,194,29582,2,0,P|209:169|156:155,1,110,2|2,3:2|3:2,3:0:0:0:
70,135,30280,1,2,3:2:0:0:
33,215,30629,1,2,3:2:0:0:
33,215,30803,1,10,3:2:0:0:
2,296,31152,6,0,P|40:334|96:355,1,110,4|4,3:2|3:0,3:0:0:0:
131,372,31675,2,0,P|183:336|238:316,1,110,4|4,3:0|3:0,3:0:0:0:
260,290,32199,1,4,3:0:0:0:
300,307,32373,1,4,3:0:0:0:
339,325,32548,6,0,B|356:302|356:302|335:106,1,220,8|0,3:2|2:0,3:0:0:0:
475,4,33943,6,0,L|485:117,1,110,6|10,3:2|3:2,3:0:0:0:
458,149,34466,1,2,3:2:0:0:
466,236,34815,1,0,3:0:0:0:
466,236,34989,2,0,L|475:311,1,55,10|0,3:2|3:0,3:0:0:0:
488,329,35338,2,0,B|470:347|470:347|385:340,1,110,2|10,3:2|3:2,3:0:0:0:
300,364,36036,1,2,3:2:0:0:
214,343,36385,1,10,3:2:0:0:
125,367,36734,6,0,P|96:320|92:266,1,110,2|10,3:2|3:2,3:0:0:0:
112,227,37257,1,2,3:2:0:0:
46,167,37606,1,0,3:0:0:0:
46,167,37780,1,10,3:2:0:0:
46,78,38129,2,0,P|92:48|146:40,1,110,2|10,3:2|3:2,3:0:0:0:
227,8,38827,2,0,P|274:35|310:76,1,110,2|10,3:2|3:2,3:0:0:0:
348,157,39524,6,0,B|341:191|341:191|358:289,1,110,2|10,3:2|3:2,3:0:0:0:
391,289,40048,1,2,3:2:0:0:
458,233,40396,1,0,3:0:0:0:
458,233,40571,2,0,L|468:179,1,55,10|0,3:2|3:0,3:0:0:0:
500,149,40920,2,0,P|483:96|456:48,1,110,2|10,3:2|3:2,3:0:0:0:
368,42,41617,1,2,3:2:0:0:
280,35,41966,1,10,3:2:0:0:
192,26,42315,6,0,L|77:48,1,110,2|10,3:2|3:2,3:0:0:0:
51,17,42838,1,2,3:2:0:0:
1,89,43187,1,2,3:2:0:0:
1,89,43361,1,0,0:0:0:0:
48,163,43710,2,0,L|33:294,1,110,2|10,3:2|3:2,3:0:0:0:
28,360,44408,2,0,P|81:366|130:342,1,110,2|10,3:2|3:2,3:0:0:0:
196,288,45106,6,0,L|182:220,1,55,6|0,3:2|3:0,3:0:0:0:
154,201,45455,1,10,3:2:0:0:
154,201,45629,2,0,P|193:173|266:159,1,110,2|0,3:2|3:0,3:0:0:0:
284,128,46152,1,10,3:2:0:0:
351,71,46501,6,0,P|372:88|388:110,1,55,2|0,3:2|3:0,3:0:0:0:
432,116,46850,1,10,3:2:0:0:
432,116,47024,2,0,L|421:228,1,110,2|0,3:2|3:0,3:0:0:0:
446,261,47548,1,10,3:2:0:0:
492,334,47896,6,0,P|472:354|448:367,1,55,6|0,3:2|3:0,3:0:0:0:
405,357,48245,1,10,3:2:0:0:
405,357,48420,2,0,P|354:333|301:320,1,110,2|0,3:2|3:0,3:0:0:0:
268,292,48943,1,10,3:2:0:0:
197,344,49292,6,0,L|135:337,1,55,2|0,3:2|3:0,3:0:0:0:
108,309,49641,1,10,3:2:0:0:
34,260,49989,2,0,P|47:236|66:216,1,55,2|0,3:2|3:0,3:0:0:0:
53,174,50338,1,10,3:2:0:0:
120,116,50687,6,0,P|108:89|101:61,1,55,6|0,3:2|3:0,3:0:0:0:
114,22,51036,1,10,3:2:0:0:
114,22,51210,2,0,L|235:26,1,110,2|0,3:2|3:0,3:0:0:0:
264,6,51734,1,10,3:2:0:0:
318,74,52082,6,0,L|312:141,1,55,2|0,3:2|3:0,3:0:0:0:
282,160,52431,1,10,3:2:0:0:
282,160,52606,2,0,L|299:268,1,110,2|0,3:2|3:0,3:0:0:0:
283,309,53129,1,10,3:2:0:0:
351,363,53478,6,0,P|404:348|451:318,1,110,4|4,3:2|3:0,3:0:0:0:
492,302,54001,2,0,L|466:195,1,110,12|4,3:2|3:0,3:0:0:0:
483,154,54524,1,4,3:2:0:0:
461,68,54873,2,0,P|434:61|395:59,1,55,8|8,3:0|3:0,3:0:0:0:
372,86,55222,2,0,P|345:92|306:95,1,55,8|8,3:0|3:0,3:0:0:0:
283,67,55571,1,8,3:2:0:0:
113,17,56268,6,0,P|79:64|62:113,1,110,6|10,3:2|3:2,3:0:0:0:
11,184,56966,1,2,3:2:0:0:
32,269,57315,1,10,3:2:0:0:
32,269,57489,2,0,L|52:381,1,110,2|2,3:2|3:2,3:0:0:0:
137,364,58187,1,2,0:2:0:0:
198,300,58536,1,2,3:2:0:0:
241,297,58710,1,10,3:2:0:0:
258,210,59059,6,0,L|273:97,1,110,6|10,3:2|3:2,3:0:0:0:
342,42,59757,1,2,3:2:0:0:
411,95,60106,1,10,3:2:0:0:
411,95,60280,2,0,L|397:204,1,110,10|2,3:2|3:2,3:0:0:0:
453,272,60978,1,2,0:2:0:0:
389,332,61327,2,0,P|346:319|316:320,1,55,8|8,3:2|3:2,3:0:0:0:
300,343,61675,1,8,3:2:0:0:
300,343,61850,6,0,P|259:362|178:367,1,110,6|10,3:2|3:2,3:0:0:0:
122,318,62548,1,2,3:2:0:0:
162,241,62896,1,10,3:2:0:0:
162,241,63071,2,0,P|216:243|268:262,1,110,2|2,3:2|3:2,3:0:0:0:
341,214,63768,1,2,3:2:0:0:
418,171,64117,1,2,3:2:0:0:
418,171,64292,2,0,P|421:144|429:114,1,55,10|0,3:2|3:0,3:0:0:0:
467,96,64641,6,0,P|455:56|415:-2,1,110,4|4,3:2|3:0,3:0:0:0:
373,5,65164,2,0,L|265:27,1,110,4|4,3:0|3:0,3:0:0:0:
222,15,65687,1,4,3:0:0:0:
133,17,66036,2,0,L|162:183,1,165,8|8,3:0|3:0,3:0:0:0:
195,207,66734,2,0,L|179:275,1,55,8|8,3:0|3:0,3:0:0:0:
205,297,67082,1,0,3:0:0:0:
225,335,67257,1,8,3:2:0:0:
243,374,67431,6,0,L|134:362,1,110,6|10,3:2|3:2,3:0:0:0:
47,382,68129,1,2,3:2:0:0:
1,306,68478,1,10,3:2:0:0:
1,306,68652,2,0,L|22:192,1,110,2|2,3:2|3:2,3:0:0:0:
6,110,69350,1,2,3:2:0:0:
74,55,69699,1,2,3:2:0:0:
74,55,69873,2,0,L|141:66,1,55,10|0,3:2|3:0,3:0:0:0:
165,87,70222,6,0,L|277:69,1,110,6|10,3:2|3:2,3:0:0:0:
360,55,70920,1,2,3:2:0:0:
447,47,71268,1,10,3:2:0:0:
447,47,71443,2,0,B|455:72|455:72|430:165,1,110,10|2,3:2|3:2,3:0:0:0:
469,233,72141,1,2,3:2:0:0:
405,293,72489,2,0,P|378:286|353:274,1,55,8|8,3:2|3:2,3:0:0:0:
309,276,72838,1,8,3:2:0:0:
309,276,73013,6,0,L|299:146,1,110,6|10,3:2|3:2,3:0:0:0:
335,85,73710,1,2,3:2:0:0:
275,26,74059,1,10,3:2:0:0:
274,26,74234,2,0,P|220:33|166:44,1,110,2|2,3:2|3:2,3:0:0:0:
80,23,74931,1,2,3:2:0:0:
20,87,75280,1,2,3:2:0:0:
20,87,75455,2,0,L|34:153,1,55,10|0,3:2|3:0,3:0:0:0:
60,173,75803,6,0,L|47:282,1,110,4|4,3:2|3:0,3:0:0:0:
28,321,76327,2,0,P|73:353|127:358,1,110,4|4,3:0|3:0,3:0:0:0:
154,323,76850,1,4,3:0:0:0:
237,350,77199,2,0,P|283:276|303:251,1,110,8|8,3:0|3:0,3:0:0:0:
305,214,77722,1,8,3:0:0:0:
327,175,77897,2,0,P|354:170|381:172,1,55,8|8,3:0|3:0,3:0:0:0:
423,186,78245,1,8,3:2:0:0:
479,253,78594,6,0,L|474:321,1,55,6|0,3:2|3:0,3:0:0:0:
444,339,78943,1,10,3:2:0:0:
414,371,79117,1,2,3:2:0:0:
326,348,79466,1,0,3:2:0:0:
326,348,79641,2,0,L|254:362,1,55,10|0,3:2|3:0,3:0:0:0:
230,373,79989,2,0,P|190:334|142:309,1,110,2|10,3:2|3:2,3:0:0:0:
68,261,80687,2,0,P|69:213|82:188,1,55,2|0,3:2|3:2,3:0:0:0:
107,178,81036,1,10,3:2:0:0:
75,95,81385,6,0,L|132:68,1,55,6|0,3:2|3:0,3:0:0:0:
150,35,81734,1,10,3:2:0:0:
180,2,81908,1,2,3:2:0:0:
264,27,82257,1,0,3:2:0:0:
264,27,82431,2,0,L|337:11,1,55,10|0,3:2|3:0,3:0:0:0:
360,4,82780,6,0,L|345:120,1,110,2|10,3:2|3:2,3:0:0:0:
312,194,83478,2,0,L|328:252,1,55,2|0,3:2|3:2,3:0:0:0:
314,289,83827,1,10,3:2:0:0:
372,354,84175,6,0,L|434:335,1,55,6|0,3:2|3:0,3:0:0:0:
466,350,84524,1,10,3:2:0:0:
501,324,84699,1,2,3:2:0:0:
470,241,85048,1,0,3:2:0:0:
470,241,85222,2,0,L|488:166,1,55,10|0,3:2|3:0,3:0:0:0:
494,144,85571,2,0,P|467:91|434:51,1,110,2|10,3:2|3:2,3:0:0:0:
349,29,86268,2,0,L|284:41,1,55,2|0,3:2|3:2,3:0:0:0:
258,64,86617,1,10,3:2:0:0:
269,151,86966,6,0,L|278:229,1,55,6|0,3:2|3:0,3:0:0:0:
303,239,87315,1,10,3:2:0:0:
311,282,87489,1,2,3:2:0:0:
263,356,87838,1,0,3:2:0:0:
263,356,88013,2,0,L|193:347,1,55,10|0,3:2|3:0,3:0:0:0:
167,364,88361,2,0,L|142:256,1,110,6|10,3:2|3:2,3:0:0:0:
73,201,89059,1,2,3:2:0:0:
73,201,89234,2,0,L|87:129,1,55,0|14,3:2|3:2,3:0:0:0:
52,63,89757,6,0,P|78:58|104:47,1,55,6|0,3:2|3:2,3:0:0:0:
136,17,90106,1,10,3:2:0:0:
178,28,90280,2,0,L|285:52,1,110,2|0,3:2|3:2,3:0:0:0:
323,30,90803,1,10,3:2:0:0:
400,72,91152,6,0,L|391:138,1,55,2|0,3:2|3:2,3:0:0:0:
422,159,91501,1,10,3:2:0:0:
452,191,91675,2,0,B|444:208|444:208|342:251,1,110,2|0,3:2|3:2,3:0:0:0:
317,234,92199,1,10,3:2:0:0:
283,315,92548,6,0,L|231:334,1,55,6|0,3:2|3:2,3:0:0:0:
188,328,92896,1,10,3:2:0:0:
144,318,93071,2,0,L|38:349,1,110,2|0,3:2|3:2,3:0:0:0:
2,325,93594,1,10,3:2:0:0:
13,237,93943,6,0,L|21:168,1,55,2|0,3:2|3:2,3:0:0:0:
1,141,94292,2,0,P|23:123|46:109,1,55,10|0,3:2|3:2,3:0:0:0:
66,69,94641,2,0,L|144:76,1,55,2|0,3:2|3:2,3:0:0:0:
155,46,94989,1,10,3:2:0:0:
240,23,95338,6,0,L|294:29,1,55,6|0,3:2|3:2,3:0:0:0:
334,9,95687,1,10,3:2:0:0:
377,11,95861,2,0,L|365:120,1,110,2|0,3:2|3:2,3:0:0:0:
396,151,96385,1,10,3:2:0:0:
448,221,96734,6,0,L|439:289,1,55,2|0,3:2|3:2,3:0:0:0:
413,309,97082,1,10,3:2:0:0:
377,335,97257,2,0,L|268:316,1,110,2|0,3:2|3:2,3:0:0:0:
228,333,97780,1,10,3:2:0:0:
166,270,98129,6,0,L|186:139,1,110,12|0,3:2|3:2,3:0:0:0:
215,133,98652,2,0,P|193:83|148:52,1,110,12|0,3:2|3:2,3:0:0:0:
129,12,99175,1,8,3:2:0:0:
47,44,99524,2,0,P|33:69|25:95,1,55,8|8,3:0|3:0,3:0:0:0:
28,139,99873,2,0,P|41:164|49:189,1,55,8|8,3:0|3:0,3:0:0:0:
34,231,100222,1,0,3:0:0:0:
497,181,102315,6,0,L|388:201,1,110,6|10,3:2|3:2,3:0:0:0:
341,275,103013,1,2,3:2:0:0:
295,350,103361,1,10,3:2:0:0:
295,350,103536,2,0,L|175:368,1,110,2|2,3:2|3:2,3:0:0:0:
113,316,104234,1,2,3:2:0:0:
137,231,104582,1,2,3:2:0:0:
137,231,104757,2,0,L|191:222,1,55,10|0,3:2|3:0,3:0:0:0:
234,229,105106,6,0,P|250:175|240:121,1,110,6|10,3:2|3:2,3:0:0:0:
173,66,105803,1,2,3:2:0:0:
101,15,106152,1,10,3:2:0:0:
101,15,106327,2,0,B|81:32|81:32|89:126,1,110,10|2,3:2|3:2,3:0:0:0:
133,190,107024,1,2,0:2:0:0:
185,260,107373,2,0,L|177:324,1,55,8|8,3:2|3:2,3:0:0:0:
199,353,107722,1,8,3:2:0:0:
199,353,107896,6,0,L|320:329,1,110,6|10,3:2|3:2,3:0:0:0:
389,361,108594,1,2,3:2:0:0:
472,333,108943,1,10,3:2:0:0:
472,333,109117,2,0,P|474:278|454:227,1,110,2|2,3:2|3:2,3:0:0:0:
476,144,109815,1,2,3:2:0:0:
495,58,110164,1,2,3:2:0:0:
495,58,110338,2,0,P|470:44|445:35,1,55,10|0,3:2|3:0,3:0:0:0:
415,2,110687,6,0,L|287:28,1,110,4|4,3:2|3:0,3:0:0:0:
272,50,111210,2,0,P|221:71|166:78,1,110,4|4,3:0|3:0,3:0:0:0:
129,53,111734,1,4,3:0:0:0:
49,16,112082,2,0,B|32:42|32:42|47:175,1,165,8|8,3:0|3:0,3:0:0:0:
40,218,112780,2,0,P|67:226|94:229,1,55,8|8,3:0|3:0,3:0:0:0:
133,207,113129,1,8,3:2:0:0:
176,204,113303,1,0,3:0:0:0:
220,204,113478,6,0,P|240:254|235:308,1,110,6|10,3:2|3:2,3:0:0:0:
179,375,114175,1,2,3:2:0:0:
94,377,114524,1,10,3:2:0:0:
94,377,114699,2,0,P|49:345|24:296,1,110,2|2,3:2|3:2,3:0:0:0:
21,209,115396,1,2,3:2:0:0:
32,121,115745,1,2,3:2:0:0:
31,121,115920,2,0,P|56:105|79:94,1,55,10|0,3:2|3:0,3:0:0:0:
107,60,116268,6,0,L|240:82,1,110,6|10,3:2|3:2,3:0:0:0:
287,128,116966,1,2,3:2:0:0:
365,88,117315,1,10,3:2:0:0:
365,88,117489,2,0,L|475:107,1,110,10|2,3:2|3:2,3:0:0:0:
507,188,118187,1,2,0:2:0:0:
465,263,118536,2,0,P|431:256|397:238,1,55,8|8,3:2|3:2,3:0:0:0:
379,218,118885,1,8,3:2:0:0:
359,178,119059,6,0,L|249:191,1,110,6|10,3:2|3:2,3:0:0:0:
185,255,119757,1,2,3:2:0:0:
107,221,120106,1,10,3:2:0:0:
107,221,120280,2,0,L|123:93,1,110,2|2,3:2|3:2,3:0:0:0:
69,39,120978,1,2,3:2:0:0:
6,101,121327,1,2,3:2:0:0:
6,101,121501,2,0,L|8:155,1,55,10|0,3:2|3:0,3:0:0:0:
26,196,121850,6,0,L|11:305,1,110,4|4,3:2|3:0,3:0:0:0:
22,346,122373,2,0,P|76:356|129:342,1,110,4|4,3:0|3:0,3:0:0:0:
170,356,122896,1,4,3:0:0:0:
245,311,123245,2,0,L|374:328,1,110,8|8,3:0|3:0,3:0:0:0:
392,347,123768,1,8,3:0:0:0:
432,329,123943,2,0,P|438:296|436:272,1,55,8|8,3:0|3:0,3:0:0:0:
405,242,124292,1,8,3:2:0:0:
470,182,124641,6,0,P|458:157|442:134,1,55,6|0,3:2|3:0,3:0:0:0:
429,95,124989,2,0,P|401:92|374:94,1,55,10|0,3:2|3:0,3:0:0:0:
340,66,125338,1,2,3:2:0:0:
260,27,125687,5,10,3:2:0:0:
260,27,125861,2,0,P|228:40|193:46,1,55,2|0,3:2|3:2,3:0:0:0:
185,82,126210,2,0,P|153:68|118:63,1,55,2|8,3:2|3:2,3:0:0:0:
110,26,126559,1,2,3:2:0:0:
50,90,126908,1,2,3:2:0:0:
50,90,127082,2,0,L|61:164,1,55,10|2,3:2|3:2,3:0:0:0:
89,175,127431,6,0,L|76:293,1,110,6|10,3:2|3:2,3:0:0:0:
109,366,128129,1,2,3:2:0:0:
182,317,128478,1,10,3:2:0:0:
182,317,128652,2,0,L|290:333,1,110,2|2,3:2|3:2,3:0:0:0:
374,362,129350,1,2,3:2:0:0:
374,362,129524,2,0,L|387:302,1,55,2|2,3:2|3:2,3:0:0:0:
420,281,129873,1,10,3:2:0:0:
470,208,130222,6,0,L|453:131,1,55,6|0,3:2|3:0,3:0:0:0:
478,114,130571,2,0,L|461:37,1,55,10|0,3:2|3:0,3:0:0:0:
434,29,130920,1,2,3:2:0:0:
349,51,131268,5,10,3:2:0:0:
349,51,131443,2,0,L|295:39,1,55,2|0,3:2|3:2,3:0:0:0:
260,11,131792,2,0,L|206:22,1,55,2|8,3:2|3:2,3:0:0:0:
163,10,132141,1,2,3:2:0:0:
78,32,132489,1,2,3:2:0:0:
78,32,132664,2,0,L|92:100,1,55,10|2,3:2|3:2,3:0:0:0:
129,104,133013,6,0,L|115:226,1,110,4|4,3:2|3:0,3:0:0:0:
48,268,133710,2,0,P|82:311|137:330,1,110,4|4,3:0|3:0,3:0:0:0:
212,367,134408,2,0,P|243:352|265:331,1,55,8|8,3:0|3:0,3:0:0:0:
296,316,134757,2,0,P|298:281|291:252,1,55,8|8,3:0|3:0,3:0:0:0:
262,231,135106,2,0,P|241:180|242:125,1,110,8|0,3:0|3:0,3:0:0:0:
288,50,135803,6,0,L|342:54,1,55,6|0,3:2|3:0,3:0:0:0:
382,37,136152,2,0,P|403:56|419:78,1,55,10|0,3:2|3:0,3:0:0:0:
460,95,136501,1,2,3:2:0:0:
446,188,136850,1,10,3:2:0:0:
446,188,137024,1,2,3:2:0:0:
446,188,137199,6,0,L|470:310,1,110,2|10,3:2|3:2,3:0:0:0:
404,358,137896,2,0,B|385:348|385:348|298:363,1,110,2|10,3:2|3:2,3:0:0:0:
220,320,138594,2,0,L|155:329,1,55,6|0,3:2|3:0,3:0:0:0:
130,356,138943,1,10,3:2:0:0:
129,355,139117,2,0,P|106:306|107:250,1,110,0|0,3:0|3:0,3:0:0:0:
78,218,139641,1,10,3:2:0:0:
150,167,139989,6,0,L|140:98,1,55,2|0,3:2|3:0,3:0:0:0:
173,81,140338,2,0,P|166:54|149:31,1,55,10|0,3:2|3:0,3:0:0:0:
107,21,140687,1,2,3:2:0:0:
107,21,140861,2,0,P|83:36|61:53,1,55,2|10,3:2|3:2,3:0:0:0:
13,122,141385,6,0,L|37:243,1,110,6|10,3:2|3:2,3:0:0:0:
16,315,142082,2,0,P|36:335|61:346,1,55,2|0,3:2|3:0,3:0:0:0:
91,378,142431,1,10,3:2:0:0:
174,349,142780,2,0,L|283:355,1,110,2|10,3:2|3:2,3:0:0:0:
372,350,143478,2,0,L|379:291,1,55,2|0,3:2|3:0,3:0:0:0:
406,261,143827,1,10,3:2:0:0:
451,185,144175,6,0,P|469:127|460:59,1,110,4|4,3:2|3:0,3:0:0:0:
408,11,144873,2,0,P|354:0|300:9,1,110,12|0,3:2|3:0,3:0:0:0:
224,55,145571,2,0,L|235:119,1,55,12|8,3:2|3:0,3:0:0:0:
269,134,145920,2,0,L|252:196,1,55,8|8,3:0|3:0,3:0:0:0:
269,228,146268,1,8,3:2:0:0:
255,374,158129,5,4,3:2:0:0:
204,301,158478,1,0,3:2:0:0:
253,227,158827,1,0,3:2:0:0:
339,241,159175,1,0,3:2:0:0:
339,241,159350,1,12,3:2:0:0:
433,149,159873,6,0,L|441:80,1,55,2|0,3:2|2:0,3:0:0:0:
472,65,160222,2,0,P|445:33|416:22,1,55,2|0,3:2|2:0,3:0:0:0:
396,4,160571,2,0,P|354:11|330:30,1,55,2|0,3:2|2:0,3:0:0:0:
325,58,160920,5,4,3:2:0:0:
238,41,161268,1,0,3:2:0:0:
151,24,161617,1,0,3:2:0:0:
74,66,161966,1,8,3:2:0:0:
74,66,162141,1,12,3:2:0:0:
112,192,162664,6,0,L|102:263,1,55,2|0,3:2|2:0,3:0:0:0:
132,280,163013,2,0,L|120:350,1,55,2|0,3:2|2:0,3:0:0:0:
155,363,163361,2,0,P|178:377|204:383,1,55,2|0,3:2|2:0,3:0:0:0:
240,357,163710,5,4,3:2:0:0:
269,274,164059,1,0,3:2:0:0:
229,195,164408,1,0,3:2:0:0:
187,117,164757,1,0,3:2:0:0:
187,117,164931,1,12,3:2:0:0:
277,20,165455,6,0,P|310:22|353:32,1,55,2|0,3:2|2:0,3:0:0:0:
374,16,165803,2,0,P|403:57|410:74,1,55,2|0,3:2|2:0,3:0:0:0:
440,85,166152,2,0,P|437:113|429:139,1,55,2|0,3:2|2:0,3:0:0:0:
452,177,166501,5,4,3:2:0:0:
325,214,167024,1,0,2:0:0:0:
197,249,167548,2,0,L|133:233,1,55,0|0,2:0|3:0,3:0:0:0:
106,258,167896,6,0,L|83:138,1,110,4|4,3:2|3:0,3:0:0:0:
32,79,168594,2,0,P|70:40|123:27,1,110,4|0,3:0|3:0,3:0:0:0:
211,29,169292,2,0,L|227:101,1,55,8|8,3:0|3:0,3:0:0:0:
256,111,169641,2,0,L|240:183,1,55,8|8,3:0|3:0,3:0:0:0:
258,206,169989,1,8,3:2:0:0:
333,364,170687,6,0,P|384:346|420:306,1,110,6|10,3:2|3:2,3:0:0:0:
489,251,171385,1,2,3:2:0:0:
451,171,171734,1,10,3:2:0:0:
451,171,171908,2,0,L|465:62,1,110,2|2,3:2|3:2,3:0:0:0:
394,9,172606,1,2,3:2:0:0:
320,56,172955,1,2,3:2:0:0:
320,56,173129,2,0,L|260:48,1,55,10|0,3:2|3:0,3:0:0:0:
226,69,173478,6,0,L|117:52,1,110,6|10,3:2|3:2,3:0:0:0:
35,19,174175,1,2,3:2:0:0:
1,100,174524,1,10,3:2:0:0:
1,100,174699,2,0,L|13:211,1,110,10|2,3:2|3:2,3:0:0:0:
27,296,175396,1,2,0:2:0:0:
108,328,175745,2,0,P|130:310|154:298,1,55,8|8,3:2|3:2,3:0:0:0:
196,306,176094,1,8,3:2:0:0:
238,317,176268,6,0,L|227:205,1,110,6|10,3:2|3:2,3:0:0:0:
185,129,176966,1,2,3:2:0:0:
247,69,177315,1,10,3:2:0:0:
247,69,177489,2,0,L|357:79,1,110,2|2,3:2|3:2,3:0:0:0:
430,31,178187,1,2,3:2:0:0:
490,94,178536,1,0,3:0:0:0:
490,94,178710,2,0,L|479:157,1,55,10|0,3:2|3:0,3:0:0:0:
501,186,179059,6,0,P|475:236|429:269,1,110,4|4,3:2|3:0,3:0:0:0:
408,305,179582,2,0,P|354:278|304:267,1,110,4|4,3:0|3:0,3:0:0:0:
273,236,180106,1,4,3:0:0:0:
212,300,180455,2,0,L|37:281,1,165,8|8,3:0|3:0,3:0:0:0:
12,256,181152,2,0,L|19:191,1,55,8|8,3:0|3:0,3:0:0:0:
45,166,181501,1,8,3:2:0:0:
69,129,181675,1,0,3:0:0:0:
69,84,181850,6,0,L|182:100,1,110,6|10,3:2|3:2,3:0:0:0:
230,170,182548,1,2,3:2:0:0:
284,238,182896,1,10,3:2:0:0:
284,238,183071,2,0,L|397:251,1,110,2|2,3:2|3:2,3:0:0:0:
438,326,183768,1,2,3:2:0:0:
367,378,184117,1,2,3:2:0:0:
367,378,184292,2,0,L|292:370,1,55,10|0,3:2|3:0,3:0:0:0:
288,335,184641,6,0,P|233:332|180:346,1,110,6|10,3:2|3:2,3:0:0:0:
100,381,185338,1,2,3:2:0:0:
25,333,185687,1,10,3:2:0:0:
25,333,185861,2,0,P|23:278|43:227,1,110,10|2,3:2|3:2,3:0:0:0:
23,141,186559,1,2,0:2:0:0:
93,88,186908,2,0,P|119:94|144:107,1,55,8|8,3:2|3:2,3:0:0:0:
167,141,187257,1,8,3:2:0:0:
190,178,187431,6,0,L|319:149,1,110,6|10,3:2|3:2,3:0:0:0:
380,184,188129,1,2,3:2:0:0:
452,134,188478,1,10,3:2:0:0:
451,134,188652,2,0,P|452:79|429:29,1,110,2|2,3:2|3:2,3:0:0:0:
341,23,189350,1,2,3:2:0:0:
253,11,189699,1,2,3:2:0:0:
253,11,189873,2,0,L|188:24,1,55,10|0,3:2|3:0,3:0:0:0:
155,11,190222,6,0,P|141:66|133:119,1,110,4|4,3:2|3:0,3:0:0:0:
163,152,190745,2,0,P|177:206|184:259,1,110,4|4,3:0|3:0,3:0:0:0:
207,297,191268,1,4,3:0:0:0:
142,357,191617,2,0,L|12:329,1,110,8|8,3:0|3:0,3:0:0:0:
4,300,192141,1,8,3:0:0:0:
14,257,192315,2,0,L|27:203,1,55,8|8,3:0|3:0,3:0:0:0:
18,160,192664,1,8,3:2:0:0:
53,79,193013,5,4,3:2:0:0:
140,77,193361,1,4,3:2:0:0:
183,153,193710,2,0,L|172:215,1,55,4|0,3:2|3:0,3:0:0:0:
196,244,194059,1,8,3:2:0:0:
225,277,194234,1,4,3:2:0:0:
313,279,194582,1,8,3:2:0:0:
364,207,194931,2,0,L|372:137,1,55,0|0,3:2|3:2,3:0:0:0:
