osu file format v14

[General]
AudioFilename: audio.mp3
AudioLeadIn: 0
PreviewTime: 101268
Countdown: 0
SampleSet: Drum
StackLeniency: 0.5
Mode: 0
LetterboxInBreaks: 0
WidescreenStoryboard: 0

[Editor]
Bookmarks: 455,11617,22780,33943,45106,56268,78594,89757,102315,124641,135803,146966,158129,170687,193013,198594
DistanceSpacing: 0.5
BeatDivisor: 4
GridSize: 32
TimelineZoom: 1.5

[Metadata]
Title:Army Of The Night
TitleUnicode:Army Of The Night
Artist:Powerwolf
ArtistUnicode:Powerwolf
Creator:piroshki
Version:Mater Maria
Source:
Tags:blessed & possessed and metal rock english gazpriest nekroman4ik
BeatmapID:2184125
BeatmapSetID:1044785

[Difficulty]
HPDrainRate:6
CircleSize:4.8
OverallDifficulty:9
ApproachRate:9.2
SliderMultiplier:1.4
SliderTickRate:1

[Events]
//Background and Video events
0,0,"72022147_p0.jpg",0,0
//Break Periods
2,146966,157559
//Storyboard Layer 0 (Background)
//Storyboard Layer 1 (Fail)
//Storyboard Layer 2 (Pass)
//Storyboard Layer 3 (Foreground)
//Storyboard Layer 4 (Overlay)
//Storyboard Sound Samples

[TimingPoints]
455,348.837209302326,4,3,1,50,1,0
3158,-100,4,3,1,5,0,0
3245,-100,4,3,1,50,0,0
5949,-100,4,3,1,5,0,0
6036,-100,4,3,1,50,0,0
8827,-142.857142857143,4,3,1,50,0,0
9263,-100,4,3,1,5,0,0
9350,-111.111111111111,4,3,1,50,0,0
9699,-100,4,3,1,5,0,0
9873,-111.111111111111,4,3,1,50,0,0
10135,-100,4,3,1,5,0,0
10222,-142.857142857143,4,3,1,50,0,0
11617,-76.923076923077,4,3,1,70,0,1
11879,-76.923076923077,4,3,1,5,0,1
11966,-76.923076923077,4,3,1,70,0,1
12577,-76.923076923077,4,3,1,5,0,1
12664,-76.923076923077,4,3,1,70,0,1
12838,-76.923076923077,4,3,2,70,0,1
12925,-76.923076923077,4,3,1,70,0,1
13187,-76.923076923077,4,3,2,70,0,1
13274,-76.923076923077,4,3,1,70,0,1
13536,-76.923076923077,4,3,2,70,0,1
13623,-76.923076923077,4,3,1,70,0,1
13885,-76.923076923077,4,3,2,70,0,1
13972,-76.923076923077,4,3,1,70,0,1
14321,-76.923076923077,4,3,1,5,0,0
14408,-76.923076923077,4,3,1,70,0,1
14670,-76.923076923077,4,3,1,5,0,1
14757,-76.923076923077,4,3,1,70,0,1
15367,-76.923076923077,4,3,1,5,0,1
15455,-76.923076923077,4,3,1,70,0,1
15629,-76.923076923077,4,3,2,70,0,1
15716,-76.923076923077,4,3,1,70,0,1
15978,-76.923076923077,4,3,2,70,0,1
16065,-76.923076923077,4,3,1,70,0,1
16327,-76.923076923077,4,3,2,70,0,1
16414,-76.923076923077,4,3,1,70,0,1
17111,-76.923076923077,4,3,1,70,0,0
17199,-76.923076923077,4,3,1,70,0,1
17460,-76.923076923077,4,3,1,5,0,1
17548,-76.923076923077,4,3,1,70,0,1
18158,-76.923076923077,4,3,1,5,0,1
18245,-76.923076923077,4,3,1,70,0,1
18420,-76.923076923077,4,3,2,70,0,1
18507,-76.923076923077,4,3,1,70,0,1
18768,-76.923076923077,4,3,2,70,0,1
18855,-76.923076923077,4,3,1,70,0,1
19117,-76.923076923077,4,3,2,70,0,1
19204,-76.923076923077,4,3,1,70,0,1
19466,-76.923076923077,4,3,2,70,0,1
19553,-76.923076923077,4,3,1,70,0,1
19902,-76.923076923077,4,3,1,5,0,0
19989,-76.923076923077,4,3,1,70,0,1
22780,-76.923076923077,4,3,1,60,0,0
23042,-76.923076923077,4,3,1,5,0,0
23129,-76.923076923077,4,3,1,60,0,0
24001,-76.923076923077,4,3,2,60,0,0
24088,-76.923076923077,4,3,1,60,0,0
24350,-76.923076923077,4,3,2,60,0,0
24437,-76.923076923077,4,3,1,60,0,0
24699,-76.923076923077,4,3,2,60,0,0
24786,-76.923076923077,4,3,1,60,0,0
25048,-76.923076923077,4,3,2,60,0,0
25135,-76.923076923077,4,3,1,60,0,0
25832,-76.923076923077,4,3,1,5,0,0
25920,-76.923076923077,4,3,1,60,0,0
26792,-76.923076923077,4,3,2,60,0,0
26879,-76.923076923077,4,3,1,60,0,0
27141,-76.923076923077,4,3,2,60,0,0
27228,-76.923076923077,4,3,1,60,0,0
27489,-76.923076923077,4,3,2,60,0,0
27576,-76.923076923077,4,3,1,60,0,0
28623,-76.923076923077,4,3,1,5,0,0
28710,-76.923076923077,4,3,1,60,0,0
29582,-76.923076923077,4,3,2,60,0,0
29669,-76.923076923077,4,3,1,60,0,0
29931,-76.923076923077,4,3,2,60,0,0
30018,-76.923076923077,4,3,1,60,0,0
30280,-76.923076923077,4,3,2,60,0,0
30367,-76.923076923077,4,3,1,60,0,0
30629,-76.923076923077,4,3,2,60,0,0
30716,-76.923076923077,4,3,1,60,0,0
31065,-76.923076923077,4,3,1,5,0,0
31152,-76.923076923077,4,3,1,60,0,0
33245,-76.923076923077,4,3,1,40,0,0
33943,-100,4,3,1,50,0,0
34466,-100,4,3,2,50,0,0
34553,-100,4,3,1,50,0,0
35600,-100,4,3,1,5,0,0
35687,-100,4,3,1,50,0,0
36298,-100,4,3,1,5,0,0
36385,-100,4,3,1,50,0,0
37257,-100,4,3,2,50,0,0
37344,-100,4,3,1,50,0,0
38042,-100,4,3,1,5,0,0
38129,-100,4,3,1,50,0,0
38391,-100,4,3,1,5,0,0
38478,-100,4,3,1,50,0,0
40048,-100,4,3,2,50,0,0
40135,-100,4,3,1,50,0,0
41181,-100,4,3,1,5,0,0
41268,-100,4,3,1,50,0,0
41879,-100,4,3,1,5,0,0
41966,-100,4,3,1,50,0,0
42838,-100,4,3,2,50,0,0
42925,-100,4,3,1,50,0,0
43187,-100,4,3,2,50,0,0
43274,-100,4,3,1,50,0,0
43623,-100,4,3,1,5,0,0
43710,-100,4,3,1,50,0,0
43972,-100,4,3,1,5,0,0
44059,-100,4,3,1,50,0,0
45106,-76.9230769230769,4,3,1,65,0,0
45629,-76.9230769230769,4,3,2,65,0,0
45716,-76.9230769230769,4,3,1,65,0,0
47024,-76.9230769230769,4,3,2,65,0,0
47111,-76.9230769230769,4,3,1,65,0,0
48420,-76.9230769230769,4,3,2,65,0,0
48507,-76.9230769230769,4,3,1,65,0,0
49553,-76.9230769230769,4,3,1,5,0,0
49641,-76.9230769230769,4,3,1,65,0,0
50251,-76.9230769230769,4,3,1,5,0,0
50338,-76.9230769230769,4,3,1,65,0,0
51210,-76.9230769230769,4,3,2,65,0,0
51297,-76.9230769230769,4,3,1,65,0,0
52606,-76.9230769230769,4,3,2,65,0,0
52693,-76.9230769230769,4,3,1,65,0,0
56268,-62.5,4,3,1,80,0,1
56530,-62.5,4,3,1,5,0,1
56617,-62.5,4,3,1,80,0,1
57228,-62.5,4,3,1,5,0,1
57315,-62.5,4,3,1,80,0,1
57489,-62.5,4,3,2,80,0,1
57577,-62.5,4,3,1,80,0,1
57838,-62.5,4,3,2,80,0,1
57926,-62.5,4,3,1,80,0,1
58187,-62.5,4,3,2,80,0,1
58275,-62.5,4,3,1,80,0,1
58536,-62.5,4,3,2,80,0,1
58624,-62.5,4,3,1,80,0,1
58972,-62.5,4,3,1,5,0,0
59059,-62.5,4,3,1,80,0,1
59321,-62.5,4,3,1,5,0,1
59408,-62.5,4,3,1,80,0,1
60018,-62.5,4,3,1,5,0,1
60106,-62.5,4,3,1,80,0,1
60280,-62.5,4,3,2,80,0,1
60368,-62.5,4,3,1,80,0,1
60629,-62.5,4,3,2,80,0,1
60717,-62.5,4,3,1,80,0,1
60978,-62.5,4,3,2,80,0,1
61066,-62.5,4,3,1,80,0,1
61763,-62.5,4,3,1,80,0,0
61850,-62.5,4,3,1,80,0,1
62111,-62.5,4,3,1,5,0,1
62199,-62.5,4,3,1,80,0,1
62809,-62.5,4,3,1,5,0,1
62896,-62.5,4,3,1,80,0,1
63071,-62.5,4,3,2,80,0,1
63159,-62.5,4,3,1,80,0,1
63420,-62.5,4,3,2,80,0,1
63508,-62.5,4,3,1,80,0,1
63768,-62.5,4,3,2,80,0,1
63856,-62.5,4,3,1,80,0,1
64117,-62.5,4,3,2,80,0,1
64205,-62.5,4,3,1,80,0,1
64553,-62.5,4,3,1,5,0,0
64641,-62.5,4,3,1,80,0,1
67344,-62.5,4,3,1,80,0,0
67431,-62.5,4,3,1,80,0,1
67693,-62.5,4,3,1,5,0,1
67780,-62.5,4,3,1,80,0,1
68391,-62.5,4,3,1,5,0,1
68478,-62.5,4,3,1,80,0,1
68652,-62.5,4,3,2,80,0,1
68740,-62.5,4,3,1,80,0,1
69001,-62.5,4,3,2,80,0,1
69089,-62.5,4,3,1,80,0,1
69350,-62.5,4,3,2,80,0,1
69438,-62.5,4,3,1,80,0,1
69699,-62.5,4,3,2,80,0,1
69787,-62.5,4,3,1,80,0,1
70135,-62.5,4,3,1,5,0,0
70222,-62.5,4,3,1,80,0,1
70484,-62.5,4,3,1,5,0,1
70571,-62.5,4,3,1,80,0,1
71181,-62.5,4,3,1,5,0,1
71268,-62.5,4,3,1,80,0,1
71443,-62.5,4,3,2,80,0,1
71531,-62.5,4,3,1,80,0,1
71792,-62.5,4,3,2,80,0,1
71880,-62.5,4,3,1,80,0,1
72141,-62.5,4,3,2,80,0,1
72229,-62.5,4,3,1,80,0,1
72925,-62.5,4,3,1,80,0,0
73013,-62.5,4,3,1,80,0,1
73274,-62.5,4,3,1,5,0,1
73361,-62.5,4,3,1,80,0,1
74234,-62.5,4,3,2,80,0,1
74322,-62.5,4,3,1,80,0,1
74582,-62.5,4,3,2,80,0,1
74670,-62.5,4,3,1,80,0,1
74931,-62.5,4,3,2,80,0,1
75019,-62.5,4,3,1,80,0,1
75280,-62.5,4,3,2,80,0,1
75368,-62.5,4,3,1,80,0,1
75716,-62.5,4,3,1,5,0,0
75803,-62.5,4,3,1,80,0,1
78594,-90.9090909090909,4,3,1,55,0,0
79117,-90.9090909090909,4,3,2,55,0,0
79205,-90.9090909090909,4,3,1,55,0,0
80251,-90.9090909090909,4,3,1,5,0,0
80338,-90.9090909090909,4,3,1,55,0,0
81298,-90.9090909090909,4,3,1,5,0,0
81385,-90.9090909090909,4,3,1,55,0,0
81908,-90.9090909090909,4,3,2,55,0,0
81996,-90.9090909090909,4,3,1,55,0,0
83042,-90.9090909090909,4,3,1,5,0,0
83129,-90.9090909090909,4,3,1,55,0,0
84088,-90.9090909090909,4,3,1,5,0,0
84175,-90.9090909090909,4,3,1,55,0,0
84699,-90.9090909090909,4,3,2,55,0,0
84787,-90.9090909090909,4,3,1,55,0,0
85832,-90.9090909090909,4,3,1,5,0,0
85920,-90.9090909090909,4,3,1,55,0,0
86879,-90.9090909090909,4,3,1,5,0,0
86966,-90.9090909090909,4,3,1,55,0,0
87489,-90.9090909090909,4,3,2,55,0,0
87577,-90.9090909090909,4,3,1,55,0,0
88623,-90.9090909090909,4,3,1,5,0,0
88710,-90.9090909090909,4,3,1,55,0,0
89670,-90.9090909090909,4,3,1,5,0,0
89757,-76.9230769230769,4,3,1,65,0,0
90280,-76.9230769230769,4,3,2,65,0,0
90367,-76.9230769230769,4,3,1,65,0,0
91675,-76.9230769230769,4,3,2,65,0,0
91762,-76.9230769230769,4,3,1,65,0,0
93071,-76.9230769230769,4,3,2,65,0,0
93158,-76.9230769230769,4,3,1,65,0,0
95861,-76.9230769230769,4,3,2,65,0,0
95948,-76.9230769230769,4,3,1,65,0,0
97257,-76.9230769230769,4,3,2,65,0,0
97344,-76.9230769230769,4,3,1,65,0,0
100309,-76.9230769230769,4,3,1,5,0,0
100920,-76.9230769230769,4,3,1,20,0,0
101617,-76.9230769230769,4,3,1,40,0,0
101792,-76.9230769230769,4,3,1,60,0,0
101966,-76.9230769230769,4,3,1,60,0,0
102141,-76.9230769230769,4,3,1,5,0,0
102315,-58.8235294117647,4,3,1,80,0,1
102577,-58.8235294117647,4,3,1,5,0,1
102664,-58.8235294117647,4,3,1,80,0,1
103274,-58.8235294117647,4,3,1,5,0,1
103361,-58.8235294117647,4,3,1,80,0,1
103536,-58.8235294117647,4,3,2,80,0,1
103623,-58.8235294117647,4,3,1,80,0,1
103885,-58.8235294117647,4,3,2,80,0,1
103972,-58.8235294117647,4,3,1,80,0,1
104234,-58.8235294117647,4,3,2,80,0,1
104321,-58.8235294117647,4,3,1,80,0,1
104582,-58.8235294117647,4,3,2,80,0,1
104669,-58.8235294117647,4,3,1,80,0,1
105018,-58.8235294117647,4,3,1,5,0,0
105106,-58.8235294117647,4,3,1,80,0,1
105367,-58.8235294117647,4,3,1,5,0,1
105455,-58.8235294117647,4,3,1,80,0,1
106065,-58.8235294117647,4,3,1,5,0,1
106152,-58.8235294117647,4,3,1,80,0,1
106327,-58.8235294117647,4,3,2,80,0,1
106414,-58.8235294117647,4,3,1,80,0,1
106675,-58.8235294117647,4,3,2,80,0,1
106762,-58.8235294117647,4,3,1,80,0,1
107024,-58.8235294117647,4,3,2,80,0,1
107111,-58.8235294117647,4,3,1,80,0,1
107809,-58.8235294117647,4,3,1,80,0,0
107896,-58.8235294117647,4,3,1,80,0,1
108158,-58.8235294117647,4,3,1,5,0,1
108245,-58.8235294117647,4,3,1,80,0,1
108856,-58.8235294117647,4,3,1,5,0,1
108943,-58.8235294117647,4,3,1,80,0,1
109117,-58.8235294117647,4,3,2,80,0,1
109204,-58.8235294117647,4,3,1,80,0,1
109466,-58.8235294117647,4,3,2,80,0,1
109553,-58.8235294117647,4,3,1,80,0,1
109815,-58.8235294117647,4,3,2,80,0,1
109902,-58.8235294117647,4,3,1,80,0,1
110164,-58.8235294117647,4,3,2,80,0,1
110251,-58.8235294117647,4,3,1,80,0,1
110600,-58.8235294117647,4,3,1,5,0,0
110687,-58.8235294117647,4,3,1,80,0,1
113391,-58.8235294117647,4,3,1,80,0,0
113478,-58.8235294117647,4,3,1,80,0,1
113739,-58.8235294117647,4,3,1,5,0,1
113827,-58.8235294117647,4,3,1,80,0,1
114437,-58.8235294117647,4,3,1,5,0,1
114524,-58.8235294117647,4,3,1,80,0,1
114699,-58.8235294117647,4,3,2,80,0,1
114786,-58.8235294117647,4,3,1,80,0,1
115048,-58.8235294117647,4,3,2,80,0,1
115135,-58.8235294117647,4,3,1,80,0,1
115396,-58.8235294117647,4,3,2,80,0,1
115483,-58.8235294117647,4,3,1,80,0,1
115745,-58.8235294117647,4,3,2,80,0,1
115832,-58.8235294117647,4,3,1,80,0,1
116181,-58.8235294117647,4,3,1,5,0,0
116268,-58.8235294117647,4,3,1,80,0,1
116530,-58.8235294117647,4,3,1,5,0,1
116617,-58.8235294117647,4,3,1,80,0,1
117489,-58.8235294117647,4,3,2,80,0,1
117576,-58.8235294117647,4,3,1,80,0,1
117838,-58.8235294117647,4,3,2,80,0,1
117925,-58.8235294117647,4,3,1,80,0,1
118187,-58.8235294117647,4,3,2,80,0,1
118274,-58.8235294117647,4,3,1,80,0,1
118972,-58.8235294117647,4,3,1,80,0,0
119059,-58.8235294117647,4,3,1,80,0,1
119321,-58.8235294117647,4,3,1,5,0,1
119408,-58.8235294117647,4,3,1,80,0,1
120018,-58.8235294117647,4,3,1,5,0,1
120106,-58.8235294117647,4,3,1,80,0,1
120280,-58.8235294117647,4,3,2,80,0,1
120367,-58.8235294117647,4,3,1,80,0,1
120629,-58.8235294117647,4,3,2,80,0,1
120716,-58.8235294117647,4,3,1,80,0,1
120978,-58.8235294117647,4,3,2,80,0,1
121065,-58.8235294117647,4,3,1,80,0,1
121327,-58.8235294117647,4,3,2,80,0,1
121414,-58.8235294117647,4,3,1,80,0,1
121763,-58.8235294117647,4,3,1,5,0,0
121850,-58.8235294117647,4,3,1,80,0,1
124205,-58.8235294117647,4,3,1,80,0,0
124292,-71.4285714285714,4,3,1,50,0,1
124553,-71.4285714285714,4,3,1,5,0,1
124641,-71.4285714285714,4,3,2,60,0,0
129611,-71.4285714285714,4,3,2,5,0,0
129699,-71.4285714285714,4,3,2,60,0,0
129786,-71.4285714285714,4,3,2,5,0,0
129873,-71.4285714285714,4,3,2,60,0,0
129960,-71.4285714285714,4,3,2,5,0,0
130048,-71.4285714285714,4,3,2,60,0,0
130135,-71.4285714285714,4,3,2,5,0,0
130222,-71.4285714285714,4,3,2,60,0,0
136937,-71.4285714285714,4,3,2,5,0,0
137024,-71.4285714285714,4,3,2,60,0,0
137111,-71.4285714285714,4,3,2,5,0,0
137199,-71.4285714285714,4,3,2,60,0,0
137460,-71.4285714285714,4,3,2,5,0,0
137548,-71.4285714285714,4,3,2,60,0,0
138507,-71.4285714285714,4,3,2,5,0,0
138594,-71.4285714285714,4,3,2,60,0,0
140077,-71.4285714285714,4,3,2,5,0,0
140164,-71.4285714285714,4,3,2,60,0,0
140251,-71.4285714285714,4,3,2,5,0,0
140338,-71.4285714285714,4,3,2,60,0,0
140425,-71.4285714285714,4,3,2,5,0,0
140513,-71.4285714285714,4,3,2,60,0,0
140600,-71.4285714285714,4,3,2,5,0,0
140687,-71.4285714285714,4,3,2,60,0,0
144175,-71.4285714285714,4,3,2,70,0,0
158129,-90.9090909090909,4,3,1,50,0,0
166501,-166.666666666667,4,3,1,40,0,0
167896,-166.666666666667,4,3,1,60,0,0
170687,-58.8235294117647,4,3,1,80,0,1
170949,-58.8235294117647,4,3,1,5,0,1
171036,-58.8235294117647,4,3,1,80,0,1
171646,-58.8235294117647,4,3,1,5,0,1
171734,-58.8235294117647,4,3,1,80,0,1
171908,-58.8235294117647,4,3,2,80,0,1
171995,-58.8235294117647,4,3,1,80,0,1
172257,-58.8235294117647,4,3,2,80,0,1
172344,-58.8235294117647,4,3,1,80,0,1
172606,-58.8235294117647,4,3,2,80,0,1
172693,-58.8235294117647,4,3,1,80,0,1
172955,-58.8235294117647,4,3,2,80,0,1
173042,-58.8235294117647,4,3,1,80,0,1
173391,-58.8235294117647,4,3,1,5,0,0
173478,-58.8235294117647,4,3,1,80,0,1
173739,-58.8235294117647,4,3,1,5,0,1
173827,-58.8235294117647,4,3,1,80,0,1
174437,-58.8235294117647,4,3,1,5,0,1
174524,-58.8235294117647,4,3,1,80,0,1
174699,-58.8235294117647,4,3,2,80,0,1
174786,-58.8235294117647,4,3,1,80,0,1
175048,-58.8235294117647,4,3,2,80,0,1
175135,-58.8235294117647,4,3,1,80,0,1
175396,-58.8235294117647,4,3,2,80,0,1
175483,-58.8235294117647,4,3,1,80,0,1
176181,-58.8235294117647,4,3,1,80,0,0
176268,-58.8235294117647,4,3,1,80,0,1
176530,-58.8235294117647,4,3,1,5,0,1
176617,-58.8235294117647,4,3,1,80,0,1
177228,-58.8235294117647,4,3,1,5,0,1
177315,-58.8235294117647,4,3,1,80,0,1
177489,-58.8235294117647,4,3,2,80,0,1
177576,-58.8235294117647,4,3,1,80,0,1
177838,-58.8235294117647,4,3,2,80,0,1
177925,-58.8235294117647,4,3,1,80,0,1
178187,-58.8235294117647,4,3,2,80,0,1
178274,-58.8235294117647,4,3,1,80,0,1
178972,-58.8235294117647,4,3,1,5,0,0
179059,-58.8235294117647,4,3,1,80,0,1
181763,-58.8235294117647,4,3,1,80,0,0
181850,-58.8235294117647,4,3,1,80,0,1
182111,-58.8235294117647,4,3,1,5,0,1
182199,-58.8235294117647,4,3,1,80,0,1
182809,-58.8235294117647,4,3,1,5,0,1
182896,-58.8235294117647,4,3,1,80,0,1
183071,-58.8235294117647,4,3,2,80,0,1
183158,-58.8235294117647,4,3,1,80,0,1
183420,-58.8235294117647,4,3,2,80,0,1
183507,-58.8235294117647,4,3,1,80,0,1
183768,-58.8235294117647,4,3,2,80,0,1
183855,-58.8235294117647,4,3,1,80,0,1
184117,-58.8235294117647,4,3,2,80,0,1
184204,-58.8235294117647,4,3,1,80,0,1
184553,-58.8235294117647,4,3,1,5,0,0
184641,-58.8235294117647,4,3,1,80,0,1
184902,-58.8235294117647,4,3,1,5,0,1
184989,-58.8235294117647,4,3,1,80,0,1
185600,-58.8235294117647,4,3,1,5,0,1
185687,-58.8235294117647,4,3,1,80,0,1
185861,-58.8235294117647,4,3,2,80,0,1
185948,-58.8235294117647,4,3,1,80,0,1
186210,-58.8235294117647,4,3,2,80,0,1
186297,-58.8235294117647,4,3,1,80,0,1
186559,-58.8235294117647,4,3,2,80,0,1
186646,-58.8235294117647,4,3,1,80,0,1
187344,-58.8235294117647,4,3,1,80,0,0
187431,-58.8235294117647,4,3,1,80,0,1
187693,-58.8235294117647,4,3,1,5,0,1
187780,-58.8235294117647,4,3,1,80,0,1
188391,-58.8235294117647,4,3,1,5,0,1
188478,-58.8235294117647,4,3,1,80,0,1
188652,-58.8235294117647,4,3,2,80,0,1
188739,-58.8235294117647,4,3,1,80,0,1
189001,-58.8235294117647,4,3,2,80,0,1
189088,-58.8235294117647,4,3,1,80,0,1
189350,-58.8235294117647,4,3,2,80,0,1
189437,-58.8235294117647,4,3,1,80,0,1
189699,-58.8235294117647,4,3,2,80,0,1
189786,-58.8235294117647,4,3,1,80,0,1
190135,-58.8235294117647,4,3,1,5,0,0
190222,-58.8235294117647,4,3,1,80,0,1
193013,-76.9230769230769,4,3,1,60,0,0
193100,-76.9230769230769,4,3,1,5,0,0
193361,-76.9230769230769,4,3,1,60,0,0
193449,-76.9230769230769,4,3,1,5,0,0
193710,-76.9230769230769,4,3,1,60,0,0
193972,-76.9230769230769,4,3,1,5,0,0
194059,-76.9230769230769,4,3,1,60,0,0
194321,-76.9230769230769,4,3,1,5,0,0
194582,-76.9230769230769,4,3,1,60,0,0
194670,-76.9230769230769,4,3,1,5,0,0
194931,-76.9230769230769,4,3,1,60,0,0

[Colours]
Combo1 : 118,121,124
Combo2 : 128,64,64
Combo3 : 155,16,13
Combo4 : 203,184,184

[HitObjects]
353,238,455,5,4,3:2:0:0:
52,284,1501,5,4,3:2:0:0:
358,244,1675,1,4,3:2:0:0:
362,250,2896,6,0,L|257:237,1,105,4|0,3:2|0:0,0:0:0:0:
219,182,3245,1,4,3:2:0:0:
298,380,4292,5,4,3:2:0:0:
207,165,4466,1,4,3:2:0:0:
194,156,5687,6,0,L|204:51,1,105,4|0,3:2|0:0,0:0:0:0:
255,6,6036,1,4,3:2:0:0:
297,225,7082,5,4,3:2:0:0:
250,0,7257,1,4,3:2:0:0:
295,34,8827,6,0,P|273:88|299:142,1,122.499996261597,4|0,3:2|0:0,0:0:0:0:
344,198,9350,2,0,L|476:173,1,125.999996154785,4|0,3:2|0:0,0:0:0:0:
490,275,9873,2,0,L|397:257,1,94.499997116089,4|0,3:2|0:0,0:0:0:0:
326,270,10222,6,0,P|287:262|239:381,1,195.999994018555,4|4,3:2|3:2,0:0:0:0:
237,379,11617,6,0,P|187:331|120:337,1,136.499993751526,6|0,3:2|0:0,0:0:0:0:
67,381,11966,2,0,P|50:339|66:293,1,90.9999958343508,10|0,3:2|0:0,0:0:0:0:
21,198,12315,2,0,L|155:218,1,136.499993751526,2|0,3:2|0:0,0:0:0:0:
206,265,12664,1,10,3:2:0:0:
56,134,12838,6,0,L|145:147,1,90.9999958343508,2|2,0:2|3:2,0:0:0:0:
253,321,13187,2,0,P|276:282|273:237,1,90.9999958343508,2|10,0:2|3:2,0:0:0:0:
242,102,13536,2,0,P|282:122|305:161,1,90.9999958343508,2|2,0:2|3:2,0:0:0:0:
101,26,13885,1,2,0:2:0:0:
171,62,14059,2,0,P|226:25|291:39,1,136.499993751526,10|0,3:2|0:0,0:0:0:0:
374,4,14408,6,0,L|367:140,1,136.499993751526,6|0,3:2|0:0,0:0:0:0:
437,38,14757,2,0,L|434:129,1,90.9999958343508,10|0,3:2|0:0,0:0:0:0:
426,358,15106,2,0,L|432:222,1,136.499993751526,2|0,3:2|0:0,0:0:0:0:
491,178,15455,1,10,3:2:0:0:
360,244,15629,6,0,P|318:225|273:227,1,90.9999958343508,10|2,3:2|3:2,0:0:0:0:
204,149,15978,2,0,P|179:186|174:231,1,90.9999958343508,2|10,0:2|3:2,0:0:0:0:
82,252,16327,2,0,P|102:292|138:318,1,90.9999958343508,2|2,0:2|3:2,0:0:0:0:
236,311,16675,1,8,3:2:0:0:
299,102,16850,1,8,3:2:0:0:
243,322,17024,1,8,3:2:0:0:
365,71,17199,6,0,P|314:30|250:46,1,136.499993751526,6|0,3:2|0:0,0:0:0:0:
202,121,17548,2,0,L|292:109,1,90.9999958343508,10|0,3:2|0:0,0:0:0:0:
154,198,17896,2,0,L|19:172,1,136.499993751526,2|0,3:2|0:0,0:0:0:0:
6,99,18245,1,10,3:2:0:0:
148,280,18420,6,0,P|165:238|159:194,1,90.9999958343508,2|2,0:2|3:2,0:0:0:0:
9,376,18768,2,0,P|-7:334|0:289,1,90.9999958343508,2|10,0:2|3:2,0:0:0:0:
209,326,19117,2,0,P|174:353|129:356,1,90.9999958343508,2|2,0:2|3:2,0:0:0:0:
350,372,19466,1,2,0:2:0:0:
392,303,19641,2,0,L|374:165,1,136.499993751526,10|0,3:2|0:0,0:0:0:0:
384,39,19989,5,4,3:2:0:0:
381,55,20164,1,4,3:3:0:0:
379,69,20338,1,4,3:3:0:0:
448,68,20513,5,4,3:3:0:0:
313,78,20687,1,4,3:3:0:0:
453,73,20861,1,4,3:3:0:0:
250,55,21036,5,4,3:3:0:0:
290,215,21210,1,4,3:3:0:0:
237,48,21385,5,8,3:3:0:0:
367,247,21559,1,8,3:3:0:0:
359,259,21734,1,8,3:3:0:0:
189,2,21908,1,8,3:3:0:0:
181,11,22082,5,8,3:3:0:0:
408,180,22257,1,8,3:3:0:0:
121,116,22431,5,8,3:2:0:0:
489,91,22606,1,0,3:3:0:0:
33,165,22780,6,0,P|92:137|149:170,1,136.499993751526,6|0,3:2|0:0,0:0:0:0:
215,223,23129,2,0,P|233:172|222:132,1,90.9999958343508,10|0,3:2|0:0,0:0:0:0:
250,0,23478,2,0,L|141:13,1,90.9999958343508,2|0,3:2|0:0,0:0:0:0:
134,153,23827,1,10,3:2:0:0:
169,91,24001,6,0,L|260:80,1,90.9999958343508,2|2,0:2|3:2,0:0:0:0:
461,52,24350,2,0,L|370:64,1,90.9999958343508,2|10,0:2|3:2,0:0:0:0:
335,210,24699,2,0,P|364:176|408:169,1,90.9999958343508,2|2,0:2|3:2,0:0:0:0:
503,322,25048,1,2,0:2:0:0:
444,282,25222,2,0,L|354:298,1,90.9999958343508,10|0,3:2|0:0,0:0:0:0:
97,341,25571,6,0,P|163:331|223:360,1,136.499993751526,6|0,3:2|0:0,0:0:0:0:
302,382,25920,2,0,L|279:286,1,90.9999958343508,10|0,3:2|0:0,0:0:0:0:
192,193,26268,2,0,P|182:148|195:105,1,90.9999958343508,2|0,3:2|0:0,0:0:0:0:
262,148,26617,1,10,3:2:0:0:
121,63,26792,6,0,P|154:33|198:22,1,90.9999958343508,10|2,3:2|3:2,0:0:0:0:
338,198,27141,2,0,P|294:193|263:161,1,90.9999958343508,2|10,0:2|3:2,0:0:0:0:
108,53,27489,2,0,L|117:143,1,90.9999958343508,2|2,0:2|3:2,0:0:0:0:
77,211,27838,1,8,3:2:0:0:
328,128,28013,1,8,3:2:0:0:
63,202,28187,1,8,3:2:0:0:
369,68,28361,6,0,P|398:127|369:186,1,136.499993751526,6|0,3:2|0:0,0:0:0:0:
352,253,28710,2,0,L|261:242,1,90.9999958343508,10|0,3:2|0:0,0:0:0:0:
5,297,29059,2,0,L|95:286,1,90.9999958343508,2|0,3:2|0:0,0:0:0:0:
243,334,29408,1,10,3:2:0:0:
178,276,29582,2,0,L|184:185,1,90.9999958343508,2|2,0:2|3:2,0:0:0:0:
283,55,29931,2,0,P|244:31|199:31,1,90.9999958343508,2|10,0:2|3:2,0:0:0:0:
94,1,30280,2,0,P|70:39|70:84,1,90.9999958343508,2|2,0:2|3:2,0:0:0:0:
0,249,30629,1,2,0:2:0:0:
58,203,30803,2,0,L|192:178,1,136.499993751526,10|0,3:2|0:0,0:0:0:0:
344,213,31152,5,4,3:2:0:0:
334,197,31327,1,4,3:3:0:0:
325,182,31501,1,4,3:3:0:0:
324,296,31675,5,4,3:3:0:0:
344,213,31850,1,4,3:3:0:0:
368,135,32024,1,4,3:3:0:0:
345,366,32199,5,4,3:3:0:0:
344,213,32373,1,4,3:3:0:0:
342,48,32548,1,8,3:2:0:0:
348,42,33245,1,0,2:2:0:0:
500,373,33943,5,6,3:2:0:0:
500,373,34117,1,0,0:0:0:0:
255,330,34292,1,10,3:2:0:0:
320,300,34466,2,0,L|389:305,1,70,2|2,0:2|3:2,0:0:0:0:
489,160,34815,1,0,0:0:0:0:
425,185,34989,1,10,3:2:0:0:
479,229,35164,1,0,0:0:0:0:
361,208,35338,6,0,L|256:218,1,105,2|0,3:2|0:0,0:0:0:0:
232,238,35687,2,0,P|202:220|167:216,1,70,10|0,3:2|0:0,0:0:0:0:
47,103,36036,2,0,L|61:221,1,105,2|0,3:2|0:0,0:0:0:0:
85,224,36385,2,0,P|84:259|69:292,1,70,10|0,3:2|0:0,0:0:0:0:
5,378,36734,5,2,3:2:0:0:
5,378,36908,1,0,0:0:0:0:
152,259,37082,1,10,3:2:0:0:
214,292,37257,2,0,L|203:375,1,70,2|2,0:2|3:2,0:0:0:0:
146,248,37606,1,0,0:0:0:0:
293,236,37780,2,0,L|279:340,1,105,10|0,3:2|0:0,0:0:0:0:
300,364,38129,6,0,P|349:377|394:353,1,105,2|0,3:2|0:0,0:0:0:0:
426,350,38478,2,0,L|418:280,1,70,10|0,3:2|0:0,0:0:0:0:
377,29,38827,2,0,L|363:169,1,140,2|10,3:2|3:2,0:0:0:0:
444,115,39524,5,2,3:2:0:0:
444,115,39699,1,0,0:0:0:0:
203,74,39873,1,10,3:2:0:0:
267,111,40048,2,0,L|349:102,1,70,2|2,0:2|3:2,0:0:0:0:
194,67,40396,1,0,0:0:0:0:
123,87,40571,1,10,3:2:0:0:
59,50,40745,1,0,0:0:0:0:
260,104,40920,6,0,L|248:208,1,105,2|0,3:2|0:0,0:0:0:0:
230,233,41268,2,0,P|251:261|282:277,1,70,10|0,3:2|0:0,0:0:0:0:
510,286,41617,2,0,P|468:255|416:253,1,105,2|0,3:2|0:0,0:0:0:0:
399,278,41966,2,0,P|375:304|342:315,1,70,10|0,3:2|0:0,0:0:0:0:
184,370,42315,5,2,3:2:0:0:
184,370,42489,1,0,0:0:0:0:
241,160,42664,1,10,3:2:0:0:
276,228,42838,2,0,L|263:315,2,70,2|2|2,0:2|3:2|0:2,0:0:0:0:
181,119,43361,2,0,P|223:89|274:95,1,105,10|0,3:2|0:0,0:0:0:0:
339,62,43710,6,0,P|377:96|427:110,1,105,2|0,3:2|0:0,0:0:0:0:
454,124,44059,2,0,L|469:36,1,70,10|0,3:2|0:0,0:0:0:0:
261,23,44408,2,0,L|284:161,1,140,2|10,3:2|3:2,0:0:0:0:
79,334,45106,5,6,3:2:0:0:
4,225,45280,1,0,0:0:0:0:
10,214,45455,1,10,3:2:0:0:
132,380,45629,2,0,P|147:338|138:295,1,90.9999958343508,2|2,0:2|3:2,0:0:0:0:
214,194,45978,1,0,0:0:0:0:
42,141,46152,2,0,L|132:151,1,90.9999958343508,10|0,3:2|0:0,0:0:0:0:
363,207,46501,5,2,3:2:0:0:
489,174,46675,1,0,0:0:0:0:
485,165,46850,1,10,3:2:0:0:
374,297,47024,2,0,P|338:269|294:264,1,90.9999958343508,2|2,0:2|3:2,0:0:0:0:
146,300,47373,1,0,0:0:0:0:
117,366,47548,2,0,P|161:370|201:349,1,90.9999958343508,10|0,3:2|0:0,0:0:0:0:
241,164,47896,5,6,3:2:0:0:
203,22,48071,1,0,0:0:0:0:
232,185,48245,1,10,3:2:0:0:
211,0,48420,2,0,L|202:90,1,90.9999958343508,2|2,0:2|3:2,0:0:0:0:
30,189,48768,1,0,0:0:0:0:
153,172,48943,2,0,L|243:160,1,90.9999958343508,10|0,3:2|0:0,0:0:0:0:
497,221,49292,6,0,P|444:180|378:188,1,136.499993751526,2|0,3:2|0:0,0:0:0:0:
307,153,49641,2,0,P|283:191|281:236,1,90.9999958343508,10|0,3:2|0:0,0:0:0:0:
473,325,49989,2,0,L|328:339,1,136.499993751526,2|0,3:2|0:0,0:0:0:0:
268,379,50338,2,0,L|177:366,1,90.9999958343508,10|0,3:2|0:0,0:0:0:0:
14,288,50687,5,6,3:2:0:0:
153,238,50861,1,0,0:0:0:0:
164,249,51036,1,10,3:2:0:0:
4,366,51210,2,0,P|25:326|24:281,1,90.9999958343508,2|2,0:2|3:2,0:0:0:0:
158,164,51559,1,0,0:0:0:0:
108,107,51734,2,0,P|70:81|26:76,1,90.9999958343508,10|0,3:2|0:0,0:0:0:0:
219,212,52082,5,2,3:2:0:0:
357,160,52257,1,0,0:0:0:0:
350,171,52431,1,10,3:2:0:0:
236,0,52606,2,0,P|244:46|248:90,1,90.9999958343508,2|2,0:2|3:2,0:0:0:0:
281,173,52955,1,0,0:0:0:0:
290,349,53129,2,0,P|280:302|277:258,1,90.9999958343508,10|0,3:2|0:0,0:0:0:0:
380,151,53478,5,4,3:2:0:0:
364,141,53652,1,4,3:3:0:0:
348,132,53827,1,4,3:3:0:0:
272,144,54001,5,12,3:2:0:0:
437,108,54175,1,4,3:3:0:0:
249,135,54350,1,4,3:3:0:0:
455,38,54524,5,4,3:2:0:0:
404,289,54699,1,4,3:3:0:0:
399,0,54873,5,8,3:3:0:0:
458,252,55048,1,8,3:3:0:0:
217,300,55222,1,8,3:3:0:0:
157,47,55397,1,8,3:3:0:0:
512,290,55571,5,8,3:2:0:0:
0,145,56268,6,0,P|79:130|135:187,1,168,6|0,3:2|0:0,0:0:0:0:
197,215,56617,2,0,L|175:324,1,112,10|0,3:2|0:0,0:0:0:0:
279,150,56966,2,0,L|247:314,1,168,2|0,3:2|0:0,0:0:0:0:
282,372,57315,1,10,3:2:0:0:
355,147,57489,6,0,P|333:96|284:72,1,112,2|2,0:2|3:2,0:0:0:0:
116,43,57838,2,0,L|226:25,1,112,2|10,0:2|3:2,0:0:0:0:
500,35,58187,2,0,L|390:53,1,112,2|2,0:2|3:2,0:0:0:0:
315,8,58536,1,2,0:2:0:0:
277,172,58710,2,0,P|337:224|414:201,1,168,10|0,3:2|0:0,0:0:0:0:
444,140,59059,6,0,P|497:199|468:273,1,168,6|0,3:2|0:0,0:0:0:0:
460,341,59408,2,0,L|349:321,1,112,10|0,3:2|0:0,0:0:0:0:
98,273,59757,2,0,L|263:301,1,168,2|0,3:2|0:0,0:0:0:0:
318,262,60106,1,10,3:2:0:0:
111,287,60280,6,0,L|0:306,1,112,10|2,3:2|3:2,0:0:0:0:
310,250,60629,2,0,L|421:231,1,112,2|10,0:2|3:2,0:0:0:0:
186,115,60978,2,0,L|201:227,1,112,2|2,0:2|3:2,0:0:0:0:
182,310,61327,1,8,3:2:0:0:
211,31,61501,1,8,3:2:0:0:
190,322,61675,1,8,3:2:0:0:
139,49,61850,6,0,P|210:11|283:46,1,168,6|0,3:2|0:0,0:0:0:0:
345,18,62199,2,0,P|364:69|345:121,1,112,10|0,3:2|0:0,0:0:0:0:
206,169,62548,2,0,L|39:143,1,168,2|0,3:2|0:0,0:0:0:0:
21,78,62896,1,10,3:2:0:0:
160,244,63071,6,0,P|214:254|265:232,1,112,2|2,0:2|3:2,0:0:0:0:
363,129,63420,2,0,L|345:239,1,112,2|10,0:2|3:2,0:0:0:0:
512,319,63768,2,0,P|457:310|416:272,1,112,2|2,0:2|3:2,0:0:0:0:
489,237,64117,1,2,0:2:0:0:
324,300,64292,2,0,P|313:218|359:150,1,168,10|0,3:2|0:0,0:0:0:0:
379,85,64641,5,4,3:2:0:0:
397,89,64815,1,4,3:3:0:0:
417,94,64989,1,4,3:3:0:0:
320,105,65164,5,4,3:3:0:0:
417,94,65338,1,4,3:3:0:0:
512,86,65513,1,4,3:3:0:0:
245,149,65687,5,4,3:3:0:0:
502,79,65861,1,4,3:3:0:0:
158,197,66036,5,8,3:3:0:0:
465,220,66210,1,8,3:3:0:0:
163,204,66385,1,8,3:3:0:0:
468,212,66559,1,8,3:3:0:0:
109,253,66734,5,8,3:3:0:0:
310,98,66908,1,8,3:3:0:0:
318,110,67082,5,0,3:3:0:0:
38,39,67257,1,8,3:2:0:0:
159,376,67431,6,0,P|218:320|299:322,1,168,6|0,3:2|0:0,0:0:0:0:
353,371,67780,2,0,P|375:321|352:271,1,112,10|0,3:2|0:0,0:0:0:0:
324,110,68129,2,0,P|242:109|190:171,1,168,2|0,3:2|0:0,0:0:0:0:
232,224,68478,1,10,3:2:0:0:
32,121,68652,6,0,P|26:176|47:227,1,112,2|2,0:2|3:2,0:0:0:0:
122,351,69001,2,0,L|241:326,1,112,2|10,0:2|3:2,0:0:0:0:
480,271,69350,2,0,L|370:294,1,112,2|2,0:2|3:2,0:0:0:0:
435,360,69699,1,2,0:2:0:0:
293,259,69873,2,0,P|286:179|353:136,1,168,10|0,3:2|0:0,0:0:0:0:
436,129,70222,6,0,P|384:66|299:72,1,168,6|0,3:2|0:0,0:0:0:0:
252,25,70571,2,0,P|209:59|154:62,1,112,10|0,3:2|0:0,0:0:0:0:
12,7,70920,2,0,P|30:89|37:173,1,168,2|0,3:2|0:0,0:0:0:0:
11,235,71268,1,10,3:2:0:0:
196,270,71443,6,0,P|162:314|116:345,1,112,10|2,3:2|3:2,0:0:0:0:
282,205,71792,2,0,P|337:211|387:236,1,112,2|10,0:2|3:2,0:0:0:0:
180,169,72141,2,0,P|158:117|154:62,1,112,2|2,0:2|3:2,0:0:0:0:
250,11,72489,1,8,3:2:0:0:
313,280,72664,1,8,3:2:0:0:
259,4,72838,1,8,3:2:0:0:
338,357,73013,6,0,P|388:294|361:218,1,168,6|0,3:2|0:0,0:0:0:0:
374,152,73361,2,0,L|254:165,1,112,10|0,3:2|0:0,0:0:0:0:
0,124,73710,2,0,L|111:111,1,112,2|0,3:2|0:0,0:0:0:0:
165,63,74059,1,10,3:2:0:0:
220,231,74234,6,0,P|187:188|190:133,1,112,2|2,0:2|3:2,0:0:0:0:
220,16,74582,2,0,P|172:-7|119:6,1,112,2|10,0:2|3:2,0:0:0:0:
314,80,74931,2,0,L|425:70,1,112,2|2,0:2|3:2,0:0:0:0:
472,16,75280,1,2,0:2:0:0:
313,234,75455,2,0,P|374:179|448:204,1,168,10|0,3:2|0:0,0:0:0:0:
505,259,75803,5,4,3:2:0:0:
497,279,75978,1,4,3:3:0:0:
489,298,76152,1,4,3:3:0:0:
351,313,76327,5,4,3:3:0:0:
489,298,76501,1,4,3:3:0:0:
326,300,76675,1,4,3:3:0:0:
500,313,76850,5,4,3:3:0:0:
224,256,77024,1,4,3:3:0:0:
417,337,77199,5,8,3:3:0:0:
290,167,77373,1,8,3:3:0:0:
358,82,77548,1,8,3:3:0:0:
408,353,77722,1,8,3:3:0:0:
400,368,77896,5,8,3:3:0:0:
344,17,78071,1,8,3:3:0:0:
393,382,78245,5,8,3:2:0:0:
161,2,78594,5,6,3:2:0:0:
161,2,78768,1,0,0:0:0:0:
100,149,78943,1,10,3:2:0:0:
40,106,79117,2,0,P|69:81|106:76,1,77.0000023498536,2|2,0:2|3:2,0:0:0:0:
184,206,79466,1,0,3:2:0:0:
96,222,79641,1,10,3:2:0:0:
90,219,79815,1,0,0:0:0:0:
271,229,79989,6,0,L|398:201,1,115.50000352478,2|0,3:2|0:0,0:0:0:0:
399,186,80338,2,0,P|428:212|436:249,1,77.0000023498536,10|0,3:2|0:0,0:0:0:0:
509,376,80687,1,2,3:2:0:0:
509,376,80861,1,0,3:2:0:0:
374,317,81036,2,0,P|321:348|264:332,1,115.50000352478,10|0,3:2|0:0,0:0:0:0:
198,337,81385,5,6,3:2:0:0:
198,337,81559,1,0,0:0:0:0:
312,277,81734,1,10,3:2:0:0:
136,377,81908,2,0,P|122:333|133:297,1,77.0000023498536,2|2,0:2|3:2,0:0:0:0:
11,151,82257,1,0,3:2:0:0:
83,180,82431,2,0,L|158:163,1,77.0000023498536,10|0,3:2|0:0,0:0:0:0:
365,113,82780,6,0,L|252:138,1,115.50000352478,2|0,3:2|0:0,0:0:0:0:
232,123,83129,2,0,P|223:160|234:196,1,77.0000023498536,10|0,3:2|0:0,0:0:0:0:
315,58,83478,1,2,3:2:0:0:
315,58,83652,1,0,3:2:0:0:
305,203,83827,2,0,L|297:318,1,115.50000352478,10|0,3:2|0:0,0:0:0:0:
249,369,84175,5,6,3:2:0:0:
252,377,84350,1,0,0:0:0:0:
407,302,84524,1,10,3:2:0:0:
467,351,84699,2,0,L|475:275,1,77.0000023498536,2|2,0:2|3:2,0:0:0:0:
405,127,85048,1,0,3:2:0:0:
477,84,85222,1,10,3:2:0:0:
481,89,85396,1,0,0:0:0:0:
334,166,85571,6,0,L|221:138,1,115.50000352478,2|0,3:2|0:0,0:0:0:0:
208,119,85920,2,0,P|176:98|138:95,1,77.0000023498536,10|0,3:2|0:0,0:0:0:0:
11,11,86268,1,2,3:2:0:0:
15,18,86443,1,0,3:2:0:0:
55,90,86617,2,0,L|33:203,1,115.50000352478,10|0,3:2|0:0,0:0:0:0:
17,276,86966,5,6,3:2:0:0:
22,283,87141,1,0,0:0:0:0:
148,176,87315,1,10,3:2:0:0:
115,257,87489,2,0,L|190:242,1,77.0000023498536,2|2,0:2|3:2,0:0:0:0:
353,312,87838,1,0,3:2:0:0:
432,286,88013,2,0,L|417:365,1,77.0000023498536,10|0,3:2|0:0,0:0:0:0:
286,383,88361,6,0,L|265:269,1,115.50000352478,6|0,3:2|0:0,0:0:0:0:
248,252,88710,2,0,P|269:219|304:206,1,77.0000023498536,10|0,3:2|0:0,0:0:0:0:
419,88,89059,1,2,3:2:0:0:
501,165,89234,1,0,3:2:0:0:
494,142,89321,1,0,3:2:0:0:
487,119,89408,2,0,L|472:234,1,115.50000352478,14|0,3:2|0:0,0:0:0:0:
502,297,89757,5,6,3:2:0:0:
317,263,89931,1,0,3:2:0:0:
507,306,90106,1,10,3:2:0:0:
359,208,90280,2,0,P|316:194|273:209,1,90.9999958343508,2|2,3:2|3:2,0:0:0:0:
180,184,90629,1,0,3:2:0:0:
222,383,90803,1,10,3:2:0:0:
190,175,90978,1,0,3:2:0:0:
284,352,91152,5,2,3:2:0:0:
148,328,91327,1,0,3:2:0:0:
337,316,91501,1,10,3:2:0:0:
100,381,91675,2,0,P|77:342|83:298,1,90.9999958343508,2|2,3:2|3:2,0:0:0:0:
195,164,92024,1,0,3:2:0:0:
17,229,92199,2,0,L|107:216,1,90.9999958343508,10|0,3:2|3:2,0:0:0:0:
328,191,92548,5,6,3:2:0:0:
190,244,92722,1,0,3:2:0:0:
383,67,92896,1,10,3:2:0:0:
338,289,93071,2,0,L|320:180,1,90.9999958343508,2|2,3:2|3:2,0:0:0:0:
229,19,93420,1,0,3:2:0:0:
387,50,93594,1,10,3:2:0:0:
216,24,93768,1,0,3:2:0:0:
470,19,93943,5,2,3:2:0:0:
467,27,94030,1,0,3:2:0:0:
464,35,94117,1,0,3:2:0:0:
461,43,94205,1,0,3:2:0:0:
459,51,94292,5,10,3:2:0:0:
467,90,94379,1,0,3:2:0:0:
475,129,94466,1,0,3:2:0:0:
483,168,94553,1,0,3:2:0:0:
490,208,94641,5,2,3:2:0:0:
468,252,94728,1,0,3:2:0:0:
421,270,94815,1,0,3:2:0:0:
372,257,94902,1,0,3:2:0:0:
340,218,94989,5,10,3:2:0:0:
318,200,95077,1,0,3:2:0:0:
290,198,95164,1,0,3:2:0:0:
269,206,95251,1,0,3:2:0:0:
256,225,95338,5,6,3:2:0:0:
415,201,95513,1,0,3:2:0:0:
243,222,95687,1,10,3:2:0:0:
489,160,95861,6,0,P|458:127|414:119,1,90.9999958343508,2|2,3:2|3:2,0:0:0:0:
269,307,96210,1,0,3:2:0:0:
224,148,96385,1,10,3:2:0:0:
263,322,96559,1,0,3:2:0:0:
172,95,96734,5,2,3:2:0:0:
314,140,96908,1,0,3:2:0:0:
132,44,97082,1,10,3:2:0:0:
378,112,97257,2,0,P|348:80|304:72,1,90.9999958343508,2|2,3:2|3:2,0:0:0:0:
148,178,97606,1,0,3:2:0:0:
3,157,97780,2,0,L|94:134,1,90.9999958343508,10|0,3:2|3:2,0:0:0:0:
204,224,98129,5,12,3:2:0:0:
212,220,98216,1,0,3:2:0:0:
220,217,98303,1,0,3:2:0:0:
228,214,98391,1,0,3:2:0:0:
236,211,98478,1,0,3:2:0:0:
244,208,98565,1,0,3:2:0:0:
252,205,98652,5,12,3:2:0:0:
289,222,98739,1,0,3:2:0:0:
299,261,98827,1,0,3:2:0:0:
276,295,98914,1,0,3:2:0:0:
235,299,99001,1,0,3:2:0:0:
202,274,99088,1,0,3:2:0:0:
197,233,99175,5,8,3:2:0:0:
163,177,99263,1,0,3:2:0:0:
99,172,99350,1,0,3:2:0:0:
52,214,99437,1,0,3:2:0:0:
60,276,99524,5,8,3:3:0:0:
364,224,99699,1,8,3:3:0:0:
430,287,99873,5,8,3:3:0:0:
124,236,100048,1,8,3:3:0:0:
512,102,100222,5,0,0:0:0:0:
256,192,100309,12,0,102141,0:0:0:0:
400,8,102315,6,0,L|386:185,1,178.500003404617,6|0,3:2|0:0,0:0:0:0:
430,252,102664,2,0,P|374:267|324:233,1,119.000002269745,10|0,3:2|0:0,0:0:0:0:
191,59,103013,2,0,P|112:28|45:80,1,178.500003404617,2|0,3:2|0:0,0:0:0:0:
104,143,103361,1,10,3:2:0:0:
0,280,103536,6,0,L|117:260,1,119.000002269745,2|2,0:2|3:2,0:0:0:0:
316,357,103885,2,0,L|198:376,1,119.000002269745,2|10,0:2|3:2,0:0:0:0:
148,193,104234,2,0,P|191:232|188:290,1,119.000002269745,2|2,0:2|3:2,0:0:0:0:
75,332,104582,1,2,0:2:0:0:
261,300,104757,2,0,L|437:272,1,178.500003404617,10|0,3:2|0:0,0:0:0:0:
512,292,105106,6,0,P|517:205|452:148,1,178.500003404617,6|0,3:2|0:0,0:0:0:0:
392,83,105455,2,0,P|344:118|286:116,1,119.000002269745,10|0,3:2|0:0,0:0:0:0:
100,207,105803,2,0,P|115:112|122:29,1,178.500003404617,2|0,3:2|0:0,0:0:0:0:
35,0,106152,1,10,3:2:0:0:
205,121,106327,6,0,P|225:66|278:33,1,119.000002269745,10|2,3:2|3:2,0:0:0:0:
214,245,106675,2,0,P|157:254|101:225,1,119.000002269745,2|10,0:2|3:2,0:0:0:0:
322,168,107024,2,0,P|358:212|361:275,1,119.000002269745,2|2,0:2|3:2,0:0:0:0:
422,361,107373,1,8,3:2:0:0:
416,143,107548,1,8,3:2:0:0:
430,372,107722,1,8,3:2:0:0:
501,92,107896,6,0,L|324:120,1,178.500003404617,6|0,3:2|0:0,0:0:0:0:
245,166,108245,2,0,P|190:144|131:150,1,119.000002269745,10|0,3:2|0:0,0:0:0:0:
0,299,108594,2,0,L|177:319,1,178.500003404617,2|0,3:2|0:0,0:0:0:0:
242,380,108943,1,10,3:2:0:0:
163,231,109117,6,0,L|45:218,1,119.000002269745,2|2,0:2|3:2,0:0:0:0:
319,254,109466,2,0,L|437:267,1,119.000002269745,2|10,0:2|3:2,0:0:0:0:
241,221,109815,2,0,P|281:177|340:174,1,119.000002269745,2|2,0:2|3:2,0:0:0:0:
443,277,110164,1,2,0:2:0:0:
322,82,110338,2,0,P|401:110|433:195,1,178.500003404617,10|0,3:2|0:0,0:0:0:0:
451,262,110687,5,4,3:2:0:0:
443,277,110861,1,4,3:3:0:0:
434,295,111036,1,4,3:3:0:0:
416,201,111210,5,4,3:3:0:0:
434,295,111385,1,4,3:3:0:0:
450,382,111559,1,4,3:3:0:0:
435,138,111734,5,4,3:3:0:0:
457,374,111908,1,4,3:3:0:0:
267,140,112082,5,8,3:3:0:0:
503,195,112257,1,8,3:3:0:0:
260,135,112431,1,8,3:3:0:0:
496,190,112606,1,8,3:3:0:0:
488,183,112780,5,8,3:3:0:0:
200,206,112955,1,8,3:3:0:0:
123,191,113129,5,8,3:2:0:0:
507,271,113303,1,0,3:3:0:0:
69,249,113478,6,0,P|47:168|110:111,1,178.500003404617,6|0,3:2|0:0,0:0:0:0:
109,32,113827,2,0,L|227:45,1,119.000002269745,10|0,3:2|0:0,0:0:0:0:
309,219,114175,2,0,L|131:198,1,178.500003404617,2|0,3:2|0:0,0:0:0:0:
69,249,114524,1,10,3:2:0:0:
353,283,114699,6,0,P|386:235|374:178,1,119.000002269745,2|2,0:2|3:2,0:0:0:0:
207,27,115048,2,0,P|232:79|287:96,1,119.000002269745,2|10,0:2|3:2,0:0:0:0:
479,5,115396,2,0,P|424:22|399:75,1,119.000002269745,2|2,0:2|3:2,0:0:0:0:
279,24,115745,1,2,0:2:0:0:
512,136,115920,2,0,P|425:151|334:157,1,178.500003404617,10|0,3:2|0:0,0:0:0:0:
259,192,116268,6,0,P|204:170|118:248,1,178.500003404617,6|0,3:2|0:0,0:0:0:0:
41,260,116617,2,0,L|61:377,1,119.000002269745,10|0,3:2|0:0,0:0:0:0:
69,161,116966,2,0,L|48:43,1,119.000002269745,2|0,3:2|0:0,0:0:0:0:
32,270,117315,1,10,3:2:0:0:
139,67,117489,6,0,P|185:31|243:34,1,119.000002269745,10|2,3:2|3:2,0:0:0:0:
382,1,117838,2,0,P|427:36|440:93,1,119.000002269745,2|10,0:2|3:2,0:0:0:0:
491,197,118187,2,0,P|468:250|416:277,1,119.000002269745,2|2,0:2|3:2,0:0:0:0:
266,272,118536,1,8,3:2:0:0:
479,328,118710,1,8,3:2:0:0:
256,277,118885,1,8,3:2:0:0:
511,383,119059,6,0,P|442:328|357:348,1,178.500003404617,6|0,3:2|0:0,0:0:0:0:
269,344,119408,2,0,P|213:364|156:352,1,119.000002269745,10|0,3:2|0:0,0:0:0:0:
24,255,119757,2,0,L|53:75,1,178.500003404617,2|0,3:2|0:0,0:0:0:0:
0,0,120106,1,10,3:2:0:0:
101,195,120280,6,0,L|82:312,1,119.000002269745,2|2,0:2|3:2,0:0:0:0:
227,307,120629,2,0,L|245:189,1,119.000002269745,2|10,0:2|3:2,0:0:0:0:
36,133,120978,2,0,P|84:101|141:112,1,119.000002269745,2|2,0:2|3:2,0:0:0:0:
365,246,121327,1,2,0:2:0:0:
236,316,121501,2,0,L|60:282,1,178.500003404617,10|0,3:2|0:0,0:0:0:0:
8,330,121850,5,4,3:2:0:0:
19,349,122024,1,4,3:3:0:0:
31,369,122199,1,4,3:3:0:0:
89,191,122373,5,4,3:3:0:0:
60,282,122548,1,4,3:3:0:0:
31,369,122722,1,4,3:3:0:0:
85,170,122896,5,4,3:3:0:0:
135,384,123071,1,4,3:3:0:0:
0,166,123245,5,8,3:3:0:0:
332,127,123420,1,8,3:3:0:0:
152,20,123594,1,8,3:3:0:0:
183,312,123768,1,8,3:3:0:0:
177,321,123943,5,8,3:3:0:0:
217,0,124117,1,8,3:3:0:0:
0,174,124292,6,0,L|146:189,1,146.999995513916,8|0,3:2|0:0,0:0:0:0:
220,192,124641,6,0,P|257:161|305:160,1,97.9999970092774,6|0,3:2|0:0,0:0:0:0:
417,295,124989,2,0,P|371:278|346:237,1,97.9999970092774,10|0,3:2|0:0,0:0:0:0:
413,74,125338,2,0,P|421:121|398:163,1,97.9999970092774,2|0,3:2|0:0,0:0:0:0:
349,109,125687,1,10,3:2:0:0:
226,200,125861,6,0,L|210:89,1,97.9999970092774,2|0,0:2|3:2,0:0:0:0:
325,306,126210,2,0,L|341:195,1,97.9999970092774,2|8,0:2|3:2,0:0:0:0:
228,384,126559,2,0,L|212:273,1,97.9999970092774,2|0,0:2|3:2,0:0:0:0:
268,249,126908,1,2,0:2:0:0:
85,287,127082,1,10,3:2:0:0:
271,242,127257,1,2,0:2:0:0:
117,228,127431,6,0,P|69:221|29:248,1,97.9999970092774,6|0,3:2|0:0,0:0:0:0:
195,178,127780,2,0,P|176:133|137:98,1,97.9999970092774,10|0,3:2|0:0,0:0:0:0:
275,234,128129,2,0,P|304:195|321:146,1,97.9999970092774,2|0,3:2|0:0,0:0:0:0:
325,51,128478,1,10,3:2:0:0:
375,246,128652,6,0,P|386:297|396:352,1,97.9999970092774,2|0,0:2|3:2,0:0:0:0:
343,45,129001,2,0,P|331:96|322:151,1,97.9999970092774,2|8,0:2|3:2,0:0:0:0:
415,8,129350,1,2,0:2:0:0:
314,148,129524,2,0,P|291:155|267:157,1,48.9999985046387,2|0,3:2|0:0,0:0:0:0:
212,103,129699,2,0,P|190:91|166:84,1,48.9999985046387,2|0,3:2|0:0,0:0:0:0:
78,26,129873,2,0,P|86:53|88:74,1,48.9999985046387,10|0,3:2|0:0,0:0:0:0:
115,147,130048,2,0,P|108:174|99:193,1,48.9999985046387,2|0,3:2|0:0,0:0:0:0:
116,278,130222,6,0,P|76:306|29:320,1,97.9999970092774,6|0,3:2|0:0,0:0:0:0:
269,265,130571,2,0,P|229:236|183:223,1,97.9999970092774,10|0,3:2|0:0,0:0:0:0:
321,378,130920,2,0,P|337:333|372:299,1,97.9999970092774,2|0,3:2|0:0,0:0:0:0:
472,189,131268,1,10,3:2:0:0:
436,352,131443,6,0,P|448:307|444:252,1,97.9999970092774,2|0,0:2|3:2,0:0:0:0:
490,175,131792,2,0,P|457:142|408:118,1,97.9999970092774,2|8,0:2|3:2,0:0:0:0:
373,39,132141,2,0,P|328:51|283:81,1,97.9999970092774,2|0,0:2|3:2,0:0:0:0:
195,43,132489,1,2,0:2:0:0:
241,198,132664,1,10,3:2:0:0:
202,32,132838,1,2,0:2:0:0:
174,302,133013,5,4,3:2:0:0:
352,239,133187,1,4,3:3:0:0:
146,239,133361,5,4,3:3:0:0:
380,302,133536,1,4,3:3:0:0:
112,330,133710,5,4,3:3:0:0:
414,211,133885,1,4,3:3:0:0:
84,267,134059,5,4,3:3:0:0:
442,274,134233,1,4,3:3:0:0:
178,318,134408,5,8,3:3:0:0:
242,41,134582,1,8,3:3:0:0:
176,62,134757,1,8,3:3:0:0:
235,347,134931,1,8,3:3:0:0:
243,48,135106,5,8,3:3:0:0:
178,384,135280,1,8,3:3:0:0:
239,354,135455,1,0,3:3:0:0:
193,0,135629,1,8,3:2:0:0:
312,11,135803,6,0,P|328:56|329:105,1,97.9999970092774,6|0,3:2|0:0,0:0:0:0:
187,257,136152,2,0,P|218:219|260:194,1,97.9999970092774,10|0,3:2|0:0,0:0:0:0:
459,244,136501,2,0,P|410:235|368:211,1,97.9999970092774,2|0,3:2|0:0,0:0:0:0:
248,118,136850,2,0,P|221:114|195:115,1,48.9999985046387,10|0,3:2|0:0,0:0:0:0:
114,64,137024,2,0,P|93:81|76:101,1,48.9999985046387,2|0,0:2|0:0,0:0:0:0:
17,165,137199,6,0,P|30:234|38:310,1,146.999995513916,2|0,3:2|0:0,0:0:0:0:
28,384,137548,2,0,P|75:370|123:364,1,97.9999970092774,10|0,3:2|0:0,0:0:0:0:
260,295,137896,2,0,P|307:306|352:325,1,97.9999970092774,2|0,3:2|0:0,0:0:0:0:
179,231,138245,2,0,P|246:204|322:207,1,146.999995513916,10|0,3:2|0:0,0:0:0:0:
388,171,138594,6,0,P|387:219|392:268,2,97.9999970092774,6|0|8,3:2|0:0|3:2,0:0:0:0:
465,108,139117,2,0,P|469:59|469:10,2,97.9999970092774,2|0|0,0:2|3:2|0:0,0:0:0:0:
483,213,139641,1,10,3:2:0:0:
483,213,139815,1,0,0:0:0:0:
357,109,139989,6,0,L|308:113,1,48.9999985046387,2|0,3:2|0:0,0:0:0:0:
149,126,140164,2,0,L|197:121,1,48.9999985046387
357,115,140338,6,0,L|308:119,1,48.9999985046387,10|0,3:2|0:0,0:0:0:0:
149,132,140513,2,0,L|197:127,1,48.9999985046387
250,63,140687,5,2,3:2:0:0:
234,201,140861,2,0,L|220:298,2,97.9999970092774,2|8|0,0:2|3:2|0:2,0:0:0:0:
0,384,141385,6,0,P|3:332|17:287,1,97.9999970092774,6|0,3:2|0:0,0:0:0:0:
0,193,141734,2,0,P|46:169|92:159,1,97.9999970092774,10|0,3:2|0:0,0:0:0:0:
258,139,142082,1,2,3:2:0:0:
54,86,142257,1,0,0:0:0:0:
306,193,142431,2,0,P|328:150|319:102,1,97.9999970092774,10|0,3:2|0:0,0:0:0:0:
51,4,142780,6,0,P|42:51|64:94,1,97.9999970092774,2|0,3:2|0:0,0:0:0:0:
157,163,143129,2,0,L|253:143,1,97.9999970092774,10|0,3:2|0:0,0:0:0:0:
376,30,143478,1,2,3:2:0:0:
381,37,143652,1,0,0:0:0:0:
367,114,143827,1,10,3:2:0:0:
385,43,144001,1,0,0:0:0:0:
345,196,144175,5,4,3:2:0:0:
426,174,144350,1,4,3:3:0:0:
271,167,144524,5,4,3:3:0:0:
435,180,144699,1,8,3:3:0:0:
196,196,144873,5,12,3:2:0:0:
444,187,145048,1,4,3:3:0:0:
120,164,145222,5,0,3:3:0:0:
452,193,145397,1,4,3:3:0:0:
43,195,145571,5,12,3:2:0:0:
292,319,145745,1,8,3:3:0:0:
218,59,145920,5,8,3:3:0:0:
217,383,146094,1,8,3:3:0:0:
295,0,146268,1,8,3:2:0:0:
185,122,158129,5,4,3:2:0:0:
364,97,158478,1,0,3:2:0:0:
178,118,158827,1,0,3:2:0:0:
371,102,159175,5,0,3:2:0:0:
41,48,159350,1,12,3:2:0:0:
47,43,159699,5,0,0:0:0:0:
75,107,159873,2,0,L|60:182,1,77.0000023498536,2|0,3:2|2:0,0:0:0:0:
64,188,160222,2,0,L|79:113,1,77.0000023498536,2|0,3:2|2:0,0:0:0:0:
83,118,160571,2,0,L|68:193,1,77.0000023498536,2|0,3:2|2:0,0:0:0:0:
207,285,160920,5,4,3:2:0:0:
141,183,161268,1,0,3:2:0:0:
201,280,161617,1,0,3:2:0:0:
145,175,161966,5,8,3:2:0:0:
261,384,162141,1,12,3:2:0:0:
253,380,162489,5,0,0:0:0:0:
305,318,162664,2,0,L|293:241,1,77.0000023498536,2|0,3:2|2:0,0:0:0:0:
297,234,163013,2,0,L|309:311,1,77.0000023498536,2|0,3:2|2:0,0:0:0:0:
313,304,163361,2,0,L|301:227,1,77.0000023498536,2|0,3:2|2:0,0:0:0:0:
353,118,163710,5,4,3:2:0:0:
206,103,164059,1,0,3:2:0:0:
359,113,164408,1,0,3:2:0:0:
201,96,164757,5,0,3:2:0:0:
511,132,164931,1,12,3:2:0:0:
506,126,165280,1,0,0:0:0:0:
441,96,165455,2,0,L|357:111,1,77.0000023498536,2|0,3:2|2:0,0:0:0:0:
365,104,165803,2,0,L|440:90,1,77.0000023498536,2|0,3:2|2:0,0:0:0:0:
440,85,166152,2,0,L|356:100,1,77.0000023498536,2|0,3:2|2:0,0:0:0:0:
245,30,166501,6,0,P|255:94|255:164,2,125.999996154785,4|0|0,3:2|2:0|2:0,0:0:0:0:
210,270,167896,5,4,3:2:0:0:
230,264,168071,1,4,3:3:0:0:
250,258,168245,1,4,3:3:0:0:
270,252,168420,1,4,3:3:0:0:
112,205,168594,5,4,3:3:0:0:
164,220,168769,1,4,3:3:0:0:
217,236,168943,1,0,3:3:0:0:
270,252,169118,1,4,3:3:0:0:
88,85,169292,5,8,3:3:0:0:
150,140,169467,1,8,3:3:0:0:
210,195,169641,1,8,3:3:0:0:
270,252,169816,1,8,3:3:0:0:
29,32,169989,5,8,3:2:0:0:
205,14,170687,6,0,P|195:104|182:191,1,178.500003404617,6|0,3:2|0:0,0:0:0:0:
126,268,171036,2,0,P|154:318|209:338,1,119.000002269745,10|0,3:2|0:0,0:0:0:0:
400,384,171385,2,0,P|386:295|377:206,1,178.500003404617,2|0,3:2|0:0,0:0:0:0:
477,114,171734,1,10,3:2:0:0:
274,29,171908,6,0,P|320:-6|377:0,1,119.000002269745,2|2,0:2|3:2,0:0:0:0:
440,173,172257,2,0,P|382:180|336:144,1,119.000002269745,2|10,0:2|3:2,0:0:0:0:
132,85,172606,2,0,P|78:107|54:160,1,119.000002269745,2|2,0:2|3:2,0:0:0:0:
0,333,172955,1,2,0:2:0:0:
98,363,173129,2,0,P|190:345|274:337,1,178.500003404617,10|0,3:2|0:0,0:0:0:0:
307,251,173478,6,0,P|394:266|477:298,1,178.500003404617,6|0,3:2|0:0,0:0:0:0:
511,235,173827,2,0,P|453:250|394:259,1,119.000002269745,10|0,3:2|0:0,0:0:0:0:
219,178,174175,2,0,P|289:130|367:164,1,178.500003404617,2|0,3:2|0:0,0:0:0:0:
483,124,174524,1,10,3:2:0:0:
219,189,174699,6,0,P|161:172|102:169,1,119.000002269745,10|2,3:2|3:2,0:0:0:0:
88,0,175048,2,0,P|45:41|13:91,1,119.000002269745,2|10,0:2|3:2,0:0:0:0:
99,181,175396,2,0,P|122:235|132:294,1,119.000002269745,2|2,0:2|3:2,0:0:0:0:
62,378,175745,1,8,3:2:0:0:
181,182,175920,1,8,3:2:0:0:
68,382,176094,1,8,3:2:0:0:
18,187,176268,6,0,P|59:113|143:115,1,178.500003404617,6|0,3:2|0:0,0:0:0:0:
215,53,176617,2,0,P|262:89|320:101,1,119.000002269745,10|0,3:2|0:0,0:0:0:0:
459,20,176966,2,0,P|446:108|436:197,1,178.500003404617,2|0,3:2|0:0,0:0:0:0:
512,303,177315,1,10,3:2:0:0:
315,377,177489,6,0,P|316:317|322:258,1,119.000002269745,2|2,0:2|3:2,0:0:0:0:
208,82,177838,2,0,P|258:113|306:148,1,119.000002269745,2|10,0:2|3:2,0:0:0:0:
512,135,178187,2,0,P|459:163|405:187,1,119.000002269745,2|2,0:2|3:2,0:0:0:0:
486,60,178536,1,0,0:0:0:0:
422,268,178710,2,0,P|339:243|247:230,1,178.500003404617,10|0,3:2|0:0,0:0:0:0:
132,184,179059,5,4,3:2:0:0:
98,202,179234,1,4,3:3:0:0:
66,219,179408,1,4,3:3:0:0:
180,228,179582,5,4,3:3:0:0:
18,170,179757,1,4,3:3:0:0:
183,238,179931,1,4,3:3:0:0:
93,100,180106,5,4,3:3:0:0:
126,322,180280,1,4,3:3:0:0:
136,44,180455,5,8,3:3:0:0:
85,377,180629,1,8,3:3:0:0:
136,322,180803,1,8,3:3:0:0:
89,4,180977,1,8,3:3:0:0:
82,8,181152,5,8,3:3:0:0:
194,353,181327,1,8,3:3:0:0:
305,22,181500,1,8,3:2:0:0:
197,363,181676,1,0,3:3:0:0:
0,23,181850,6,0,L|177:41,1,178.500003404617,6|0,3:2|0:0,0:0:0:0:
250,104,182199,2,0,P|309:94|368:98,1,119.000002269745,10|0,3:2|0:0,0:0:0:0:
512,233,182548,2,0,P|423:242|337:219,1,178.500003404617,2|0,3:2|0:0,0:0:0:0:
375,114,182896,1,10,3:2:0:0:
296,314,183071,6,0,P|248:274|233:218,1,119.000002269745,2|2,0:2|3:2,0:0:0:0:
111,222,183420,2,0,P|121:161|162:120,1,119.000002269745,2|10,0:2|3:2,0:0:0:0:
107,16,183768,2,0,P|164:-5|220:9,1,119.000002269745,2|2,0:2|3:2,0:0:0:0:
395,4,184117,1,2,0:2:0:0:
271,107,184292,2,0,P|285:190|298:296,1,178.500003404617,10|0,3:2|0:0,0:0:0:0:
355,355,184641,6,0,P|271:384|185:367,1,178.500003404617,6|0,3:2|0:0,0:0:0:0:
99,368,184989,2,0,L|105:249,1,119.000002269745,10|0,3:2|0:0,0:0:0:0:
119,0,185338,2,0,L|109:178,1,178.500003404617,2|0,3:2|0:0,0:0:0:0:
3,206,185687,1,10,3:2:0:0:
250,120,185861,6,0,P|204:83|146:85,1,119.000002269745,10|2,3:2|3:2,0:0:0:0:
373,174,186210,2,0,P|431:175|476:139,1,119.000002269745,2|10,0:2|3:2,0:0:0:0:
182,156,186559,2,0,P|192:213|200:273,1,119.000002269745,2|2,0:2|3:2,0:0:0:0:
294,205,186908,1,8,3:2:0:0:
49,197,187082,1,8,3:2:0:0:
298,213,187257,1,8,3:2:0:0:
0,58,187431,6,0,P|64:0|150:11,1,178.500003404617,6|0,3:2|0:0,0:0:0:0:
258,26,187780,2,0,P|292:75|346:99,1,119.000002269745,10|0,3:2|0:0,0:0:0:0:
512,76,188129,2,0,P|477:156|398:193,1,178.500003404617,2|0,3:2|0:0,0:0:0:0:
352,92,188478,1,10,3:2:0:0:
261,278,188652,6,0,P|320:278|373:302,1,119.000002269745,2|2,0:2|3:2,0:0:0:0:
171,345,189001,2,0,P|117:369|58:369,1,119.000002269745,2|10,0:2|3:2,0:0:0:0:
10,249,189350,2,0,L|33:132,1,119.000002269745,2|2,0:2|3:2,0:0:0:0:
73,291,189699,1,2,0:2:0:0:
28,63,189873,2,0,P|124:57|204:36,1,178.500003404617,10|0,3:2|0:0,0:0:0:0:
286,8,190222,5,4,3:2:0:0:
278,54,190396,1,4,3:3:0:0:
269,101,190571,1,4,3:3:0:0:
286,8,190745,5,4,3:3:0:0:
302,164,190920,1,4,3:3:0:0:
294,0,191094,1,4,3:3:0:0:
392,208,191268,5,4,3:3:0:0:
142,243,191443,1,4,3:3:0:0:
448,242,191617,5,8,3:3:0:0:
78,221,191792,1,8,3:3:0:0:
30,270,191966,1,8,3:3:0:0:
501,200,192141,1,8,3:3:0:0:
509,209,192315,5,8,3:3:0:0:
7,199,192489,1,8,3:3:0:0:
477,269,192664,5,8,3:2:0:0:
50,357,193013,6,0,L|61:312,1,45.4999979171754,4|0,3:2|0:0,0:0:0:0:
125,23,193361,2,0,L|115:67,1,45.4999979171754,4|0,3:2|0:0,0:0:0:0:
45,365,193710,6,0,L|76:231,1,136.499993751526,4|0,3:2|0:0,0:0:0:0:
46,167,194059,1,8,3:2:0:0:
293,134,194234,6,0,L|248:139,1,45.4999979171754,4|0,3:2|0:0,0:0:0:0:
38,162,194582,2,0,L|84:156,1,45.4999979171754,8|0,3:2|0:0,0:0:0:0:
408,15,194931,6,0,L|399:76,1,45.4999979171754,0|0,3:2|3:2,0:2:0:0:
385,146,195106,1,0,3:0:0:0:
