osu file format v14

[General]
AudioFilename: audio.mp3
AudioLeadIn: 0
PreviewTime: 56266
Countdown: 1
SampleSet: None
StackLeniency: 0.2
Mode: 0
LetterboxInBreaks: 0
WidescreenStoryboard: 0

[Editor]
Bookmarks: 11615,22778,33941,45104,56266,67429,78592,89755,102313,113476,124639,135801,146964,158127,169115,170685,181848,193011,195801
DistanceSpacing: 1.9
BeatDivisor: 4
GridSize: 4
TimelineZoom: 1

[Metadata]
Title:Army Of The Night
TitleUnicode:Army Of The Night
Artist:Powerwolf
ArtistUnicode:Powerwolf
Creator:LwL
Version:Possessed
Source:
Tags:Blessed & and Possessed
BeatmapID:1725650
BeatmapSetID:823452

[Difficulty]
HPDrainRate:5.5
CircleSize:3.5
OverallDifficulty:8
ApproachRate:9
SliderMultiplier:2
SliderTickRate:1

[Events]
//Background and Video events
0,0,"powerwolf(RGB)(noise_scale)(Level1)(width 1920).png",0,0
//Break Periods
2,147163,157527
//Storyboard Layer 0 (Background)
//Storyboard Layer 1 (Fail)
//Storyboard Layer 2 (Pass)
//Storyboard Layer 3 (Foreground)
//Storyboard Sound Samples

[TimingPoints]
453,348.837209302326,4,3,1,70,1,0
453,-133.333333333333,4,3,1,50,0,0
3156,-133.333333333333,4,2,4,5,0,0
3243,-133.333333333333,4,3,1,50,0,0
5947,-133.333333333333,4,2,4,5,0,0
6034,-133.333333333333,4,3,1,50,0,0
9261,-133.333333333333,4,2,4,5,0,0
9348,-133.333333333333,4,3,1,50,0,0
9784,-133.333333333333,4,2,4,5,0,0
9871,-100,4,3,1,70,0,0
10133,-100,4,2,4,5,0,0
10220,-100,4,3,1,70,0,0
10830,-100,4,2,4,5,0,0
10918,-100,4,3,1,70,0,0
11615,-200,4,3,1,70,0,1
20162,-200,4,3,2,70,0,1
22429,-200,4,3,1,70,0,1
22778,-100,4,3,1,70,0,0
31325,-100,4,3,2,70,0,0
32546,-133.333333333333,4,3,1,70,0,0
33156,-133.333333333333,4,2,4,5,0,0
33243,-133.333333333333,4,3,1,25,0,0
33854,-133.333333333333,4,2,4,5,0,0
33941,-100,4,3,1,50,0,0
35598,-100,4,2,4,5,0,0
35685,-100,4,3,1,50,0,0
35947,-100,4,2,4,5,0,0
36034,-100,4,3,1,50,0,0
36296,-100,4,2,4,5,0,0
36383,-100,4,3,1,50,0,0
36644,-100,4,2,4,5,0,0
36731,-100,4,3,1,50,0,0
37516,-100,4,2,4,5,0,0
37603,-100,4,3,1,50,0,0
38040,-100,4,2,4,5,0,0
38127,-100,4,3,1,50,0,0
38737,-100,4,2,4,5,0,0
38824,-100,4,3,1,50,0,0
41179,-100,4,2,4,5,0,0
41266,-100,4,3,1,50,0,0
41528,-100,4,2,4,5,0,0
41615,-100,4,3,1,50,0,0
41877,-100,4,2,4,5,0,0
41964,-100,4,3,1,50,0,0
42226,-100,4,2,4,5,0,0
42313,-100,4,3,1,60,0,0
44319,-100,4,2,4,5,0,0
44406,-100,4,3,1,60,0,0
44929,-100,4,2,4,5,0,0
45104,-80,4,3,1,70,0,0
49290,-57.1428571428571,4,3,1,70,0,0
49551,-57.1428571428571,4,2,4,5,0,0
49639,-57.1428571428571,4,3,1,70,0,0
49900,-57.1428571428571,4,2,4,5,0,0
49988,-57.1428571428571,4,3,1,70,0,0
50249,-57.1428571428571,4,2,4,5,0,0
50337,-57.1428571428571,4,3,1,70,0,0
50685,-80,4,3,1,70,0,0
54871,-80,4,3,2,70,0,0
56266,-200,4,3,1,70,0,1
64813,-200,4,3,2,70,0,1
67080,-200,4,3,1,70,0,1
75976,-200,4,3,2,70,0,1
78243,-200,4,3,1,70,0,1
78592,-100,4,3,1,70,0,0
80249,-100,4,2,4,5,0,0
80336,-100,4,3,1,70,0,0
81296,-100,4,2,4,5,0,0
81383,-100,4,3,1,70,0,0
82168,-100,4,2,4,5,0,0
82255,-100,4,3,1,70,0,0
82691,-100,4,2,4,5,0,0
82778,-100,4,3,1,70,0,0
85830,-100,4,2,4,5,0,0
85917,-100,4,3,1,70,0,0
86179,-100,4,2,4,5,0,0
86266,-100,4,3,1,70,0,0
86877,-100,4,2,4,5,0,0
86964,-100,4,3,1,70,0,0
89232,-100,4,3,2,70,0,0
89406,-100,4,3,1,70,0,0
89755,-80,4,3,1,70,0,0
99522,-80,4,3,2,70,0,0
100220,-80,4,3,1,70,0,0
102313,-200,4,3,1,70,0,1
110859,-200,4,3,2,70,0,1
113127,-200,4,3,1,70,0,1
122022,-200,4,3,2,70,0,1
124290,-200,4,3,1,70,0,1
124639,-66.6666666666667,4,3,1,70,0,0
133011,-66.6666666666667,4,3,3,70,0,0
135627,-66.6666666666667,4,3,1,70,0,0
137458,-66.6666666666667,4,2,4,5,0,0
137546,-66.6666666666667,4,3,1,70,0,0
137807,-66.6666666666667,4,2,4,5,0,0
137895,-66.6666666666667,4,3,1,70,0,0
138156,-66.6666666666667,4,2,4,5,0,0
138244,-66.6666666666667,4,3,1,70,0,0
138505,-66.6666666666667,4,2,4,5,0,0
138593,-66.6666666666667,4,3,1,70,0,0
144348,-66.6666666666667,4,3,2,70,0,0
145569,-66.6666666666667,4,3,1,70,0,0
146266,-100,4,3,1,70,0,0
146964,-100,4,2,4,5,0,0
158127,-100,4,3,3,70,0,0
161964,-100,4,3,1,70,0,0
162139,-100,4,3,3,70,0,0
166935,-100,4,2,4,5,0,0
167022,-100,4,3,3,25,0,0
167458,-100,4,2,4,5,0,0
167546,-100,4,3,3,25,0,0
167807,-100,4,2,4,5,0,0
167894,-100,4,3,2,70,0,0
169987,-100,4,3,1,70,0,0
170685,-200,4,3,1,70,0,1
179232,-200,4,3,2,70,0,1
181499,-200,4,3,1,70,0,1
190394,-200,4,3,2,70,0,1
192662,-200,4,3,1,70,0,1
193011,-100,4,3,1,70,0,0
194929,-100,4,3,3,70,0,0

[HitObjects]
220,299,453,5,0,0:0:0:0:
220,299,801,1,0,0:0:0:0:
220,299,1150,1,0,0:0:0:0:
420,298,1499,1,0,0:0:0:0:
370,211,1673,6,0,L|270:211,1,75.0000028610231,0|0,0:0|0:0,0:0:0:0:
333,122,2022,1,0,0:0:0:0:
333,122,2371,1,0,0:0:0:0:
333,122,2720,1,0,0:0:0:0:
429,115,2894,2,0,L|437:252,1,112.500004291535,0|0,0:0|0:0,0:0:0:0:
482,242,3243,6,0,L|489:138,1,75.0000028610231,0|0,0:0|0:0,0:0:0:0:
475,337,3592,1,0,0:0:0:0:
475,337,3941,1,0,0:0:0:0:
275,336,4290,1,0,0:0:0:0:
325,249,4464,6,0,L|425:249,1,75.0000028610231,0|0,0:0|0:0,0:0:0:0:
362,160,4813,1,0,0:0:0:0:
362,160,5162,1,0,0:0:0:0:
362,160,5511,1,0,0:0:0:0:
266,153,5685,2,0,L|258:290,1,112.500004291535,0|0,0:0|0:0,0:0:0:0:
213,280,6034,6,0,L|206:176,1,75.0000028610231,0|0,0:0|0:0,0:0:0:0:
119,246,6383,1,0,0:0:0:0:
119,246,6732,1,0,0:0:0:0:
122,52,7080,1,0,0:0:0:0:
206,101,7255,6,0,L|206:183,1,75.0000028610231,0|0,0:0|0:0,0:0:0:0:
295,138,7604,1,0,0:0:0:0:
295,138,7953,1,0,0:0:0:0:
295,138,8301,1,0,0:0:0:0:
392,140,8476,1,0,0:0:0:0:
392,140,8825,6,0,B|410:204|398:258|398:258|370:237|324:238,1,187.500007152558,0|0,0:0|0:0,0:0:0:0:
338,323,9348,2,0,P|405:344|488:261,1,187.500007152558,0|0,0:0|0:0,0:0:0:0:
399,256,9871,2,0,B|409:193|475:183|475:183|420:119,1,150,0|0,0:0|0:0,0:0:0:0:
365,140,10220,6,0,L|-5:140,1,350,0|0,0:0|0:0,0:0:0:0:
190,27,10918,6,0,L|190:397,1,350,0|0,0:0|0:0,0:0:0:0:
104,325,11615,6,0,L|90:261,1,50,2|0,0:0|0:0,0:0:0:0:
499,106,11964,2,0,L|509:154,1,50,8|0,0:0|0:0,0:0:0:0:
104,170,12313,2,0,L|90:106,1,50,0|0,0:0|0:0,0:0:0:0:
512,2,12662,1,8,0:0:0:0:
141,33,12836,6,0,L|189:79,1,50,0|0,0:0|0:0,0:0:0:0:
445,364,13185,2,0,L|397:318,1,50,0|8,0:0|0:0,0:0:0:0:
265,6,13534,2,0,L|313:52,1,50,0|0,0:0|0:0,0:0:0:0:
108,228,13883,1,0,0:0:0:0:
453,239,14057,1,8,0:0:0:0:
453,239,14406,6,0,L|389:249,1,50,2|0,0:0|0:0,0:0:0:0:
73,30,14755,2,0,L|137:20,1,50,8|0,0:0|0:0,0:0:0:0:
326,310,15104,2,0,L|262:320,1,50,0|0,0:0|0:0,0:0:0:0:
270,0,15453,1,0,0:0:0:0:
28,129,15627,1,8,0:0:0:0:
166,134,15801,1,0,0:0:0:0:
0,352,15976,6,0,L|68:357,1,50,0|8,0:0|0:0,0:0:0:0:
345,104,16325,2,0,L|277:99,1,50,0|0,0:0|0:0,0:0:0:0:
462,383,16673,1,8,0:0:0:0:
187,338,16848,1,8,0:0:0:0:
320,177,17022,1,8,0:0:0:0:
45,132,17197,6,0,L|52:82,1,50,2|0,0:0|0:0,0:0:0:0:
471,25,17546,2,0,L|463:74,1,50,8|0,0:0|0:0,0:0:0:0:
91,267,17894,2,0,L|98:217,1,50,0|0,0:0|0:0,0:0:0:0:
508,166,18243,1,8,0:0:0:0:
176,149,18418,6,0,L|188:202,1,50,0|0,0:0|0:0,0:0:0:0:
502,373,18766,2,0,L|490:324,1,50,0|8,0:0|0:0,0:0:0:0:
231,28,19115,2,0,L|242:76,1,50,0|0,0:0|0:0,0:0:0:0:
512,228,19464,1,0,0:0:0:0:
243,268,19639,1,8,0:0:0:0:
243,268,19987,5,10,0:0:0:0:
282,187,20162,1,8,0:0:0:0:
332,262,20336,1,8,0:0:0:0:
153,273,20511,5,8,0:0:0:0:
113,354,20685,1,8,0:0:0:0:
203,348,20859,1,8,0:0:0:0:
102,197,21034,5,8,0:0:0:0:
253,97,21208,1,8,0:0:0:0:
447,268,21383,5,8,0:0:0:0:
265,278,21557,1,8,0:0:0:0:
417,178,21732,1,8,0:0:0:0:
335,340,21906,1,8,0:0:0:0:
314,80,22080,5,8,0:0:0:0:
105,97,22255,1,8,0:0:0:0:
127,357,22429,1,10,0:0:0:0:
127,357,22778,5,2,0:0:0:0:
437,209,23127,1,8,0:0:0:0:
78,186,23476,1,0,0:0:0:0:
401,27,23825,1,8,0:0:0:0:
240,107,23999,6,0,L|350:54,1,100,0|0,0:0|0:0,0:0:0:0:
78,186,24348,1,0,0:0:0:0:
419,302,24697,1,0,0:0:0:0:
66,373,25046,1,0,0:0:0:0:
133,314,25220,1,8,0:0:0:0:
202,255,25394,1,0,0:0:0:0:
84,119,25569,5,2,0:0:0:0:
438,50,25918,1,8,0:0:0:0:
237,349,26266,1,0,0:0:0:0:
169,0,26615,1,0,0:0:0:0:
286,135,26790,1,8,0:0:0:0:
199,152,26964,1,0,0:0:0:0:
373,118,27139,5,0,0:0:0:0:
106,351,27487,1,0,0:0:0:0:
221,16,27836,1,8,0:0:0:0:
88,133,28011,1,8,0:0:0:0:
205,266,28185,1,8,0:0:0:0:
221,16,28359,5,2,0:0:0:0:
453,282,28708,1,8,0:0:0:0:
107,350,29057,1,0,0:0:0:0:
373,119,29406,1,8,0:0:0:0:
200,154,29580,6,0,L|334:127,1,100,0|0,0:0|0:0,0:0:0:0:
28,187,29929,1,0,0:0:0:0:
361,301,30278,1,0,0:0:0:0:
130,36,30627,1,0,0:0:0:0:
147,122,30801,1,8,0:0:0:0:
164,208,30976,1,0,0:0:0:0:
296,94,31150,5,8,0:0:0:0:
410,226,31325,1,8,0:0:0:0:
278,340,31499,1,8,0:0:0:0:
164,208,31673,1,8,0:0:0:0:
344,283,31848,1,8,0:0:0:0:
419,103,32022,1,8,0:0:0:0:
239,28,32197,1,8,0:0:0:0:
164,208,32371,1,8,0:0:0:0:
473,105,32546,6,0,B|490:186|421:235|421:235|361:222|301:281,1,262.500010013581,10|0,0:0|0:0,0:0:0:0:
402,313,33243,2,0,B|419:232|350:183|350:183|290:196|230:137,1,262.500010013581,0|0,0:0|0:0,0:0:0:0:
321,88,33941,5,2,0:0:0:0:
419,72,34115,1,0,0:0:0:0:
512,107,34290,1,0,0:0:0:0:
401,263,34464,2,0,P|364:232|368:144,1,100,0|0,0:0|0:0,0:0:0:0:
323,324,34813,5,0,0:0:0:0:
226,341,34988,1,0,0:0:0:0:
133,307,35162,1,0,0:0:0:0:
243,151,35336,6,0,P|186:138|75:176,1,150,0|0,0:0|0:0,0:0:0:0:
74,203,35685,2,0,P|42:154|38:51,1,150,0|0,0:0|0:0,0:0:0:0:
71,29,36034,2,0,P|151:54|247:42,1,150,0|0,0:0|0:0,0:0:0:0:
241,7,36383,2,0,P|282:53|292:141,1,150,0|0,0:0|0:0,0:0:0:0:
205,188,36732,5,0,0:0:0:0:
155,275,36906,1,0,0:0:0:0:
155,375,37080,1,0,0:0:0:0:
342,325,37255,6,0,B|355:278|346:232|346:232|380:224|406:191,1,150,0|0,0:0|0:0,0:0:0:0:
431,110,37604,1,0,0:0:0:0:
233,143,37778,2,0,B|220:190|229:236|229:236|195:244|169:277,1,150,0|0,0:0|0:0,0:0:0:0:
191,363,38127,2,0,B|68:353|80:230|80:230|145:186|155:88,1,350,0|0,0:0|0:0,0:0:0:0:
90,24,38825,2,0,P|194:14|271:121,1,200,0|0,0:0|0:0,0:0:0:0:
259,74,39522,5,0,0:0:0:0:
187,183,39697,1,0,0:0:0:0:
179,313,39871,1,0,0:0:0:0:
426,263,40046,6,0,P|410:202|354:153,1,100,0|0,0:0|0:0,0:0:0:0:
187,183,40394,1,0,0:0:0:0:
355,75,40569,1,0,0:0:0:0:
264,253,40743,1,0,0:0:0:0:
116,25,40918,6,0,P|56:88|60:154,1,150,0|0,0:0|0:0,0:0:0:0:
121,150,41266,2,0,P|134:219|84:316,1,150,0|0,0:0|0:0,0:0:0:0:
44,313,41615,2,0,P|101:375|189:378,1,150,0|0,0:0|0:0,0:0:0:0:
198,329,41964,2,0,P|271:320|350:357,1,150,0|0,0:0|0:0,0:0:0:0:
437,324,42313,5,0,0:0:0:0:
410,151,42487,1,0,0:0:0:0:
300,14,42662,1,0,0:0:0:0:
222,220,42836,6,0,P|162:196|135:127,1,100,0|0,0:0|0:0,0:0:0:0:
170,367,43185,1,0,0:0:0:0:
367,212,43359,2,0,P|427:236|454:305,1,100,0|0,0:0|0:0,0:0:0:0:
98,275,43708,6,0,B|-4:219|12:108|12:108|106:113|167:28,1,350,0|0,0:0|0:0,0:0:0:0:
47,28,44406,2,0,B|64:143|174:165|174:165|200:108|262:73,1,300,0|0,0:0|0:0,0:0:0:0:
235,90,45104,5,2,0:0:0:0:
356,118,45278,1,0,0:0:0:0:
392,236,45453,1,0,0:0:0:0:
272,209,45627,2,0,P|182:205|115:244,1,125,0|0,0:0|0:0,0:0:0:0:
235,90,45976,1,0,0:0:0:0:
216,307,46150,1,2,0:0:0:0:
216,307,46499,5,2,0:0:0:0:
337,209,46673,1,0,0:0:0:0:
312,55,46848,1,0,0:0:0:0:
192,154,47022,2,0,P|136:184|57:185,1,125,0|0,0:0|0:0,0:0:0:0:
216,307,47371,1,0,0:0:0:0:
104,82,47546,1,2,0:0:0:0:
104,82,47894,5,2,0:0:0:0:
280,146,48069,1,0,0:0:0:0:
312,330,48243,1,0,0:0:0:0:
136,266,48418,2,0,P|69:247|0:253,1,125,0|0,0:0|0:0,0:0:0:0:
104,82,48766,1,0,0:0:0:0:
58,360,48941,1,2,0:0:0:0:
58,360,49290,6,0,B|154:381|237:335|237:335|143:243,1,262.500002503395,2|0,0:0|0:0,0:0:0:0:
93,272,49639,2,0,B|103:200|181:176|239:214|239:214|248:99,1,262.500002503395,2|0,0:0|0:0,0:0:0:0:
172,91,49987,2,0,B|224:31|312:49|332:138|332:138|395:114,1,262.500002503395,2|0,0:0|0:0,0:0:0:0:
417,41,50336,2,0,P|473:131|409:206,1,175.00000166893,2|0,0:0|0:0,0:0:0:0:
446,184,50685,5,2,0:0:0:0:
267,58,50859,1,0,0:0:0:0:
248,277,51034,1,0,0:0:0:0:
374,97,51208,2,0,P|439:70|512:87,1,125,0|0,0:0|0:0,0:0:0:0:
267,58,51557,1,0,0:0:0:0:
383,306,51732,1,2,0:0:0:0:
383,306,52080,5,2,0:0:0:0:
176,162,52255,1,0,0:0:0:0:
405,55,52429,1,0,0:0:0:0:
261,262,52604,2,0,P|257:333|277:381,1,125,0|0,0:0|0:0,0:0:0:0:
176,162,52953,1,0,0:0:0:0:
492,190,53127,1,2,0:0:0:0:
492,190,53476,5,8,0:0:0:0:
377,239,53650,1,0,0:0:0:0:
262,288,53825,1,0,0:0:0:0:
147,337,53999,1,8,0:0:0:0:
177,88,54173,5,0,0:0:0:0:
277,164,54347,1,0,0:0:0:0:
147,337,54522,1,8,0:0:0:0:
161,212,54697,1,0,0:0:0:0:
378,236,54871,5,8,0:0:0:0:
336,78,55046,1,8,0:0:0:0:
177,34,55220,1,8,0:0:0:0:
59,149,55394,1,8,0:0:0:0:
298,214,55569,1,8,0:0:0:0:
61,49,56266,6,0,L|53:119,1,50,4|0,0:0|0:0,0:0:0:0:
404,305,56615,2,0,L|412:235,1,50,8|0,0:0|0:0,0:0:0:0:
9,189,56964,2,0,L|1:259,1,50,0|0,0:0|0:0,0:0:0:0:
380,157,57313,1,8,0:0:0:0:
159,359,57487,6,0,L|152:304,1,50
421,0,57836,2,0,L|428:55,1,50,0|8,0:0|0:0,0:0:0:0:
86,236,58185,2,0,L|79:181,1,50,0|0,0:0|0:0,0:0:0:0:
452,270,58534,1,0,0:0:0:0:
280,19,58708,1,8,0:0:0:0:
280,19,59057,6,0,L|348:20,1,50,2|0,0:0|0:0,0:0:0:0:
510,382,59406,2,0,L|442:381,1,50,8|0,0:0|0:0,0:0:0:0:
175,92,59755,2,0,L|243:93,1,50,0|0,0:0|0:0,0:0:0:0:
26,371,60104,1,0,0:0:0:0:
304,262,60278,1,8,0:0:0:0:
157,240,60453,1,0,0:0:0:0:
435,131,60627,6,0,L|427:75,1,50,0|0,0:0|0:0,0:0:0:0:
40,20,60976,2,0,L|48:76,1,50,0|0,0:0|0:0,0:0:0:0:
412,231,61325,1,8,0:0:0:0:
142,361,61499,1,8,0:0:0:0:
272,175,61673,1,8,0:0:0:0:
40,20,61848,6,0,L|99:17,1,50,2|0,0:0|0:0,0:0:0:0:
287,368,62197,2,0,L|228:371,1,50,8|0,0:0|0:0,0:0:0:0:
186,42,62546,2,0,L|245:39,1,50,0|0,0:0|0:0,0:0:0:0:
387,384,62894,1,8,0:0:0:0:
472,95,63069,6,0,L|416:91,1,50,0|0,0:0|0:0,0:0:0:0:
110,344,63418,2,0,L|166:348,1,50,0|8,0:0|0:0,0:0:0:0:
358,13,63766,2,0,L|302:9,1,50,0|0,0:0|0:0,0:0:0:0:
485,322,64115,1,0,0:0:0:0:
207,207,64290,1,8,0:0:0:0:
207,207,64639,5,10,0:0:0:0:
297,163,64814,1,8,0:0:0:0:
213,107,64988,1,8,0:0:0:0:
201,307,65163,5,8,0:0:0:0:
111,351,65337,1,8,0:0:0:0:
117,251,65511,1,8,0:0:0:0:
285,363,65685,5,8,0:0:0:0:
397,195,65859,1,8,0:0:0:0:
162,39,66034,5,8,0:0:0:0:
253,220,66208,1,8,0:0:0:0:
265,18,66383,1,8,0:0:0:0:
153,187,66557,1,8,0:0:0:0:
417,59,66732,5,8,0:0:0:0:
508,241,66906,1,8,0:0:0:0:
244,369,67080,1,8,0:0:0:0:
301,287,67255,1,0,0:0:0:0:
475,335,67429,6,0,L|414:344,1,50,2|0,0:0|0:0,0:0:0:0:
179,34,67778,2,0,L|240:25,1,50,8|0,0:0|0:0,0:0:0:0:
327,376,68127,2,0,L|266:385,1,50,0|0,0:0|0:0,0:0:0:0:
329,15,68476,1,8,0:0:0:0:
204,286,68650,6,0,L|256:291,1,50,0|0,0:0|0:0,0:0:0:0:
512,14,68999,2,0,L|460:9,1,50,0|8,0:0|0:0,0:0:0:0:
115,194,69348,2,0,L|167:199,1,50,0|0,0:0|0:0,0:0:0:0:
506,102,69697,1,0,0:0:0:0:
357,362,69871,1,8,0:0:0:0:
357,362,70220,6,0,L|366:295,1,50,2|0,0:0|0:0,0:0:0:0:
143,0,70569,2,0,L|134:67,1,50,8|0,0:0|0:0,0:0:0:0:
455,272,70918,2,0,L|464:205,1,50,0|0,0:0|0:0,0:0:0:0:
74,310,71266,1,0,0:0:0:0:
346,181,71441,1,8,0:0:0:0:
196,169,71615,1,0,0:0:0:0:
468,40,71790,6,0,L|466:111,1,50,0|8,0:0|0:0,0:0:0:0:
157,346,72139,2,0,L|158:296,1,50,0|0,0:0|0:0,0:0:0:0:
508,187,72487,1,8,0:0:0:0:
253,25,72662,1,8,0:0:0:0:
358,227,72836,1,8,0:0:0:0:
103,65,73011,6,0,L|163:57,1,50,2|0,0:0|0:0,0:0:0:0:
447,327,73359,2,0,L|397:333,1,50,8|0,0:0|0:0,0:0:0:0:
241,8,73708,2,0,L|301:0,1,50,0|0,0:0|0:0,0:0:0:0:
82,349,74057,1,8,0:0:0:0:
366,250,74232,6,0,L|300:243,1,50,0|0,0:0|0:0,0:0:0:0:
20,0,74580,2,0,L|86:7,1,50,0|8,0:0|0:0,0:0:0:0:
286,340,74929,2,0,L|220:333,1,50,0|0,0:0|0:0,0:0:0:0:
491,48,75278,1,0,0:0:0:0:
190,66,75453,1,8,0:0:0:0:
190,66,75801,5,10,0:0:0:0:
279,111,75976,1,8,0:0:0:0:
368,156,76150,1,8,0:0:0:0:
234,200,76325,5,8,0:0:0:0:
279,111,76500,1,8,0:0:0:0:
324,22,76674,1,8,0:0:0:0:
434,189,76848,5,8,0:0:0:0:
267,299,77022,1,8,0:0:0:0:
56,111,77197,5,8,0:0:0:0:
256,100,77371,1,8,0:0:0:0:
89,210,77546,1,8,0:0:0:0:
179,32,77720,1,8,0:0:0:0:
193,317,77894,5,8,0:0:0:0:
431,302,78069,1,8,0:0:0:0:
417,17,78243,1,10,0:0:0:0:
417,17,78592,5,0,0:0:0:0:
450,110,78766,1,0,0:0:0:0:
311,160,78941,1,8,0:0:0:0:
377,346,79115,2,0,P|418:301|416:235,1,100,0|0,0:0|0:0,0:0:0:0:
279,348,79464,5,0,0:0:0:0:
171,243,79639,1,8,0:0:0:0:
184,142,79813,1,0,0:0:0:0:
382,170,79987,6,0,P|402:115|356:34,1,150,0|0,0:0|0:0,0:0:0:0:
311,40,80336,2,0,P|239:70|157:43,1,150,8|0,0:0|0:0,0:0:0:0:
143,11,80685,1,0,0:0:0:0:
184,142,80859,1,0,0:0:0:0:
51,113,81034,2,0,P|13:172|24:263,1,150,8|0,0:0|0:0,0:0:0:0:
94,314,81383,5,0,0:0:0:0:
194,332,81557,1,0,0:0:0:0:
223,182,81732,1,8,0:0:0:0:
423,218,81906,6,0,B|388:252|344:267|344:267|354:301|338:340,1,150,0|0,0:0|0:0,0:0:0:0:
263,294,82255,1,0,0:0:0:0:
279,109,82429,2,0,B|313:74|357:59|357:59|347:25|363:-13,1,150,8|0,0:0|0:0,0:0:0:0:
455,28,82778,6,0,P|466:120|407:231,1,200,2|8,0:0|0:0,0:0:0:0:
424,216,83476,1,0,0:0:0:0:
302,129,83650,1,0,0:0:0:0:
288,279,83825,1,8,0:0:0:0:
288,279,84173,5,2,0:0:0:0:
158,261,84348,1,0,0:0:0:0:
279,104,84522,1,8,0:0:0:0:
19,68,84697,2,0,P|16:122|49:188,1,100,0|0,0:0|0:0,0:0:0:0:
195,49,85046,1,0,0:0:0:0:
337,252,85220,1,8,0:0:0:0:
158,169,85394,1,0,0:0:0:0:
405,148,85569,6,0,P|385:93|286:44,1,150,0|0,0:0|0:0,0:0:0:0:
268,74,85918,2,0,P|204:71|128:25,1,150,8|0,0:0|0:0,0:0:0:0:
82,37,86266,1,0,0:0:0:0:
170,158,86441,1,0,0:0:0:0:
22,174,86615,2,0,P|11:237|58:318,1,150,8|0,0:0|0:0,0:0:0:0:
149,325,86964,5,2,0:0:0:0:
286,215,87139,1,0,0:0:0:0:
155,53,87313,1,8,0:0:0:0:
413,12,87487,2,0,P|438:69|493:116,1,100,0|0,0:0|0:0,0:0:0:0:
266,55,87836,1,0,0:0:0:0:
239,307,88011,2,0,P|214:250|159:203,1,100,8|0,0:0|0:0,0:0:0:0:
423,283,88359,6,0,P|464:207|455:76,1,200,2|8,0:0|0:0,0:0:0:0:
462,95,89057,5,0,0:0:0:0:
273,26,89232,1,8,0:0:0:0:
308,38,89319,1,8,0:0:0:0:
344,51,89406,1,8,0:0:0:0:
344,51,89755,5,10,0:0:0:0:
396,164,89929,1,0,0:0:0:0:
324,265,90104,1,8,0:0:0:0:
272,152,90278,2,0,P|224:98|168:78,1,125,0|8,0:0|0:0,0:0:0:0:
344,51,90627,1,0,0:0:0:0:
170,183,90801,1,10,0:0:0:0:
170,183,91150,5,10,0:0:0:0:
300,269,91325,1,0,0:0:0:0:
439,199,91499,1,8,0:0:0:0:
309,113,91673,2,0,P|258:55|247:-2,1,125,0|8,0:0|0:0,0:0:0:0:
170,183,92022,1,0,0:0:0:0:
356,15,92197,1,10,0:0:0:0:
356,15,92546,5,10,0:0:0:0:
381,200,92720,1,0,0:0:0:0:
233,314,92894,1,8,0:0:0:0:
208,129,93069,2,0,P|180:73|97:33,1,125,0|8,0:0|0:0,0:0:0:0:
356,15,93418,1,0,0:0:0:0:
105,140,93592,1,10,0:0:0:0:
105,140,93941,5,2,0:0:0:0:
101,152,94028,1,0,0:0:0:0:
97,164,94115,1,0,0:0:0:0:
93,176,94203,1,0,0:0:0:0:
75,202,94290,5,0,0:0:0:0:
78,214,94377,1,0,0:0:0:0:
80,227,94464,1,0,0:0:0:0:
83,239,94552,1,0,0:0:0:0:
99,265,94639,5,0,0:0:0:0:
95,277,94726,1,0,0:0:0:0:
91,289,94813,1,0,0:0:0:0:
87,301,94901,1,0,0:0:0:0:
69,327,94988,5,0,0:0:0:0:
72,339,95075,1,0,0:0:0:0:
74,352,95162,1,0,0:0:0:0:
77,364,95250,1,0,0:0:0:0:
101,382,95336,5,10,0:0:0:0:
194,183,95511,1,0,0:0:0:0:
320,364,95685,1,8,0:0:0:0:
121,271,95859,2,0,P|56:278|-1:329,1,125,0|8,0:0|0:0,0:0:0:0:
194,183,96208,1,0,0:0:0:0:
444,300,96383,1,10,0:0:0:0:
444,300,96732,5,10,0:0:0:0:
326,79,96906,1,0,0:0:0:0:
193,292,97080,1,8,0:0:0:0:
415,175,97255,2,0,P|489:182|551:226,1,125,0|8,0:0|0:0,0:0:0:0:
326,79,97604,1,0,0:0:0:0:
50,228,97778,1,10,0:0:0:0:
50,228,98127,5,2,0:0:0:0:
60,205,98214,1,0,0:0:0:0:
71,182,98301,1,0,0:0:0:0:
82,159,98389,1,0,0:0:0:0:
93,136,98476,1,0,0:0:0:0:
104,113,98563,1,0,0:0:0:0:
163,92,98650,5,0,0:0:0:0:
177,112,98737,1,0,0:0:0:0:
192,133,98824,1,0,0:0:0:0:
206,154,98912,1,0,0:0:0:0:
221,175,98999,1,0,0:0:0:0:
235,196,99086,1,0,0:0:0:0:
288,227,99173,5,0,0:0:0:0:
312,226,99260,1,0,0:0:0:0:
337,222,99347,1,0,0:0:0:0:
361,214,99434,1,0,0:0:0:0:
409,175,99521,5,8,0:0:0:0:
152,53,99697,1,8,0:0:0:0:
289,303,99871,1,8,0:0:0:0:
326,21,100046,1,8,0:0:0:0:
131,228,100220,1,8,0:0:0:0:
131,228,102313,6,0,L|135:277,1,50,2|0,0:0|0:0,0:0:0:0:
512,346,102662,2,0,L|507:290,1,50,8|0,0:0|0:0,0:0:0:0:
179,90,103011,2,0,L|183:139,1,50,0|0,0:0|0:0,0:0:0:0:
486,195,103359,1,8,0:0:0:0:
205,303,103534,6,0,L|215:237,1,50,0|0,0:0|0:0,0:0:0:0:
497,0,103883,2,0,L|487:66,1,50,0|8,0:0|0:0,0:0:0:0:
297,383,104232,2,0,L|307:317,1,50,0|0,0:0|0:0,0:0:0:0:
401,0,104580,1,0,0:0:0:0:
112,86,104755,1,8,0:0:0:0:
112,86,105104,6,0,L|183:79,1,50,2|0,0:0|0:0,0:0:0:0:
500,309,105453,2,0,L|429:316,1,50,8|0,0:0|0:0,0:0:0:0:
80,191,105801,2,0,L|151:184,1,50,0|0,0:0|0:0,0:0:0:0:
508,221,106150,1,0,0:0:0:0:
287,15,106325,1,8,0:0:0:0:
332,160,106499,1,0,0:0:0:0:
37,92,106673,6,0,L|97:73,1,50,0|8,0:0|0:0,0:0:0:0:
485,129,107022,2,0,L|425:148,1,50,0|0,0:0|0:0,0:0:0:0:
138,374,107371,1,8,0:0:0:0:
207,81,107546,1,8,0:0:0:0:
271,293,107720,1,8,0:0:0:0:
340,0,107894,6,0,L|350:64,1,50,2|0,0:0|0:0,0:0:0:0:
180,374,108243,2,0,L|170:310,1,50,8|0,0:0|0:0,0:0:0:0:
448,47,108592,2,0,L|458:111,1,50,0|0,0:0|0:0,0:0:0:0:
95,264,108941,1,8,0:0:0:0:
389,319,109115,6,0,L|385:250,1,50,0|0,0:0|0:0,0:0:0:0:
87,17,109464,2,0,L|91:86,1,50,0|8,0:0|0:0,0:0:0:0:
289,374,109813,2,0,L|285:305,1,50,0|0,0:0|0:0,0:0:0:0:
0,115,110162,1,0,0:0:0:0:
297,78,110336,1,8,0:0:0:0:
297,78,110685,5,10,0:0:0:0:
227,149,110859,1,8,0:0:0:0:
201,53,111034,1,8,0:0:0:0:
393,103,111208,5,8,0:0:0:0:
463,32,111382,1,8,0:0:0:0:
367,7,111557,1,8,0:0:0:0:
419,199,111732,5,8,0:0:0:0:
227,251,111906,1,8,0:0:0:0:
161,9,112080,5,8,0:0:0:0:
302,149,112254,1,8,0:0:0:0:
111,99,112429,1,8,0:0:0:0:
302,46,112604,1,8,0:0:0:0:
115,239,112778,5,8,0:0:0:0:
257,378,112953,1,8,0:0:0:0:
444,185,113127,1,8,0:0:0:0:
348,214,113301,1,0,0:0:0:0:
358,384,113476,6,0,L|373:326,1,50,2|0,0:0|0:0,0:0:0:0:
159,0,113825,2,0,L|144:58,1,50,8|0,0:0|0:0,0:0:0:0:
467,297,114173,2,0,L|482:239,1,50,0|0,0:0|0:0,0:0:0:0:
88,131,114522,1,8,0:0:0:0:
386,90,114697,6,0,L|391:147,1,50,0|0,0:0|0:0,0:0:0:0:
117,384,115046,2,0,L|112:327,1,50,0|8,0:0|0:0,0:0:0:0:
282,27,115394,2,0,L|287:84,1,50,0|0,0:0|0:0,0:0:0:0:
18,302,115743,1,0,0:0:0:0:
316,341,115918,1,8,0:0:0:0:
316,341,116266,6,0,L|256:347,1,50,2|0,0:0|0:0,0:0:0:0:
80,22,116615,2,0,L|140:16,1,50,8|0,0:0|0:0,0:0:0:0:
420,251,116964,2,0,L|360:257,1,50,0|0,0:0|0:0,0:0:0:0:
18,104,117313,1,0,0:0:0:0:
173,359,117487,1,8,0:0:0:0:
170,210,117662,1,0,0:0:0:0:
431,353,117836,6,0,L|369:356,1,50,0|8,0:0|0:0,0:0:0:0:
226,14,118185,2,0,L|288:11,1,50,0|0,0:0|0:0,0:0:0:0:
11,268,118534,1,8,0:0:0:0:
276,129,118708,1,8,0:0:0:0:
159,314,118883,1,8,0:0:0:0:
424,175,119057,6,0,L|421:239,1,50,2|0,0:0|0:0,0:0:0:0:
59,346,119406,2,0,L|62:282,1,50,8|0,0:0|0:0,0:0:0:0:
346,61,119755,2,0,L|343:125,1,50,0|0,0:0|0:0,0:0:0:0:
0,215,120104,1,8,0:0:0:0:
278,323,120278,6,0,L|283:268,1,50,0|0,0:0|0:0,0:0:0:0:
53,0,120627,2,0,L|48:55,1,50,0|8,0:0|0:0,0:0:0:0:
173,384,120976,2,0,L|178:329,1,50,0|0,0:0|0:0,0:0:0:0:
390,53,121325,1,0,0:0:0:0:
103,137,121499,1,8,0:0:0:0:
103,137,121848,5,10,0:0:0:0:
188,187,122022,1,8,0:0:0:0:
273,237,122197,1,8,0:0:0:0:
138,272,122371,5,8,0:0:0:0:
188,187,122545,1,8,0:0:0:0:
238,102,122720,1,8,0:0:0:0:
336,274,122894,5,8,0:0:0:0:
164,372,123069,1,8,0:0:0:0:
33,142,123243,5,8,0:0:0:0:
204,243,123418,1,8,0:0:0:0:
107,71,123592,1,8,0:0:0:0:
105,269,123766,1,8,0:0:0:0:
252,26,123941,5,8,0:0:0:0:
423,127,124115,1,8,0:0:0:0:
276,370,124290,1,10,0:0:0:0:
276,370,124639,6,0,L|255:199,1,150.000005722046,2|0,0:0|0:0,0:0:0:0:
324,320,124987,2,0,L|333:147,1,150.000005722046,8|0,0:0|0:0,0:0:0:0:
380,280,125336,2,0,L|418:112,1,150.000005722046,0|0,0:0|0:0,0:0:0:0:
276,370,125685,5,8,0:0:0:0:
91,241,125859,1,0,0:0:0:0:
220,56,126034,5,0,0:0:0:0:
233,167,126208,1,0,0:0:0:0:
289,69,126383,5,8,0:0:0:0:
282,180,126557,1,0,0:0:0:0:
355,93,126732,5,0,0:0:0:0:
329,202,126906,1,0,0:0:0:0:
192,19,127080,5,8,0:0:0:0:
9,156,127255,1,0,0:0:0:0:
146,339,127429,6,0,L|308:327,1,150.000005722046,2|0,0:0|0:0,0:0:0:0:
184,280,127778,2,0,L|341:240,1,150.000005722046,8|0,0:0|0:0,0:0:0:0:
211,215,128127,2,0,L|359:148,1,150.000005722046,0|0,0:0|0:0,0:0:0:0:
146,339,128476,5,8,0:0:0:0:
369,322,128650,1,0,0:0:0:0:
352,99,128825,5,0,0:0:0:0:
289,192,128999,1,0,0:0:0:0:
278,80,129173,5,8,0:0:0:0:
232,183,129347,1,0,0:0:0:0:
466,64,129522,5,0,0:0:0:0:
323,284,129697,1,0,0:0:0:0:
59,113,129871,5,10,0:0:0:0:
322,127,130046,1,0,0:0:0:0:
179,348,130220,6,0,L|154:181,1,150.000005722046,2|0,0:0|0:0,0:0:0:0:
225,298,130569,2,0,L|229:129,1,150.000005722046,8|0,0:0|0:0,0:0:0:0:
278,256,130918,2,0,L|311:90,1,150.000005722046,0|0,0:0|0:0,0:0:0:0:
179,348,131266,5,8,0:0:0:0:
15,192,131441,1,0,0:0:0:0:
171,28,131615,5,0,0:0:0:0:
163,140,131790,1,0,0:0:0:0:
229,49,131964,5,8,0:0:0:0:
201,157,132139,1,0,0:0:0:0:
282,79,132313,5,0,0:0:0:0:
236,181,132488,1,0,0:0:0:0:
113,7,132662,5,8,0:0:0:0:
24,200,132836,1,0,0:0:0:0:
316,175,133011,5,10,0:0:0:0:
310,130,133185,1,8,0:0:0:0:
71,85,133359,1,8,0:0:0:0:
77,130,133533,1,8,0:0:0:0:
325,265,133708,1,8,0:0:0:0:
319,220,133882,1,8,0:0:0:0:
80,175,134056,1,8,0:0:0:0:
86,220,134230,1,8,0:0:0:0:
337,52,134406,5,8,0:0:0:0:
305,311,134580,1,8,0:0:0:0:
204,71,134755,1,8,0:0:0:0:
412,228,134929,1,8,0:0:0:0:
103,191,135104,5,8,0:0:0:0:
353,378,135278,1,8,0:0:0:0:
390,68,135453,1,8,0:0:0:0:
185,343,135627,1,8,0:0:0:0:
212,131,135801,5,2,0:0:0:0:
212,131,135976,1,0,0:0:0:0:
355,173,136150,5,8,0:0:0:0:
355,173,136325,1,0,0:0:0:0:
313,316,136499,5,0,0:0:0:0:
313,316,136674,1,0,0:0:0:0:
212,131,136848,5,8,0:0:0:0:
103,311,137022,1,0,0:0:0:0:
355,173,137197,6,0,P|416:222|414:359,1,225.000008583069,0|0,0:0|0:0,0:0:0:0:
317,284,137546,2,0,P|223:228|115:248,1,225.000008583069,8|0,0:0|0:0,0:0:0:0:
42,343,137894,2,0,P|-4:254|91:126,1,225.000008583069,0|0,0:0|0:0,0:0:0:0:
115,248,138243,2,0,P|209:304|317:284,1,225.000008583069,8|0,0:0|0:0,0:0:0:0:
232,199,138592,2,0,B|261:124|346:106|346:106|434:89|451:-16,1,300.000011444092,0|8,0:0|0:0,0:0:0:0:
230,12,139115,2,0,B|259:87|344:105|344:105|432:122|447:222|447:222|449:227,1,300.000011444092,0|0,0:0|0:0,0:0:0:0:
443,200,139639,1,8,0:0:0:0:
100,328,139987,5,0,0:0:0:0:
225,96,140162,1,0,0:0:0:0:
364,321,140336,1,8,0:0:0:0:
190,228,140511,5,0,0:0:0:0:
358,124,140685,1,0,0:0:0:0:
184,31,140859,1,0,0:0:0:0:
289,199,141034,1,10,0:0:0:0:
289,199,141383,5,2,0:0:0:0:
259,200,141557,1,0,0:0:0:0:
108,207,141732,5,8,0:0:0:0:
109,237,141906,1,0,0:0:0:0:
116,383,142080,5,0,0:0:0:0:
239,304,142255,1,0,0:0:0:0:
46,204,142429,2,0,P|49:129|118:53,1,150.000005722046,8|0,0:0|0:0,0:0:0:0:
329,99,142778,5,0,0:0:0:0:
307,155,142953,1,0,0:0:0:0:
252,295,143127,5,8,0:0:0:0:
308,317,143301,1,0,0:0:0:0:
448,372,143476,5,0,0:0:0:0:
426,224,143650,1,0,0:0:0:0:
196,273,143825,2,0,P|151:200|173:103,1,150.000005722046,8|0,0:0|0:0,0:0:0:0:
93,350,144173,5,10,0:0:0:0:
243,360,144348,1,8,0:0:0:0:
326,235,144522,1,8,0:0:0:0:
259,100,144697,1,8,0:0:0:0:
0,116,144871,5,8,0:0:0:0:
124,33,145046,1,8,0:0:0:0:
259,100,145220,1,8,0:0:0:0:
267,250,145395,1,8,0:0:0:0:
476,54,145569,5,8,0:0:0:0:
259,100,145743,1,8,0:0:0:0:
462,191,145918,1,8,0:0:0:0:
352,0,146092,1,8,0:0:0:0:
322,276,146266,6,0,B|229:246|134:317|134:317|63:236|89:106,1,400,8|0,0:0|0:0,0:0:0:0:
76,110,158127,5,8,0:0:0:0:
499,216,158476,1,8,0:0:0:0:
75,333,158825,1,8,0:0:0:0:
384,20,159173,1,8,0:0:0:0:
268,137,159348,1,8,0:0:0:0:
268,137,159697,5,0,0:0:0:0:
417,132,159871,1,0,0:0:0:0:
268,137,160046,5,0,0:0:0:0:
399,206,160220,1,0,0:0:0:0:
268,137,160394,5,0,0:0:0:0:
346,262,160568,1,0,0:0:0:0:
268,137,160743,5,0,0:0:0:0:
180,297,160918,5,8,0:0:0:0:
499,51,161266,1,8,0:0:0:0:
100,105,161615,1,8,0:0:0:0:
473,258,161964,1,8,0:0:0:0:
334,201,162139,1,8,0:0:0:0:
334,201,162487,5,0,0:0:0:0:
475,153,162661,1,0,0:0:0:0:
334,201,162836,5,0,0:0:0:0:
432,90,163010,1,0,0:0:0:0:
334,201,163184,5,0,0:0:0:0:
364,56,163358,1,0,0:0:0:0:
334,201,163533,5,0,0:0:0:0:
195,80,163708,5,8,0:0:0:0:
9,349,164057,1,8,0:0:0:0:
329,291,164406,1,8,0:0:0:0:
62,106,164755,1,8,0:0:0:0:
163,176,164929,1,8,0:0:0:0:
163,176,165278,5,0,0:0:0:0:
22,224,165452,1,0,0:0:0:0:
186,167,165627,5,0,0:0:0:0:
65,287,165801,1,0,0:0:0:0:
209,158,165976,5,0,0:0:0:0:
133,321,166149,1,0,0:0:0:0:
232,149,166325,5,0,0:0:0:0:
419,347,166499,6,0,P|449:303|321:268,1,250,2|0,0:0|0:0,0:0:0:0:
317,314,167022,2,0,P|212:339|220:232,1,250,0|0,0:0|0:0,0:0:0:0:
261,203,167546,2,0,P|221:157|100:98,1,150,0|0,0:0|0:0,0:0:0:0:
96,120,167894,5,10,0:0:0:0:
60,245,168069,1,8,0:0:0:0:
29,119,168243,1,8,0:0:0:0:
119,212,168418,1,8,0:0:0:0:
236,100,168592,5,8,0:0:0:0:
348,217,168766,1,8,0:0:0:0:
310,60,168941,1,8,0:0:0:0:
264,215,169115,1,8,0:0:0:0:
70,157,169290,5,8,0:0:0:0:
194,319,169464,1,8,0:0:0:0:
189,116,169639,1,8,0:0:0:0:
74,284,169813,1,8,0:0:0:0:
314,199,169987,1,8,0:0:0:0:
449,334,170685,6,0,L|399:338,1,50,2|0,0:0|0:0,0:0:0:0:
77,122,171034,2,0,L|136:117,1,50,8|0,0:0|0:0,0:0:0:0:
486,239,171383,2,0,L|427:244,1,50,0|0,0:0|0:0,0:0:0:0:
138,21,171732,1,8,0:0:0:0:
135,320,171906,6,0,L|203:305,1,50,0|0,0:0|0:0,0:0:0:0:
427,41,172255,2,0,L|359:56,1,50,0|8,0:0|0:0,0:0:0:0:
67,247,172604,2,0,L|135:232,1,50,0|0,0:0|0:0,0:0:0:0:
473,132,172953,1,0,0:0:0:0:
190,32,173127,1,8,0:0:0:0:
190,32,173476,6,0,L|182:98,1,50,2|0,0:0|0:0,0:0:0:0:
431,367,173825,2,0,L|439:301,1,50,8|0,0:0|0:0,0:0:0:0:
93,123,174173,2,0,L|85:189,1,50,0|0,0:0|0:0,0:0:0:0:
431,26,174522,1,0,0:0:0:0:
298,296,174697,1,8,0:0:0:0:
289,146,174871,1,0,0:0:0:0:
38,313,175046,6,0,L|42:248,1,50,0|8,0:0|0:0,0:0:0:0:
299,0,175394,2,0,L|295:65,1,50,0|0,0:0|0:0,0:0:0:0:
111,383,175743,1,8,0:0:0:0:
386,261,175918,1,8,0:0:0:0:
162,238,176092,1,8,0:0:0:0:
437,116,176266,6,0,L|370:108,1,50,2|0,0:0|0:0,0:0:0:0:
20,191,176615,2,0,L|87:199,1,50,8|0,0:0|0:0,0:0:0:0:
402,13,176964,2,0,L|335:5,1,50,0|0,0:0|0:0,0:0:0:0:
96,294,177313,1,8,0:0:0:0:
188,9,177487,6,0,L|242:14,1,50,0|0,0:0|0:0,0:0:0:0:
455,330,177836,2,0,L|401:325,1,50,0|8,0:0|0:0,0:0:0:0:
124,103,178185,2,0,L|178:108,1,50,0|0,0:0|0:0,0:0:0:0:
510,248,178534,1,0,0:0:0:0:
213,279,178708,1,8,0:0:0:0:
213,279,179057,5,10,0:0:0:0:
249,185,179232,1,8,0:0:0:0:
313,264,179406,1,8,0:0:0:0:
113,295,179580,5,8,0:0:0:0:
177,374,179755,1,8,0:0:0:0:
213,279,179929,1,8,0:0:0:0:
13,311,180104,5,8,0:0:0:0:
86,122,180278,1,8,0:0:0:0:
370,151,180453,5,8,0:0:0:0:
213,279,180627,1,8,0:0:0:0:
285,90,180801,1,8,0:0:0:0:
317,289,180976,1,8,0:0:0:0:
138,68,181150,5,8,0:0:0:0:
57,279,181325,1,8,0:0:0:0:
323,382,181499,1,8,0:0:0:0:
269,297,181673,1,0,0:0:0:0:
143,363,181848,6,0,L|198:365,1,50,2|0,0:0|0:0,0:0:0:0:
476,97,182197,2,0,L|426:95,1,50,8|0,0:0|0:0,0:0:0:0:
83,262,182546,2,0,L|137:263,1,50,0|0,0:0|0:0,0:0:0:0:
395,2,182894,1,8,0:0:0:0:
430,300,183069,6,0,L|365:301,1,50,0|0,0:0|0:0,0:0:0:0:
71,70,183418,2,0,L|136:69,1,50,0|8,0:0|0:0,0:0:0:0:
477,200,183766,2,0,L|412:201,1,50,0|0,0:0|0:0,0:0:0:0:
34,153,184115,1,0,0:0:0:0:
236,375,184290,1,8,0:0:0:0:
236,375,184639,6,0,L|228:303,1,50,2|0,0:0|0:0,0:0:0:0:
442,0,184987,2,0,L|450:72,1,50,8|0,0:0|0:0,0:0:0:0:
136,281,185336,2,0,L|128:209,1,50,0|0,0:0|0:0,0:0:0:0:
498,354,185685,1,0,0:0:0:0:
356,90,185859,1,8,0:0:0:0:
352,240,186034,1,0,0:0:0:0:
97,82,186208,6,0,L|88:143,1,50,0|8,0:0|0:0,0:0:0:0:
410,367,186557,2,0,L|419:306,1,50,0|0,0:0|0:0,0:0:0:0:
41,219,186906,1,8,0:0:0:0:
287,49,187080,1,8,0:0:0:0:
184,271,187255,1,8,0:0:0:0:
430,101,187429,6,0,L|363:97,1,50,2|0,0:0|0:0,0:0:0:0:
45,315,187778,2,0,L|112:319,1,50,8|0,0:0|0:0,0:0:0:0:
328,13,188127,2,0,L|261:9,1,50,0|0,0:0|0:0,0:0:0:0:
186,361,188476,1,8,0:0:0:0:
460,241,188650,6,0,L|394:233,1,50,0|0,0:0|0:0,0:0:0:0:
84,56,188999,2,0,L|150:64,1,50,0|8,0:0|0:0,0:0:0:0:
381,330,189348,2,0,L|315:322,1,50,0|0,0:0|0:0,0:0:0:0:
4,118,189697,1,0,0:0:0:0:
287,21,189871,1,8,0:0:0:0:
287,21,190220,5,10,0:0:0:0:
222,96,190394,1,8,0:0:0:0:
157,171,190569,1,8,0:0:0:0:
147,31,190743,5,8,0:0:0:0:
222,96,190917,1,8,0:0:0:0:
297,161,191092,1,8,0:0:0:0:
110,226,191266,5,8,0:0:0:0:
45,39,191441,1,8,0:0:0:0:
328,42,191615,5,8,0:0:0:0:
142,107,191790,1,8,0:0:0:0:
336,144,191964,1,8,0:0:0:0:
186,15,192139,1,8,0:0:0:0:
281,284,192313,5,8,0:0:0:0:
95,350,192487,1,8,0:0:0:0:
0,81,192662,1,8,0:0:0:0:
0,81,193011,5,2,0:0:0:0:
512,206,193359,1,2,0:0:0:0:
21,365,193708,2,0,P|1:274|67:206,1,150,2|0,0:0|0:0,0:0:0:0:
100,302,194057,1,8,0:0:0:0:
106,101,194232,1,2,0:0:0:0:
497,350,194580,5,2,0:0:0:0:
479,49,194929,1,8,0:0:0:0:
433,27,195016,1,0,0:0:0:0:
384,19,195103,1,8,0:0:0:0:
