osu file format v14

[General]
AudioFilename: audio.mp3
AudioLeadIn: 0
PreviewTime: 115436
Countdown: 0
SampleSet: Soft
StackLeniency: 0.5
Mode: 0
LetterboxInBreaks: 0
WidescreenStoryboard: 1

[Editor]
Bookmarks: 16518,20410,35978,51547,84624,92410,100194,107978,115761,127437,143004,160517,176085,193598
DistanceSpacing: 0.6
BeatDivisor: 4
GridSize: 4
TimelineZoom: 3.500005

[Metadata]
Title:hypnoSpirA
TitleUnicode:hypnoSpirA
Artist:Powerless feat. kakichoco
ArtistUnicode:Powerless feat. kakichoco
Creator:Chaos
Version:If This Is Love
Source:
Tags:MuryokuP 柿チョコ 無力P Kakiless Odyssey C90 Comiket japanese rock cover vocaloid utaite jrock j-rock
BeatmapID:1776181
BeatmapSetID:847415

[Difficulty]
HPDrainRate:5
CircleSize:4
OverallDifficulty:8.8
ApproachRate:9.3
SliderMultiplier:1.8
SliderTickRate:1

[Events]
//Background and Video events
0,0,"bg.jpg",0,0
//Break Periods
2,143204,157044
//Storyboard Layer 0 (Background)
//Storyboard Layer 1 (Fail)
//Storyboard Layer 2 (Pass)
//Storyboard Layer 3 (Foreground)
//Storyboard Layer 4 (Overlay)
//Storyboard Sound Samples

[TimingPoints]
950,324.324324324324,3,2,3,70,1,0
19436,-100,3,2,1,60,0,0
20409,-125,3,2,3,50,0,0
35977,-166.666666666667,3,2,3,50,0,0
36139,-166.666666666667,3,2,3,35,0,0
47004,-133.333333333333,3,2,3,41,0,0
47328,-111.111111111111,3,2,3,47,0,0
47652,-111.111111111111,3,2,3,53,0,0
48949,-95.2380952380952,3,2,3,59,0,0
49274,-83.3333333333333,3,2,3,65,0,0
49598,-83.3333333333333,3,2,3,70,0,0
51544,-83.3333333333333,3,2,2,70,0,1
84625,-100,3,3,1,60,0,0
85274,-90.9090909090909,3,3,1,60,0,0
86247,-100,3,3,1,60,0,0
87220,-90.9090909090909,3,3,1,60,0,0
87544,-100,3,3,1,60,0,0
89166,-90.9090909090909,3,3,1,60,0,0
90139,-100,3,3,1,60,0,0
91112,-90.9090909090909,3,3,1,60,0,0
91436,-100,3,3,1,60,0,0
92409,-100,3,2,2,50,0,0
93382,-71.4285714285714,3,2,2,50,0,0
93706,-100,3,2,2,50,0,0
95328,-80,3,2,2,50,0,0
96301,-100,3,2,2,50,0,0
99220,-40,3,2,1,70,0,0
99544,-50,3,2,1,70,0,0
99868,-62.5,3,2,1,70,0,0
100193,-100,3,2,1,70,0,0
100841,-66.6666666666667,3,2,1,70,0,0
101814,-100,3,2,1,70,0,0
102787,-66.6666666666667,3,2,1,70,0,0
103436,-100,3,2,1,70,0,0
114787,-100,3,2,3,70,0,0
115760,-100,3,2,1,100,0,0
115922,-100,3,2,1,55,0,0
123544,-100,3,2,1,60,0,0
127436,-83.3333333333333,3,2,3,70,0,0
142031,-100,3,2,1,70,0,0
157598,-100,3,2,1,30,0,0
157922,-100,3,2,1,35,0,0
158247,-100,3,2,1,40,0,0
158571,-100,3,2,1,45,0,0
158895,-100,3,2,1,50,0,0
159220,-100,3,2,1,55,0,0
159544,-100,3,2,1,60,0,0
159868,-100,3,2,1,65,0,0
160193,-100,3,2,1,70,0,0
160517,-83.3333333333333,3,2,2,70,0,1
193598,-100,3,2,2,70,0,0
201382,-100,3,2,3,70,0,0
208841,-60.6060606060606,3,2,1,70,0,0
209085,-80.6451612903226,3,2,1,5,0,0

[Colours]
Combo1 : 81,115,123
Combo2 : 159,255,255
Combo3 : 233,198,253
Combo4 : 133,235,151

[HitObjects]
207,366,950,5,12,0:3:0:0:
17,303,1112,2,0,L|117:273,1,90,4|0,0:3|0:0,0:0:0:0:
207,366,1436,1,4,0:3:0:0:
174,146,1598,1,0,1:0:0:0:
286,260,1760,1,6,0:3:0:0:
286,260,1841,1,2,0:0:0:0:
286,260,1922,6,0,P|342:276|379:260,1,90,6|4,0:3|0:3,0:0:0:0:
512,74,2247,2,0,L|490:176,1,90,0|4,1:0|0:3,0:0:0:0:
473,347,2571,1,0,1:0:0:0:
408,149,2733,1,4,0:3:0:0:
473,347,2895,5,12,0:3:0:0:
313,183,3058,2,0,P|254:187|225:214,1,90,4|0,0:3|0:0,0:0:0:0:
460,231,3382,1,4,0:3:0:0:
316,341,3544,1,0,1:0:0:0:
357,113,3706,1,6,0:3:0:0:
357,113,3787,1,2,0:0:0:0:
357,113,3868,6,0,P|357:68|323:17,1,90,2|4,0:0|0:3,0:0:0:0:
347,262,4193,1,0,1:0:0:0:
252,119,4355,1,4,0:3:0:0:
211,331,4517,1,0,1:0:0:0:
252,119,4679,1,4,0:3:0:0:
116,188,4841,5,12,0:3:0:0:
326,228,5004,2,0,L|226:258,1,90,4|0,0:3|0:0,0:0:0:0:
116,188,5328,1,4,0:3:0:0:
307,94,5490,1,0,1:0:0:0:
148,83,5652,1,4,0:3:0:0:
340,188,5814,6,0,L|440:158,1,90,4|0,0:3|0:0,0:0:0:0:
148,83,6139,2,0,L|248:113,1,90,4|4,0:3|0:3,0:0:0:0:
424,253,6463,1,0,1:0:0:0:
468,33,6625,1,4,0:3:0:0:
424,253,6787,5,4,0:3:0:0:
433,278,6868,1,4,0:3:0:0:
442,303,6949,1,4,0:3:0:0:
486,83,7112,1,4,0:3:0:0:
477,58,7193,1,4,0:3:0:0:
468,33,7274,1,4,0:3:0:0:
424,253,7436,1,4,1:3:0:0:
348,119,7598,1,0,0:0:0:0:
215,260,7760,5,4,0:3:0:0:
206,285,7841,1,4,0:3:0:0:
197,310,7922,1,4,0:3:0:0:
119,121,8085,1,0,1:0:0:0:
313,185,8247,1,4,0:3:0:0:
119,121,8409,2,0,P|65:126|40:153,1,90,0|4,1:0|0:3,0:0:0:0:
219,45,8733,5,12,0:3:0:0:
215,260,8895,2,0,L|245:160,1,90,4|0,0:3|0:0,0:0:0:0:
219,45,9220,1,4,0:3:0:0:
102,196,9382,1,0,1:0:0:0:
161,342,9544,1,4,0:3:0:0:
102,196,9706,6,0,P|64:181|9:183,1,90,4|4,0:3|0:3,0:0:0:0:
25,379,10031,2,0,L|42:283,1,90,0|4,1:0|0:3,0:0:0:0:
215,260,10355,1,0,1:0:0:0:
40,290,10517,1,4,0:3:0:0:
252,369,10679,5,12,0:3:0:0:
277,154,10841,2,0,L|294:250,1,90,4|0,0:3|0:0,0:0:0:0:
174,46,11166,1,4,0:3:0:0:
365,147,11328,1,0,1:0:0:0:
199,222,11490,1,6,0:3:0:0:
199,222,11571,1,2,0:0:0:0:
199,222,11652,6,0,P|153:224|103:202,1,90,2|4,0:0|0:3,0:0:0:0:
71,38,11977,1,0,1:0:0:0:
47,265,12139,1,4,0:3:0:0:
192,81,12301,1,0,1:0:0:0:
19,139,12463,1,4,0:3:0:0:
199,222,12625,5,12,0:3:0:0:
326,71,12787,2,0,L|309:167,1,90,4|0,0:3|0:0,0:0:0:0:
199,222,13112,1,4,0:3:0:0:
392,285,13274,1,0,1:0:0:0:
490,138,13436,1,6,0:3:0:0:
490,138,13517,1,2,0:0:0:0:
490,138,13598,6,0,P|472:101|428:77,1,90,6|0,0:3|0:0,0:0:0:0:
392,285,13922,2,0,P|433:287|475:261,1,90,4|4,0:3|0:3,0:0:0:0:
313,126,14247,1,0,1:0:0:0:
473,263,14409,1,4,0:3:0:0:
431,77,14571,5,4,0:3:0:0:
426,50,14652,1,4,0:3:0:0:
421,23,14733,1,4,0:3:0:0:
323,180,14895,1,4,0:3:0:0:
318,153,14976,1,4,0:3:0:0:
313,126,15057,1,4,0:3:0:0:
215,283,15220,1,0,1:3:0:0:
182,127,15382,1,0,0:0:0:0:
315,267,15544,5,4,0:3:0:0:
342,272,15625,1,4,0:3:0:0:
369,277,15706,1,4,0:3:0:0:
205,162,15868,1,0,1:0:0:0:
164,359,16031,1,4,0:3:0:0:
13,224,16192,1,2,0:0:0:0:
0,180,16274,1,2,0:0:0:0:
37,155,16355,1,2,0:0:0:0:
73,182,16436,1,2,0:0:0:0:
58,224,16517,1,8,0:3:0:0:
256,192,17490,12,4,18463,0:0:0:0:
442,71,19436,5,4,0:3:0:0:
250,132,19598,1,4,0:3:0:0:
442,71,19760,1,0,1:0:0:0:
348,198,19922,1,8,0:3:0:0:
342,224,20004,1,8,0:3:0:0:
349,249,20085,2,0,P|279:241|209:266,1,135,0|0,1:0|0:0,0:0:0:0:
206,284,20409,5,12,0:3:0:0:
206,284,20571,1,4,0:3:0:0:
63,217,20733,2,0,P|98:195|127:147,1,72,0|0,0:0|0:0,0:0:0:0:
167,78,21058,2,0,P|200:90|236:90,1,72,0|0,0:0|0:0,0:0:0:0:
390,42,21382,1,0,1:0:0:0:
390,42,21544,1,4,0:3:0:0:
438,177,21706,2,0,L|355:195,1,72
284,271,22031,2,0,L|201:253,1,72,0|0,1:0|0:0,0:0:0:0:
96,95,22355,5,4,0:3:0:0:
96,95,22517,2,0,P|114:152|94:188,1,72,4|0,0:3|0:0,0:0:0:0:
37,286,22841,2,0,P|102:249|173:267,1,144,4|0,0:3|0:0,0:0:0:0:
278,367,23328,2,0,L|292:284,1,72,0|0,1:0|0:0,0:0:0:0:
331,128,23652,1,0,1:0:0:0:
363,238,23814,1,4,0:3:0:0:
331,128,23977,1,0,1:0:0:0:
261,278,24139,1,0,1:0:0:0:
331,128,24301,5,4,0:3:0:0:
331,128,24463,2,0,P|310:106|266:102,1,72,4|0,0:3|0:0,0:0:0:0:
184,167,24787,2,0,B|128:139|96:195|40:167,1,144,4|0,0:3|0:0,0:0:0:0:
0,70,25274,1,0,1:0:0:0:
131,22,25436,1,4,0:3:0:0:
139,0,25760,1,4,0:3:0:0:
307,28,25922,1,0,1:0:0:0:
195,155,26247,5,4,0:3:0:0:
195,155,26409,2,0,P|154:139|109:146,1,72,4|0,0:3|0:0,0:0:0:0:
5,267,26733,2,0,L|144:230,1,144,4|0,0:3|0:0,0:0:0:0:
275,129,27220,1,0,1:0:0:0:
253,227,27382,1,4,0:3:0:0:
362,112,27544,1,0,1:0:0:0:
374,210,27706,1,4,0:3:0:0:
437,66,27868,1,0,1:0:0:0:
504,198,28031,1,0,1:0:0:0:
443,289,28193,5,12,0:3:0:0:
443,289,28355,1,4,0:3:0:0:
358,214,28517,2,0,P|321:203|276:228,1,72
181,343,28841,2,0,L|199:266,1,72,0|0,0:0|0:0,0:0:0:0:
155,132,29166,2,0,P|111:104|12:131,2,144,0|0|0,1:0|0:0|1:0,0:0:0:0:
234,23,30139,5,4,0:3:0:0:
234,23,30301,2,0,P|259:48|303:54,1,72,4|0,0:3|0:0,0:0:0:0:
415,0,30625,2,0,L|381:141,1,144,4|0,0:3|0:0,0:0:0:0:
439,280,31112,2,0,P|413:259|350:246,1,72,0|0,1:0|0:0,0:0:0:0:
208,254,31436,1,0,1:0:0:0:
312,188,31598,1,4,0:3:0:0:
283,341,31760,1,0,1:0:0:0:
246,148,31922,1,0,1:0:0:0:
124,233,32085,5,4,0:3:0:0:
124,233,32247,2,0,P|115:183|161:93,1,144,4|0,0:3|0:0,0:0:0:0:
363,123,32895,1,4,0:3:0:0:
363,123,33058,2,0,L|287:112,1,72,0|0,1:0|0:0,0:0:0:0:
124,233,33382,2,0,P|160:255|209:253,1,72,0|0,0:0|0:0,0:0:0:0:
319,214,33706,2,0,P|320:171|293:130,1,72,0|0,1:0|0:0,0:0:0:0:
213,48,34031,5,4,0:3:0:0:
213,48,34193,2,0,L|137:37,1,72,4|0,0:3|0:0,0:0:0:0:
56,161,34517,1,4,0:3:0:0:
56,161,34679,2,0,P|85:142|131:134,1,72,0|0,1:0|0:0,0:0:0:0:
252,197,35004,2,0,L|241:273,1,72,0|0,1:0|0:0,0:0:0:0:
134,274,35328,2,0,L|123:350,1,72,0|0,1:0|0:0,0:0:0:0:
56,161,35652,1,0,1:0:0:0:
208,106,35814,1,0,1:0:0:0:
56,161,35977,1,4,0:0:0:0:
111,71,36139,6,0,P|164:76|209:107,1,107.999996704102,2|2,0:0|0:0,0:0:0:0:
265,179,36625,2,0,L|317:164,1,53.9999983520508,2|2,0:0|0:0,0:0:0:0:
407,67,36949,2,0,L|393:119,1,53.9999983520508,2|0,0:0|0:0,0:0:0:0:
407,67,37274,2,0,P|418:130|471:164,1,107.999996704102,2|0,0:0|0:0,0:0:0:0:
431,337,38085,6,0,P|390:313|327:322,1,107.999996704102,2|2,0:0|0:0,0:0:0:0:
235,384,38571,2,0,L|220:324,1,53.9999983520508,2|2,0:0|0:0,0:0:0:0:
111,242,38895,2,0,L|170:259,1,53.9999983520508,2|0,0:0|0:0,0:0:0:0:
111,242,39220,2,0,P|176:224|202:187,1,107.999996704102,2|0,0:0|0:0,0:0:0:0:
142,30,40031,6,0,P|86:40|45:89,1,107.999996704102,2|2,0:0|0:0,0:0:0:0:
5,176,40517,2,0,L|32:241,1,53.9999983520508,2|2,0:0|0:0,0:0:0:0:
147,301,40841,2,0,L|77:291,1,53.9999983520508,2|0,0:0|0:0,0:0:0:0:
147,301,41166,2,0,P|90:333|70:377,1,107.999996704102,2|0,0:0|0:0,0:0:0:0:
223,144,41814,6,0,B|252:251|252:251|256:226|283:191,1,161.999995056153,2|2,0:0|0:0,0:0:0:0:
429,238,42625,1,2,0:0:0:0:
429,238,42787,2,0,P|383:265|330:262,1,107.999996704102,2|0,0:0|0:0,0:0:0:0:
162,62,43922,6,0,P|201:84|266:68,1,107.999996704102,2|2,0:0|0:0,0:0:0:0:
354,18,44409,1,2,0:0:0:0:
331,95,44571,1,2,0:0:0:0:
369,165,44733,2,0,L|419:176,1,53.9999983520508,2|0,0:0|0:0,0:0:0:0:
369,165,45058,2,0,P|391:213|374:270,1,107.999996704102,2|0,0:0|0:0,0:0:0:0:
222,366,45868,6,0,P|174:340|105:352,1,107.999996704102,2|2,0:0|0:0,0:0:0:0:
20,382,46355,1,2,0:0:0:0:
35,302,46517,1,2,0:0:0:0:
50,222,46679,2,0,P|80:233|110:233,1,53.9999983520508,2|0,0:0|0:0,0:0:0:0:
169,169,47004,2,0,P|203:175|255:147,1,67.5000025749208,2|0,0:0|0:0,0:0:0:0:
319,108,47328,2,0,P|363:101|409:65,1,80.9999975280763,2|0,0:0|0:0,0:0:0:0:
512,0,47652,6,0,P|477:67|513:164,1,161.999995056153,2|0,0:0|0:0,0:0:0:0:
319,108,48139,1,2,0:0:0:0:
497,147,48301,1,2,0:0:0:0:
327,11,48463,1,2,0:0:0:0:
252,186,48625,2,0,P|265:231|313:272,1,80.9999975280763,2|0,0:0|0:0,0:0:0:0:
169,112,48949,2,0,P|135:148|132:228,1,94.499997116089,2|0,0:0|0:0,0:0:0:0:
191,3,49274,2,0,P|139:-8|88:8,1,107.999996704102,2|0,0:0|0:0,0:0:0:0:
25,208,49598,5,4,0:3:0:0:
88,8,49760,2,0,P|139:-8|191:3,1,107.999996704102,4|0,0:3|0:0,0:0:0:0:
329,168,50085,1,0,1:0:0:0:
169,288,50247,1,4,2:3:0:0:
144,89,50409,1,0,1:0:0:0:
273,292,50571,5,4,0:3:0:0:
144,89,50733,1,4,0:3:0:0:
315,34,50896,1,2,0:0:0:0:
369,35,50977,1,2,0:0:0:0:
382,87,51058,1,2,0:0:0:0:
337,117,51139,1,2,0:0:0:0:
295,83,51220,1,0,1:0:0:0:
485,0,51382,1,0,0:0:0:0:
295,83,51544,6,0,P|238:84|189:56,1,107.999996704102,6|0,0:3|0:3,0:0:0:0:
447,202,51868,1,0,0:0:0:0:
251,169,52031,2,0,P|210:252|230:278,1,107.999996704102,4|0,0:3|1:0,0:0:0:0:
382,87,52355,1,4,0:3:0:0:
305,294,52517,5,4,0:3:0:0:
251,169,52679,1,4,0:3:0:0:
86,309,52841,5,0,1:0:0:0:
211,255,53003,1,4,0:3:0:0:
110,93,53166,5,0,1:0:0:0:
86,309,53328,1,4,0:3:0:0:
10,135,53490,6,0,P|4:72|27:22,1,107.999996704102,6|4,0:3|0:3,0:0:0:0:
112,229,53814,1,0,0:0:0:0:
264,124,53977,2,0,B|340:99|340:99|390:124|390:124|466:100,1,215.999993408203,4|4,0:3|0:3,0:0:0:0:
320,225,54463,2,0,P|288:289|305:329,1,107.999996704102,0|4,0:0|0:3,0:0:0:0:
491,254,54787,1,0,1:0:0:0:
473,361,54949,1,4,0:3:0:0:
423,133,55112,1,0,1:0:0:0:
396,293,55274,1,4,0:3:0:0:
263,106,55436,5,6,0:3:0:0:
472,30,55598,2,0,P|380:4|274:71,1,215.999993408203,4|4,0:3|0:3,0:0:0:0:
217,262,56085,1,0,1:0:0:0:
165,41,56247,1,4,0:3:0:0:
75,201,56409,2,0,P|23:205|-26:178,1,107.999996704102,4|0,0:3|0:0,0:0:0:0:
216,118,56733,2,0,P|270:101|331:182,1,161.999995056153,4|0,3:0|0:0,0:0:0:0:
325,204,57058,1,0,1:0:0:0:
427,50,57220,1,4,0:3:0:0:
396,293,57382,6,0,P|351:316|287:311,1,107.999996704102,6|4,0:3|0:3,0:0:0:0:
75,160,57706,2,0,L|209:137,1,107.999996704102,0|4,1:0|0:3,0:0:0:0:
341,114,58031,1,0,1:0:0:0:
139,230,58193,1,4,0:3:0:0:
341,114,58355,6,0,P|340:63|302:21,1,107.999996704102,6|4,0:3|0:3,0:0:0:0:
297,279,58679,2,0,P|341:303|397:291,1,107.999996704102,0|4,1:0|0:3,0:0:0:0:
176,158,59004,1,0,1:0:0:0:
159,384,59166,1,4,0:3:0:0:
297,279,59328,6,0,B|337:278|371:242|371:242|404:269|404:269|434:230|492:238,1,215.999993408203,6|0,0:3|0:0,0:0:0:0:
506,56,59814,2,0,P|464:99|397:103,1,107.999996704102,4|0,0:3|1:0,0:0:0:0:
207,47,60139,1,4,0:3:0:0:
252,229,60301,5,4,0:3:0:0:
137,160,60463,1,4,0:3:0:0:
72,356,60625,5,0,1:0:0:0:
141,241,60787,1,4,0:3:0:0:
34,45,60949,5,0,1:0:0:0:
218,156,61112,1,4,0:3:0:0:
406,52,61274,6,0,P|314:-12|226:42,1,215.999993408203,6|0,0:3|0:0,0:0:0:0:
141,241,61760,2,0,P|152:186|111:130,1,107.999996704102,4|0,0:3|1:0,0:0:0:0:
34,45,62085,1,0,0:0:0:0:
241,141,62247,2,0,L|364:115,1,107.999996704102,0|4,0:0|0:3,0:0:0:0:
243,275,62571,2,0,P|232:330|273:386,1,107.999996704102,0|4,1:0|0:3,0:0:0:0:
447,176,62895,1,0,1:0:0:0:
288,209,63058,1,4,0:3:0:0:
481,273,63220,5,6,0:3:0:0:
440,74,63382,2,0,L|422:181,1,107.999996704102,4|0,0:3|0:0,0:0:0:0:
330,319,63706,2,0,L|312:212,1,107.999996704102,4|0,0:3|1:0,0:0:0:0:
104,122,64031,1,4,0:3:0:0:
326,28,64193,6,0,P|228:18|189:39,1,107.999996704102,4|0,0:3|0:0,0:0:0:0:
0,130,64517,2,0,P|98:120|137:141,1,107.999996704102,4|4,0:3|0:3,0:0:0:0:
326,232,64841,2,0,P|228:222|189:243,1,107.999996704102,0|4,1:0|0:3,0:0:0:0:
0,334,65166,5,4,0:3:0:0:
10,303,65247,1,4,0:3:0:0:
20,272,65328,1,4,0:3:0:0:
154,122,65490,1,4,0:3:0:0:
144,153,65571,1,4,0:3:0:0:
134,184,65652,1,4,0:3:0:0:
300,117,65814,2,0,B|354:94|354:94|401:89|462:126,1,161.999995056153,0|0,1:0|0:0,0:0:0:0:
477,141,66139,5,4,0:3:0:0:
477,141,66220,1,4,0:3:0:0:
477,141,66301,1,4,0:3:0:0:
453,330,66463,1,4,0:3:0:0:
453,330,66544,1,4,0:3:0:0:
453,330,66625,1,4,0:3:0:0:
245,242,66787,1,2,0:0:0:0:
201,207,66868,1,2,0:0:0:0:
220,156,66949,1,2,0:0:0:0:
274,157,67031,1,2,0:0:0:0:
288,209,67112,6,0,B|302:131|302:131|281:98|281:98|289:58|279:31|241:-4,1,215.999993408203,6|0,3:0|1:0,0:0:0:0:
410,155,67598,2,0,P|463:165|525:134,1,107.999996704102,4|0,3:0|0:0,0:0:0:0:
401,341,67922,1,4,0:3:0:0:
245,242,68085,5,0,1:0:0:0:
87,279,68247,1,4,0:3:0:0:
166,69,68409,5,0,0:0:0:0:
203,227,68571,1,4,0:3:0:0:
362,62,68733,5,0,1:0:0:0:
151,111,68895,1,4,0:3:0:0:
385,183,69058,6,0,L|496:146,1,107.999996704102,6|4,0:3|0:3,0:0:0:0:
292,11,69382,1,0,1:0:0:0:
218,235,69544,2,0,P|209:303|236:354,1,107.999996704102,4|0,3:0|0:0,0:0:0:0:
76,123,69868,1,4,3:0:0:0:
308,106,70031,2,0,B|241:84|241:84|208:108|208:108|148:70|86:107,1,215.999993408203,0|0,1:0|0:0,0:0:0:0:
0,384,70679,1,0,1:0:0:0:
148,186,70841,1,0,1:0:0:0:
158,216,70922,1,0,1:0:0:0:
178,241,71004,6,0,P|231:264|289:250,1,107.999996704102,6|4,0:3|0:3,0:0:0:0:
410,154,71328,2,0,L|389:277,1,107.999996704102,0|4,1:0|0:3,0:0:0:0:
308,156,71652,1,0,0:0:0:0:
493,258,71814,1,4,0:3:0:0:
308,156,71977,2,0,P|283:111|305:36,1,107.999996704102,0|0,1:0|0:0,0:0:0:0:
222,269,72301,2,0,L|201:392,1,107.999996704102,4|4,0:3|0:3,0:0:0:0:
128,90,72625,1,0,1:0:0:0:
308,156,72787,1,4,0:3:0:0:
94,195,72949,6,0,P|50:197|-10:154,1,107.999996704102,6|4,0:3|0:3,0:0:0:0:
194,51,73274,2,0,P|238:49|298:92,1,107.999996704102,0|4,1:0|0:3,0:0:0:0:
139,317,73598,1,0,1:0:0:0:
218,145,73760,1,4,0:3:0:0:
389,223,73922,6,0,L|493:191,1,107.999996704102,6|4,0:3|0:3,0:0:0:0:
215,286,74247,2,0,L|319:318,1,107.999996704102,0|4,1:0|0:3,0:0:0:0:
41,223,74571,1,0,1:0:0:0:
190,153,74733,1,0,1:0:0:0:
344,208,74895,6,0,P|398:213|462:178,1,107.999996704102,6|4,0:3|0:3,0:0:0:0:
267,378,75220,1,0,1:0:0:0:
218,145,75382,2,0,L|197:33,1,107.999996704102,4|0,0:3|0:0,0:0:0:0:
124,295,75706,1,4,0:3:0:0:
104,100,75868,5,0,1:0:0:0:
140,258,76031,1,4,0:3:0:0:
306,123,76193,5,0,0:0:0:0:
148,159,76356,1,4,0:3:0:0:
296,379,76517,5,0,1:0:0:0:
247,167,76680,1,4,0:3:0:0:
367,349,76841,6,0,B|394:311|437:327|437:327|447:288|447:288|509:301|551:244,1,215.999993408203,6|0,0:3|1:0,0:0:0:0:
485,32,77328,2,0,B|458:135,1,107.999996704102,4|0,0:3|0:0,0:0:0:0:
272,19,77652,1,4,0:3:0:0:
319,202,77814,2,0,P|318:267|284:311,1,107.999996704102,0|4,1:0|0:3,0:0:0:0:
60,197,78139,2,0,B|163:170,1,107.999996704102,0|4,1:0|0:3,0:0:0:0:
272,19,78463,1,0,1:0:0:0:
235,234,78625,1,4,0:3:0:0:
482,144,78787,6,0,B|456:146|428:121|428:121|381:144|381:144|339:112|276:125,1,215.999993408203,6|0,0:3|0:0,0:0:0:0:
36,213,79274,2,0,B|62:211|90:236|90:236|137:213|137:213|179:245|242:232,1,215.999993408203,4|4,0:3|0:3,0:0:0:0:
482,144,79760,6,0,P|471:207|493:283,1,107.999996704102,4|0,0:3|0:0,0:0:0:0:
369,13,80085,2,0,L|347:125,1,107.999996704102,4|4,0:3|0:3,0:0:0:0:
214,339,80409,2,0,L|236:227,1,107.999996704102,0|4,1:0|0:3,0:0:0:0:
54,329,80733,6,0,P|77:234|-9:154,1,215.999993408203,6|0,0:3|0:0,0:0:0:0:
83,1,81220,2,0,P|125:40|196:44,1,107.999996704102,4|0,0:3|0:0,0:0:0:0:
374,10,81544,1,4,0:3:0:0:
322,221,81706,1,0,1:0:0:0:
509,109,81868,1,4,0:3:0:0:
322,221,82031,1,0,1:0:0:0:
86,81,82355,1,4,0:3:0:0:
212,120,82517,1,0,1:0:0:0:
67,233,82679,6,0,P|54:347|145:383,2,215.999993408203,6|4|4,0:3|0:3|0:3,0:0:0:0:
220,323,83652,1,0,1:0:0:0:
346,362,83814,1,4,0:3:0:0:
512,164,83977,1,0,1:0:0:0:
386,125,84139,1,4,0:3:0:0:
431,324,84301,6,0,P|478:363|444:306,1,161.999995056153,0|0,1:0|0:0,0:0:0:0:
454,267,84625,6,0,L|473:216,2,45,4|0|0,0:0|0:0|0:0,0:0:0:0:
322,185,84949,1,0,0:0:0:0:
322,185,85112,1,0,0:0:0:0:
232,347,85274,6,0,B|224:339|224:339|216:347|216:347|208:339|208:339|200:347|200:347|192:339|192:339|184:347|184:347|176:339|176:339|168:347|168:347|161:338,1,99.0000030212403,2|0,0:0|0:0,0:0:0:0:
45,252,85598,5,0,0:0:0:0:
2,238,85679,1,0,0:0:0:0:
2,193,85760,1,0,0:0:0:0:
45,179,85841,1,0,0:0:0:0:
71,215,85923,5,0,0:0:0:0:
81,217,86004,1,0,0:0:0:0:
92,220,86085,1,0,0:0:0:0:
103,223,86166,1,0,0:0:0:0:
114,226,86247,2,0,L|164:212,1,45,2|0,0:0|0:0,0:0:0:0:
259,129,86409,1,0,0:0:0:0:
252,112,86490,1,0,0:0:0:0:
245,95,86571,6,0,L|213:86,4,22.5,0|0|0|0|0,0:3|0:3|0:3|0:3|0:3,0:3:0:0:
333,7,86814,1,0,0:0:0:0:
340,24,86895,2,0,L|372:33,4,22.5
408,135,87139,1,0,0:0:0:0:
415,152,87220,6,0,B|423:144|423:144|431:152|431:152|439:144|439:144|447:152|447:152|455:144|455:144|463:152|463:152|471:144|471:144|479:152|479:152|487:144,1,99.0000030212403,2|0,0:0|0:0,0:0:0:0:
415,265,87544,6,0,L|411:276,8,11.25
292,384,87868,6,0,L|295:372,8,11.25,0|0|0|0|0|0|0|0|0,0:0|0:0|0:0|0:0|0:0|0:0|0:0|0:0|0:0,0:0:0:0:
326,188,88193,6,0,L|313:141,1,45,2|0,0:0|0:0,0:0:0:0:
224,40,88355,1,0,0:0:0:0:
217,56,88436,1,0,0:0:0:0:
210,72,88517,6,0,L|163:84,2,45,4|0|0,0:0|0:0|0:0,0:0:0:0:
375,15,88841,1,0,0:0:0:0:
375,15,89004,1,0,0:0:0:0:
326,188,89166,6,0,B|318:196|318:196|326:204|326:204|318:212|318:212|326:220|326:220|318:228|318:228|326:236|326:236|318:244|318:244|326:252|326:252|318:260,1,99.0000030212403,2|0,0:0|0:0,0:0:0:0:
430,329,89490,1,0,0:0:0:0:
473,343,89571,1,0,0:0:0:0:
499,306,89652,1,0,0:0:0:0:
473,270,89733,1,0,0:0:0:0:
430,284,89814,5,0,0:0:0:0:
428,273,89896,1,0,0:0:0:0:
425,262,89977,1,0,0:0:0:0:
422,251,90058,1,0,0:0:0:0:
419,240,90139,2,0,L|430:197,1,45,2|0,0:0|0:0,0:0:0:0:
360,48,90301,1,0,0:0:0:0:
354,65,90382,1,0,0:0:0:0:
348,82,90463,6,0,L|324:88,4,22.5,0|0|0|0|0,0:0|0:0|0:0|0:0|0:0,0:0:0:0:
238,190,90706,1,0,0:0:0:0:
232,173,90787,2,0,L|208:166,4,22.5
106,44,91031,1,0,0:0:0:0:
100,61,91112,6,0,B|92:53|92:53|84:61|84:61|76:53|76:53|68:61|68:61|60:53|60:53|52:61|52:61|44:53|44:53|36:61|36:61|28:53,1,99.0000030212403,2|0,0:0|0:0,0:0:0:0:
33,275,91436,6,0,L|48:272,8,11.25,0|0|0|0|0|0|0|0|0,0:0|0:0|0:0|0:0|0:0|0:0|0:0|0:0|0:0,0:0:0:0:
177,348,91760,6,0,L|192:345,8,11.25,0|0|0|0|0|0|0|0|0,0:0|0:0|0:0|0:0|0:0|0:0|0:0|0:0|0:0,0:0:0:0:
339,241,92085,6,0,L|382:232,1,45,2|0,0:0|0:0,0:0:0:0:
440,344,92247,1,0,0:0:0:0:
456,351,92328,1,0,0:0:0:0:
473,350,92409,6,0,L|511:167,1,180,6|0,0:3|0:0,0:0:0:0:
493,139,92814,2,0,P|468:155|465:181,4,45
339,241,93382,6,0,B|323:217|334:186|334:186|322:170|322:170|330:145|311:115,1,125.999996154785,4|0,0:0|0:0,0:0:0:0:
194,22,93706,1,0,0:0:0:0:
94,143,94031,1,0,0:0:0:0:
215,243,94355,6,0,P|133:246|103:349,1,180,4|0,0:3|0:0,0:0:0:0:
115,354,94760,2,0,P|140:362|163:346,4,45
335,300,95328,6,0,B|331:267|306:231|306:231|280:222|255:227,1,112.5,4|0,0:0|0:0,0:0:0:0:
128,204,95652,1,0,0:0:0:0:
134,186,95733,1,0,0:0:0:0:
305,60,95977,1,0,0:0:0:0:
512,156,96301,6,0,P|538:91|485:0,1,180,4|0,0:3|0:0,0:0:0:0:
452,0,96706,2,0,P|434:26|434:50,4,45
346,240,97274,1,4,0:0:0:0:
256,192,97436,12,0,99058,0:0:0:0:
260,340,99220,6,2,B|284:356|284:356|311:356,6,56.25,0|0|0|0|0|0|0,0:0|0:0|0:0|0:0|0:0|0:0|0:0,0:0:0:0:
148,201,99544,6,2,B|103:201,6,45,2|2|2|2|2|2|2,0:3|0:3|0:3|0:3|0:3|0:3|0:3,0:0:0:0:
346,240,99868,6,0,B|397:256|397:256|438:243|438:243|485:257,1,144,2|0,0:1|0:0,0:0:0:0:
436,95,100193,5,4,0:3:0:0:
432,68,100274,1,4,0:3:0:0:
428,41,100355,1,4,0:3:0:0:
346,240,100517,1,4,0:3:0:0:
342,213,100598,1,4,0:3:0:0:
338,186,100679,1,4,0:3:0:0:
107,76,100841,2,0,B|138:74|155:61|155:61|195:70|195:70|216:54|252:59,1,135.000005149842,0|0,1:0|0:0,0:0:0:0:
179,286,101166,5,4,0:3:0:0:
175,313,101247,1,4,0:3:0:0:
171,340,101328,1,4,0:3:0:0:
55,155,101490,1,4,0:3:0:0:
51,182,101571,1,4,0:3:0:0:
47,209,101652,1,4,0:3:0:0:
235,57,101814,1,0,1:0:0:0:
55,155,101977,1,0,1:0:0:0:
257,251,102139,5,4,0:3:0:0:
284,255,102220,1,4,0:3:0:0:
311,259,102301,1,4,0:3:0:0:
376,94,102463,1,4,0:3:0:0:
403,98,102544,1,4,0:3:0:0:
430,102,102625,1,4,0:3:0:0:
483,342,102787,2,0,B|482:325|482:325|469:306|469:306|473:283|473:283|451:260|448:203,1,135.000005149842,0|0,1:0|0:0,0:0:0:0:
270,336,103112,5,4,0:3:0:0:
243,340,103193,1,4,0:3:0:0:
216,344,103274,1,4,0:3:0:0:
272,151,103436,2,0,B|288:104|288:104|256:6,1,135,0|0,1:0|0:0,0:0:0:0:
231,0,103760,5,8,0:3:0:0:
186,0,103841,1,8,0:3:0:0:
144,14,103922,1,8,0:3:0:0:
113,46,104003,1,8,0:3:0:0:
96,87,104084,5,4,0:3:0:0:
115,106,104166,1,4,0:3:0:0:
134,125,104247,1,4,0:3:0:0:
196,304,104409,1,4,0:3:0:0:
177,285,104491,1,4,0:3:0:0:
158,266,104572,1,4,0:3:0:0:
96,87,104733,1,0,1:0:0:0:
415,87,105058,5,4,0:3:0:0:
397,106,105139,1,4,0:3:0:0:
378,125,105220,1,4,0:3:0:0:
316,304,105382,1,4,0:3:0:0:
335,285,105463,1,4,0:3:0:0:
354,266,105544,1,4,0:3:0:0:
415,87,105707,1,0,1:0:0:0:
497,310,105868,1,0,1:0:0:0:
336,192,106031,5,4,0:3:0:0:
309,192,106112,1,4,0:3:0:0:
282,192,106193,1,4,0:3:0:0:
80,192,106355,1,4,0:3:0:0:
107,192,106436,1,4,0:3:0:0:
134,192,106517,1,4,0:3:0:0:
288,97,106679,1,2,1:2:0:0:
328,77,106761,1,2,0:0:0:0:
322,32,106842,1,2,0:0:0:0:
278,23,106923,1,2,0:0:0:0:
256,62,107004,5,4,0:3:0:0:
256,88,107085,1,4,0:3:0:0:
256,114,107166,1,4,0:3:0:0:
256,294,107328,1,0,1:0:0:0:
256,62,107490,1,4,0:3:0:0:
356,237,107652,1,0,1:0:0:0:
400,239,107733,1,0,1:0:0:0:
440,220,107814,1,0,1:0:0:0:
467,184,107895,1,0,1:0:0:0:
474,140,107977,6,0,P|441:245|469:310,1,180,4|4,1:0|0:3,0:0:0:0:
356,237,108463,2,0,P|309:220|255:235,1,90,4|0,0:3|0:0,0:0:0:0:
164,360,108787,1,4,0:3:0:0:
133,111,108949,1,0,1:0:0:0:
13,290,109112,1,0,0:0:0:0:
13,290,109274,2,0,L|38:174,1,90,4|0,0:3|0:0,0:0:0:0:
97,29,109598,1,0,1:0:0:0:
135,256,109760,1,0,1:0:0:0:
17,102,109922,5,4,0:3:0:0:
201,194,110085,2,0,P|260:191|289:165,1,90,0|4,0:0|0:3,0:0:0:0:
377,46,110409,1,0,1:0:0:0:
377,46,110571,1,0,0:0:0:0:
162,100,110733,1,4,0:3:0:0:
429,160,110895,5,0,1:0:0:0:
207,6,111058,1,0,0:0:0:0:
51,136,111220,5,0,1:0:0:0:
182,295,111382,1,0,0:0:0:0:
124,38,111544,5,0,1:0:0:0:
82,348,111706,1,0,0:0:0:0:
252,215,111868,5,4,0:3:0:0:
0,281,112031,1,0,0:0:0:0:
166,124,112193,1,4,0:3:0:0:
242,373,112355,1,4,0:3:0:0:
58,187,112518,1,0,1:0:0:0:
277,253,112680,1,4,0:3:0:0:
398,60,112841,5,4,0:3:0:0:
360,314,113004,1,0,0:0:0:0:
85,290,113166,5,0,1:0:0:0:
339,328,113329,1,4,0:3:0:0:
108,15,113489,5,0,1:0:0:0:
70,269,113652,1,4,0:3:0:0:
326,82,113814,5,0,1:0:0:0:
254,229,113976,1,4,0:3:0:0:
90,252,114139,1,4,0:3:0:0:
412,135,114301,5,0,1:0:0:0:
263,202,114463,1,4,0:3:0:0:
122,114,114626,1,4,0:3:0:0:
444,232,114787,5,2,1:2:0:0:
443,276,114868,1,2,0:0:0:0:
422,315,114949,1,6,0:3:0:0:
384,338,115030,1,2,0:0:0:0:
339,341,115112,1,2,1:2:0:0:
299,321,115193,1,2,0:0:0:0:
274,284,115274,1,6,0:3:0:0:
248,247,115355,1,6,0:3:0:0:
208,227,115436,1,2,1:2:0:0:
164,230,115517,1,2,0:0:0:0:
126,253,115598,1,2,1:2:0:0:
104,292,115679,1,2,0:0:0:0:
104,336,115760,5,4,0:0:0:0:
71,155,115922,2,0,L|40:60,1,90
104,336,116247,5,4,0:0:0:0:
71,155,116409,2,0,L|40:60,1,90,0|0,0:0|0:0,0:0:0:0:
104,336,116733,5,4,0:0:0:0:
217,141,117058,2,0,L|169:156,1,45,0|0,0:0|0:0,0:0:0:0:
307,250,117382,2,0,L|259:265,1,45,8|0,0:3|0:0,0:0:0:0:
408,48,117706,5,4,0:0:0:0:
441,229,117868,2,0,L|471:323,1,90,0|0,0:0|0:0,0:0:0:0:
408,48,118193,5,4,0:0:0:0:
441,229,118355,2,0,L|471:323,1,90,0|0,0:0|0:0,0:0:0:0:
408,48,118679,5,4,0:0:0:0:
205,134,119004,2,0,L|252:118,1,45,8|0,0:3|0:0,0:0:0:0:
337,229,119328,2,0,L|295:243,1,45,8|0,0:3|0:0,0:0:0:0:
71,155,119652,5,4,0:0:0:0:
219,29,119814,2,0,P|273:29|310:47,1,90,0|0,0:0|0:0,0:0:0:0:
71,155,120139,5,4,0:0:0:0:
219,29,120301,2,0,P|273:29|310:47,1,90,0|0,0:0|0:0,0:0:0:0:
71,156,120625,5,4,0:0:0:0:
248,119,120949,2,0,L|224:175,1,45,0|0,0:0|0:0,0:0:0:0:
264,265,121274,2,0,L|288:209,1,45,8|0,0:3|0:0,0:0:0:0:
441,229,121598,5,4,0:0:0:0:
293,355,121760,2,0,P|239:355|202:337,1,90,0|0,0:0|0:0,0:0:0:0:
441,229,122085,5,4,0:0:0:0:
293,355,122247,2,0,P|239:355|202:337,1,90,0|0,0:0|0:0,0:0:0:0:
441,229,122571,5,4,0:0:0:0:
221,103,122895,2,0,L|245:159,1,45,0|0,1:0|0:0,0:0:0:0:
477,14,123220,1,8,0:3:0:0:
406,70,123382,1,8,0:3:0:0:
321,36,123544,5,6,0:0:0:0:
257,254,123706,2,0,P|230:296|190:314,1,90,2|0,0:0|0:0,0:0:0:0:
77,118,124031,1,2,0:0:0:0:
61,272,124193,1,2,0:0:0:0:
183,91,124355,1,2,0:0:0:0:
61,272,124517,6,0,P|46:321|49:381,1,90,2|0,0:0|0:0,0:0:0:0:
213,115,124841,2,0,P|228:164|225:224,1,90,2|0,0:0|0:0,0:0:0:0:
371,89,125166,1,10,0:3:0:0:
140,173,125328,1,10,0:3:0:0:
321,238,125490,5,6,0:3:0:0:
461,72,125652,2,0,L|441:170,1,90,2|0,0:0|0:0,0:0:0:0:
349,351,125977,1,2,0:0:0:0:
215,216,126139,1,2,0:0:0:0:
456,277,126301,1,2,0:0:0:0:
227,328,126463,6,0,P|189:324|136:304,1,90,2|0,1:2|0:0,0:0:0:0:
28,191,126787,2,0,P|51:178|81:167,3,45,10|0|0|0,0:3|0:0|0:0|0:0,0:0:0:0:
103,162,127112,1,10,0:3:0:0:
138,163,127193,1,2,0:0:0:0:
170,179,127274,1,2,0:0:0:0:
204,189,127355,1,2,0:0:0:0:
239,183,127436,6,0,L|274:58,1,107.999996704102,6|4,0:3|0:3,0:0:0:0:
423,17,127760,2,0,P|448:64|515:84,1,107.999996704102,2|4,0:0|0:3,0:0:0:0:
354,256,128085,2,0,P|310:298|317:354,1,107.999996704102,2|4,0:0|0:3,0:0:0:0:
146,211,128409,6,0,L|39:185,1,107.999996704102,2|4,1:2|0:3,0:0:0:0:
299,125,128733,2,0,P|320:61|273:11,1,107.999996704102,2|4,0:0|0:3,0:0:0:0:
175,289,129058,1,2,1:2:0:0:
225,24,129220,1,2,0:0:0:0:
9,158,129382,5,6,0:3:0:0:
160,104,129544,1,6,0:3:0:0:
315,373,129706,5,2,0:0:0:0:
194,270,129868,1,6,0:3:0:0:
349,0,130031,5,2,0:0:0:0:
320,157,130193,1,6,0:3:0:0:
430,315,130355,5,2,1:2:0:0:
465,275,130463,1,2,0:0:0:0:
473,223,130571,1,2,0:0:0:0:
449,175,130679,5,2,1:2:0:0:
425,127,130787,1,2,0:0:0:0:
433,75,130895,1,2,0:0:0:0:
469,36,131004,5,2,1:2:0:0:
421,60,131112,1,2,0:0:0:0:
369,52,131220,1,2,0:0:0:0:
330,16,131328,5,6,0:3:0:0:
286,259,131490,1,6,0:3:0:0:
286,259,131652,1,2,0:0:0:0:
149,148,131814,1,6,0:3:0:0:
366,111,131977,1,2,0:0:0:0:
201,38,132139,1,6,0:3:0:0:
164,255,132301,5,2,1:2:0:0:
201,38,132463,1,6,0:3:0:0:
36,231,132625,5,2,1:2:0:0:
176,61,132787,1,6,0:3:0:0:
229,291,132949,5,2,1:2:0:0:
151,84,133112,2,0,P|126:158|137:193,1,107.999996704102,2|4,0:0|0:3,0:0:0:0:
310,289,133436,5,6,0:3:0:0:
142,361,133598,1,2,1:2:0:0:
274,122,133760,1,6,0:3:0:0:
512,254,133922,1,2,1:2:0:0:
336,200,134085,1,2,0:0:0:0:
473,39,134247,5,6,0:3:0:0:
425,306,134409,1,6,0:3:0:0:
228,26,134571,5,2,1:2:0:0:
495,74,134733,1,2,1:2:0:0:
215,271,134896,5,6,0:3:0:0:
263,4,135058,1,2,1:2:0:0:
460,284,135220,6,0,P|521:236|458:225,2,161.999995056153,6|2|2,0:3|0:0|0:0,0:0:0:0:
256,208,135868,2,0,L|256:96,1,107.999996704102,6|0,0:3|0:0,0:0:0:0:
52,284,136193,6,0,P|-9:236|54:225,2,161.999995056153,6|2|2,0:3|0:0|0:0,0:0:0:0:
256,208,136841,2,0,L|256:96,1,107.999996704102,6|0,0:3|1:0,0:0:0:0:
460,24,137166,6,0,P|521:72|458:83,2,161.999995056153,6|2|2,0:3|0:0|0:0,0:0:0:0:
256,100,137814,1,6,0:3:0:0:
256,263,137977,1,2,0:0:0:0:
58,49,138139,5,6,0:3:0:0:
106,70,138247,1,2,0:0:0:0:
132,116,138355,1,2,0:0:0:0:
126,168,138463,5,2,1:2:0:0:
169,136,138571,1,2,0:0:0:0:
222,136,138679,1,2,0:0:0:0:
265,168,138787,5,6,0:3:0:0:
308,200,138896,1,2,0:0:0:0:
361,200,139004,1,2,0:0:0:0:
404,168,139112,6,0,L|434:-2,2,161.999995056153,6|2|6,0:3|0:0|0:3,0:0:0:0:
454,322,139760,1,2,1:2:0:0:
269,357,139922,1,2,0:0:0:0:
191,122,140085,5,6,0:3:0:0:
269,357,140247,1,6,0:3:0:0:
263,63,140409,5,2,1:2:0:0:
151,284,140571,1,6,0:3:0:0:
355,72,140733,5,2,1:2:0:0:
120,149,140895,1,2,1:2:0:0:
413,143,141058,5,2,1:2:0:0:
246,219,141220,1,6,0:3:0:0:
74,154,141382,1,6,0:3:0:0:
403,234,141544,5,2,1:2:0:0:
231,169,141706,1,6,0:3:0:0:
155,2,141868,1,6,0:3:0:0:
170,234,142031,5,8,0:3:0:0:
161,273,142112,1,8,0:3:0:0:
136,305,142193,1,4,0:3:0:0:
100,323,142274,1,4,0:3:0:0:
60,324,142356,5,8,0:3:0:0:
55,284,142437,1,8,0:3:0:0:
75,249,142518,1,4,0:3:0:0:
110,232,142599,1,4,0:3:0:0:
150,238,142679,5,0,1:0:0:0:
196,211,142761,1,0,1:0:0:0:
226,167,142842,1,0,1:0:0:0:
233,114,142923,1,0,1:0:0:0:
215,63,143004,1,4,1:0:0:0:
256,192,157598,12,0,160193,0:0:0:0:
35,383,160517,5,6,0:3:0:0:
181,310,160841,1,4,0:3:0:0:
328,237,161166,1,4,0:3:0:0:
400,384,161490,5,4,0:3:0:0:
328,237,161814,1,4,0:3:0:0:
255,91,162139,1,4,0:3:0:0:
328,237,162301,1,0,1:0:0:0:
401,18,162463,5,6,0:3:0:0:
255,91,162787,1,4,0:3:0:0:
108,164,163112,1,4,0:3:0:0:
36,17,163436,5,4,0:3:0:0:
108,164,163598,2,0,P|121:228|101:273,1,107.999996704102,0|0,1:0|0:0,0:0:0:0:
328,237,163922,1,4,0:3:0:0:
255,91,164085,1,0,1:0:0:0:
108,164,164247,1,4,0:3:0:0:
417,67,164409,5,6,0:3:0:0:
388,223,164733,1,4,0:3:0:0:
359,379,165058,2,0,P|322:350|298:286,1,107.999996704102,4|0,0:3|0:0,0:0:0:0:
266,112,165382,6,0,L|287:0,1,107.999996704102,4|0,1:3|0:0,0:0:0:0:
199,248,165706,2,0,P|191:317|208:359,1,107.999996704102,4|0,0:3|0:0,0:0:0:0:
385,173,166031,1,4,0:3:0:0:
147,153,166193,1,0,1:0:0:0:
353,300,166355,5,6,0:3:0:0:
115,280,166517,1,4,0:3:0:0:
333,200,166679,2,0,P|341:131|324:89,1,107.999996704102,0|0,1:0|0:0,0:0:0:0:
202,8,167004,1,0,1:0:0:0:
460,0,167166,5,4,0:3:0:0:
420,16,167247,1,0,1:0:0:0:
389,47,167328,1,8,0:3:0:0:
372,85,167409,1,8,0:3:0:0:
368,129,167490,1,4,0:3:0:0:
382,170,167571,1,4,0:3:0:0:
403,206,167652,1,8,0:3:0:0:
403,248,167733,1,8,0:3:0:0:
386,288,167814,1,4,0:3:0:0:
356,319,167895,1,4,0:3:0:0:
316,335,167976,5,0,1:0:0:0:
262,328,168058,1,0,1:0:0:0:
219,298,168139,1,0,1:0:0:0:
194,251,168220,1,0,1:0:0:0:
195,196,168301,6,0,B|201:151|227:128|227:128|197:91|197:91|233:54|205:4,1,215.999993408203,6|0,0:3|1:0,0:0:0:0:
342,175,168787,2,0,P|413:180|456:141,1,107.999996704102,4|0,0:3|0:0,0:0:0:0:
264,355,169112,1,4,0:3:0:0:
312,144,169274,5,0,1:0:0:0:
264,355,169436,1,4,0:3:0:0:
129,176,169598,5,0,0:0:0:0:
340,224,169760,1,4,0:3:0:0:
168,278,169922,5,0,1:0:0:0:
228,14,170084,1,4,0:3:0:0:
376,215,170247,6,0,P|440:152|406:26,1,215.999993408203,6|0,0:3|1:0,0:0:0:0:
268,198,170733,2,0,P|248:277|256:317,1,107.999996704102,4|0,0:3|0:0,0:0:0:0:
228,14,171058,1,4,0:3:0:0:
359,169,171220,2,0,L|484:141,1,107.999996704102,0|4,1:0|0:3,0:0:0:0:
161,277,171544,2,0,L|36:249,1,107.999996704102,0|4,0:0|0:3,0:0:0:0:
136,73,171868,1,0,1:0:0:0:
55,253,172031,1,4,0:3:0:0:
207,377,172193,6,0,B|247:376|269:363|269:363|319:376|319:376|359:338|411:331,1,215.999993408203,6|0,0:3|1:0,0:0:0:0:
50,150,172679,2,0,B|97:156|137:194|137:194|187:181|187:181|209:194|249:195,1,215.999993408203,4|4,0:3|0:3,0:0:0:0:
114,22,173166,6,0,P|69:-11|7:-5,1,107.999996704102,0|0,1:0|0:0,0:0:0:0:
259,106,173490,2,0,L|373:58,1,107.999996704102,4|4,0:3|0:3,0:0:0:0:
304,266,173814,1,0,1:0:0:0:
308,319,173895,1,0,1:0:0:0:
341,360,173976,1,0,1:0:0:0:
392,377,174057,1,0,1:0:0:0:
443,363,174138,5,4,0:3:0:0:
475,373,174220,1,4,0:3:0:0:
506,381,174301,1,4,0:3:0:0:
354,187,174463,1,4,0:3:0:0:
385,196,174545,1,4,0:3:0:0:
416,204,174626,1,4,0:3:0:0:
264,10,174787,2,0,B|209:-5|209:-5|148:-1|103:51,1,161.999995056153,0|0,1:0|0:0,0:0:0:0:
109,69,175112,5,4,0:3:0:0:
112,90,175193,1,4,0:3:0:0:
115,111,175274,1,4,0:3:0:0:
165,269,175436,1,0,1:0:0:0:
166,258,175517,1,0,0:0:0:0:
168,248,175598,1,4,0:3:0:0:
259,138,175760,1,2,0:0:0:0:
297,85,175841,1,2,0:0:0:0:
260,31,175922,1,2,0:0:0:0:
198,51,176004,1,2,0:0:0:0:
197,116,176085,5,6,0:3:0:0:
430,178,176409,1,4,0:3:0:0:
197,116,176733,1,4,0:3:0:0:
413,13,177058,5,4,0:3:0:0:
197,116,177382,1,4,0:3:0:0:
413,13,177707,1,4,0:3:0:0:
361,164,177868,1,0,1:0:0:0:
309,315,178031,5,6,0:3:0:0:
76,377,178355,1,4,0:3:0:0:
309,315,178679,1,4,0:3:0:0:
91,213,179004,5,4,0:3:0:0:
39,62,179166,1,0,1:0:0:0:
143,364,179490,1,4,0:3:0:0:
91,213,179652,2,0,P|26:178|-24:197,1,107.999996704102,0|4,1:0|0:3,0:0:0:0:
147,278,179977,6,0,P|222:299|352:233,1,215.999993408203,6|4,0:3|0:3,0:0:0:0:
424,4,180625,1,4,0:3:0:0:
258,88,180787,1,0,0:0:0:0:
258,88,180949,2,0,P|362:70|453:123,2,215.999993408203,4|4|4,1:3|0:3|0:3,0:0:0:0:
206,278,181760,1,0,1:0:0:0:
151,35,181922,5,6,0:3:0:0:
206,278,182085,1,4,0:3:0:0:
332,105,182247,5,0,1:0:0:0:
111,220,182409,1,4,0:3:0:0:
287,343,182571,5,0,1:0:0:0:
232,100,182733,1,4,0:3:0:0:
343,258,182895,6,0,P|412:278|469:251,1,107.999996704102,6|4,0:3|0:3,0:0:0:0:
420,74,183220,2,0,L|402:181,1,107.999996704102,0|4,1:0|0:3,0:0:0:0:
479,0,183544,1,0,1:0:0:0:
307,185,183706,1,4,0:3:0:0:
153,42,183868,5,6,0:3:0:0:
258,295,184031,2,0,P|171:275|62:345,1,215.999993408203,4|4,0:3|0:3,0:0:0:0:
233,185,184517,2,0,P|262:148|276:82,1,107.999996704102,0|4,1:0|0:3,0:0:0:0:
329,354,184841,2,0,P|372:372|439:368,1,107.999996704102,4|4,0:3|0:3,0:0:0:0:
139,280,185166,2,0,L|29:305,1,107.999996704102,0|4,1:0|0:3,0:0:0:0:
300,197,185490,1,0,1:0:0:0:
70,135,185652,1,4,0:3:0:0:
183,356,185814,6,0,P|224:289|186:164,1,215.999993408203,6|0,0:3|0:0,0:0:0:0:
378,370,186301,2,0,P|476:370|518:243,1,215.999993408203,4|4,0:3|0:3,0:0:0:0:
423,34,186787,2,0,L|402:149,1,107.999996704102,0|4,0:0|0:3,0:0:0:0:
429,285,187112,2,0,P|390:267|318:266,1,107.999996704102,0|4,1:0|0:3,0:0:0:0:
138,361,187436,1,0,1:0:0:0:
200,212,187598,1,4,0:3:0:0:
117,12,187760,6,0,B|158:19|183:37|183:37|232:24|232:24|265:49|337:39,1,215.999993408203,6|0,0:3|0:0,0:0:0:0:
512,234,188247,2,0,B|471:227|446:209|446:209|397:222|397:222|364:197|292:207,1,215.999993408203,4|4,0:3|0:3,0:0:0:0:
49,334,188733,2,0,P|85:294|96:215,1,107.999996704102,4|0,0:3|0:0,0:0:0:0:
117,12,189058,2,0,L|137:124,1,107.999996704102,4|4,0:3|0:3,0:0:0:0:
214,352,189382,1,0,1:0:0:0:
418,270,189544,1,4,0:3:0:0:
149,207,189706,6,0,B|81:182|32:258|32:258|40:218|25:197|13:177,1,215.999993408203,6|0,0:3|0:0,0:0:0:0:
126,357,190193,2,0,P|180:355|235:325,1,107.999996704102,4|0,0:3|0:0,0:0:0:0:
233,18,190517,1,4,0:3:0:0:
147,221,190679,1,0,1:0:0:0:
396,117,190842,1,4,0:3:0:0:
147,221,191004,1,0,1:0:0:0:
353,86,191328,5,4,0:3:0:0:
274,310,191490,1,0,1:0:0:0:
315,11,191652,2,0,P|407:46|496:-25,2,215.999993408203,6|4|4,0:3|0:3|0:3,0:0:0:0:
369,309,192625,5,0,1:0:0:0:
101,259,192787,1,4,0:3:0:0:
311,116,192949,5,0,1:0:0:0:
261,384,193111,1,4,0:3:0:0:
118,174,193274,2,0,P|51:177|86:248,1,161.999995056153,0|0,1:0|0:0,0:0:0:0:
101,259,193598,5,4,0:3:0:0:
131,267,193679,1,4,0:3:0:0:
161,275,193760,1,4,0:3:0:0:
278,171,193922,1,4,0:3:0:0:
308,179,194003,1,4,0:3:0:0:
338,187,194084,1,4,0:3:0:0:
423,320,194247,1,0,1:0:0:0:
423,320,194571,5,4,0:3:0:0:
415,290,194652,1,4,0:3:0:0:
407,260,194733,1,4,0:3:0:0:
278,171,194895,1,4,0:3:0:0:
286,141,194976,1,4,0:3:0:0:
294,111,195057,1,4,0:3:0:0:
423,23,195220,1,0,1:0:0:0:
224,62,195382,1,0,1:0:0:0:
174,205,195544,5,4,0:3:0:0:
152,227,195625,1,4,0:3:0:0:
121,234,195706,1,4,0:3:0:0:
97,54,195868,1,4,0:3:0:0:
97,86,195949,1,4,0:3:0:0:
80,112,196031,1,4,0:3:0:0:
11,280,196193,2,0,L|-17:296,6,22.5,0|0|0|0|0|0|0,1:0|0:0|0:0|0:0|0:0|0:0|0:0,0:0:0:0:
35,299,196517,5,4,0:3:0:0:
64,311,196598,1,4,0:3:0:0:
95,312,196679,1,4,0:3:0:0:
222,371,196841,1,0,1:0:0:0:
253,194,197004,1,4,0:3:0:0:
284,17,197166,1,0,1:0:0:0:
328,25,197247,1,0,1:0:0:0:
372,34,197328,1,0,1:0:0:0:
416,43,197409,1,0,1:0:0:0:
460,52,197490,5,4,0:3:0:0:
483,74,197571,1,4,0:3:0:0:
490,104,197652,1,4,0:3:0:0:
435,227,197814,1,4,0:3:0:0:
442,257,197895,1,4,0:3:0:0:
465,279,197976,1,4,0:3:0:0:
344,159,198139,1,0,1:0:0:0:
344,159,198463,5,4,0:3:0:0:
312,164,198544,1,4,0:3:0:0:
280,169,198625,1,4,0:3:0:0:
164,338,198787,1,4,0:3:0:0:
175,307,198868,1,4,0:3:0:0:
171,275,198949,1,4,0:3:0:0:
70,93,199112,1,0,1:0:0:0:
242,5,199274,1,0,1:0:0:0:
162,213,199436,5,4,0:3:0:0:
159,245,199517,1,4,0:3:0:0:
171,275,199598,1,4,0:3:0:0:
299,358,199760,1,4,0:3:0:0:
331,363,199841,1,4,0:3:0:0:
363,368,199922,1,4,0:3:0:0:
280,169,200085,1,0,1:0:0:0:
89,230,200247,1,0,0:0:0:0:
85,244,200328,1,0,0:0:0:0:
81,258,200409,6,0,L|48:265,6,22.5,4|0|4|0|4|0|4,0:3|0:0|0:3|0:0|0:3|0:0|0:3,0:0:0:0:
56,135,200733,1,0,1:0:0:0:
74,94,200814,1,0,1:0:0:0:
106,62,200895,1,4,0:3:0:0:
147,45,200976,1,4,0:3:0:0:
192,45,201058,1,8,0:3:0:0:
234,60,201139,1,8,0:3:0:0:
279,62,201220,1,0,1:0:0:0:
322,52,201301,1,0,1:0:0:0:
361,29,201382,5,12,0:3:0:0:
300,238,201544,2,0,P|296:290|320:342,1,90,0|4,0:0|0:3,0:0:0:0:
258,128,201868,1,4,0:3:0:0:
431,178,202031,1,0,0:0:0:0:
220,252,202193,1,4,0:3:0:0:
164,93,202355,6,0,L|155:-16,1,90,2|0,1:3|0:0,0:0:0:0:
96,253,202679,2,0,P|98:316|125:350,1,90,6|0,0:3|0:0,0:0:0:0:
380,247,203004,1,2,1:3:0:0:
176,282,203166,1,0,1:0:0:0:
327,122,203328,5,12,0:3:0:0:
319,379,203490,2,0,P|318:337|292:262,1,90,0|4,0:0|0:3,0:0:0:0:
190,155,203814,1,0,1:0:0:0:
325,68,203977,1,0,0:0:0:0:
502,159,204139,1,4,0:3:0:0:
367,246,204301,5,2,1:3:0:0:
409,1,204463,1,0,0:0:0:0:
331,264,204625,5,2,1:3:0:0:
244,30,204787,1,0,0:0:0:0:
121,282,204950,5,2,1:3:0:0:
208,48,205112,1,0,0:0:0:0:
261,357,205274,5,12,0:3:0:0:
157,144,205436,1,0,0:0:0:0:
394,161,205598,1,4,0:3:0:0:
211,258,205760,5,4,0:3:0:0:
315,45,205922,1,0,1:0:0:0:
448,241,206084,1,4,0:3:0:0:
198,78,206247,6,0,P|151:66|106:86,1,90,6|0,0:3|0:0,0:0:0:0:
81,359,206571,1,2,1:3:0:0:
157,144,206733,1,4,0:3:0:0:
225,384,206895,1,2,1:3:0:0:
157,144,207058,1,0,1:0:0:0:
268,290,207220,5,0,1:0:0:0:
297,301,207301,1,0,1:0:0:0:
328,302,207382,1,0,1:0:0:0:
100,207,207544,1,0,1:0:0:0:
69,203,207625,1,0,1:0:0:0:
38,210,207706,1,0,1:0:0:0:
244,121,207868,1,4,0:3:0:0:
132,307,208031,1,2,0:0:0:0:
242,4,208193,5,2,0:0:0:0:
250,48,208274,1,2,0:0:0:0:
269,88,208355,1,2,0:0:0:0:
298,122,208436,1,2,0:0:0:0:
335,148,208517,1,2,0:0:0:0:
319,190,208598,1,2,0:0:0:0:
317,234,208679,2,0,P|315:259|305:283,1,45,2|0,0:0|0:0,0:0:0:0:
291,367,208841,6,0,B|323:291|417:300|417:300|375:300|349:339,1,225.000008583069,4|0,0:0|2:0,0:0:0:0:
