osu file format v14

[General]
AudioFilename: audio.mp3
AudioLeadIn: 0
PreviewTime: 115436
Countdown: 0
SampleSet: Soft
StackLeniency: 0.5
Mode: 0
LetterboxInBreaks: 0
WidescreenStoryboard: 1

[Editor]
Bookmarks: 16518,20410,35978,51547,84624,92410,100194,107978,115761,127437,143004,160517,176085,193598
DistanceSpacing: 0.6
BeatDivisor: 4
GridSize: 4
TimelineZoom: 2.900005

[Metadata]
Title:hypnoSpirA
TitleUnicode:hypnoSpirA
Artist:Powerless feat. kakichoco
ArtistUnicode:Powerless feat. kakichoco
Creator:Chaos
Version:Expert
Source:
Tags:MuryokuP 柿チョコ 無力P Kakiless Odyssey C90 Comiket japanese rock cover vocaloid utaite jrock j-rock
BeatmapID:2168358
BeatmapSetID:847415

[Difficulty]
HPDrainRate:5
CircleSize:4
OverallDifficulty:8.5
ApproachRate:9.2
SliderMultiplier:1.7
SliderTickRate:1

[Events]
//Background and Video events
0,0,"bg.jpg",0,0
//Break Periods
2,36177,43338
2,84825,91825
2,143204,157028
//Storyboard Layer 0 (Background)
//Storyboard Layer 1 (Fail)
//Storyboard Layer 2 (Pass)
//Storyboard Layer 3 (Foreground)
//Storyboard Layer 4 (Overlay)
//Storyboard Sound Samples

[TimingPoints]
950,324.324324324324,3,2,3,70,1,0
19436,-100,3,2,1,60,0,0
20409,-125,3,2,3,50,0,0
35977,-200,3,2,3,50,0,0
43922,-200,3,2,3,35,0,0
47004,-100,3,2,3,41,0,0
47328,-100,3,2,3,47,0,0
47652,-133.333333333333,3,2,3,53,0,0
48949,-100,3,2,3,59,0,0
49274,-100,3,2,3,65,0,0
49598,-100,3,2,3,70,0,0
51544,-86.9565217391304,3,2,2,70,0,1
84625,-100,3,3,1,60,0,0
92409,-100,3,2,2,50,0,0
93382,-100,3,2,2,50,0,0
99220,-50,3,2,1,70,0,0
99544,-50,3,2,1,70,0,0
99868,-66.6666666666667,3,2,1,70,0,0
100193,-100,3,2,1,70,0,0
100841,-76.9230769230769,3,2,1,70,0,0
101814,-100,3,2,1,70,0,0
102787,-76.9230769230769,3,2,1,70,0,0
103436,-100,3,2,1,70,0,0
114787,-100,3,2,3,70,0,0
115760,-100,3,2,0,100,0,0
117382,-100,3,2,0,70,0,0
127436,-86.9565217391304,3,2,3,70,0,0
142031,-86.9565217391304,3,2,1,70,0,0
157598,-100,3,2,1,30,0,0
157922,-100,3,2,1,35,0,0
158247,-100,3,2,1,40,0,0
158571,-100,3,2,1,45,0,0
158895,-100,3,2,1,50,0,0
159220,-100,3,2,1,55,0,0
159544,-100,3,2,1,60,0,0
159868,-100,3,2,1,65,0,0
160193,-100,3,2,1,70,0,0
160517,-83.3333333333333,3,2,2,70,0,1
193598,-100,3,2,2,70,0,0
201382,-100,3,2,3,70,0,0
208841,-62.5,3,2,1,70,0,0
209085,-80,3,2,1,5,0,0

[Colours]
Combo1 : 81,115,123
Combo2 : 159,255,255
Combo3 : 233,198,253
Combo4 : 133,235,151

[HitObjects]
328,319,950,5,12,0:3:0:0:
328,319,1112,2,0,P|329:279|350:224,1,85,4|0,0:3|0:0,0:0:0:0:
447,108,1436,1,4,0:3:0:0:
333,164,1598,1,0,1:0:0:0:
226,92,1760,1,6,0:3:0:0:
232,112,1841,1,2,0:0:0:0:
238,132,1922,5,6,0:3:0:0:
179,245,2085,1,4,0:3:0:0:
123,110,2247,1,0,1:0:0:0:
161,231,2410,1,4,0:3:0:0:
26,175,2571,1,0,1:0:0:0:
138,234,2733,1,4,0:3:0:0:
37,369,2895,5,12,0:3:0:0:
37,369,3058,2,0,L|51:276,1,85,4|0,0:3|0:0,0:0:0:0:
3,129,3382,1,4,0:3:0:0:
122,85,3544,1,0,1:0:0:0:
236,138,3706,1,6,0:3:0:0:
247,155,3787,1,2,0:0:0:0:
254,174,3868,2,0,L|240:267,1,85,2|4,0:0|0:3,0:0:0:0:
156,356,4193,2,0,P|117:371|57:360,1,85,0|4,1:0|0:3,0:0:0:0:
126,164,4517,1,0,1:0:0:0:
105,292,4679,1,4,0:3:0:0:
65,104,4841,5,12,0:3:0:0:
199,211,5004,2,0,P|241:212|286:191,1,85,4|0,0:3|0:0,0:0:0:0:
397,53,5328,1,4,0:3:0:0:
284,113,5490,1,0,1:0:0:0:
392,180,5652,1,4,0:3:0:0:
268,15,5814,2,0,P|228:0|179:4,1,85,4|0,0:3|0:0,0:0:0:0:
45,122,6139,2,0,L|58:30,1,85,4|4,0:3|0:3,0:0:0:0:
146,229,6463,1,0,1:0:0:0:
163,102,6625,1,4,0:3:0:0:
55,272,6787,6,0,P|54:303|68:338,2,42.5,4|4|4,0:3|0:3|0:3,0:0:0:0:
162,363,7112,2,0,P|188:379|225:384,2,42.5,4|4|4,0:3|0:3|0:3,0:0:0:0:
337,261,7436,1,4,1:3:0:0:
216,306,7598,1,0,0:0:0:0:
398,367,7760,1,4,0:3:0:0:
398,367,7841,1,4,0:3:0:0:
398,367,7922,1,4,0:3:0:0:
360,179,8085,1,0,1:0:0:0:
473,120,8247,1,4,0:3:0:0:
436,288,8409,2,0,P|406:308|347:311,1,85,0|4,1:0|0:3,0:0:0:0:
209,243,8733,5,12,0:3:0:0:
209,243,8895,2,0,L|224:154,1,85,4|0,0:3|0:0,0:0:0:0:
307,11,9220,1,4,0:3:0:0:
192,67,9382,1,0,1:0:0:0:
71,25,9544,1,6,0:3:0:0:
49,22,9625,1,2,0:0:0:0:
27,19,9706,6,0,P|-2:51|-9:102,1,85,6|4,0:3|0:3,0:0:0:0:
53,250,10031,1,0,1:0:0:0:
80,125,10193,1,4,0:3:0:0:
176,242,10355,1,0,1:0:0:0:
106,134,10517,1,4,0:3:0:0:
75,346,10679,5,12,0:3:0:0:
75,346,10841,2,0,P|111:325|160:318,1,85,4|0,0:3|0:0,0:0:0:0:
319,365,11166,1,4,0:3:0:0:
273,246,11328,1,0,1:0:0:0:
352,146,11490,1,6,0:3:0:0:
362,164,11571,1,2,0:0:0:0:
376,179,11652,2,0,P|430:175|472:149,1,85,2|4,0:0|0:3,0:0:0:0:
368,0,11977,2,0,L|270:-12,1,85,0|4,1:0|0:3,0:0:0:0:
177,145,12301,1,0,1:0:0:0:
281,71,12463,1,4,0:3:0:0:
91,91,12625,5,12,0:3:0:0:
91,91,12787,2,0,P|76:135|82:180,1,85,4|0,0:3|0:0,0:0:0:0:
173,317,13112,1,4,0:3:0:0:
59,260,13274,1,0,1:0:0:0:
220,208,13436,1,6,0:3:0:0:
238,190,13517,1,2,0:0:0:0:
249,167,13598,6,0,L|263:66,1,85,6|0,0:3|0:0,0:0:0:0:
319,246,13922,1,4,0:3:0:0:
441,282,14085,1,4,0:3:0:0:
334,221,14247,1,0,1:0:0:0:
445,160,14410,1,4,0:3:0:0:
364,13,14571,5,4,0:3:0:0:
364,13,14652,1,4,0:3:0:0:
364,13,14733,1,4,0:3:0:0:
203,67,14895,1,4,0:3:0:0:
203,67,14976,1,4,0:3:0:0:
203,67,15057,1,4,0:3:0:0:
43,4,15220,2,0,P|69:38|68:95,1,85,0|0,1:3|0:0,0:0:0:0:
36,241,15544,5,4,0:3:0:0:
36,241,15625,1,4,0:3:0:0:
36,241,15706,1,4,0:3:0:0:
194,180,15868,1,0,1:0:0:0:
171,306,16031,1,4,0:3:0:0:
329,245,16193,5,2,0:0:0:0:
362,245,16274,1,2,0:0:0:0:
394,258,16355,1,2,0:0:0:0:
411,228,16436,1,2,0:0:0:0:
437,208,16517,1,8,0:3:0:0:
437,208,18463,5,4,0:0:0:0:
329,245,19436,5,4,0:3:0:0:
329,245,19598,1,4,0:3:0:0:
232,384,19760,1,0,1:0:0:0:
195,201,19922,2,0,P|175:188|141:183,2,42.5,8|8|0,0:3|0:3|1:0,0:0:0:0:
145,272,20409,5,4,0:3:0:0:
145,272,20571,1,4,0:3:0:0:
273,319,20733,2,0,P|304:319|352:292,1,68,0|0,0:0|0:0,0:0:0:0:
448,224,21058,2,0,L|376:211,1,68,0|0,0:0|0:0,0:0:0:0:
280,225,21382,2,0,P|290:159|247:85,2,136,0|0|0,1:0|0:0|1:0,0:0:0:0:
128,133,22355,5,4,0:3:0:0:
128,133,22517,2,0,P|99:120|59:121,1,68,4|0,0:3|0:0,0:0:0:0:
0,261,22841,1,4,0:3:0:0:
0,261,23004,2,0,L|72:248,1,68,0|0,1:0|0:0,0:0:0:0:
189,205,23328,2,0,P|265:212|310:250,1,136,0|0,1:0|0:0,0:0:0:0:
324,80,23977,1,0,1:0:0:0:
324,80,24139,1,0,1:0:0:0:
156,120,24301,5,4,1:3:0:0:
156,120,24463,2,0,P|179:72|145:-15,1,136,4|0,0:3|0:0,0:0:0:0:
25,157,25112,1,4,0:3:0:0:
25,157,25274,2,0,P|69:172|112:167,1,68,0|0,1:0|0:0,0:0:0:0:
205,104,25598,2,0,L|189:193,1,68
121,325,25922,2,0,L|137:236,1,68,0|0,1:0|0:0,0:0:0:0:
235,257,26247,5,4,0:3:0:0:
235,257,26409,2,0,P|269:259|301:272,1,68,4|0,0:3|0:0,0:0:0:0:
384,330,26733,2,0,L|460:309,2,68,4|0|0,0:3|1:0|0:0,0:0:0:0:
249,352,27220,2,0,P|215:350|183:337,1,68,0|0,1:0|0:0,0:0:0:0:
82,342,27544,2,0,P|66:311|62:278,1,68,0|0,1:0|0:0,0:0:0:0:
7,192,27868,1,0,1:0:0:0:
107,210,28031,1,0,1:0:0:0:
190,152,28193,5,4,0:3:0:0:
190,152,28355,1,4,0:3:0:0:
228,57,28517,2,0,P|283:30|370:52,1,136,0|0,0:0|0:0,0:0:0:0:
429,155,29166,2,0,L|410:297,2,136,0|0|0,1:0|0:0|1:0,0:0:0:0:
327,246,30139,6,0,P|281:285|205:273,1,136,4|0,0:3|0:0,0:0:0:0:
84,222,30625,2,0,P|123:167|114:83,1,136,4|0,0:3|0:0,0:0:0:0:
73,10,31112,2,0,L|152:25,1,68,0|0,1:0|0:0,0:0:0:0:
308,45,31436,2,0,L|229:60,1,68,0|0,1:0|0:0,0:0:0:0:
159,166,31760,1,0,1:0:0:0:
159,166,31922,1,0,1:0:0:0:
250,267,32085,5,4,0:3:0:0:
250,267,32247,2,0,P|295:258|326:237,1,68,4|0,0:3|0:0,0:0:0:0:
432,180,32571,2,0,P|398:241|407:323,1,136,4|4,0:3|0:3,0:0:0:0:
471,378,33058,1,0,1:0:0:0:
315,309,33220,1,4,0:3:0:0:
315,309,33382,2,0,P|248:305|190:349,1,136,0|0,0:0|1:0,0:0:0:0:
14,247,34031,5,4,0:3:0:0:
14,247,34193,2,0,P|64:258|94:250,1,68,4|0,0:3|0:0,0:0:0:0:
178,228,34517,1,4,0:3:0:0:
178,228,34679,2,0,L|189:152,1,68,0|0,1:0|0:0,0:0:0:0:
246,76,35004,6,0,P|296:87|326:79,1,68,0|0,1:0|0:0,0:0:0:0:
447,186,35328,2,0,P|397:175|367:183,1,68,0|0,1:0|0:0,0:0:0:0:
260,274,35652,1,0,1:0:0:0:
308,159,35814,1,0,1:0:0:0:
361,351,35977,1,4,0:0:0:0:
117,206,43922,6,0,L|203:186,1,85,2|2,0:0|0:0,0:0:0:0:
301,154,44409,2,0,L|288:196,1,42.5,2|2,0:0|0:0,0:0:0:0:
302,234,44733,2,0,L|314:276,1,42.5,2|0,0:0|0:0,0:0:0:0:
303,314,45058,2,0,P|347:334|387:327,1,85,2|0,0:0|0:0,0:0:0:0:
465,197,45868,6,0,L|446:104,1,85,2|2,0:0|0:0,0:0:0:0:
364,47,46355,2,0,L|317:56,1,42.5,2|2,0:0|0:0,0:0:0:0:
295,88,46679,2,0,P|291:133|314:185,2,85,2|2|2,0:0|0:0|0:0,0:0:0:0:
216,10,47652,6,0,L|80:-7,1,127.500004863739,2|0,0:0|0:0,0:0:0:0:
173,89,48139,1,2,0:0:0:0:
173,89,48301,2,0,P|186:128|178:166,1,63.7500024318696,2|2,0:0|0:0,0:0:0:0:
144,253,48625,2,0,P|201:224|269:243,2,127.500004863739,2|2|2,0:0|0:0|0:0,0:0:0:0:
291,150,49598,5,4,0:3:0:0:
291,150,49760,2,0,P|333:165|393:151,1,85,4|0,0:3|0:0,0:0:0:0:
489,97,50085,2,0,L|510:5,2,85,0|4|0,1:0|2:3|1:0,0:0:0:0:
431,220,50571,1,4,0:3:0:0:
467,384,50733,1,4,0:3:0:0:
310,273,50895,5,2,0:0:0:0:
278,275,50977,1,2,0:0:0:0:
271,302,51058,1,2,0:0:0:0:
296,320,51139,1,2,0:0:0:0:
319,301,51220,2,0,L|340:209,1,85,0|0,1:0|0:0,0:0:0:0:
408,88,51544,6,0,P|356:104|231:31,1,195.500003728867,6|0,0:3|0:0,0:0:0:0:
94,163,52031,2,0,P|174:142|208:148,1,97.7500018644333,4|0,0:3|1:0,0:0:0:0:
321,204,52355,1,4,0:3:0:0:
236,358,52517,2,0,L|217:245,1,97.7500018644333,4|4,0:3|0:3,0:0:0:0:
66,187,52841,2,0,P|87:107|110:80,1,97.7500018644333,0|4,1:0|0:3,0:0:0:0:
216,24,53166,1,0,1:0:0:0:
149,164,53328,1,4,0:3:0:0:
243,290,53490,6,0,P|350:309|429:249,1,195.500003728867,6|0,0:3|0:0,0:0:0:0:
506,129,53977,2,0,L|401:104,1,97.7500018644333,4|0,0:3|1:0,0:0:0:0:
241,209,54301,1,4,0:3:0:0:
452,192,54463,2,0,P|492:236|492:292,1,97.7500018644333,0|4,0:0|0:3,0:0:0:0:
392,374,54787,2,0,P|333:386|285:358,1,97.7500018644333,0|4,1:0|0:3,0:0:0:0:
209,189,55112,1,0,1:0:0:0:
179,357,55274,1,4,0:3:0:0:
92,187,55436,6,0,B|77:132|77:132|91:91|91:91|66:-1,1,195.500003728867,6|0,0:3|0:0,0:0:0:0:
227,163,56085,1,0,1:0:0:0:
365,89,56247,1,4,0:3:0:0:
299,272,56409,2,0,P|305:330|344:364,1,97.7500018644333,4|0,0:3|0:0,0:0:0:0:
417,204,56733,2,0,L|391:108,1,97.7500018644333,4|0,3:0|0:0,0:0:0:0:
317,0,57058,1,0,1:0:0:0:
474,105,57220,1,4,0:3:0:0:
263,168,57382,6,0,P|214:160|168:125,1,97.7500018644333,6|4,0:3|0:3,0:0:0:0:
13,55,57706,2,0,L|127:25,1,97.7500018644333,0|4,1:0|0:3,0:0:0:0:
245,85,58031,1,0,1:0:0:0:
171,286,58193,1,4,0:3:0:0:
80,146,58355,2,0,P|72:92|98:41,1,97.7500018644333,6|4,0:3|0:3,0:0:0:0:
190,262,58679,2,0,P|198:316|172:367,1,97.7500018644333,0|4,1:0|0:3,0:0:0:0:
309,203,59004,1,0,1:0:0:0:
116,303,59166,1,4,0:3:0:0:
280,354,59328,6,0,B|314:355|335:365|335:365|375:338|375:338|418:366|474:356,1,195.500003728867,6|0,0:3|0:0,0:0:0:0:
398,215,59814,2,0,P|382:169|400:109,1,97.7500018644333,4|0,0:3|1:0,0:0:0:0:
498,14,60139,1,4,0:3:0:0:
320,48,60301,2,0,L|223:30,1,97.7500018644333,4|4,0:3|0:3,0:0:0:0:
294,186,60625,2,0,P|310:232|292:292,1,97.7500018644333,0|4,1:0|0:3,0:0:0:0:
96,335,60949,1,0,1:0:0:0:
197,145,61112,1,4,0:3:0:0:
213,336,61274,6,0,P|166:290|176:168,1,195.500003728867,6|0,0:3|0:0,0:0:0:0:
307,104,61760,2,0,L|404:122,1,97.7500018644333,4|0,0:3|1:0,0:0:0:0:
251,0,62085,1,0,0:0:0:0:
366,211,62247,2,0,P|366:273|336:313,1,97.7500018644333,0|4,0:0|0:3,0:0:0:0:
181,223,62571,2,0,L|278:241,1,97.7500018644333,0|4,1:0|0:3,0:0:0:0:
92,252,62895,2,0,P|92:190|122:150,1,97.7500018644333,0|4,1:0|0:3,0:0:0:0:
264,82,63220,6,0,B|230:78|198:59|198:59|142:74|142:74|111:54|77:51,1,195.500003728867,6|0,0:3|0:0,0:0:0:0:
197,196,63706,2,0,B|230:192|262:173|262:173|318:188|318:188|349:168|383:165,1,195.500003728867,4|4,0:3|0:3,0:0:0:0:
462,18,64193,2,0,P|420:28|371:86,1,97.7500018644333,4|0,0:3|0:0,0:0:0:0:
381,259,64517,2,0,P|393:217|367:146,1,97.7500018644333,4|4,0:3|0:3,0:0:0:0:
212,68,64841,2,0,P|241:99|316:112,1,97.7500018644333,0|4,1:0|0:3,0:0:0:0:
458,108,65166,5,4,0:3:0:0:
458,108,65247,1,4,0:3:0:0:
458,108,65328,1,4,0:3:0:0:
343,9,65490,1,4,0:3:0:0:
343,9,65571,1,4,0:3:0:0:
343,9,65652,1,4,0:3:0:0:
124,108,65814,2,0,P|209:86|282:147,1,146.62500279665,0|0,1:0|0:0,0:0:0:0:
274,147,66139,6,0,L|262:198,2,48.8750009322167,4|4|4,0:3|0:3|0:3,0:0:0:0:
303,289,66463,1,4,0:3:0:0:
303,289,66544,1,4,0:3:0:0:
303,289,66625,1,4,0:3:0:0:
152,359,66787,1,2,0:0:0:0:
127,384,66869,1,2,0:0:0:0:
96,372,66950,1,2,0:0:0:0:
97,338,67031,1,2,0:0:0:0:
130,329,67112,6,0,P|186:319|226:346,2,97.7500018644333,6|0|0,3:0|0:0|1:0,0:0:0:0:
257,211,67598,2,0,P|277:167|266:121,1,97.7500018644333,4|0,3:0|0:0,0:0:0:0:
398,171,67922,1,4,0:3:0:0:
349,332,68085,2,0,P|384:371|519:340,1,195.500003728867,0|0,1:0|0:0,0:0:0:0:
455,54,68733,1,0,1:0:0:0:
423,222,68895,1,4,0:3:0:0:
275,148,69058,6,0,P|228:144|185:170,1,97.7500018644333,6|4,0:3|0:3,0:0:0:0:
126,324,69382,1,0,1:0:0:0:
91,146,69544,2,0,L|109:43,2,97.7500018644333,4|0|4,3:0|0:0|3:0,0:0:0:0:
209,270,70031,2,0,B|301:310|309:214|401:254,1,195.500003728867,0|0,1:0|0:0,0:0:0:0:
291,21,70679,1,0,1:0:0:0:
194,195,70841,1,0,1:0:0:0:
194,195,70922,1,0,1:0:0:0:
194,195,71004,6,0,B|144:149|62:152|3:199|3:199|45:152|98:134,1,293.2500055933,6|4,0:3|0:3,0:0:0:0:
210,99,71652,1,0,0:0:0:0:
178,293,71814,1,4,0:3:0:0:
321,198,71977,2,0,P|353:111|298:35,2,195.500003728867,0|4|0,1:0|0:3|1:0,0:0:0:0:
214,367,72949,6,0,L|200:264,1,97.7500018644333,6|4,0:3|0:3,0:0:0:0:
65,173,73274,2,0,P|115:199|180:179,1,97.7500018644333,0|4,1:0|0:3,0:0:0:0:
276,123,73598,1,0,1:0:0:0:
125,119,73760,1,4,0:3:0:0:
294,234,73922,2,0,L|398:210,1,97.7500018644333,6|4,0:3|0:3,0:0:0:0:
512,99,74247,2,0,P|468:125|409:117,1,97.7500018644333,0|4,1:0|0:3,0:0:0:0:
254,24,74571,1,0,1:0:0:0:
336,149,74733,1,0,1:0:0:0:
263,352,74895,6,0,P|253:294|287:231,1,97.7500018644333,6|4,0:3|0:3,0:0:0:0:
354,138,75220,1,0,1:0:0:0:
168,226,75382,2,0,L|54:202,1,97.7500018644333,4|0,0:3|0:0,0:0:0:0:
20,59,75706,1,4,0:3:0:0:
184,140,75868,2,0,P|263:131|301:101,1,97.7500018644333,0|4,1:0|0:3,0:0:0:0:
404,16,76193,2,0,L|379:128,1,97.7500018644333,0|4,0:0|0:3,0:0:0:0:
430,296,76517,1,0,1:0:0:0:
306,216,76679,1,4,0:3:0:0:
173,283,76841,6,0,P|209:346|325:321,1,195.500003728867,6|0,0:3|1:0,0:0:0:0:
416,186,77328,2,0,L|391:74,1,97.7500018644333,4|0,0:3|0:0,0:0:0:0:
240,19,77652,1,4,0:3:0:0:
366,61,77814,2,0,P|431:50|476:14,1,97.7500018644333,0|4,1:0|0:3,0:0:0:0:
285,150,78139,2,0,P|262:211|270:268,1,97.7500018644333,0|4,1:0|0:3,0:0:0:0:
333,372,78463,1,0,1:0:0:0:
148,302,78625,1,4,0:3:0:0:
355,216,78787,5,6,0:3:0:0:
355,216,78949,2,0,L|370:119,1,97.7500018644333,4|0,0:3|0:0,0:0:0:0:
196,10,79274,1,4,0:3:0:0:
196,10,79436,2,0,L|211:107,1,97.7500018644333,0|4,1:0|0:3,0:0:0:0:
259,269,79760,2,0,P|225:243|169:235,1,97.7500018644333,4|0,0:3|0:0,0:0:0:0:
336,182,80085,2,0,P|375:165|410:121,1,97.7500018644333,4|4,0:3|0:3,0:0:0:0:
372,292,80409,2,0,P|366:334|387:386,1,97.7500018644333,0|4,1:0|0:3,0:0:0:0:
491,192,80733,5,6,0:3:0:0:
233,116,81220,1,4,0:3:0:0:
491,192,81544,1,4,0:3:0:0:
363,303,81706,1,0,1:0:0:0:
344,89,81869,1,4,0:3:0:0:
363,303,82031,1,0,1:0:0:0:
116,236,82355,1,4,0:3:0:0:
304,165,82517,1,0,1:0:0:0:
197,357,82679,6,0,B|212:228|212:228|191:161,2,195.500003728867,6|4|4,0:3|0:3|0:3,0:0:0:0:
51,254,83652,1,0,1:0:0:0:
246,207,83814,1,4,0:3:0:0:
186,52,83977,1,0,1:0:0:0:
165,257,84139,1,4,0:3:0:0:
281,111,84301,2,0,P|341:106|385:222,1,195.500003728867,0|4,1:0|0:3,0:0:0:0:
44,95,92409,6,0,P|115:147|203:125,1,170,6|0,0:3|0:0,0:0:0:0:
303,46,92895,2,0,L|290:93,3,42.5
263,267,93382,6,0,L|288:363,1,85,4|0,0:0|0:0,0:0:0:0:
137,206,93706,1,0,0:0:0:0:
211,42,94031,1,0,0:0:0:0:
280,249,94355,6,0,P|343:289|435:260,1,170,4|0,0:3|0:0,0:0:0:0:
483,142,94841,2,0,L|464:99,3,42.5
301,40,95328,6,0,L|208:62,1,85,4|0,0:0|0:0,0:0:0:0:
69,205,95652,1,0,0:0:0:0:
89,200,95733,1,0,0:0:0:0:
110,10,95977,1,0,0:0:0:0:
180,242,96301,1,4,0:3:0:0:
256,192,96382,12,0,98895,0:0:0:0:
318,136,99220,6,2,B|335:154|335:154|343:191,6,42.5,0|0|0|0|0|0|0,0:0|0:0|0:0|0:0|0:0|0:0|0:0,0:0:0:0:
227,73,99544,6,2,L|245:28,6,42.5,2|2|2|2|2|2|2,0:3|0:3|0:3|0:3|0:3|0:3|0:3,0:0:0:0:
199,195,99868,6,0,B|177:189|149:202|149:202|120:182|120:182|90:217|47:219|9:187,1,191.250007295609,2|0,0:1|0:0,0:0:0:0:
15,81,100193,5,4,0:3:0:0:
15,81,100274,1,4,0:3:0:0:
15,81,100355,1,4,0:3:0:0:
154,12,100517,1,4,0:3:0:0:
154,12,100598,1,4,0:3:0:0:
154,12,100679,1,4,0:3:0:0:
134,191,100841,2,0,B|150:227|150:227|149:263|149:263|166:299,1,110.499994941712,0|0,1:0|0:0,0:0:0:0:
301,357,101166,5,4,0:3:0:0:
301,357,101247,1,4,0:3:0:0:
301,357,101328,1,4,0:3:0:0:
433,274,101490,1,4,0:3:0:0:
433,274,101571,1,4,0:3:0:0:
433,274,101652,1,4,0:3:0:0:
286,145,101814,1,0,1:0:0:0:
407,77,101977,1,0,1:0:0:0:
344,285,102139,5,4,0:3:0:0:
344,285,102220,1,4,0:3:0:0:
344,285,102301,1,4,0:3:0:0:
195,238,102463,1,4,0:3:0:0:
195,238,102544,1,4,0:3:0:0:
195,238,102625,1,4,0:3:0:0:
312,103,102787,2,0,B|353:113|353:113|375:133|375:133|416:145,1,110.499994941712,0|0,1:0|0:0,0:0:0:0:
475,24,103112,5,4,0:3:0:0:
475,24,103193,1,4,0:3:0:0:
475,24,103274,1,4,0:3:0:0:
405,178,103436,2,0,P|411:221|442:266,1,85,0|0,1:0|0:0,0:0:0:0:
298,186,103760,1,8,0:3:0:0:
266,179,103841,1,8,0:3:0:0:
235,172,103922,1,8,0:3:0:0:
204,165,104003,1,8,0:3:0:0:
180,166,104085,5,4,0:3:0:0:
180,166,104166,1,4,0:3:0:0:
180,166,104247,1,4,0:3:0:0:
240,37,104409,1,4,0:3:0:0:
240,37,104490,1,4,0:3:0:0:
240,37,104571,1,4,0:3:0:0:
63,98,104733,1,0,1:0:0:0:
88,302,105058,5,4,0:3:0:0:
88,302,105139,1,4,0:3:0:0:
88,302,105220,1,4,0:3:0:0:
173,181,105382,1,4,0:3:0:0:
173,181,105463,1,4,0:3:0:0:
173,181,105544,1,4,0:3:0:0:
217,384,105706,1,0,1:0:0:0:
371,263,105868,1,0,1:0:0:0:
219,250,106031,5,4,0:3:0:0:
219,250,106112,1,4,0:3:0:0:
219,250,106193,1,4,0:3:0:0:
269,112,106355,1,4,0:3:0:0:
269,112,106436,1,4,0:3:0:0:
269,112,106517,1,4,0:3:0:0:
347,298,106679,1,2,1:2:0:0:
374,331,106760,1,2,0:0:0:0:
413,317,106841,1,2,0:0:0:0:
411,274,106922,1,2,0:0:0:0:
371,263,107004,5,4,0:3:0:0:
371,263,107085,1,4,0:3:0:0:
371,263,107166,1,4,0:3:0:0:
416,65,107328,1,0,1:0:0:0:
464,216,107490,1,4,0:3:0:0:
288,165,107652,1,0,1:0:0:0:
256,171,107733,1,0,1:0:0:0:
225,177,107814,1,0,1:0:0:0:
196,165,107895,1,0,1:0:0:0:
167,151,107977,6,0,P|196:217|178:315,1,170,4|4,1:0|0:3,0:0:0:0:
64,190,108463,2,0,L|83:99,1,85,4|0,0:3|0:0,0:0:0:0:
210,32,108787,1,4,0:3:0:0:
339,107,108949,2,0,P|381:119|450:103,1,85,0|0,1:0|0:0,0:0:0:0:
220,197,109274,2,0,P|208:238|224:308,1,85,4|0,0:3|0:0,0:0:0:0:
381,342,109598,1,0,1:0:0:0:
201,384,109760,1,0,1:0:0:0:
342,266,109922,5,4,0:3:0:0:
293,134,110085,2,0,L|312:43,1,85,0|4,0:0|0:3,0:0:0:0:
378,182,110409,1,0,1:0:0:0:
204,92,110571,1,0,0:0:0:0:
222,218,110733,1,4,0:3:0:0:
48,128,110896,5,0,1:0:0:0:
19,113,111058,1,0,0:0:0:0:
108,246,111220,5,0,1:0:0:0:
80,263,111382,1,0,0:0:0:0:
240,253,111544,5,0,1:0:0:0:
240,285,111706,1,0,0:0:0:0:
201,114,111868,5,4,0:3:0:0:
348,199,112031,1,0,0:0:0:0:
417,92,112193,1,4,0:3:0:0:
323,194,112355,5,4,0:3:0:0:
176,109,112518,1,0,1:0:0:0:
107,216,112680,1,4,0:3:0:0:
58,54,112841,6,0,P|26:34|-22:31,1,85,4|0,0:3|0:0,0:0:0:0:
0,210,113166,2,0,P|32:230|80:233,1,85,0|4,1:0|0:3,0:0:0:0:
212,128,113490,1,0,1:0:0:0:
180,324,113652,1,4,0:3:0:0:
127,99,113814,5,0,1:0:0:0:
231,245,113977,1,4,0:3:0:0:
231,245,114139,1,4,0:3:0:0:
324,76,114301,5,0,1:0:0:0:
249,238,114464,1,4,0:3:0:0:
249,238,114626,1,4,0:3:0:0:
444,232,114787,5,2,1:2:0:0:
428,264,114868,1,2,0:0:0:0:
404,288,114950,1,6,0:3:0:0:
376,304,115031,1,2,0:0:0:0:
344,312,115112,1,2,1:2:0:0:
312,308,115193,1,2,0:0:0:0:
280,300,115274,1,6,0:3:0:0:
248,288,115355,1,6,0:3:0:0:
216,284,115436,1,2,1:3:0:0:
184,288,115517,1,2,0:0:0:0:
152,300,115598,1,2,1:2:0:0:
124,320,115679,1,2,0:0:0:0:
104,336,115760,5,4,0:0:0:0:
58,138,117382,5,4,0:3:0:0:
81,237,117544,1,4,0:3:0:0:
104,336,117706,1,4,0:3:0:0:
256,35,118679,1,0,1:0:0:0:
280,245,119004,5,8,0:3:0:0:
366,191,119166,1,8,0:3:0:0:
454,138,119328,1,4,0:3:0:0:
431,237,119490,1,4,0:3:0:0:
408,336,119652,1,4,0:3:0:0:
454,138,121274,5,4,0:3:0:0:
431,237,121436,1,4,0:3:0:0:
408,336,121598,1,4,0:3:0:0:
256,35,122571,1,0,1:0:0:0:
256,349,122895,1,0,1:0:0:0:
58,138,123220,5,4,0:3:0:0:
81,237,123382,1,4,0:3:0:0:
104,336,123544,1,4,0:3:0:0:
58,138,125166,5,4,0:3:0:0:
81,237,125328,1,4,0:3:0:0:
104,336,125490,1,4,0:3:0:0:
256,35,126463,1,0,1:0:0:0:
454,138,126787,5,8,0:3:0:0:
431,237,126949,1,8,0:3:0:0:
408,336,127112,2,0,P|379:335|360:330,3,42.5,10|2|2|2,0:3|0:0|0:0|0:0,0:0:0:0:
322,304,127436,6,0,P|296:274|292:209,1,97.7500018644333,6|4,0:3|0:3,0:0:0:0:
428,99,127760,2,0,P|415:136|360:172,1,97.7500018644333,2|4,0:0|0:3,0:0:0:0:
198,110,128085,2,0,P|236:102|295:131,1,97.7500018644333,2|4,0:0|0:3,0:0:0:0:
322,304,128409,6,0,L|226:283,1,97.7500018644333,2|4,1:2|0:3,0:0:0:0:
60,211,128733,2,0,L|156:190,1,97.7500018644333,2|4,0:0|0:3,0:0:0:0:
322,118,129058,1,2,1:2:0:0:
253,187,129220,1,2,0:0:0:0:
130,61,129382,5,6,0:3:0:0:
248,33,129544,1,6,0:3:0:0:
394,161,129706,5,2,0:0:0:0:
276,133,129868,1,6,0:3:0:0:
130,261,130031,5,2,0:0:0:0:
248,233,130193,1,6,0:3:0:0:
394,361,130355,6,0,B|425:370|425:370|462:359,2,65.1666679096222,2|2|2,1:2|0:0|0:0,0:0:0:0:
283,314,130679,2,0,B|252:305|252:305|215:316,2,65.1666679096222,2|2|2,1:2|0:0|0:0,0:0:0:0:
379,241,131004,1,2,1:2:0:0:
401,217,131112,1,2,0:0:0:0:
401,184,131220,1,2,0:0:0:0:
386,154,131328,5,6,0:3:0:0:
288,43,131490,1,6,0:3:0:0:
288,43,131652,2,0,P|302:93|282:143,1,97.7500018644333,2|6,0:0|0:3,0:0:0:0:
189,241,131977,1,2,0:0:0:0:
117,85,132139,1,6,0:3:0:0:
0,238,132301,5,2,1:2:0:0:
123,158,132463,1,6,0:3:0:0:
110,318,132625,5,2,1:2:0:0:
140,174,132787,1,6,0:3:0:0:
244,296,132949,5,2,1:2:0:0:
163,173,133112,2,0,L|189:65,1,97.7500018644333,2|4,0:0|0:3,0:0:0:0:
281,0,133436,5,6,0:3:0:0:
327,192,133598,1,2,1:2:0:0:
424,51,133760,1,6,0:3:0:0:
244,142,133922,1,2,1:2:0:0:
422,178,134085,1,2,0:0:0:0:
301,314,134247,5,6,0:3:0:0:
266,121,134409,1,6,0:3:0:0:
102,212,134571,5,2,1:2:0:0:
251,85,134733,1,2,1:2:0:0:
188,290,134895,5,6,0:3:0:0:
254,105,135057,1,2,1:2:0:0:
361,237,135220,6,0,B|444:192|444:192|512:207,2,146.62500279665,6|2|2,0:3|0:0|0:0,0:0:0:0:
386,79,135868,1,6,0:3:0:0:
252,45,136193,6,0,B|335:90|335:90|403:75,2,146.62500279665,6|2|2,0:3|0:0|0:0,0:0:0:0:
277,203,136841,1,6,0:3:0:0:
168,78,137004,1,0,1:0:0:0:
143,236,137166,6,0,B|226:191|226:191|294:206,2,146.62500279665,6|2|2,0:3|0:0|0:0,0:0:0:0:
168,78,137814,1,6,0:3:0:0:
298,121,137977,1,2,0:0:0:0:
420,59,138139,6,0,B|426:27|426:27|415:-6,2,65.1666679096222,6|2|2,0:3|0:0|0:0,0:0:0:0:
454,165,138463,2,0,B|464:195|464:195|490:218,2,65.1666679096222,2|2|2,1:2|0:0|0:0,0:0:0:0:
350,126,138787,1,6,0:3:0:0:
318,131,138896,1,2,0:0:0:0:
291,149,139004,1,2,0:0:0:0:
274,177,139112,6,0,B|255:275|255:275|270:336,2,146.62500279665,6|2|6,0:3|0:0|0:3,0:0:0:0:
349,51,139760,1,2,1:2:0:0:
399,215,139922,1,2,0:0:0:0:
230,74,140085,5,6,0:3:0:0:
180,238,140247,1,6,0:3:0:0:
114,113,140409,1,2,1:2:0:0:
195,226,140571,5,6,0:3:0:0:
317,151,140733,1,2,1:2:0:0:
410,201,140895,1,2,1:2:0:0:
373,345,141058,5,2,1:2:0:0:
339,235,141220,1,6,0:3:0:0:
295,319,141382,1,6,0:3:0:0:
220,226,141544,5,2,1:2:0:0:
149,268,141706,1,6,0:3:0:0:
95,239,141868,1,6,0:3:0:0:
41,162,142031,5,8,0:3:0:0:
41,162,142112,1,8,0:3:0:0:
41,162,142193,2,0,L|96:141,1,48.8750009322167,4|4,0:3|0:3,0:0:0:0:
145,78,142355,1,8,0:3:0:0:
145,78,142436,1,8,0:3:0:0:
145,78,142517,2,0,P|174:92|203:91,1,48.8750009322167,4|4,0:3|0:3,0:0:0:0:
285,76,142679,1,0,1:0:0:0:
306,65,142761,1,0,1:0:0:0:
321,47,142842,1,0,1:0:0:0:
328,23,142923,1,0,1:0:0:0:
325,0,143004,1,4,1:0:0:0:
256,192,157598,12,0,160193,0:0:0:0:
405,98,160517,5,6,0:3:0:0:
367,108,160841,1,4,0:3:0:0:
394,135,161166,1,4,0:3:0:0:
232,219,161490,1,4,0:3:0:0:
270,209,161814,1,4,0:3:0:0:
243,182,162139,1,4,0:3:0:0:
160,316,162301,1,0,1:0:0:0:
47,159,162463,5,6,0:3:0:0:
85,169,162787,1,4,0:3:0:0:
58,196,163112,1,4,0:3:0:0:
187,263,163436,1,4,0:3:0:0:
358,217,163598,1,0,1:0:0:0:
187,263,163922,1,4,0:3:0:0:
241,95,164085,1,0,1:0:0:0:
279,306,164247,1,4,0:3:0:0:
111,246,164409,5,6,0:3:0:0:
73,256,164733,1,4,0:3:0:0:
100,283,165058,1,4,0:3:0:0:
150,110,165382,1,4,1:3:0:0:
188,120,165706,1,4,0:3:0:0:
161,147,166031,1,4,0:3:0:0:
389,84,166193,1,0,1:0:0:0:
262,207,166355,5,6,0:3:0:0:
463,243,166517,1,4,0:3:0:0:
319,144,166679,2,0,L|303:39,1,101.999996887207,0|0,1:0|0:0,0:0:0:0:
292,282,167004,1,0,1:0:0:0:
177,165,167166,1,4,0:3:0:0:
162,143,167247,1,0,1:0:0:0:
159,117,167328,6,0,L|167:64,3,50.9999984436036,8|8|4|4,0:3|0:3|0:3|0:3,0:0:0:0:
78,233,167652,2,0,L|70:180,3,50.9999984436036,8|8|4|4,0:3|0:3|0:3|0:3,0:0:0:0:
159,349,167977,1,0,1:0:0:0:
194,361,168058,1,0,1:0:0:0:
232,361,168139,1,0,1:0:0:0:
268,349,168220,1,0,1:0:0:0:
298,325,168301,6,0,B|353:292|353:292|415:320|415:320|442:302|483:304,1,203.999993774414,6|0,0:3|1:0,0:0:0:0:
342,196,168787,2,0,P|322:160|325:96,1,101.999996887207,4|0,0:3|0:0,0:0:0:0:
420,0,169112,1,4,0:3:0:0:
259,52,169274,2,0,L|160:29,1,101.999996887207,0|4,1:0|0:3,0:0:0:0:
41,127,169598,2,0,P|110:107|148:121,1,101.999996887207,0|4,0:0|0:3,0:0:0:0:
231,268,169922,1,0,1:0:0:0:
272,92,170085,1,4,0:3:0:0:
314,295,170247,6,0,P|409:301|479:203,1,203.999993774414,6|0,0:3|1:0,0:0:0:0:
434,51,170733,2,0,P|407:112|407:159,1,101.999996887207,4|0,0:3|0:0,0:0:0:0:
253,14,171058,1,4,0:3:0:0:
331,174,171220,2,0,P|323:240|300:281,1,101.999996887207,0|4,1:0|0:3,0:0:0:0:
194,384,171544,2,0,P|167:323|167:276,1,101.999996887207,0|4,0:0|0:3,0:0:0:0:
246,132,171868,2,0,P|185:159|138:159,1,101.999996887207,0|4,1:0|0:3,0:0:0:0:
17,36,172193,6,0,B|83:52|83:52|141:32|141:32|186:63|234:46,1,203.999993774414,6|0,0:3|1:0,0:0:0:0:
455,15,172679,2,0,B|389:-1|389:-1|331:19|331:19|286:-12|238:5,1,203.999993774414,4|4,0:3|0:3,0:0:0:0:
150,160,173166,2,0,P|164:223|207:256,1,101.999996887207,0|0,1:0|0:0,0:0:0:0:
271,384,173490,2,0,P|318:340|325:286,1,101.999996887207,4|4,0:3|0:3,0:0:0:0:
404,167,173814,1,0,1:0:0:0:
366,158,173895,1,0,1:0:0:0:
329,149,173976,1,0,1:0:0:0:
292,140,174057,1,0,1:0:0:0:
262,138,174139,5,4,0:3:0:0:
262,138,174220,1,4,0:3:0:0:
262,138,174301,1,4,0:3:0:0:
410,66,174463,1,4,0:3:0:0:
409,65,174545,1,4,0:3:0:0:
409,65,174626,1,4,0:3:0:0:
327,237,174787,2,0,P|330:298|367:341,1,101.999996887207,0|0,1:0|0:0,0:0:0:0:
498,384,175112,6,0,L|510:330,2,50.9999984436036,4|4|4,0:3|0:3|0:3,0:0:0:0:
446,211,175436,2,0,L|458:265,2,50.9999984436036,0|0|4,1:0|0:0|0:3,0:0:0:0:
386,334,175760,1,2,0:0:0:0:
364,365,175841,1,2,0:0:0:0:
327,353,175923,1,2,0:0:0:0:
327,314,176004,1,2,0:0:0:0:
364,303,176084,5,6,0:3:0:0:
353,266,176408,1,4,0:3:0:0:
326,293,176733,1,4,0:3:0:0:
291,123,177058,1,4,0:3:0:0:
280,160,177382,1,4,0:3:0:0:
253,133,177707,1,4,0:3:0:0:
170,7,177868,1,0,1:0:0:0:
76,163,178031,5,6,0:3:0:0:
114,173,178355,1,4,0:3:0:0:
87,200,178680,1,4,0:3:0:0:
188,328,179004,1,4,0:3:0:0:
17,277,179166,1,0,1:0:0:0:
188,328,179490,1,4,0:3:0:0:
239,157,179652,1,0,1:0:0:0:
304,355,179814,1,4,0:3:0:0:
390,225,179977,5,6,0:3:0:0:
428,235,180301,1,4,0:3:0:0:
401,262,180625,1,4,0:3:0:0:
484,69,180949,1,4,1:3:0:0:
446,79,181273,1,4,0:3:0:0:
473,106,181597,1,4,0:3:0:0:
299,181,181760,1,0,1:0:0:0:
360,12,181922,5,6,0:3:0:0:
395,224,182085,1,4,0:3:0:0:
220,147,182247,2,0,P|185:195|200:257,1,101.999996887207,0|4,1:0|0:3,0:0:0:0:
277,384,182571,1,0,1:0:0:0:
110,317,182733,1,4,0:3:0:0:
316,266,182895,2,0,L|333:159,1,101.999996887207,6|4,0:3|0:3,0:0:0:0:
208,22,183220,2,0,P|190:84|212:130,1,101.999996887207,0|4,1:0|0:3,0:0:0:0:
289,275,183544,1,0,1:0:0:0:
103,186,183706,1,4,0:3:0:0:
296,79,183868,5,6,0:3:0:0:
296,79,184031,2,0,B|337:79|368:61|368:61|411:86|411:86|456:61|498:81,1,203.999993774414,4|4,0:3|0:3,0:0:0:0:
410,233,184517,2,0,L|397:335,1,101.999996887207,0|4,1:0|0:3,0:0:0:0:
277,118,184841,2,0,L|290:220,1,101.999996887207,4|4,0:3|0:3,0:0:0:0:
245,371,185166,2,0,P|212:342|155:337,1,101.999996887207,0|4,1:0|0:3,0:0:0:0:
27,238,185490,2,0,P|70:246|121:222,1,101.999996887207,0|4,1:0|0:3,0:0:0:0:
179,37,185814,5,6,0:3:0:0:
179,37,185977,2,0,L|192:139,1,101.999996887207,4|0,0:3|0:0,0:0:0:0:
272,304,186301,1,4,0:3:0:0:
272,304,186463,2,0,P|278:250|313:210,1,101.999996887207,0|4,1:0|0:3,0:0:0:0:
468,135,186787,2,0,B|400:120|400:120|339:140|339:140|270:125,2,203.999993774414,0|0|0,0:0|1:0|1:0,0:0:0:0:
499,265,187598,1,4,0:3:0:0:
429,379,187760,5,6,0:3:0:0:
429,379,187922,2,0,P|391:340|333:337,1,101.999996887207,4|0,0:3|0:0,0:0:0:0:
212,233,188247,1,4,0:3:0:0:
212,233,188409,2,0,P|174:272|116:275,1,101.999996887207,0|4,1:0|0:3,0:0:0:0:
0,176,188733,2,0,L|27:62,1,101.999996887207,4|0,0:3|0:0,0:0:0:0:
212,0,189058,2,0,L|185:114,1,101.999996887207,4|4,0:3|0:3,0:0:0:0:
129,278,189382,2,0,P|175:250|232:262,1,101.999996887207,0|4,1:0|0:3,0:0:0:0:
352,375,189706,6,0,P|333:319|423:207,1,203.999993774414,6|0,0:3|0:0,0:0:0:0:
493,55,190193,2,0,P|462:91|390:106,1,101.999996887207,4|0,0:3|0:0,0:0:0:0:
266,14,190517,1,4,0:3:0:0:
308,213,190679,1,0,1:0:0:0:
163,120,190841,1,4,0:3:0:0:
308,213,191004,1,0,1:0:0:0:
133,368,191328,1,4,0:3:0:0:
190,202,191490,1,0,1:0:0:0:
274,359,191652,6,0,P|366:383|460:324,1,203.999993774414,6|4,0:3|0:3,0:0:0:0:
256,192,192139,12,0,193436,0:0:0:0:
337,66,193598,5,4,0:3:0:0:
337,66,193679,1,4,0:3:0:0:
337,66,193760,1,4,0:3:0:0:
386,206,193922,1,4,0:3:0:0:
386,206,194004,1,4,0:3:0:0:
386,206,194085,1,4,0:3:0:0:
202,172,194247,1,0,1:0:0:0:
67,278,194571,5,4,0:3:0:0:
67,278,194652,1,4,0:3:0:0:
67,278,194733,1,4,0:3:0:0:
18,138,194895,1,4,0:3:0:0:
18,138,194977,1,4,0:3:0:0:
18,138,195058,1,4,0:3:0:0:
202,172,195220,1,0,1:0:0:0:
180,340,195382,1,0,1:0:0:0:
316,280,195544,5,4,0:3:0:0:
316,280,195625,1,4,0:3:0:0:
316,280,195706,1,4,0:3:0:0:
451,343,195868,1,4,0:3:0:0:
451,343,195949,1,4,0:3:0:0:
451,343,196031,1,4,0:3:0:0:
406,179,196193,2,0,L|426:151,6,21.25,0|0|0|0|0|0|0,1:0|0:0|0:0|0:0|0:0|0:0|0:0,0:0:0:0:
311,114,196517,5,4,0:3:0:0:
311,114,196598,1,4,0:3:0:0:
311,114,196679,1,4,0:3:0:0:
127,67,196841,1,0,1:0:0:0:
288,7,197004,1,4,0:3:0:0:
213,183,197166,1,0,1:0:0:0:
217,214,197247,1,0,1:0:0:0:
221,246,197328,1,0,1:0:0:0:
225,277,197409,1,0,1:0:0:0:
237,316,197490,5,4,0:3:0:0:
237,316,197571,1,4,0:3:0:0:
237,316,197652,1,4,0:3:0:0:
98,267,197814,1,4,0:3:0:0:
98,267,197895,1,4,0:3:0:0:
98,267,197977,1,4,0:3:0:0:
175,92,198139,1,0,1:0:0:0:
338,258,198463,5,4,0:3:0:0:
338,258,198544,1,4,0:3:0:0:
338,258,198625,1,4,0:3:0:0:
365,113,198787,1,4,0:3:0:0:
365,113,198868,1,4,0:3:0:0:
365,113,198950,1,4,0:3:0:0:
175,92,199112,1,0,1:0:0:0:
237,249,199274,1,0,1:0:0:0:
61,174,199436,5,4,0:3:0:0:
61,174,199517,1,4,0:3:0:0:
61,174,199598,1,4,0:3:0:0:
45,323,199760,1,4,0:3:0:0:
45,323,199841,1,4,0:3:0:0:
45,323,199922,1,4,0:3:0:0:
228,382,200085,1,0,1:0:0:0:
322,319,200247,1,0,0:0:0:0:
328,328,200328,1,0,0:0:0:0:
334,337,200409,6,0,L|357:347,6,21.25,4|0|4|0|4|0|4,0:3|0:0|0:3|0:0|0:3|0:0|0:3,0:0:0:0:
250,264,200733,1,0,1:0:0:0:
239,230,200814,1,0,1:0:0:0:
241,194,200895,1,4,0:3:0:0:
253,161,200976,1,4,0:3:0:0:
275,134,201057,1,8,0:3:0:0:
305,115,201138,1,8,0:3:0:0:
339,107,201220,2,0,L|399:122,1,42.5,0|0,1:0|0:0,0:0:0:0:
456,195,201382,5,12,0:3:0:0:
456,195,201544,2,0,P|418:218|361:204,1,85,4|4,0:3|0:3,0:0:0:0:
265,114,201868,1,4,0:3:0:0:
240,261,202031,1,0,0:0:0:0:
139,171,202193,1,4,0:3:0:0:
216,16,202355,2,0,P|250:37|310:36,1,85,2|0,1:3|0:0,0:0:0:0:
443,45,202679,2,0,P|407:63|378:116,1,85,6|0,0:3|0:0,0:0:0:0:
454,261,203004,1,2,1:3:0:0:
300,141,203166,1,0,1:0:0:0:
338,305,203328,5,12,0:3:0:0:
338,305,203490,2,0,P|302:294|245:300,1,85,0|4,0:0|0:3,0:0:0:0:
136,382,203814,1,0,1:0:0:0:
69,225,203977,1,0,0:0:0:0:
209,274,204139,1,4,0:3:0:0:
198,103,204300,5,2,1:3:0:0:
195,68,204463,1,0,0:0:0:0:
299,157,204625,5,2,1:3:0:0:
305,122,204788,1,0,0:0:0:0:
382,235,204949,5,2,1:3:0:0:
397,203,205112,1,0,0:0:0:0:
502,68,205274,6,0,L|481:157,2,85,12|0|4,0:3|0:0|0:3,0:0:0:0:
346,0,205760,1,4,0:3:0:0:
387,176,205922,1,0,1:0:0:0:
441,23,206085,1,4,0:3:0:0:
288,91,206247,2,0,P|249:92|195:71,1,85,6|0,0:3|0:0,0:0:0:0:
39,109,206571,2,0,P|78:108|132:129,1,85,2|4,1:3|0:3,0:0:0:0:
151,291,206895,1,2,1:3:0:0:
216,128,207058,1,0,1:0:0:0:
260,320,207220,5,0,1:0:0:0:
301,329,207301,1,0,1:0:0:0:
343,338,207382,1,0,1:0:0:0:
469,224,207544,1,0,1:0:0:0:
427,233,207625,1,0,1:0:0:0:
385,242,207706,1,0,1:0:0:0:
335,148,207868,1,4,0:3:0:0:
391,8,208031,1,2,0:0:0:0:
221,62,208193,5,2,0:0:0:0:
189,67,208274,1,2,0:0:0:0:
158,57,208355,1,2,0:0:0:0:
137,34,208436,1,2,0:0:0:0:
117,11,208517,1,2,0:0:0:0:
87,1,208598,1,2,0:0:0:0:
55,7,208679,2,0,P|35:20|17:39,1,42.5,2|0,0:0|0:0,0:0:0:0:
24,165,208841,6,0,B|56:171|63:183|62:204|62:204|76:179|87:151|85:105|85:105|100:132|122:135,1,204,4|0,0:0|2:0,0:0:0:0:
