osu file format v14

[General]
AudioFilename: audio.mp3
AudioLeadIn: 0
PreviewTime: 77107
Countdown: 0
SampleSet: Normal
StackLeniency: 0.7
Mode: 0
LetterboxInBreaks: 0
WidescreenStoryboard: 0

[Editor]
Bookmarks: 691,11357,24691,35357,46024,56691,67357,78024,88691,99357
DistanceSpacing: 1.3
BeatDivisor: 4
GridSize: 4
TimelineZoom: 2.899999

[Metadata]
Title:Vanity
TitleUnicode:Vanity
Artist:Powerless feat. kakichoco
ArtistUnicode:Powerless feat. kakichoco
Creator:Kyuukai
Version:cereal's Extra
Source:
Tags:kakiless 柿チョコ 無力P MuryokuP Comiket Odyssey Utaite worminators linada yaleufeu celerih realazy psionic naotoshi sotarks kin
BeatmapID:1382035
BeatmapSetID:651712

[Difficulty]
HPDrainRate:5.5
CircleSize:4.2
OverallDifficulty:9
ApproachRate:9.2
SliderMultiplier:1.82
SliderTickRate:1

[Events]
//Background and Video events
0,0,"Vanity_BG_2.jpg",0,0
//Break Periods
//Storyboard Layer 0 (Background)
//Storyboard Layer 1 (Fail)
//Storyboard Layer 2 (Pass)
//Storyboard Layer 3 (Foreground)
//Storyboard Sound Samples

[TimingPoints]
691,333.333333333333,4,1,2,50,1,0
691,-153.846153846153,4,1,2,50,0,0
1024,-153.846153846153,4,2,0,50,0,0
22024,-200,4,1,2,50,0,0
24690,-100,4,2,1,65,0,0
46024,-117.647058823529,4,2,1,65,0,0
67357,-133.333333333333,4,2,1,50,0,0
72690,-117.647058823529,4,2,1,55,0,0
74024,-105.263157894737,4,2,1,60,0,0
77190,-133.333333333333,4,2,1,50,0,0
78024,-83.3333333333333,4,2,1,80,0,1
80524,-83.3333333333333,4,2,1,70,0,0
80690,-83.3333333333333,4,2,1,80,0,1
83190,-83.3333333333333,4,2,1,70,0,0
83357,-83.3333333333333,4,2,1,80,0,1
88524,-83.3333333333333,4,2,1,70,0,0
88690,-83.3333333333333,4,2,1,80,0,1
91190,-83.3333333333333,4,2,1,70,0,0
91357,-83.3333333333333,4,2,1,80,0,1
93857,-83.3333333333333,4,2,1,70,0,0
94024,-83.3333333333333,4,2,1,80,0,1
96524,-83.3333333333333,4,2,1,70,0,0
96690,-83.3333333333333,4,1,2,80,0,1
96857,-83.3333333333333,4,1,2,70,0,0

[Colours]
Combo1 : 255,255,255
Combo2 : 255,255,128
Combo3 : 255,128,128
Combo4 : 192,192,192

[HitObjects]
389,145,691,5,4,0:0:0:0:
389,145,1024,2,0,L|330:153,1,59.149997292328,0|0,0:0|0:0,0:0:0:0:
263,118,1357,2,0,P|253:160|269:201,1,88.724995938492,2|0,0:0|0:0,0:0:0:0:
283,219,1690,2,0,L|282:278,1,59.149997292328,0|0,0:0|0:0,0:0:0:0:
231,337,2024,6,0,P|202:333|173:336,1,59.149997292328,0|0,0:0|0:0,0:0:0:0:
96,345,2357,1,0,0:0:0:0:
127,274,2524,2,0,L|138:216,1,59.149997292328,2|0,0:0|0:0,0:0:0:0:
37,119,2857,2,0,L|59:235,1,118.299994584656,2|0,0:0|0:0,0:0:0:0:
149,113,3357,5,0,0:0:0:0:
149,113,3690,2,0,L|207:106,1,59.149997292328,0|0,0:0|0:0,0:0:0:0:
271,61,4024,2,0,L|359:71,1,88.724995938492,2|0,0:0|0:0,0:0:0:0:
376,87,4357,2,0,P|368:115|369:144,1,59.149997292328,0|0,0:0|0:0,0:0:0:0:
295,241,4690,6,0,P|297:196|285:154,1,88.724995938492,2|0,0:0|0:0,0:0:0:0:
271,134,5024,1,0,0:0:0:0:
197,155,5190,2,0,P|139:148|101:105,1,118.299994584656,2|2,0:0|0:0,0:0:0:0:
203,17,5857,2,0,L|261:22,1,59.149997292328
341,45,6190,1,2,0:0:0:0:
340,44,6357,2,0,P|394:67|451:55,1,118.299994584656,2|2,0:0|0:0,0:0:0:0:
398,152,7190,6,0,P|378:208|395:264,1,118.299994584656,2|2,0:0|0:0,0:0:0:0:
444,323,7690,1,0,0:0:0:0:
378,363,7857,2,0,L|318:361,1,59.149997292328,0|2,0:0|0:0,0:0:0:0:
262,308,8190,2,0,L|143:310,1,118.299994584656
35,360,8690,5,0,0:0:0:0:
35,360,9024,2,0,L|29:301,1,59.149997292328,0|0,0:0|0:0,0:0:0:0:
89,253,9357,2,0,L|95:194,1,59.149997292328,2|0,0:0|0:0,0:0:0:0:
37,142,9690,2,0,L|31:83,1,59.149997292328,0|0,0:0|0:0,0:0:0:0:
84,26,10024,6,0,P|59:12|30:6,2,59.149997292328,0|0|0,0:0|0:0|0:0,0:0:0:0:
149,69,10524,2,0,L|208:58,1,59.149997292328,2|0,0:0|0:0,0:0:0:0:
304,159,10857,2,0,L|187:137,1,118.299994584656,2|0,0:0|0:0,0:0:0:0:
385,104,11357,5,0,0:0:0:0:
385,104,11690,2,0,L|392:171,1,59.149997292328,0|0,0:0|0:0,0:0:0:0:
340,221,12024,2,0,P|292:211|236:226,1,88.724995938492,2|0,0:0|0:0,0:0:0:0:
232,226,12357,2,0,L|224:296,1,59.149997292328,0|0,0:0|0:0,0:0:0:0:
159,375,12690,6,0,L|151:304,1,59.149997292328,2|0,0:0|0:0,0:0:0:0:
142,239,13024,1,0,0:0:0:0:
179,172,13190,2,0,L|185:103,1,59.149997292328,2|0,0:0|0:0,0:0:0:0:
258,225,13524,2,0,B|272:355,1,118.299994584656,2|0,0:0|0:0,0:0:0:0:
327,169,14024,5,0,0:0:0:0:
327,169,14358,2,0,L|405:160,1,59.149997292328,0|0,0:0|0:0,0:0:0:0:
500,107,14691,2,0,P|510:49|480:0,1,118.299994584656,2|0,0:0|0:0,0:0:0:0:
428,65,15190,1,0,0:0:0:0:
473,171,15357,6,0,L|363:159,1,88.724995938492,2|0,0:0|0:0,0:0:0:0:
363,160,15690,1,0,0:0:0:0:
382,281,15858,2,0,L|377:339,1,59.149997292328,2|0,0:0|0:0,0:0:0:0:
306,370,16190,2,0,L|301:312,1,59.149997292328,2|0,0:0|0:0,0:0:0:0:
283,177,16524,6,0,P|233:165|186:179,1,88.724995938492,2|0,0:0|0:0,0:0:0:0:
182,187,16857,1,0,0:0:0:0:
147,304,17024,1,0,0:0:0:0:
147,304,17357,2,0,L|274:290,1,118.299994584656,2|0,0:0|0:0,0:0:0:0:
324,243,17857,6,0,L|392:248,1,59.149997292328,2|0,0:0|0:0,0:0:0:0:
455,222,18190,1,2,0:0:0:0:
492,154,18357,2,0,P|496:122|486:82,1,59.149997292328,0|0,0:0|0:0,0:0:0:0:
414,159,18690,1,2,0:0:0:0:
414,159,18857,2,0,L|424:294,1,118.299994584656,2|2,0:0|0:0,0:0:0:0:
337,131,19357,5,0,0:0:0:0:
337,131,19691,2,0,L|263:123,1,59.149997292328,0|0,0:0|0:0,0:0:0:0:
211,79,20024,2,0,L|137:86,1,59.149997292328,2|0,0:0|0:0,0:0:0:0:
98,140,20358,6,0,P|94:171|98:198,2,59.149997292328,0|0|0,0:0|0:0|0:0,0:0:0:0:
67,69,20858,2,0,L|59:9,1,59.149997292328,2|0,0:0|0:0,0:0:0:0:
30,183,21190,1,0,0:0:0:0:
30,183,21357,2,0,P|107:145|98:230,1,207.024990523148,2|0,0:0|0:0,0:0:0:0:
74,239,22024,5,4,0:0:0:0:
256,192,22107,12,0,24024,0:0:0:0:
183,41,24357,5,0,0:0:0:0:
180,74,24440,1,0,0:0:0:0:
176,108,24524,1,0,0:0:0:0:
173,140,24607,1,0,0:0:0:0:
169,171,24690,6,0,P|212:247|308:238,1,182,4|0,0:0|0:0,0:0:0:0:
442,164,25190,1,8,0:0:0:0:
302,343,25357,2,0,L|211:343,1,91,2|0,0:0|0:0,0:0:0:0:
480,245,25690,2,0,L|298:245,1,182,8|0,0:0|0:0,0:0:0:0:
104,221,26190,5,8,0:0:0:0:
103,221,26357,2,0,P|116:178|105:134,1,91,2|0,0:0|0:0,0:0:0:0:
64,11,26690,1,8,0:0:0:0:
182,59,26857,2,0,B|273:56,1,91,2|0,0:0|0:0,0:0:0:0:
38,178,27190,1,8,0:0:0:0:
265,164,27357,6,0,B|309:144|353:164|353:164|397:184|441:164,1,182,4|0,0:0|0:0,0:0:0:0:
397,71,27857,1,8,0:0:0:0:
309,256,28024,2,0,L|300:346,1,91,2|0,0:0|0:0,0:0:0:0:
170,70,28357,2,0,L|187:251,1,182,8|0,0:0|0:0,0:0:0:0:
357,86,28857,5,8,0:0:0:0:
357,86,29024,2,0,P|313:96|269:86,1,91,2|0,0:0|0:0,0:0:0:0:
47,22,29357,1,8,0:0:0:0:
155,230,29524,2,0,L|145:48,1,182,2|0,0:0|0:0,0:0:0:0:
58,356,30024,6,0,P|129:303|216:320,1,182,4|0,0:0|0:0,0:0:0:0:
354,368,30524,1,8,0:0:0:0:
266,159,30690,2,0,P|272:203|256:245,1,91,2|0,0:0|0:0,0:0:0:0:
413,8,31024,2,0,P|399:96|431:180,1,182,8|0,0:0|0:0,0:0:0:0:
144,62,31524,5,0,0:0:0:0:
144,62,31690,2,0,L|235:62,1,91,8|2,0:0|0:0,0:0:0:0:
326,205,32024,1,8,0:0:0:0:
484,107,32190,2,0,L|393:107,1,91,2|0,0:0|0:0,0:0:0:0:
235,273,32524,1,8,0:0:0:0:
49,149,32690,6,0,P|133:180|220:159,1,182,4|0,0:0|0:0,0:0:0:0:
418,29,33190,1,8,0:0:0:0:
471,262,33357,1,8,0:0:0:0:
334,44,33524,1,8,0:0:0:0:
214,270,33690,6,0,P|141:321|55:300,1,182,4|0,0:0|0:0,0:0:0:0:
273,369,34190,1,8,0:0:0:0:
302,124,34357,1,2,0:0:0:0:
122,212,34524,1,2,0:0:0:0:
122,212,34690,1,2,0:0:0:0:
425,331,34857,5,8,0:0:0:0:
122,212,35024,1,8,0:0:0:0:
376,8,35190,1,8,0:0:0:0:
252,267,35357,6,0,P|250:195|185:103,1,182,4|0,0:0|0:0,0:0:0:0:
376,8,35857,1,8,0:0:0:0:
353,194,36024,2,0,P|347:239|353:285,1,91,2|0,0:0|0:0,0:0:0:0:
511,96,36357,2,0,B|419:65|419:124|332:96,1,182,8|0,0:0|0:0,0:0:0:0:
141,211,36857,5,8,0:0:0:0:
141,211,37025,2,0,P|132:256|137:301,1,91,2|0,0:0|0:0,0:0:0:0:
243,78,37357,1,8,0:0:0:0:
5,155,37524,2,0,P|52:163|96:152,1,91,2|0,0:0|0:0,0:0:0:0:
135,0,37857,1,8,0:0:0:0:
224,259,38024,6,0,B|244:58,1,182,4|0,0:0|0:0,0:0:0:0:
58,12,38524,1,8,0:0:0:0:
112,162,38691,2,0,P|118:212|106:260,1,91,2|0,0:0|0:0,0:0:0:0:
312,45,39024,2,0,P|367:27|500:53,1,182,8|0,0:0|0:0,0:0:0:0:
429,241,39524,5,8,0:0:0:0:
429,241,39691,2,0,L|419:331,1,91,2|0,0:0|0:0,0:0:0:0:
313,123,40024,1,8,0:0:0:0:
247,347,40191,2,0,P|330:313|418:330,1,182,2|0,0:0|0:0,0:0:0:0:
105,293,40691,6,0,L|83:100,1,182,4|0,0:0|0:0,0:0:0:0:
29,310,41190,1,8,0:0:0:0:
192,213,41357,2,0,P|199:255|190:304,1,91,2|0,0:0|0:0,0:0:0:0:
115,42,41691,2,0,B|163:28|163:28|294:42,1,182,8|0,0:0|0:0,0:0:0:0:
113,163,42191,5,8,0:0:0:0:
113,163,42358,2,0,P|69:174|25:164,1,91,2|0,0:0|0:0,0:0:0:0:
294,42,42691,1,8,0:0:0:0:
215,247,42857,2,0,P|208:300|217:358,1,91,2|0,0:0|0:0,0:0:0:0:
307,125,43191,1,8,0:0:0:0:
354,368,43357,1,4,0:0:0:0:
113,163,43524,6,0,L|103:72,1,91,8|0,0:0|0:0,0:0:0:0:
294,42,43857,1,0,0:0:0:0:
235,282,44024,1,8,0:0:0:0:
235,282,44191,1,2,0:0:0:0:
397,167,44357,1,4,0:0:0:0:
89,227,44524,6,0,P|57:141|100:55,1,182,8|0,0:0|0:0,0:0:0:0:
407,92,45024,1,8,0:0:0:0:
407,92,45191,1,2,0:0:0:0:
167,145,45357,1,8,0:0:0:0:
438,164,45524,1,8,0:0:0:0:
123,78,45690,1,8,0:0:0:0:
78,86,45773,1,8,0:0:0:0:
44,115,45856,1,8,0:0:0:0:
28,157,45940,1,8,0:0:0:0:
35,201,46023,5,4,0:0:0:0:
59,348,46190,1,2,0:0:0:0:
207,243,46357,2,0,L|131:260,1,77.3500014753342,0|0,0:0|0:0,0:0:0:0:
303,379,46690,2,0,P|281:326|296:271,1,116.025002213001,8|0,0:0|0:0,0:0:0:0:
311,252,47024,1,0,0:0:0:0:
449,280,47190,1,0,0:0:0:0:
293,149,47357,6,0,L|216:159,1,77.3500014753342,0|2,0:0|0:0,0:0:0:0:
115,76,47690,1,0,0:0:0:0:
216,159,47857,1,2,0:0:0:0:
32,177,48024,1,8,0:0:0:0:
131,259,48190,2,0,P|202:283|270:250,1,154.700002950668
460,356,48690,5,0,0:0:0:0:
460,356,48857,1,2,0:0:0:0:
361,249,49024,2,0,P|343:215|343:177,1,77.3500014753342,0|2,0:0|0:0,0:0:0:0:
231,369,49357,2,0,P|249:335|250:297,1,77.3500014753342,8|0,0:0|0:0,0:0:0:0:
195,170,49690,1,0,0:0:0:0:
176,315,49857,1,0,0:0:0:0:
80,160,50024,6,0,P|56:89|90:22,1,154.700002950668
151,97,50524,1,2,0:0:0:0:
0,208,50690,1,8,0:0:0:0:
115,246,50857,2,0,L|191:237,1,77.3500014753342
351,323,51190,2,0,L|427:314,1,77.3500014753342
229,349,51524,5,0,0:0:0:0:
274,190,51690,2,0,P|284:227|283:265,1,77.3500014753342,2|0,0:0|0:0,0:0:0:0:
47,298,52024,2,0,P|36:260|37:222,1,77.3500014753342,8|0,0:0|0:0,0:0:0:0:
124,35,52357,1,0,0:0:0:0:
124,35,52524,6,0,L|132:111,1,77.3500014753342,8|0,0:0|0:0,0:0:0:0:
144,313,52857,1,8,0:0:0:0:
236,202,53024,2,0,P|274:199|311:211,1,77.3500014753342,2|0,0:0|0:0,0:0:0:0:
507,122,53357,1,8,0:0:0:0:
507,122,53524,2,0,P|469:113|431:117,1,77.3500014753342,8|0,0:0|0:0,0:0:0:0:
239,64,53857,1,8,0:0:0:0:
391,198,54024,6,0,L|391:275,1,77.3500014753342,0|0,0:0|0:0,0:0:0:0:
485,379,54357,2,0,L|484:301,1,77.3500014753342,2|0,0:0|0:0,0:0:0:0:
291,358,54690,1,8,0:0:0:0:
216,240,54857,2,0,P|180:224|142:223,1,77.3500014753342,0|0,0:0|0:0,0:0:0:0:
3,293,55190,2,0,L|0:216,1,77.3500014753342,2|2,0:0|0:0,0:0:0:0:
82,77,55524,2,0,L|79:154,1,77.3500014753342,2|2,0:0|0:0,0:0:0:0:
3,315,55857,1,2,0:0:0:0:
204,162,56024,5,0,0:0:0:0:
316,384,56190,1,8,0:0:0:0:
106,329,56357,5,8,0:0:0:0:
423,314,56524,1,8,0:0:0:0:
142,223,56690,6,0,B|120:180|120:180|136:56,1,154.700002950668,4|2,0:0|0:0,0:0:0:0:
216,0,57190,1,0,0:0:0:0:
320,156,57357,2,0,P|250:146|192:168,1,116.025002213001,8|0,0:0|0:0,0:0:0:0:
190,175,57690,1,0,0:0:0:0:
218,351,57857,1,0,0:0:0:0:
263,227,58024,5,0,0:0:0:0:
62,350,58190,1,2,0:0:0:0:
62,350,58357,2,0,L|53:269,1,77.3500014753342,2|0,0:0|0:0,0:0:0:0:
161,153,58690,2,0,L|153:241,1,77.3500014753342,8|0,0:0|0:0,0:0:0:0:
0,99,59024,2,0,P|40:87|81:91,1,77.3500014753342,2|0,0:0|0:0,0:0:0:0:
339,230,59357,6,0,B|352:194|352:194|337:63,1,154.700002950668,0|2,0:0|0:0,0:0:0:0:
261,0,59857,1,0,0:0:0:0:
202,181,60024,2,0,P|237:194|275:189,1,77.3500014753342,8|0,0:0|0:0,0:0:0:0:
167,109,60357,2,0,P|128:101|80:113,1,77.3500014753342
61,212,60690,5,0,0:0:0:0:
249,113,60857,1,2,0:0:0:0:
249,113,61024,2,0,P|257:61|245:13,1,77.3500014753342,0|0,0:0|0:0,0:0:0:0:
194,259,61357,2,0,P|274:231|346:275,1,154.700002950668,8|0,0:0|0:0,0:0:0:0:
161,331,61857,1,8,0:0:0:0:
204,94,62024,6,0,L|192:-6,1,77.3500014753342,4|0,0:0|0:0,0:0:0:0:
134,164,62357,2,0,L|122:264,1,77.3500014753342,2|0,0:0|0:0,0:0:0:0:
344,160,62690,2,0,B|363:112|363:112|342:3,1,154.700002950668,8|0,0:0|0:0,0:0:0:0:
200,249,63190,6,0,L|362:231,1,154.700002950668,8|8,0:0|0:0,0:0:0:0:
270,98,63690,2,0,P|261:54|273:11,1,77.3500014753342,2|0,0:0|0:0,0:0:0:0:
405,0,64024,1,8,0:0:0:0:
357,249,64190,2,0,P|386:179|357:109,1,154.700002950668,2|8,0:0|0:0,0:0:0:0:
207,195,64690,6,0,P|243:181|282:179,1,77.3500014753342
488,206,65024,1,2,0:0:0:0:
376,39,65190,1,0,0:0:0:0:
391,271,65357,2,0,P|397:229|387:184,1,77.3500014753342,8|0,0:0|0:0,0:0:0:0:
290,85,65690,1,0,0:0:0:0:
290,85,65857,6,0,L|198:75,1,77.3500014753342,8|0,0:0|0:0,0:0:0:0:
112,252,66190,1,2,0:0:0:0:
260,185,66357,1,8,0:0:0:0:
83,64,66524,1,0,0:0:0:0:
204,286,66690,5,8,0:0:0:0:
240,298,66773,1,8,0:0:0:0:
278,298,66856,1,8,0:0:0:0:
314,285,66939,1,0,0:0:0:0:
344,261,67023,1,2,0:0:0:0:
364,228,67106,1,2,0:0:0:0:
372,190,67189,1,2,0:0:0:0:
366,152,67273,1,2,0:0:0:0:
348,116,67357,5,4,0:0:0:0:
348,116,68024,2,0,L|353:183,1,68.250002603531,0|0,0:0|0:0,0:0:0:0:
272,223,68357,2,0,L|277:155,1,68.250002603531,0|0,0:0|0:0,0:0:0:0:
430,155,68690,6,0,L|421:256,1,102.375003905296,0|0,0:0|0:0,0:0:0:0:
429,276,69024,1,0,0:0:0:0:
359,336,69190,2,0,P|295:354|232:330,1,136.500005207062
228,241,69690,1,0,0:0:0:0:
228,241,69857,1,0,0:0:0:0:
108,184,70024,6,0,L|39:183,2,68.250002603531
170,111,70524,1,0,0:0:0:0:
170,111,71190,6,0,P|237:107|291:67,1,136.500005207062
380,106,71690,1,0,0:0:0:0:
391,201,71857,1,0,0:0:0:0:
304,163,72024,1,0,0:0:0:0:
315,258,72190,2,0,P|370:294|437:284,1,136.500005207062,0|0,0:0|0:0,0:0:0:0:
292,68,72690,5,2,0:0:0:0:
291,91,73024,1,2,0:0:0:0:
290,114,73357,2,0,L|304:190,1,77.3500014753342,2|0,0:0|0:0,0:0:0:0:
216,297,73690,2,0,L|230:221,1,77.3500014753342,2|0,0:0|0:0,0:0:0:0:
135,87,74024,5,2,0:0:0:0:
141,220,74190,1,2,0:0:0:0:
127,76,74357,1,2,0:0:0:0:
133,209,74523,1,2,0:0:0:0:
218,11,74690,5,2,0:0:0:0:
212,144,74856,1,2,0:0:0:0:
226,0,75023,1,2,0:0:0:0:
220,133,75190,1,2,0:0:0:0:
381,49,75357,5,10,0:0:0:0:
119,65,75524,1,10,0:0:0:0:
127,76,77190,5,2,0:0:0:0:
127,76,77357,2,0,L|135:143,1,68.250002603531,2|0,0:0|0:0,0:0:0:0:
4,233,77690,2,0,L|12:165,1,68.250002603531,2|0,0:0|0:0,0:0:0:0:
228,56,78024,6,0,P|284:44|342:60,1,109.199996667481,4|0,0:0|0:0,0:0:0:0:
95,309,78357,2,0,L|82:200,1,109.199996667481,2|0,0:0|0:0,0:0:0:0:
333,55,78690,2,0,L|320:163,1,109.199996667481,8|0,0:0|0:0,0:0:0:0:
169,11,79024,1,0,0:0:0:0:
425,104,79190,6,0,P|460:222|414:319,1,218.399993334961,8|8,0:0|0:0,0:0:0:0:
153,352,79690,2,0,L|38:339,1,109.199996667481,8|0,0:0|0:0,0:0:0:0:
147,112,80024,1,8,0:0:0:0:
172,359,80190,1,2,0:0:0:0:
294,88,80357,1,2,0:0:0:0:
56,240,80524,1,8,0:0:0:0:
412,312,80690,6,0,L|418:202,1,109.199996667481,4|0,0:0|0:0,0:0:0:0:
158,164,81024,2,0,L|164:273,1,109.199996667481,2|0,0:0|0:0,0:0:0:0:
491,131,81357,2,0,P|390:107|317:181,1,218.399993334961
78,155,81857,6,0,P|181:142|245:225,1,218.399993334961,8|8,0:0|0:0,0:0:0:0:
402,76,82357,2,0,L|272:89,1,109.199996667481,8|0,0:0|0:0,0:0:0:0:
138,247,82690,1,8,0:0:0:0:
211,30,82857,1,2,0:0:0:0:
183,313,83024,1,8,0:0:0:0:
38,89,83190,1,8,0:0:0:0:
352,233,83357,6,0,L|488:213,1,109.199996667481,4|0,0:0|0:0,0:0:0:0:
237,33,83690,2,0,L|346:49,1,109.199996667481,8|0,0:0|0:0,0:0:0:0:
140,213,84024,2,0,B|177:102|106:102|139:0,1,218.399993334961,8|0,0:0|0:0,0:0:0:0:
352,233,84524,6,0,P|270:221|182:315,1,218.399993334961,8|2,0:0|0:0,0:0:0:0:
35,143,85024,2,0,L|47:24,1,109.199996667481,8|0,0:0|0:0,0:0:0:0:
11,278,85357,1,8,0:0:0:0:
11,278,85524,2,0,P|79:258|127:266,1,109.199996667481,8|0,0:0|0:0,0:0:0:0:
219,372,85857,1,8,0:0:0:0:
378,84,86024,6,0,B|273:47|273:126|166:83,1,218.399993334961,4|0,0:0|0:0,0:0:0:0:
321,154,86524,2,0,B|343:237|343:237|315:382,1,218.399993334961,2|0,0:0|0:0,0:0:0:0:
411,165,87024,1,8,0:0:0:0:
44,297,87190,6,0,P|18:217|63:85,1,218.399993334961,4|2,0:0|0:0,0:0:0:0:
360,112,87690,1,8,0:0:0:0:
147,192,87857,1,0,0:0:0:0:
450,57,88024,5,8,0:0:0:0:
466,108,88107,1,8,0:0:0:0:
455,161,88190,1,8,0:0:0:0:
420,202,88273,1,8,0:0:0:0:
369,220,88357,1,8,0:0:0:0:
316,211,88440,1,8,0:0:0:0:
274,177,88523,1,8,0:0:0:0:
254,127,88607,1,8,0:0:0:0:
261,73,88690,6,0,P|209:90|156:81,1,109.199996667481,4|0,0:0|0:0,0:0:0:0:
369,220,89024,2,0,P|422:211|473:228,1,109.199996667481,2|0,0:0|0:0,0:0:0:0:
234,371,89357,2,0,L|257:153,1,218.399993334961,8|0,0:0|0:0,0:0:0:0:
6,273,89857,6,0,P|59:277|108:254,1,109.199996667481,8|0,0:0|0:0,0:0:0:0:
260,70,90190,1,8,0:0:0:0:
372,291,90357,1,2,0:0:0:0:
251,213,90524,1,0,0:0:0:0:
379,145,90690,2,0,L|385:36,1,109.199996667481,8|0,0:0|0:0,0:0:0:0:
242,357,91024,1,2,0:0:0:0:
500,225,91190,1,8,0:0:0:0:
130,134,91357,6,0,L|21:127,1,109.199996667481,4|0,0:0|0:0,0:0:0:0:
242,357,91690,2,0,L|133:350,1,109.199996667481,2|0,0:0|0:0,0:0:0:0:
370,135,92024,2,0,P|383:188|373:241,1,109.199996667481,8|0,0:0|0:0,0:0:0:0:
143,325,92357,1,0,0:0:0:0:
483,262,92524,6,0,L|479:152,1,109.199996667481,8|0,0:0|0:0,0:0:0:0:
287,0,92857,1,2,0:0:0:0:
239,255,93024,1,8,0:0:0:0:
395,33,93190,1,0,0:0:0:0:
125,220,93357,2,0,P|122:274|142:324,1,109.199996667481,8|0,0:0|0:0,0:0:0:0:
41,69,93690,1,8,0:0:0:0:
6,253,93857,1,8,0:0:0:0:
220,11,94024,6,0,L|329:15,1,109.199996667481,4|0,0:0|0:0,0:0:0:0:
512,163,94357,2,0,L|402:167,1,109.199996667481,2|0,0:0|0:0,0:0:0:0:
219,314,94690,2,0,L|328:318,1,109.199996667481,8|0,0:0|0:0,0:0:0:0:
90,214,95024,1,0,0:0:0:0:
426,145,95190,6,0,P|434:91|417:39,1,109.199996667481,8|0,0:0|0:0,0:0:0:0:
219,314,95524,1,8,0:0:0:0:
318,99,95690,1,2,0:0:0:0:
391,268,95857,1,0,0:0:0:0:
38,330,96024,1,8,0:0:0:0:
158,120,96190,2,0,L|156:229,1,109.199996667481,0|2,0:0|0:0,0:0:0:0:
21,23,96524,1,8,0:0:0:0:
307,5,96690,5,4,0:0:0:0:
293,111,96857,1,0,0:0:0:0:
280,219,97024,1,0,0:0:0:0:
256,192,97107,12,4,99357,0:0:0:0:
